  0
SECTION
  2
HEADER
  9
$ACADVER
  1
AC1009
  9
$INSBASE
 10
0.0
 20
0.0
 30
0.0
  9
$EXTMIN
 10
-11.180073512979099
 20
-24.972457971134641
 30
0.0
  9
$EXTMAX
 10
34.858824380513923
 20
2.0
 30
0.0
  9
$LIMMIN
 10
-150.0
 20
-150.0
  9
$LIMMAX
 10
150.0
 20
150.0
  9
$ORTHOMODE
 70
     0
  9
$REGENMODE
 70
     1
  9
$FILLMODE
 70
     1
  9
$QTEXTMODE
 70
     0
  9
$MIRRTEXT
 70
     0
  9
$DRAGMODE
 70
     2
  9
$LTSCALE
 40
3.0
  9
$OSMODE
 70
   111
  9
$ATTMODE
 70
     1
  9
$TEXTSIZE
 40
3.5
  9
$TRACEWID
 40
1.0
  9
$TEXTSTYLE
  7
BESCHLAG
  9
$CLAYER
  8
0
  9
$CELTYPE
  6
BYLAYER
  9
$CECOLOR
 62
   256
  9
$DIMSCALE
 40
1.0
  9
$DIMASZ
 40
2.0
  9
$DIMEXO
 40
2.0
  9
$DIMDLI
 40
0.0
  9
$DIMRND
 40
0.0
  9
$DIMDLE
 40
1.0
  9
$DIMEXE
 40
1.0
  9
$DIMTP
 40
0.0
  9
$DIMTM
 40
0.0
  9
$DIMTXT
 40
3.5
  9
$DIMCEN
 40
0.0
  9
$DIMTSZ
 40
0.0
  9
$DIMTOL
 70
     0
  9
$DIMLIM
 70
     0
  9
$DIMTIH
 70
     0
  9
$DIMTOH
 70
     0
  9
$DIMSE1
 70
     0
  9
$DIMSE2
 70
     0
  9
$DIMTAD
 70
     1
  9
$DIMZIN
 70
     8
  9
$DIMBLK
  1

  9
$DIMASO
 70
     1
  9
$DIMSHO
 70
     1
  9
$DIMPOST
  1

  9
$DIMAPOST
  1

  9
$DIMALT
 70
     0
  9
$DIMALTD
 70
     2
  9
$DIMALTF
 40
0.039370078740157
  9
$DIMLFAC
 40
1.0
  9
$DIMTOFL
 70
     1
  9
$DIMTVP
 40
0.0
  9
$DIMTIX
 70
     1
  9
$DIMSOXD
 70
     0
  9
$DIMSAH
 70
     1
  9
$DIMBLK1
  1
OBLIQUE
  9
$DIMBLK2
  1
OBLIQUE
  9
$DIMSTYLE
  2
OPO-SSTRICH
  9
$DIMCLRD
 70
   256
  9
$DIMCLRE
 70
   256
  9
$DIMCLRT
 70
   256
  9
$DIMTFAC
 40
0.7114285714285716
  9
$DIMGAP
 40
1.0
  9
$LUNITS
 70
     2
  9
$LUPREC
 70
     1
  9
$SKETCHINC
 40
1.0
  9
$FILLETRAD
 40
0.0
  9
$AUNITS
 70
     0
  9
$AUPREC
 70
     1
  9
$MENU
  1
D:\ACL_CGWG\CGTAB13
  9
$ELEVATION
 40
0.0
  9
$PELEVATION
 40
0.0
  9
$THICKNESS
 40
0.0
  9
$LIMCHECK
 70
     0
  9
$BLIPMODE
 70
     0
  9
$CHAMFERA
 40
1.0
  9
$CHAMFERB
 40
1.0
  9
$SKPOLY
 70
     0
  9
$TDCREATE
 40
2451739.9005895481
  9
$TDUPDATE
 40
2452087.6380304391
  9
$TDINDWG
 40
0.0018639352
  9
$TDUSRTIMER
 40
0.00186375
  9
$USRTIMER
 70
     1
  9
$ANGBASE
 50
0.0
  9
$ANGDIR
 70
     0
  9
$PDMODE
 70
    35
  9
$PDSIZE
 40
5.0
  9
$PLINEWID
 40
0.0
  9
$COORDS
 70
     1
  9
$SPLFRAME
 70
     0
  9
$SPLINETYPE
 70
     6
  9
$SPLINESEGS
 70
     8
  9
$ATTDIA
 70
     1
  9
$ATTREQ
 70
     1
  9
$HANDLING
 70
-16383
  9
$HANDSEED
  5
4C0
  9
$SURFTAB1
 70
    12
  9
$SURFTAB2
 70
    12
  9
$SURFTYPE
 70
     6
  9
$SURFU
 70
    12
  9
$SURFV
 70
    12
  9
$UCSNAME
  2

  9
$UCSORG
 10
0.0
 20
0.0
 30
0.0
  9
$UCSXDIR
 10
1.0
 20
0.0
 30
0.0
  9
$UCSYDIR
 10
0.0
 20
1.0
 30
0.0
  9
$PUCSNAME
  2

  9
$PUCSORG
 10
0.0
 20
0.0
 30
0.0
  9
$PUCSXDIR
 10
1.0
 20
0.0
 30
0.0
  9
$PUCSYDIR
 10
0.0
 20
1.0
 30
0.0
  9
$USERI1
 70
     0
  9
$USERI2
 70
     0
  9
$USERI3
 70
     0
  9
$USERI4
 70
     0
  9
$USERI5
 70
     0
  9
$USERR1
 40
0.0
  9
$USERR2
 40
0.0
  9
$USERR3
 40
0.0
  9
$USERR4
 40
0.0
  9
$USERR5
 40
0.0
  9
$WORLDVIEW
 70
     1
  9
$SHADEDGE
 70
     3
  9
$SHADEDIF
 70
    70
  9
$TILEMODE
 70
     1
  9
$MAXACTVP
 70
    48
  9
$PLIMCHECK
 70
     0
  9
$PEXTMIN
 10
1.0000000000000000E+020
 20
1.0000000000000000E+020
 30
1.0000000000000000E+020
  9
$PEXTMAX
 10
-1.0000000000000000E+020
 20
-1.0000000000000000E+020
 30
-1.0000000000000000E+020
  9
$PLIMMIN
 10
0.0
 20
0.0
  9
$PLIMMAX
 10
420.0
 20
297.0
  9
$UNITMODE
 70
     0
  9
$VISRETAIN
 70
     1
  9
$PLINEGEN
 70
     0
  9
$PSLTSCALE
 70
     1
  0
ENDSEC
  0
SECTION
  2
TABLES
  0
TABLE
  2
VPORT
 70
     2
  0
VPORT
  2
*ACTIVE
 70
     0
 10
0.0
 20
0.0
 11
1.0
 21
1.0
 12
11.84463572204657
 22
-11.489867478946501
 13
0.0
 23
0.0
 14
0.5
 24
0.5
 15
10.0
 25
10.0
 16
0.0
 26
0.0
 36
1.0
 17
0.0
 27
0.0
 37
0.0
 40
28.814784875072949
 41
1.6070460704607039
 42
50.0
 43
0.0
 44
0.0
 50
0.0
 51
0.0
 71
     0
 72
   800
 73
     1
 74
     1
 75
     0
 76
     0
 77
     0
 78
     0
  0
ENDTAB
  0
TABLE
  2
LTYPE
 70
     2
  0
LTYPE
  2
CONTINUOUS
 70
     0
  3
_______________________________________________
 72
    65
 73
     2
 40
1.0
 49
1.0
 49
0.0
  0
LTYPE
  2
STRICHPUNKT
 70
     0
  3
__ . __ . __ . __ . __ . __ . __ . __ . __ . __
 72
    65
 73
     4
 40
1.0
 49
0.5
 49
-0.25
 49
0.0
 49
-0.25
  0
ENDTAB
  0
TABLE
  2
LAYER
 70
     7
  0
LAYER
  2
0
 70
     0
 62
    30
  6
CONTINUOUS
  0
LAYER
  2
1
 70
     0
 62
     2
  6
CONTINUOUS
  0
LAYER
  2
2
 70
     0
 62
     9
  6
CONTINUOUS
  0
LAYER
  2
4
 70
     1
 62
     4
  6
CONTINUOUS
  0
LAYER
  2
5
 70
     0
 62
     1
  6
CONTINUOUS
  0
LAYER
  2
6
 70
     0
 62
     3
  6
CONTINUOUS
  0
LAYER
  2
DEFPOINTS
 70
     0
 62
     7
  6
CONTINUOUS
  0
ENDTAB
  0
TABLE
  2
STYLE
 70
     2
  0
STYLE
  2
STANDARD
 70
     0
 40
0.0
 41
1.0
 50
0.0
 71
     0
 42
2.5
  3
txt
  4

  0
STYLE
  2
BESCHLAG
 70
     0
 40
0.0
 41
1.0
 50
0.0
 71
     0
 42
3.5
  3
txt
  4

  0
ENDTAB
  0
TABLE
  2
VIEW
 70
     0
  0
ENDTAB
  0
TABLE
  2
UCS
 70
     0
  0
ENDTAB
  0
TABLE
  2
APPID
 70
     1
  0
APPID
  2
ACAD
 70
     0
  0
ENDTAB
  0
TABLE
  2
DIMSTYLE
 70
     1
  0
DIMSTYLE
  2
OPO-SSTRICH
 70
     0
  3

  4

  5

  6
OBLIQUE
  7
OBLIQUE
 40
1.0
 41
2.0
 42
2.0
 43
0.0
 44
1.0
 45
0.0
 46
1.0
 47
0.0
 48
0.0
140
3.5
141
0.0
142
0.0
143
0.039370078740157
144
1.0
145
0.0
146
0.7114285714285716
147
1.0
 71
     0
 72
     0
 73
     0
 74
     0
 75
     0
 76
     0
 77
     1
 78
     8
170
     0
171
     2
172
     1
173
     1
174
     1
175
     0
176
   256
177
   256
178
   256
  0
ENDTAB
  0
ENDSEC
  0
SECTION
  2
BLOCKS
  0
BLOCK
  8
0
  2
$MODEL_SPACE
 70
     0
 10
0.0
 20
0.0
 30
0.0
  3
$MODEL_SPACE
  1

  0
ENDBLK
  5
1C
  8
0
  0
BLOCK
 67
     1
  8
0
  2
$PAPER_SPACE
 70
     0
 10
0.0
 20
0.0
 30
0.0
  3
$PAPER_SPACE
  1

  0
ENDBLK
  5
19
 67
     1
  8
0
  0
BLOCK
  8
0
  2
_OBLIQUE
 70
     0
 10
0.0
 20
0.0
 30
0.0
  3
_OBLIQUE
  1

  0
LINE
  5
204
  8
0
 62
     0
 10
-0.5
 20
-0.5
 30
0.0
 11
0.5
 21
0.5
 31
0.0
  0
ENDBLK
  5
206
  8
0
  0
BLOCK
  8
0
  2
NULLPUNKT
 70
     0
 10
0.0
 20
0.0
 30
0.0
  3
NULLPUNKT
  1

  0
SOLID
  5
254
  8
5
 10
0.0
 20
0.0
 30
0.0
 11
2.0
 21
0.0
 31
0.0
 12
0.0
 22
-2.0
 32
0.0
 13
0.0
 23
-2.0
 33
0.0
  0
SOLID
  5
255
  8
5
 10
0.0
 20
0.0
 30
0.0
 11
-2.0
 21
0.0
 31
0.0
 12
0.0
 22
2.0
 32
0.0
 13
0.0
 23
2.0
 33
0.0
  0
POLYLINE
  5
256
  8
5
 66
     1
 10
0.0
 20
0.0
 30
0.0
  0
VERTEX
  5
44B
  8
5
 10
0.0
 20
2.0
 30
0.0
  0
VERTEX
  5
44C
  8
5
 10
0.0
 20
-2.0
 30
0.0
  0
SEQEND
  5
44D
  8
5
  0
POLYLINE
  5
257
  8
5
 66
     1
 10
0.0
 20
0.0
 30
0.0
  0
VERTEX
  5
44E
  8
5
 10
-2.0
 20
0.0
 30
0.0
  0
VERTEX
  5
44F
  8
5
 10
2.0
 20
0.0
 30
0.0
  0
SEQEND
  5
450
  8
5
  0
CIRCLE
  5
258
  8
5
 10
0.0
 20
0.0
 30
0.0
 40
2.0
  0
ENDBLK
  5
25A
  8
0
  0
BLOCK
  8
0
  2
*X2
 70
     1
 10
0.0
 20
0.0
 30
0.0
  3
*X2
  1
REF-PKT.dwg
  0
LINE
  5
29E
  8
0
 62
     0
 10
1443.6384064034551
 20
227.38087863416391
 30
0.0
 11
1444.7023760276829
 21
228.4448482583916
 31
0.0
  0
ENDBLK
  5
2A0
  8
0
  0
BLOCK
  8
0
  2
*X3
 70
     1
 10
0.0
 20
0.0
 30
0.0
  3
*X3
  1
REF-PKT.dwg
  0
LINE
  5
2A2
  8
0
 62
     0
 10
1443.8950081212531
 20
217.7379854153501
 30
0.0
 11
1445.5004766671429
 21
219.3434539612401
 31
0.0
  0
LINE
  5
2A3
  8
0
 62
     0
 10
1446.758743637567
 20
220.60172093166381
 30
0.0
 11
1447.881299622268
 21
221.72427691636551
 31
0.0
  0
LINE
  5
2A4
  8
0
 62
     0
 10
1446.8019257310741
 20
222.05911658754459
 30
0.0
 11
1447.881299622268
 21
223.13849047873859
 31
0.0
  0
LINE
  5
2A5
  8
0
 62
     0
 10
1443.573940309388
 20
220.24534472823129
 30
0.0
 11
1444.981299622269
 21
221.6527040411122
 31
0.0
  0
LINE
  5
2A6
  8
0
 62
     0
 10
1446.8451078245821
 20
223.51651224342521
 30
0.0
 11
1447.9443090870659
 21
224.61571350590961
 31
0.0
  0
LINE
  5
2A7
  8
0
 62
     0
 10
1443.4668335282011
 20
221.55245150941781
 30
0.0
 11
1444.981299622269
 21
223.06691760348531
 31
0.0
  0
LINE
  5
2A8
  8
0
 62
     0
 10
1443.6597267470149
 20
223.15955829060439
 30
0.0
 11
1444.981299622269
 21
224.48113116585839
 31
0.0
  0
LINE
  5
2A9
  8
0
 62
     0
 10
1443.5526199658279
 20
224.46666507179091
 30
0.0
 11
1444.6059985395129
 21
225.52004364547551
 31
0.0
  0
LINE
  5
2AA
  8
0
 62
     0
 10
1445.309221683626
 20
217.7379854153501
 30
0.0
 11
1447.881299622268
 21
220.3100633539924
 31
0.0
  0
LINE
  5
2AB
  8
0
 62
     0
 10
1450.981299622269
 20
223.41006335399291
 30
0.0
 11
1452.309221683626
 21
224.7379854153501
 31
0.0
  0
LINE
  5
2AC
  8
0
 62
     0
 10
1446.7234352459991
 20
217.7379854153501
 30
0.0
 11
1448.3402500185559
 21
219.35480018790719
 31
0.0
  0
LINE
  5
2AD
  8
0
 62
     0
 10
1450.981299622269
 20
221.9958497916198
 30
0.0
 11
1452.381299622268
 21
223.39584979161941
 31
0.0
  0
LINE
  5
2AE
  8
0
 62
     0
 10
1448.137648808372
 20
217.7379854153501
 30
0.0
 11
1449.737648808373
 21
219.3379854153504
 31
0.0
  0
LINE
  5
2AF
  8
0
 62
     0
 10
1450.981299622269
 20
220.5816362292467
 30
0.0
 11
1452.381299622268
 21
221.98163622924631
 31
0.0
  0
LINE
  5
2B0
  8
0
 62
     0
 10
1449.5518623707451
 20
217.7379854153501
 30
0.0
 11
1452.381299622268
 21
220.5674226668732
 31
0.0
  0
LINE
  5
2B1
  8
0
 62
     0
 10
1451.09946407947
 20
217.87137356170169
 30
0.0
 11
1452.2479114759169
 21
219.0198209581485
 31
0.0
  0
ENDBLK
  5
2B3
  8
0
  0
BLOCK
  8
0
  2
*D4
 70
     1
 10
0.0
 20
0.0
 30
0.0
  3
*D4
  1

  0
LINE
  5
318
  8
1
 10
11.0
 20
-11.0
 30
0.0
 11
32.345793947739821
 21
-11.0
 31
0.0
  0
LINE
  5
319
  8
1
 10
2.0
 20
-0.0000000000000006
 30
0.0
 11
32.345793947739821
 21
-0.0000000000000092
 31
0.0
  0
LINE
  5
31A
  8
1
 10
31.345793947739811
 20
-12.0
 30
0.0
 11
31.345793947739821
 21
0.9999999999999911
 31
0.0
  0
INSERT
  5
31B
  8
1
  2
_OBLIQUE
 10
31.345793947739811
 20
-11.0
 30
0.0
 41
2.0
 42
2.0
 43
2.0
 50
270.0
  0
INSERT
  5
31C
  8
1
  2
_OBLIQUE
 10
31.345793947739821
 20
-0.0000000000000089
 30
0.0
 41
2.0
 42
2.0
 43
2.0
 50
90.0
  0
TEXT
  5
31D
  8
0
 10
30.338631601218669
 20
-8.0366643929058696
 30
0.0
 40
3.5
  1
11
 50
90.0
  7
BESCHLAG
  0
POINT
  5
31E
  8
DEFPOINTS
 62
     0
 10
9.0
 20
-11.0
 30
0.0
  0
POINT
  5
31F
  8
DEFPOINTS
 62
     0
 10
0.0
 20
0.0
 30
0.0
  0
POINT
  5
320
  8
DEFPOINTS
 62
     0
 10
31.345793947739821
 20
-0.0000000000000089
 30
0.0
  0
ENDBLK
  5
2F1
  8
0
  0
BLOCK
  8
0
  2
*D5
 70
     1
 10
0.0
 20
0.0
 30
0.0
  3
*D5
  1

  0
LINE
  5
321
  8
1
 10
11.0
 20
-4.0
 30
0.0
 11
21.565236374137381
 21
-4.0000000000000027
 31
0.0
  0
LINE
  5
322
  8
1
 10
2.0
 20
-0.0000000000000006
 30
0.0
 11
21.565236374137381
 21
-0.0000000000000061
 31
0.0
  0
LINE
  5
323
  8
1
 10
20.565236374137381
 20
-4.0000000000000027
 30
0.0
 11
20.565236374137381
 21
-6.0000000000000027
 31
0.0
  0
LINE
  5
324
  8
1
 10
20.565236374137381
 20
-0.0000000000000058
 30
0.0
 11
20.565236374137381
 21
1.9999999999999929
 31
0.0
  0
LINE
  5
325
  8
1
 10
20.565236374137381
 20
-4.0000000000000027
 30
0.0
 11
20.565236374137381
 21
-0.0000000000000058
 31
0.0
  0
INSERT
  5
326
  8
1
  2
_OBLIQUE
 10
20.565236374137381
 20
-4.0000000000000027
 30
0.0
 41
2.0
 42
2.0
 43
2.0
 50
90.0
  0
INSERT
  5
327
  8
1
  2
_OBLIQUE
 10
20.565236374137381
 20
-0.0000000000000058
 30
0.0
 41
2.0
 42
2.0
 43
2.0
 50
270.0
  0
TEXT
  5
328
  8
0
 10
19.565236374137381
 20
-3.2725102319236021
 30
0.0
 40
3.5
  1
4
 50
90.0
  7
BESCHLAG
  0
POINT
  5
329
  8
DEFPOINTS
 62
     0
 10
9.0
 20
-4.0
 30
0.0
  0
POINT
  5
32A
  8
DEFPOINTS
 62
     0
 10
0.0
 20
0.0
 30
0.0
  0
POINT
  5
32B
  8
DEFPOINTS
 62
     0
 10
20.565236374137381
 20
-0.0000000000000058
 30
0.0
  0
ENDBLK
  5
2FF
  8
0
  0
BLOCK
  8
0
  2
*D6
 70
     1
 10
0.0
 20
0.0
 30
0.0
  3
*D6
  1

  0
LINE
  5
32C
  8
1
 10
11.0
 20
-11.0
 30
0.0
 11
21.565236374137381
 21
-11.0
 31
0.0
  0
LINE
  5
32D
  8
1
 10
11.0
 20
-4.0
 30
0.0
 11
21.565236374137381
 21
-4.0000000000000027
 31
0.0
  0
LINE
  5
32E
  8
1
 10
20.565236374137381
 20
-12.0
 30
0.0
 11
20.565236374137381
 21
-3.0000000000000031
 31
0.0
  0
INSERT
  5
32F
  8
1
  2
_OBLIQUE
 10
20.565236374137381
 20
-11.0
 30
0.0
 41
2.0
 42
2.0
 43
2.0
 50
270.0
  0
INSERT
  5
330
  8
1
  2
_OBLIQUE
 10
20.565236374137381
 20
-4.0000000000000027
 30
0.0
 41
2.0
 42
2.0
 43
2.0
 50
90.0
  0
TEXT
  5
331
  8
0
 10
19.565236374137381
 20
-8.8644270122783073
 30
0.0
 40
3.5
  1
7
 50
90.0
  7
BESCHLAG
  0
POINT
  5
332
  8
DEFPOINTS
 62
     0
 10
9.0
 20
-11.0
 30
0.0
  0
POINT
  5
333
  8
DEFPOINTS
 62
     0
 10
9.0
 20
-4.0
 30
0.0
  0
POINT
  5
334
  8
DEFPOINTS
 62
     0
 10
20.565236374137381
 20
-4.0000000000000027
 30
0.0
  0
ENDBLK
  5
30B
  8
0
  0
BLOCK
  8
0
  2
*D7
 70
     1
 10
0.0
 20
0.0
 30
0.0
  3
*D7
  1

  0
LINE
  5
3FF
  8
1
 10
-0.0000000000000001
 20
-14.199999999999809
 30
0.0
 11
-0.0000000000000008
 21
-24.972457971134641
 31
0.0
  0
LINE
  5
400
  8
1
 10
9.0
 20
-13.0
 30
0.0
 11
9.0
 21
-24.972457971134641
 31
0.0
  0
LINE
  5
401
  8
1
 10
-1.0
 20
-23.972457971134641
 30
0.0
 11
10.0
 21
-23.972457971134641
 31
0.0
  0
INSERT
  5
402
  8
1
  2
_OBLIQUE
 10
-0.0000000000000007
 20
-23.972457971134641
 30
0.0
 41
2.0
 42
2.0
 43
2.0
 50
180.0
  0
INSERT
  5
403
  8
1
  2
_OBLIQUE
 10
9.0
 20
-23.972457971134641
 30
0.0
 41
2.0
 42
2.0
 43
2.0
  0
TEXT
  5
404
  8
0
 10
3.1463165075034101
 20
-22.90560940360395
 30
0.0
 40
3.5
  1
9
  7
BESCHLAG
  0
POINT
  5
405
  8
DEFPOINTS
 62
     0
 10
0.0
 20
-12.199999999999809
 30
0.0
  0
POINT
  5
406
  8
DEFPOINTS
 62
     0
 10
9.0
 20
-11.0
 30
0.0
  0
POINT
  5
407
  8
DEFPOINTS
 62
     0
 10
9.0
 20
-23.972457971134641
 30
0.0
  0
ENDBLK
  5
317
  8
0
  0
ENDSEC
  0
SECTION
  2
ENTITIES
  0
INSERT
  5
25B
  8
5
  2
NULLPUNKT
 10
0.0
 20
0.0
 30
0.0
  0
INSERT
  5
2D0
  8
2
  2
*X3
 10
-1443.381299622268
 20
-228.7379854153501
 30
0.0
1001
ACAD
1000
HATCH
1002
{
1070
    16
1000
_U,O
1040
1.0
1040
0.7853981633974483
1070
     0
1002
}
  0
INSERT
  5
2D1
  8
2
  2
*X2
 10
-1443.381299622268
 20
-228.7379854153501
 30
0.0
1001
ACAD
1000
HATCH
1002
{
1070
    16
1000
_U,O
1040
1.0
1040
0.7853981633974483
1070
     0
1002
}
  0
LINE
  5
2D2
  8
6
  6
STRICHPUNKT
 10
1.6000000000003629
 20
-3.1239964960875279
 30
0.0
 11
0.0196014647588072
 21
-3.5196014647586651
 31
0.0
  0
LINE
  5
2D3
  8
6
  6
STRICHPUNKT
 10
1.6000000000003629
 20
-1.062288487654143
 30
0.0
 11
0.2901658473108455
 21
-1.3901658473101
 31
0.0
  0
DIMENSION
  5
2D4
  8
1
  2
*D4
 10
31.345793947739821
 20
-0.0000000000000089
 30
0.0
 11
28.588631601218669
 21
-5.5000000000000018
 31
0.0
 70
     0
 13
9.0
 23
-11.0
 33
0.0
 14
0.0
 24
0.0
 34
0.0
 50
90.0
  0
DIMENSION
  5
2D5
  8
1
  2
*D5
 10
20.565236374137381
 20
-0.0000000000000058
 30
0.0
 11
17.815236374137381
 21
-2.0
 31
0.0
 70
     0
 13
9.0
 23
-4.0
 33
0.0
 14
0.0
 24
0.0
 34
0.0
 50
90.0
  0
DIMENSION
  5
2D6
  8
1
  2
*D6
 10
20.565236374137381
 20
-4.0000000000000027
 30
0.0
 11
17.815236374137381
 21
-7.4999999999999991
 31
0.0
 70
     0
 13
9.0
 23
-11.0
 33
0.0
 14
9.0
 24
-4.0
 34
0.0
 50
90.0
  0
DIMENSION
  5
2D7
  8
1
  2
*D7
 10
9.0
 20
-23.972457971134641
 30
0.0
 11
4.5
 21
-21.185452514108722
 31
0.0
 70
     0
 13
0.0
 23
-12.199999999999809
 33
0.0
 14
9.0
 24
-11.0
 34
0.0
  0
POINT
  5
2D9
  8
5
 10
6.050000000000181
 20
-4.0
 30
0.0
  0
POLYLINE
  5
2DA
  8
6
 66
     1
 10
0.0
 20
0.0
 30
0.0
 70
     1
  0
VERTEX
  5
451
  8
6
 10
6.050000000000181
 20
-8.4497289022071982
 30
0.0
 42
0.1858042863250297
  0
VERTEX
  5
452
  8
6
 10
6.4358873401104111
 20
-8.3012022379350583
 30
0.0
  0
VERTEX
  5
453
  8
6
 10
7.5762271857377073
 20
-7.1611178436928631
 30
0.0
  0
VERTEX
  5
454
  8
6
 10
7.5762271857377073
 20
-6.7651224314728324
 30
0.0
  0
VERTEX
  5
455
  8
6
 10
7.364726991645056
 20
-6.7651224314728324
 30
0.0
  0
VERTEX
  5
456
  8
6
 10
6.9946019794979293
 20
-7.0382346594254841
 30
0.0
  0
VERTEX
  5
457
  8
6
 10
6.9946019794979293
 20
-5.9448707249950976
 30
0.0
  0
VERTEX
  5
458
  8
6
 10
7.5497894977183932
 20
-5.5396074402378872
 30
0.0
  0
VERTEX
  5
459
  8
6
 10
7.5497894977183932
 20
-5.099561620886333
 30
0.0
  0
VERTEX
  5
45A
  8
6
 10
7.2942271452909599
 20
-5.099561620886333
 30
0.0
  0
VERTEX
  5
45B
  8
6
 10
6.8976644451247457
 20
-5.3374335560522459
 30
0.0
  0
VERTEX
  5
45C
  8
6
 10
6.8976644451247457
 20
-4.5761378291226711
 30
0.0
 42
-0.3143413491924476
  0
VERTEX
  5
45D
  8
6
 10
7.5497894977183932
 20
-3.971872745465816
 30
0.0
 42
0.0525802491828312
  0
VERTEX
  5
45E
  8
6
 10
9.3387274931158117
 20
-3.5386533786247578
 30
0.0
 42
0.2941899476925632
  0
VERTEX
  5
45F
  8
6
 10
10.12099991061268
 20
-1.799158450168761
 30
0.0
 42
0.2218808675059864
  0
VERTEX
  5
460
  8
6
 10
8.685520548397335
 20
-0.3148292503519769
 30
0.0
 42
0.1841430777102483
  0
VERTEX
  5
461
  8
6
 10
3.5712365598742499
 20
-0.9294109859408763
 30
0.0
 42
1.036550211925505
  0
VERTEX
  5
462
  8
6
 10
3.8073759464400601
 20
-1.3083723070037641
 30
0.0
 42
0.0623280433284819
  0
VERTEX
  5
463
  8
6
 10
5.6032788816730772
 20
-0.9666857620525206
 30
0.0
 42
-0.1908064339977625
  0
VERTEX
  5
464
  8
6
 10
8.5550225238066542
 20
-1.1468477285561669
 30
0.0
 42
-0.2498387444718729
  0
VERTEX
  5
465
  8
6
 10
9.0831649223448494
 20
-1.822215872986134
 30
0.0
 42
-0.5375006586226123
  0
VERTEX
  5
466
  8
6
 10
8.3429146797072917
 20
-2.8265638059463072
 30
0.0
 42
-0.0017648196310027
  0
VERTEX
  5
467
  8
6
 10
6.0340391984382222
 20
-2.756083220372147
 30
0.0
 42
0.0752540349745939
  0
VERTEX
  5
468
  8
6
 10
4.1041015103326108
 20
-3.1349161620971691
 30
0.0
 42
0.2750755003841435
  0
VERTEX
  5
469
  8
6
 10
3.575351461787931
 20
-3.734000974889113
 30
0.0
 42
0.4980642202224989
  0
VERTEX
  5
46A
  8
6
 10
3.7516014051882389
 20
-3.9278225029236178
 30
0.0
  0
VERTEX
  5
46B
  8
6
 10
4.6681015912261037
 20
-3.9278225029236178
 30
0.0
 42
-0.4033442221785025
  0
VERTEX
  5
46C
  8
6
 10
5.2023355548756172
 20
-4.6025447218009949
 30
0.0
  0
VERTEX
  5
46D
  8
6
 10
5.2023355548756172
 20
-5.3374335560522459
 30
0.0
  0
VERTEX
  5
46E
  8
6
 10
4.8057728547094021
 20
-5.099561620886333
 30
0.0
  0
VERTEX
  5
46F
  8
6
 10
4.5502105022819697
 20
-5.099561620886333
 30
0.0
  0
VERTEX
  5
470
  8
6
 10
4.5502105022819697
 20
-5.5396074402378872
 30
0.0
  0
VERTEX
  5
471
  8
6
 10
5.1053980205024336
 20
-5.9448707249950976
 30
0.0
  0
VERTEX
  5
472
  8
6
 10
5.1053980205024336
 20
-7.0382346594254841
 30
0.0
  0
VERTEX
  5
473
  8
6
 10
4.7352730083553061
 20
-6.7651224314728324
 30
0.0
  0
VERTEX
  5
474
  8
6
 10
4.5237728142626557
 20
-6.7651224314728324
 30
0.0
  0
VERTEX
  5
475
  8
6
 10
4.5237728142626557
 20
-7.1611178436928631
 30
0.0
  0
VERTEX
  5
476
  8
6
 10
5.6641126598897236
 20
-8.3012022379350583
 30
0.0
 42
0.1858042863250297
  0
SEQEND
  5
477
  8
6
  0
TEXT
  5
2DF
  8
1
 10
10.972399210220599
 20
-16.44277851466904
 30
0.0
 40
2.4999999499999999
  1
Hebgo 121/634
  0
POINT
  5
2E0
  8
5
 10
6.050000000000181
 20
-4.0
 30
0.0
  0
LINE
  5
2E1
  8
6
  6
STRICHPUNKT
 10
1.970104225985096
 20
-2.0004980939795578
 30
0.0
 11
-11.13946167585595
 21
-5.2820813732864726
 31
0.0
  0
POLYLINE
  5
2E2
  8
5
 66
     1
 10
0.0
 20
0.0
 30
0.0
  0
VERTEX
  5
478
  8
5
 10
-11.180073512979099
 20
-0.1999999999998181
 30
0.0
  0
VERTEX
  5
479
  8
5
 10
0.0
 20
-0.1999999999998181
 30
0.0
  0
VERTEX
  5
47A
  8
5
 10
0.0
 20
-12.199999999999809
 30
0.0
  0
VERTEX
  5
47B
  8
5
 10
-1.1858781571634149
 20
-12.199999999999809
 30
0.0
  0
SEQEND
  5
47C
  8
5
  0
LINE
  5
2E3
  8
5
 10
10.46368644475046
 20
0.0
 30
0.0
 11
-6.610132623859271
 21
0.0
 31
0.0
  0
POLYLINE
  5
2E4
  8
4
 66
     1
 10
0.0
 20
0.0
 30
0.0
 70
     1
  0
VERTEX
  5
47D
  8
4
 10
1.6000000000003629
 20
-0.1999999999998181
 30
0.0
  0
VERTEX
  5
47E
  8
4
 10
0.0
 20
-0.1999999999998181
 30
0.0
  0
VERTEX
  5
47F
  8
4
 10
0.0
 20
-11.0
 30
0.0
  0
VERTEX
  5
480
  8
4
 10
9.0
 20
-11.0
 30
0.0
  0
VERTEX
  5
481
  8
4
 10
9.0
 20
-4.0
 30
0.0
  0
VERTEX
  5
482
  8
4
 10
1.6000000000003629
 20
-4.0
 30
0.0
  0
SEQEND
  5
483
  8
4
  0
POLYLINE
  5
2E5
  8
6
 66
     1
 10
0.0
 20
0.0
 30
0.0
 70
     1
  0
VERTEX
  5
484
  8
6
 10
1.0
 20
-0.1999999999998181
 30
0.0
  0
VERTEX
  5
485
  8
6
 10
0.3000000000001819
 20
-0.1999999999998181
 30
0.0
  0
VERTEX
  5
486
  8
6
 10
0.0
 20
-0.5
 30
0.0
  0
VERTEX
  5
487
  8
6
 10
0.3000000000001819
 20
-0.7999999999992724
 30
0.0
  0
VERTEX
  5
488
  8
6
 10
0.0
 20
-1.0999999999994541
 30
0.0
  0
VERTEX
  5
489
  8
6
 10
0.3000000000001819
 20
-1.399999999999636
 30
0.0
  0
VERTEX
  5
48A
  8
6
 10
0.0
 20
-1.6999999999998181
 30
0.0
  0
VERTEX
  5
48B
  8
6
 10
0.3000000000001819
 20
-2.0
 30
0.0
  0
VERTEX
  5
48C
  8
6
 10
0.0
 20
-2.299999999999272
 30
0.0
  0
VERTEX
  5
48D
  8
6
 10
0.3000000000001819
 20
-2.5999999999994539
 30
0.0
  0
VERTEX
  5
48E
  8
6
 10
0.0
 20
-2.8999999999996362
 30
0.0
  0
VERTEX
  5
48F
  8
6
 10
0.3000000000001819
 20
-3.1999999999998181
 30
0.0
  0
VERTEX
  5
490
  8
6
 10
0.0
 20
-3.5
 30
0.0
  0
VERTEX
  5
491
  8
6
 10
0.3000000000001819
 20
-3.799999999999272
 30
0.0
  0
VERTEX
  5
492
  8
6
 10
0.0
 20
-4.0999999999994543
 30
0.0
  0
VERTEX
  5
493
  8
6
 10
0.3000000000001819
 20
-4.3999999999996362
 30
0.0
  0
VERTEX
  5
494
  8
6
 10
0.0
 20
-4.6999999999998181
 30
0.0
  0
VERTEX
  5
495
  8
6
 10
0.3000000000001819
 20
-5.0
 30
0.0
  0
VERTEX
  5
496
  8
6
 10
0.0
 20
-5.2999999999992724
 30
0.0
  0
VERTEX
  5
497
  8
6
 10
0.3000000000001819
 20
-5.5999999999994543
 30
0.0
  0
VERTEX
  5
498
  8
6
 10
0.0
 20
-5.8999999999996362
 30
0.0
  0
VERTEX
  5
499
  8
6
 10
0.3000000000001819
 20
-6.1999999999998181
 30
0.0
  0
VERTEX
  5
49A
  8
6
 10
0.0
 20
-6.5
 30
0.0
  0
VERTEX
  5
49B
  8
6
 10
0.3000000000001819
 20
-6.7999999999992724
 30
0.0
  0
VERTEX
  5
49C
  8
6
 10
0.0
 20
-7.0999999999994543
 30
0.0
  0
VERTEX
  5
49D
  8
6
 10
0.3000000000001819
 20
-7.3999999999996362
 30
0.0
  0
VERTEX
  5
49E
  8
6
 10
0.0
 20
-7.6999999999998181
 30
0.0
  0
VERTEX
  5
49F
  8
6
 10
0.3000000000001819
 20
-8.0
 30
0.0
  0
VERTEX
  5
4A0
  8
6
 10
0.0
 20
-8.2999999999992724
 30
0.0
  0
VERTEX
  5
4A1
  8
6
 10
0.3000000000001819
 20
-8.5999999999994543
 30
0.0
  0
VERTEX
  5
4A2
  8
6
 10
0.0
 20
-8.8999999999996362
 30
0.0
  0
VERTEX
  5
4A3
  8
6
 10
0.3000000000001819
 20
-9.1999999999998181
 30
0.0
  0
VERTEX
  5
4A4
  8
6
 10
0.0
 20
-9.5
 30
0.0
  0
VERTEX
  5
4A5
  8
6
 10
0.3000000000001819
 20
-9.7999999999992724
 30
0.0
  0
VERTEX
  5
4A6
  8
6
 10
0.0
 20
-10.099999999999451
 30
0.0
  0
VERTEX
  5
4A7
  8
6
 10
0.3000000000001819
 20
-10.399999999999631
 30
0.0
  0
VERTEX
  5
4A8
  8
6
 10
0.0
 20
-10.699999999999809
 30
0.0
  0
VERTEX
  5
4A9
  8
6
 10
0.3000000000001819
 20
-11.0
 30
0.0
  0
VERTEX
  5
4AA
  8
6
 10
7.0
 20
-11.0
 30
0.0
 42
0.4142135623730951
  0
VERTEX
  5
4AB
  8
6
 10
9.0
 20
-9.0
 30
0.0
  0
VERTEX
  5
4AC
  8
6
 10
9.0
 20
-4.0
 30
0.0
  0
VERTEX
  5
4AD
  8
6
 10
7.9000000000005448
 20
-4.0
 30
0.0
 42
0.4142135623730951
  0
VERTEX
  5
4AE
  8
6
 10
7.300000000000181
 20
-4.5999999999994543
 30
0.0
  0
VERTEX
  5
4AF
  8
6
 10
7.300000000000181
 20
-5.0
 30
0.0
  0
VERTEX
  5
4B0
  8
6
 10
7.6000000000003629
 20
-5.0
 30
0.0
  0
VERTEX
  5
4B1
  8
6
 10
7.6000000000003629
 20
-8.7999999999992724
 30
0.0
 42
-0.4142135623730951
  0
VERTEX
  5
4B2
  8
6
 10
7.0
 20
-9.3999999999996362
 30
0.0
  0
VERTEX
  5
4B3
  8
6
 10
5.1000000000003629
 20
-9.3999999999996362
 30
0.0
 42
-0.4142135623730951
  0
VERTEX
  5
4B4
  8
6
 10
4.5
 20
-8.7999999999992724
 30
0.0
  0
VERTEX
  5
4B5
  8
6
 10
4.5
 20
-5.0
 30
0.0
  0
VERTEX
  5
4B6
  8
6
 10
4.800000000000181
 20
-5.0
 30
0.0
  0
VERTEX
  5
4B7
  8
6
 10
4.800000000000181
 20
-4.5999999999994543
 30
0.0
 42
0.4142135623730951
  0
VERTEX
  5
4B8
  8
6
 10
4.2000000000007267
 20
-4.0
 30
0.0
  0
VERTEX
  5
4B9
  8
6
 10
3.5
 20
-4.0
 30
0.0
  0
VERTEX
  5
4BA
  8
6
 10
3.3572512598748281
 20
-8.8177699792231579
 30
0.0
 42
-0.4055641557130541
  0
VERTEX
  5
4BB
  8
6
 10
2.757514461071878
 20
-9.3999999999996362
 30
0.0
  0
VERTEX
  5
4BC
  8
6
 10
2.1999999999998181
 20
-9.3999999999996362
 30
0.0
 42
-0.4142135623730951
  0
VERTEX
  5
4BD
  8
6
 10
1.6000000000003629
 20
-8.7999999999992724
 30
0.0
  0
VERTEX
  5
4BE
  8
6
 10
1.6000000000003629
 20
-0.7999999999992724
 30
0.0
 42
0.4142135623730951
  0
SEQEND
  5
4BF
  8
6
  0
VIEWPORT
  5
22
 67
     1
  8
0
 10
210.0
 20
170.2366863905325
 30
0.0
 40
420.0
 41
340.47337278106511
 68
     1
 69
     1
1001
ACAD
1000
MVIEW
1002
{
1070
    16
1010
0.0
1020
0.0
1030
0.0
1010
0.0
1020
0.0
1030
1.0
1040
0.0
1040
340.47337278106511
1040
210.0
1040
170.2366863905325
1040
50.0
1040
0.0
1040
0.0
1070
     0
1070
   100
1070
     1
1070
     1
1070
     0
1070
     0
1070
     0
1070
     0
1040
0.0
1040
0.0
1040
0.0
1040
5.0
1040
5.0
1040
10.0
1040
10.0
1070
     0
1002
{
1002
}
1002
}
  0
ENDSEC
  0
EOF
