  0
SECTION
  2
HEADER
  9
$ACADVER
  1
AC1009
  9
$INSBASE
 10
0.0
 20
0.0
 30
0.0
  9
$EXTMIN
 10
-31.238523622267731
 20
-21.418681243881789
 30
0.0
  9
$EXTMAX
 10
14.96861957829128
 20
36.219172235607772
 30
0.0
  9
$LIMMIN
 10
-150.0
 20
-150.0
  9
$LIMMAX
 10
150.0
 20
150.0
  9
$ORTHOMODE
 70
     0
  9
$REGENMODE
 70
     1
  9
$FILLMODE
 70
     1
  9
$QTEXTMODE
 70
     0
  9
$MIRRTEXT
 70
     0
  9
$DRAGMODE
 70
     2
  9
$LTSCALE
 40
3.0
  9
$OSMODE
 70
   111
  9
$ATTMODE
 70
     1
  9
$TEXTSIZE
 40
2.5
  9
$TRACEWID
 40
1.0
  9
$TEXTSTYLE
  7
STANDARD
  9
$CLAYER
  8
0
  9
$CELTYPE
  6
BYLAYER
  9
$CECOLOR
 62
   256
  9
$DIMSCALE
 40
1.0
  9
$DIMASZ
 40
2.0
  9
$DIMEXO
 40
2.0
  9
$DIMDLI
 40
0.0
  9
$DIMRND
 40
0.0
  9
$DIMDLE
 40
1.0
  9
$DIMEXE
 40
1.0
  9
$DIMTP
 40
0.0
  9
$DIMTM
 40
0.0
  9
$DIMTXT
 40
3.5
  9
$DIMCEN
 40
0.0
  9
$DIMTSZ
 40
0.0
  9
$DIMTOL
 70
     0
  9
$DIMLIM
 70
     0
  9
$DIMTIH
 70
     0
  9
$DIMTOH
 70
     0
  9
$DIMSE1
 70
     0
  9
$DIMSE2
 70
     0
  9
$DIMTAD
 70
     1
  9
$DIMZIN
 70
     8
  9
$DIMBLK
  1

  9
$DIMASO
 70
     1
  9
$DIMSHO
 70
     1
  9
$DIMPOST
  1

  9
$DIMAPOST
  1

  9
$DIMALT
 70
     0
  9
$DIMALTD
 70
     2
  9
$DIMALTF
 40
0.039370078740157
  9
$DIMLFAC
 40
1.0
  9
$DIMTOFL
 70
     1
  9
$DIMTVP
 40
0.0
  9
$DIMTIX
 70
     1
  9
$DIMSOXD
 70
     0
  9
$DIMSAH
 70
     1
  9
$DIMBLK1
  1
OBLIQUE
  9
$DIMBLK2
  1
OBLIQUE
  9
$DIMSTYLE
  2
OPO-SSTRICH
  9
$DIMCLRD
 70
   256
  9
$DIMCLRE
 70
   256
  9
$DIMCLRT
 70
   256
  9
$DIMTFAC
 40
0.7114285714285716
  9
$DIMGAP
 40
1.0
  9
$LUNITS
 70
     2
  9
$LUPREC
 70
     1
  9
$SKETCHINC
 40
1.0
  9
$FILLETRAD
 40
0.0
  9
$AUNITS
 70
     0
  9
$AUPREC
 70
     1
  9
$MENU
  1
D:\ACL_CGWG\CGTAB13
  9
$ELEVATION
 40
0.0
  9
$PELEVATION
 40
0.0
  9
$THICKNESS
 40
0.0
  9
$LIMCHECK
 70
     0
  9
$BLIPMODE
 70
     0
  9
$CHAMFERA
 40
1.0
  9
$CHAMFERB
 40
1.0
  9
$SKPOLY
 70
     0
  9
$TDCREATE
 40
2451739.9048471758
  9
$TDUPDATE
 40
2452087.6432034951
  9
$TDINDWG
 40
0.002002338
  9
$TDUSRTIMER
 40
0.002002338
  9
$USRTIMER
 70
     1
  9
$ANGBASE
 50
0.0
  9
$ANGDIR
 70
     0
  9
$PDMODE
 70
    35
  9
$PDSIZE
 40
5.0
  9
$PLINEWID
 40
0.0
  9
$COORDS
 70
     1
  9
$SPLFRAME
 70
     0
  9
$SPLINETYPE
 70
     6
  9
$SPLINESEGS
 70
     8
  9
$ATTDIA
 70
     1
  9
$ATTREQ
 70
     1
  9
$HANDLING
 70
-16383
  9
$HANDSEED
  5
547
  9
$SURFTAB1
 70
    12
  9
$SURFTAB2
 70
    12
  9
$SURFTYPE
 70
     6
  9
$SURFU
 70
    12
  9
$SURFV
 70
    12
  9
$UCSNAME
  2

  9
$UCSORG
 10
0.0
 20
0.0
 30
0.0
  9
$UCSXDIR
 10
1.0
 20
0.0
 30
0.0
  9
$UCSYDIR
 10
0.0
 20
1.0
 30
0.0
  9
$PUCSNAME
  2

  9
$PUCSORG
 10
0.0
 20
0.0
 30
0.0
  9
$PUCSXDIR
 10
1.0
 20
0.0
 30
0.0
  9
$PUCSYDIR
 10
0.0
 20
1.0
 30
0.0
  9
$USERI1
 70
     0
  9
$USERI2
 70
     0
  9
$USERI3
 70
     0
  9
$USERI4
 70
     0
  9
$USERI5
 70
     0
  9
$USERR1
 40
0.0
  9
$USERR2
 40
0.0
  9
$USERR3
 40
0.0
  9
$USERR4
 40
0.0
  9
$USERR5
 40
0.0
  9
$WORLDVIEW
 70
     1
  9
$SHADEDGE
 70
     3
  9
$SHADEDIF
 70
    70
  9
$TILEMODE
 70
     1
  9
$MAXACTVP
 70
    48
  9
$PLIMCHECK
 70
     0
  9
$PEXTMIN
 10
1.0000000000000000E+020
 20
1.0000000000000000E+020
 30
1.0000000000000000E+020
  9
$PEXTMAX
 10
-1.0000000000000000E+020
 20
-1.0000000000000000E+020
 30
-1.0000000000000000E+020
  9
$PLIMMIN
 10
0.0
 20
0.0
  9
$PLIMMAX
 10
420.0
 20
297.0
  9
$UNITMODE
 70
     0
  9
$VISRETAIN
 70
     1
  9
$PLINEGEN
 70
     0
  9
$PSLTSCALE
 70
     1
  0
ENDSEC
  0
SECTION
  2
TABLES
  0
TABLE
  2
VPORT
 70
     2
  0
VPORT
  2
*ACTIVE
 70
     0
 10
0.0
 20
0.0
 11
1.0
 21
1.0
 12
-8.1367485785585174
 22
7.404328099689848
 13
0.0
 23
0.0
 14
0.5
 24
0.5
 15
10.0
 25
10.0
 16
0.0
 26
0.0
 36
1.0
 17
0.0
 27
0.0
 37
0.0
 40
58.123442451887463
 41
1.6070460704607039
 42
50.0
 43
0.0
 44
0.0
 50
0.0
 51
0.0
 71
     0
 72
   800
 73
     1
 74
     1
 75
     0
 76
     0
 77
     0
 78
     0
  0
ENDTAB
  0
TABLE
  2
LTYPE
 70
     2
  0
LTYPE
  2
CONTINUOUS
 70
     0
  3
_______________________________________________
 72
    65
 73
     2
 40
1.0
 49
1.0
 49
0.0
  0
LTYPE
  2
STRICHPUNKT
 70
     0
  3
__ . __ . __ . __ . __ . __ . __ . __ . __ . __
 72
    65
 73
     4
 40
1.0
 49
0.5
 49
-0.25
 49
0.0
 49
-0.25
  0
ENDTAB
  0
TABLE
  2
LAYER
 70
     7
  0
LAYER
  2
0
 70
     0
 62
    30
  6
CONTINUOUS
  0
LAYER
  2
1
 70
     0
 62
     2
  6
CONTINUOUS
  0
LAYER
  2
2
 70
     0
 62
     9
  6
CONTINUOUS
  0
LAYER
  2
4
 70
     1
 62
     4
  6
CONTINUOUS
  0
LAYER
  2
5
 70
     0
 62
     1
  6
CONTINUOUS
  0
LAYER
  2
6
 70
     0
 62
     3
  6
CONTINUOUS
  0
LAYER
  2
DEFPOINTS
 70
     0
 62
     7
  6
CONTINUOUS
  0
ENDTAB
  0
TABLE
  2
STYLE
 70
     2
  0
STYLE
  2
STANDARD
 70
     0
 40
0.0
 41
1.0
 50
0.0
 71
     0
 42
2.5
  3
txt
  4

  0
STYLE
  2
BESCHLAG
 70
     0
 40
0.0
 41
1.0
 50
0.0
 71
     0
 42
3.5
  3
txt
  4

  0
ENDTAB
  0
TABLE
  2
VIEW
 70
     0
  0
ENDTAB
  0
TABLE
  2
UCS
 70
     0
  0
ENDTAB
  0
TABLE
  2
APPID
 70
     1
  0
APPID
  2
ACAD
 70
     0
  0
ENDTAB
  0
TABLE
  2
DIMSTYLE
 70
     1
  0
DIMSTYLE
  2
OPO-SSTRICH
 70
     0
  3

  4

  5

  6
OBLIQUE
  7
OBLIQUE
 40
1.0
 41
2.0
 42
2.0
 43
0.0
 44
1.0
 45
0.0
 46
1.0
 47
0.0
 48
0.0
140
3.5
141
0.0
142
0.0
143
0.039370078740157
144
1.0
145
0.0
146
0.7114285714285716
147
1.0
 71
     0
 72
     0
 73
     0
 74
     0
 75
     0
 76
     0
 77
     1
 78
     8
170
     0
171
     2
172
     1
173
     1
174
     1
175
     0
176
   256
177
   256
178
   256
  0
ENDTAB
  0
ENDSEC
  0
SECTION
  2
BLOCKS
  0
BLOCK
  8
0
  2
$MODEL_SPACE
 70
     0
 10
0.0
 20
0.0
 30
0.0
  3
$MODEL_SPACE
  1

  0
ENDBLK
  5
1C
  8
0
  0
BLOCK
 67
     1
  8
0
  2
$PAPER_SPACE
 70
     0
 10
0.0
 20
0.0
 30
0.0
  3
$PAPER_SPACE
  1

  0
ENDBLK
  5
19
 67
     1
  8
0
  0
BLOCK
  8
0
  2
_OBLIQUE
 70
     0
 10
0.0
 20
0.0
 30
0.0
  3
_OBLIQUE
  1

  0
LINE
  5
204
  8
0
 62
     0
 10
-0.5
 20
-0.5
 30
0.0
 11
0.5
 21
0.5
 31
0.0
  0
ENDBLK
  5
206
  8
0
  0
BLOCK
  8
0
  2
NULLPUNKT
 70
     0
 10
0.0
 20
0.0
 30
0.0
  3
NULLPUNKT
  1

  0
SOLID
  5
254
  8
5
 10
0.0
 20
0.0
 30
0.0
 11
2.0
 21
0.0
 31
0.0
 12
0.0
 22
-2.0
 32
0.0
 13
0.0
 23
-2.0
 33
0.0
  0
SOLID
  5
255
  8
5
 10
0.0
 20
0.0
 30
0.0
 11
-2.0
 21
0.0
 31
0.0
 12
0.0
 22
2.0
 32
0.0
 13
0.0
 23
2.0
 33
0.0
  0
POLYLINE
  5
256
  8
5
 66
     1
 10
0.0
 20
0.0
 30
0.0
  0
VERTEX
  5
4A8
  8
5
 10
0.0
 20
2.0
 30
0.0
  0
VERTEX
  5
4A9
  8
5
 10
0.0
 20
-2.0
 30
0.0
  0
SEQEND
  5
4AA
  8
5
  0
POLYLINE
  5
257
  8
5
 66
     1
 10
0.0
 20
0.0
 30
0.0
  0
VERTEX
  5
4AB
  8
5
 10
-2.0
 20
0.0
 30
0.0
  0
VERTEX
  5
4AC
  8
5
 10
2.0
 20
0.0
 30
0.0
  0
SEQEND
  5
4AD
  8
5
  0
CIRCLE
  5
258
  8
5
 10
0.0
 20
0.0
 30
0.0
 40
2.0
  0
ENDBLK
  5
25A
  8
0
  0
BLOCK
  8
0
  2
*X2
 70
     1
 10
0.0
 20
0.0
 30
0.0
  3
*X2
  1

  0
LINE
  5
26C
  8
0
 62
     0
 10
1273.769962912294
 20
-120.64460958757731
 30
0.0
 11
1275.769962912294
 21
-118.64460958757731
 31
0.0
  0
LINE
  5
26D
  8
0
 62
     0
 10
1273.769962912294
 20
-119.2303960252042
 30
0.0
 11
1275.769962912294
 21
-117.2303960252042
 31
0.0
  0
LINE
  5
26E
  8
0
 62
     0
 10
1273.769962912294
 20
-117.81618246283109
 30
0.0
 11
1275.769962912294
 21
-115.81618246283099
 31
0.0
  0
LINE
  5
26F
  8
0
 62
     0
 10
1278.5734224571499
 20
-113.0127229179752
 30
0.0
 11
1279.9395764931139
 21
-111.6465688820108
 31
0.0
  0
LINE
  5
270
  8
0
 62
     0
 10
1273.769962912294
 20
-116.401968900458
 30
0.0
 11
1275.769962912294
 21
-114.4019689004579
 31
0.0
  0
LINE
  5
271
  8
0
 62
     0
 10
1279.8142570850021
 20
-110.3576747277497
 30
0.0
 11
1280.205722176853
 21
-109.9662096358992
 31
0.0
  0
LINE
  5
272
  8
0
 62
     0
 10
1277.6919959214811
 20
-112.479935891271
 30
0.0
 11
1279.0430010209459
 21
-111.1289307918057
 31
0.0
  0
LINE
  5
273
  8
0
 62
     0
 10
1273.769962912294
 20
-114.9877553380849
 30
0.0
 11
1275.769962912294
 21
-112.9877553380848
 31
0.0
  0
LINE
  5
274
  8
0
 62
     0
 10
1277.269962912294
 20
-111.4877553380849
 30
0.0
 11
1279.9808233146871
 21
-108.7768949356918
 31
0.0
  0
LINE
  5
275
  8
0
 62
     0
 10
1273.769962912294
 20
-113.5735417757118
 30
0.0
 11
1275.769962912294
 21
-111.5735417757118
 31
0.0
  0
LINE
  5
276
  8
0
 62
     0
 10
1276.734686426181
 20
-110.60881826182479
 30
0.0
 11
1278.7635687967349
 21
-108.57993589127101
 31
0.0
  0
LINE
  5
277
  8
0
 62
     0
 10
1273.7948483357491
 20
-112.1344427898832
 30
0.0
 11
1277.3244698109061
 21
-108.60482131472639
 31
0.0
  0
LINE
  5
278
  8
0
 62
     0
 10
1273.769962912294
 20
-122.0588231499504
 30
0.0
 11
1275.769962912294
 21
-120.0588231499504
 31
0.0
  0
LINE
  5
279
  8
0
 62
     0
 10
1273.769962912294
 20
-123.47303671232351
 30
0.0
 11
1276.7630637333459
 21
-120.4799358912711
 31
0.0
  0
LINE
  5
27A
  8
0
 62
     0
 10
1273.769962912294
 20
-124.8872502746966
 30
0.0
 11
1275.3199629122939
 21
-123.3372502746963
 31
0.0
  0
LINE
  5
27B
  8
0
 62
     0
 10
1278.386766197965
 20
-120.270446989025
 30
0.0
 11
1278.8411363729019
 21
-119.81607681408821
 31
0.0
  0
LINE
  5
27C
  8
0
 62
     0
 10
1276.3772772957191
 20
-122.27993589127099
 30
0.0
 11
1278.1793984068149
 21
-120.4778147801759
 31
0.0
  0
LINE
  5
27D
  8
0
 62
     0
 10
1273.769962912294
 20
-126.3014638370697
 30
0.0
 11
1275.3199629122939
 21
-124.75146383706939
 31
0.0
  0
LINE
  5
27E
  8
0
 62
     0
 10
1277.7914908580919
 20
-122.27993589127099
 30
0.0
 11
1280.008811405916
 21
-120.0626153434479
 31
0.0
  0
LINE
  5
27F
  8
0
 62
     0
 10
1273.769962912294
 20
-127.7156773994428
 30
0.0
 11
1275.3199629122939
 21
-126.1656773994425
 31
0.0
  0
LINE
  5
280
  8
0
 62
     0
 10
1278.719962912294
 20
-122.7656773994425
 30
0.0
 11
1279.979910242228
 21
-121.5057300695083
 31
0.0
  0
LINE
  5
281
  8
0
 62
     0
 10
1274.348692203288
 20
-128.5511616708219
 30
0.0
 11
1275.3199179828389
 21
-127.57993589127101
 31
0.0
  0
LINE
  5
282
  8
0
 62
     0
 10
1278.719962912294
 20
-124.1798909618156
 30
0.0
 11
1279.93345051347
 21
-122.96640336063921
 31
0.0
  0
LINE
  5
283
  8
0
 62
     0
 10
1278.719962912294
 20
-125.59410452418869
 30
0.0
 11
1280.013209105842
 21
-124.30085833064081
 31
0.0
  0
LINE
  5
284
  8
0
 62
     0
 10
1278.719962912294
 20
-127.0083180865618
 30
0.0
 11
1280.0929676982139
 21
-125.6353133006423
 31
0.0
  0
LINE
  5
285
  8
0
 62
     0
 10
1278.6671439849749
 20
-128.4753505762539
 30
0.0
 11
1280.1727262905849
 21
-126.9697682706439
 31
0.0
  0
LINE
  5
286
  8
0
 62
     0
 10
1279.978038955624
 20
-128.57866916797789
 30
0.0
 11
1280.249232635276
 21
-128.30747548832611
 31
0.0
  0
ENDBLK
  5
288
  8
0
  0
BLOCK
  8
0
  2
*D3
 70
     1
 10
0.0
 20
0.0
 30
0.0
  3
*D3
  1

  0
LINE
  5
45C
  8
1
 10
-8.5
 20
0.0000000000000006
 30
0.0
 11
-18.617341231462881
 21
0.0000000000000034
 31
0.0
  0
LINE
  5
45D
  8
1
 10
-9.7298721847314482
 20
-19.00000000000022
 30
0.0
 11
-18.617341231462891
 21
-19.00000000000022
 31
0.0
  0
LINE
  5
45E
  8
1
 10
-17.617341231462881
 20
1.0000000000000031
 30
0.0
 11
-17.617341231462891
 21
-20.00000000000022
 31
0.0
  0
INSERT
  5
45F
  8
1
  2
_OBLIQUE
 10
-17.617341231462881
 20
0.0000000000000031
 30
0.0
 41
2.0
 42
2.0
 43
2.0
 50
90.0
  0
INSERT
  5
460
  8
1
  2
_OBLIQUE
 10
-17.617341231462891
 20
-19.00000000000022
 30
0.0
 41
2.0
 42
2.0
 43
2.0
 50
270.0
  0
TEXT
  5
461
  8
0
 10
-18.684189798993579
 20
-12.3780695770806
 30
0.0
 40
3.5
  1
19
 50
90.0
  7
BESCHLAG
  0
POINT
  5
462
  8
DEFPOINTS
 62
     0
 10
-6.5
 20
0.0
 30
0.0
  0
POINT
  5
463
  8
DEFPOINTS
 62
     0
 10
-7.7298721847314482
 20
-19.00000000000022
 30
0.0
  0
POINT
  5
464
  8
DEFPOINTS
 62
     0
 10
-17.617341231462891
 20
-19.00000000000022
 30
0.0
  0
ENDBLK
  5
330
  8
0
  0
BLOCK
  8
0
  2
*D4
 70
     1
 10
0.0
 20
0.0
 30
0.0
  3
*D4
  1

  0
LINE
  5
36C
  8
1
 10
-8.5
 20
0.0000000000000006
 30
0.0
 11
-18.617341231462891
 21
0.0000000000000034
 31
0.0
  0
LINE
  5
36D
  8
1
 10
-2.0
 20
20.0
 30
0.0
 11
-18.617341231462881
 21
20.0
 31
0.0
  0
LINE
  5
36E
  8
1
 10
-17.617341231462891
 20
-0.9999999999999968
 30
0.0
 11
-17.617341231462881
 21
21.0
 31
0.0
  0
INSERT
  5
36F
  8
1
  2
_OBLIQUE
 10
-17.617341231462891
 20
0.0000000000000031
 30
0.0
 41
2.0
 42
2.0
 43
2.0
 50
270.0
  0
INSERT
  5
370
  8
1
  2
_OBLIQUE
 10
-17.617341231462881
 20
20.0
 30
0.0
 41
2.0
 42
2.0
 43
2.0
 50
90.0
  0
TEXT
  5
371
  8
0
 10
-18.684189798993579
 20
7.326057298772171
 30
0.0
 40
3.5
  1
20
 50
90.0
  7
BESCHLAG
  0
POINT
  5
372
  8
DEFPOINTS
 62
     0
 10
-6.5
 20
0.0
 30
0.0
  0
POINT
  5
373
  8
DEFPOINTS
 62
     0
 10
0.0
 20
20.0
 30
0.0
  0
POINT
  5
374
  8
DEFPOINTS
 62
     0
 10
-17.617341231462881
 20
20.0
 30
0.0
  0
ENDBLK
  5
33C
  8
0
  0
BLOCK
  8
0
  2
*D7
 70
     1
 10
0.0
 20
0.0
 30
0.0
  3
*D7
  1

  0
LINE
  5
387
  8
1
 10
-6.4999999999997717
 20
18.0
 30
0.0
 11
-6.4999999999997708
 21
31.72599351800886
 31
0.0
  0
LINE
  5
388
  8
1
 10
0.0000000000000001
 20
22.0
 30
0.0
 11
0.0000000000000007
 21
31.72599351800886
 31
0.0
  0
LINE
  5
389
  8
1
 10
-6.4999999999997708
 20
30.72599351800886
 30
0.0
 11
-8.4999999999997726
 21
30.72599351800886
 31
0.0
  0
LINE
  5
38A
  8
1
 10
0.0000000000000007
 20
30.72599351800886
 30
0.0
 11
2.0
 21
30.72599351800886
 31
0.0
  0
LINE
  5
38B
  8
1
 10
-6.4999999999997708
 20
30.72599351800886
 30
0.0
 11
0.0000000000000007
 21
30.72599351800886
 31
0.0
  0
INSERT
  5
38C
  8
1
  2
_OBLIQUE
 10
-6.4999999999997708
 20
30.72599351800886
 30
0.0
 41
2.0
 42
2.0
 43
2.0
  0
INSERT
  5
38D
  8
1
  2
_OBLIQUE
 10
0.0000000000000007
 20
30.72599351800886
 30
0.0
 41
2.0
 42
2.0
 43
2.0
 50
180.0
  0
TEXT
  5
38E
  8
0
 10
-6.6425648021826946
 20
31.792842085539551
 30
0.0
 40
3.5
  1
6.5
  7
BESCHLAG
  0
POINT
  5
38F
  8
DEFPOINTS
 62
     0
 10
-6.4999999999997717
 20
16.0
 30
0.0
  0
POINT
  5
390
  8
DEFPOINTS
 62
     0
 10
0.0
 20
20.0
 30
0.0
  0
POINT
  5
391
  8
DEFPOINTS
 62
     0
 10
0.0000000000000007
 20
30.72599351800886
 30
0.0
  0
ENDBLK
  5
362
  8
0
  0
ENDSEC
  0
SECTION
  2
ENTITIES
  0
INSERT
  5
25B
  8
5
  2
NULLPUNKT
 10
0.0
 20
0.0
 30
0.0
  0
DIMENSION
  5
2F9
  8
1
  2
*D3
 10
-17.617341231462891
 20
-19.00000000000022
 30
0.0
 11
-20.404346688488811
 21
-9.5000000000001101
 31
0.0
 70
     0
 13
-6.5
 23
0.0
 33
0.0
 14
-7.7298721847314482
 24
-19.00000000000022
 34
0.0
 50
90.0
  0
POLYLINE
  5
2FA
  8
5
 66
     1
 10
0.0
 20
0.0
 30
0.0
  0
VERTEX
  5
4AE
  8
5
 10
8.5069530240189124
 20
-21.418681243881789
 30
0.0
 42
0.2057234760520394
  0
VERTEX
  5
4AF
  8
5
 10
-15.00695302401823
 20
-21.418681243881789
 30
0.0
  0
SEQEND
  5
4B0
  8
5
  0
TEXT
  5
2FB
  8
1
 10
-31.238523622267731
 20
22.17028282747264
 30
0.0
 40
2.4999999499999999
  1
Hebgo 126/757
  0
POLYLINE
  5
2FC
  8
6
 66
     1
 10
0.0
 20
0.0
 30
0.0
 70
     1
  0
VERTEX
  5
4B1
  8
6
 10
-3.726380421708654
 20
8.7273822692550311
 30
0.0
  0
VERTEX
  5
4B2
  8
6
 10
-2.5059520906847861
 20
8.2999999999998408
 30
0.0
  0
VERTEX
  5
4B3
  8
6
 10
-1.8972764410309531
 20
9.30639303703731
 30
0.0
  0
VERTEX
  5
4B4
  8
6
 10
0.0
 20
9.30639303703731
 30
0.0
  0
VERTEX
  5
4B5
  8
6
 10
0.0
 20
14.89360696296273
 30
0.0
  0
VERTEX
  5
4B6
  8
6
 10
-1.8972764410309531
 20
14.89360696296273
 30
0.0
  0
VERTEX
  5
4B7
  8
6
 10
-2.5059520906847861
 20
15.900000000000199
 30
0.0
  0
VERTEX
  5
4B8
  8
6
 10
-3.726380421708654
 20
15.472617730745011
 30
0.0
  0
VERTEX
  5
4B9
  8
6
 10
-3.726380421708654
 20
12.100000000000019
 30
0.0
  0
SEQEND
  5
4BA
  8
6
  0
POINT
  5
2FD
  8
5
 10
0.0
 20
12.100000000000019
 30
0.0
  0
POLYLINE
  5
2FE
  8
6
 66
     1
 10
0.0
 20
0.0
 30
0.0
  0
VERTEX
  5
4BB
  8
6
 10
-2.7710176984105601
 20
9.9761664421862406
 30
0.0
  0
VERTEX
  5
4BC
  8
6
 10
-3.476380421708654
 20
9.3000000000000682
 30
0.0
  0
VERTEX
  5
4BD
  8
6
 10
-3.6763804217086991
 20
9.3000000000000682
 30
0.0
  0
VERTEX
  5
4BE
  8
6
 10
-3.6763804217086991
 20
15.100000000000019
 30
0.0
  0
VERTEX
  5
4BF
  8
6
 10
-3.476380421708654
 20
15.100000000000019
 30
0.0
  0
VERTEX
  5
4C0
  8
6
 10
-2.7710176984105601
 20
14.32506811701443
 30
0.0
 42
0.142709741532141
  0
SEQEND
  5
4C1
  8
6
  0
INSERT
  5
2FF
  8
2
  2
*X2
 10
-1280.269962912294
 20
128.57993589127099
 30
0.0
1001
ACAD
1000
HATCH
1002
{
1070
    16
1000
_U,I
1040
1.0
1040
0.7853981633974483
1070
     0
1002
}
  0
POLYLINE
  5
300
  8
5
 66
     1
 10
0.0
 20
0.0
 30
0.0
  0
VERTEX
  5
4C2
  8
5
 10
0.0
 20
26.861891709695271
 30
0.0
  0
VERTEX
  5
4C3
  8
5
 10
0.0
 20
-6.0
 30
0.0
  0
VERTEX
  5
4C4
  8
5
 10
8.7108980838622756
 20
-6.0
 30
0.0
  0
SEQEND
  5
4C5
  8
5
  0
POINT
  5
301
  8
5
 10
0.0
 20
12.100000000000019
 30
0.0
  0
DIMENSION
  5
302
  8
1
  2
*D4
 10
-17.617341231462881
 20
20.0
 30
0.0
 11
-20.404346688488811
 21
10.0
 31
0.0
 70
     0
 13
-6.5
 23
0.0
 33
0.0
 14
0.0
 24
20.0
 34
0.0
 50
90.0
  0
POINT
  5
306
  8
5
 10
0.0
 20
12.100000000000019
 30
0.0
  0
POLYLINE
  5
307
  8
6
 66
     1
 10
0.0
 20
0.0
 30
0.0
 70
     1
  0
VERTEX
  5
4C6
  8
6
 10
-0.319463553724745
 20
0.0
 30
0.0
  0
VERTEX
  5
4C7
  8
6
 10
-1.2100000000000359
 20
0.0
 30
0.0
 42
-0.4142135623730901
  0
VERTEX
  5
4C8
  8
6
 10
-2.0
 20
0.7899999999999637
 30
0.0
  0
VERTEX
  5
4C9
  8
6
 10
-2.0
 20
0.7999999999999546
 30
0.0
 42
-0.4142135623730951
  0
VERTEX
  5
4CA
  8
6
 10
-1.7999999999997269
 20
1.0
 30
0.0
  0
VERTEX
  5
4CB
  8
6
 10
-1.5499999999997269
 20
1.0
 30
0.0
  0
VERTEX
  5
4CC
  8
6
 10
-1.5499999999997269
 20
6.0
 30
0.0
 42
0.4142135623730951
  0
VERTEX
  5
4CD
  8
6
 10
-1.8499999999999091
 20
6.2999999999999536
 30
0.0
  0
VERTEX
  5
4CE
  8
6
 10
-4.6499999999998627
 20
6.2999999999999536
 30
0.0
 42
0.4142135623730951
  0
VERTEX
  5
4CF
  8
6
 10
-4.9499999999998181
 20
6.0
 30
0.0
  0
VERTEX
  5
4D0
  8
6
 10
-4.9499999999998181
 20
1.0
 30
0.0
  0
VERTEX
  5
4D1
  8
6
 10
-4.6999999999998181
 20
1.0
 30
0.0
 42
-0.4142135623730951
  0
VERTEX
  5
4D2
  8
6
 10
-4.5
 20
0.7999999999999546
 30
0.0
  0
VERTEX
  5
4D3
  8
6
 10
-4.5
 20
0.7899999999999637
 30
0.0
 42
-0.4142135623730951
  0
VERTEX
  5
4D4
  8
6
 10
-5.2899999999999627
 20
0.0
 30
0.0
  0
VERTEX
  5
4D5
  8
6
 10
-5.7100000000000364
 20
0.0
 30
0.0
 42
-0.4142135623730951
  0
VERTEX
  5
4D6
  8
6
 10
-6.5
 20
0.7899999999999637
 30
0.0
  0
VERTEX
  5
4D7
  8
6
 10
-6.5
 20
16.0
 30
0.0
 42
-0.4142135623730951
  0
VERTEX
  5
4D8
  8
6
 10
-2.5
 20
20.0
 30
0.0
  0
VERTEX
  5
4D9
  8
6
 10
-0.4891164776242931
 20
20.0
 30
0.0
 42
-0.6714695952603508
  0
VERTEX
  5
4DA
  8
6
 10
-0.3489860204697379
 20
19.657299421943431
 30
0.0
  0
VERTEX
  5
4DB
  8
6
 10
-0.3799999999998818
 20
19.62684402233026
 30
0.0
  0
VERTEX
  5
4DC
  8
6
 10
-0.079039560614774
 20
19.398281638800881
 30
0.0
 42
-0.5128473494945071
  0
VERTEX
  5
4DD
  8
6
 10
-0.087635891900618
 20
19.073554665430031
 30
0.0
  0
VERTEX
  5
4DE
  8
6
 10
-0.3799999999998818
 20
18.875
 30
0.0
  0
VERTEX
  5
4DF
  8
6
 10
-0.0759167182900455
 20
18.624152245098681
 30
0.0
 42
-0.640016886991525
  0
VERTEX
  5
4E0
  8
6
 10
-0.1684573482968972
 20
18.272910820535571
 30
0.0
  0
VERTEX
  5
4E1
  8
6
 10
-2.0698463103929039
 20
17.937644645696761
 30
0.0
  0
VERTEX
  5
4E2
  8
6
 10
-0.1016315800313805
 20
16.801295341299461
 30
0.0
 42
-0.5866121572054289
  0
VERTEX
  5
4E3
  8
6
 10
-0.1064625766553036
 20
16.452184431200969
 30
0.0
  0
VERTEX
  5
4E4
  8
6
 10
-0.3799999999998818
 20
16.30419454329785
 30
0.0
  0
VERTEX
  5
4E5
  8
6
 10
-0.0987533511956826
 20
16.143824938419812
 30
0.0
 42
-0.6730833256522799
  0
VERTEX
  5
4E6
  8
6
 10
-0.1476358916029312
 20
15.77648401594478
 30
0.0
  0
VERTEX
  5
4E7
  8
6
 10
-1.4526957749058049
 20
15.43818442352608
 30
0.0
 42
-0.3371805774911301
  0
VERTEX
  5
4E8
  8
6
 10
-1.6760864392163051
 20
15.531785578489909
 30
0.0
  0
VERTEX
  5
4E9
  8
6
 10
-1.9464101615135401
 20
16.0
 30
0.0
 42
0.2679491924311163
  0
VERTEX
  5
4EA
  8
6
 10
-2.1196152422705832
 20
16.099999999999898
 30
0.0
  0
VERTEX
  5
4EB
  8
6
 10
-2.6999999999998181
 20
16.099999999999898
 30
0.0
 42
-0.4142135623730951
  0
VERTEX
  5
4EC
  8
6
 10
-3.0
 20
16.400000000000091
 30
0.0
  0
VERTEX
  5
4ED
  8
6
 10
-3.0
 20
17.259999999999991
 30
0.0
 42
0.4142135623730951
  0
VERTEX
  5
4EE
  8
6
 10
-3.7399999999997808
 20
18.0
 30
0.0
  0
VERTEX
  5
4EF
  8
6
 10
-3.7599999999997631
 20
18.0
 30
0.0
 42
0.4142135623730943
  0
VERTEX
  5
4F0
  8
6
 10
-4.5
 20
17.259999999999991
 30
0.0
  0
VERTEX
  5
4F1
  8
6
 10
-4.5
 20
12.72243215124422
 30
0.0
  0
VERTEX
  5
4F2
  8
6
 10
-4.9828423624280731
 20
12.241736012074851
 30
0.0
 42
0.4155189665304489
  0
VERTEX
  5
4F3
  8
6
 10
-4.9828423624280731
 20
11.958263987925189
 30
0.0
  0
VERTEX
  5
4F4
  8
6
 10
-4.5
 20
11.477567848755591
 30
0.0
  0
VERTEX
  5
4F5
  8
6
 10
-4.5
 20
8.4000000000000892
 30
0.0
 42
0.4142135623730964
  0
VERTEX
  5
4F6
  8
6
 10
-4.1999999999998181
 20
8.0999999999999091
 30
0.0
  0
VERTEX
  5
4F7
  8
6
 10
-2.1196152422703558
 20
8.0999999999999091
 30
0.0
 42
0.2679491924311188
  0
VERTEX
  5
4F8
  8
6
 10
-1.9464101615135401
 20
8.2000000000000455
 30
0.0
  0
VERTEX
  5
4F9
  8
6
 10
-1.6725504623054801
 20
8.6743389131738695
 30
0.0
 42
-0.3245440347879519
  0
VERTEX
  5
4FA
  8
6
 10
-1.4580290020796829
 20
8.7700247756872614
 30
0.0
  0
VERTEX
  5
4FB
  8
6
 10
-0.1586836205308373
 20
8.4956858625132554
 30
0.0
 42
-0.6761679143041793
  0
VERTEX
  5
4FC
  8
6
 10
-0.0945593075471152
 20
8.1300521833766197
 30
0.0
  0
VERTEX
  5
4FD
  8
6
 10
-0.3799999999998818
 20
7.9529562673217242
 30
0.0
  0
VERTEX
  5
4FE
  8
6
 10
-0.0743295188794946
 20
7.7054291904710217
 30
0.0
 42
-0.4769755326981806
  0
VERTEX
  5
4FF
  8
6
 10
-0.0743295188794946
 20
7.3945708058881792
 30
0.0
  0
VERTEX
  5
500
  8
6
 10
-0.3799999999998818
 20
7.1470437326781839
 30
0.0
  0
VERTEX
  5
501
  8
6
 10
-0.0743295188794946
 20
6.899516660005701
 30
0.0
 42
-0.4769755326981546
  0
VERTEX
  5
502
  8
6
 10
-0.0743295188794946
 20
6.5886582754228584
 30
0.0
  0
VERTEX
  5
503
  8
6
 10
-0.3799999999998818
 20
6.3411311980348719
 30
0.0
  0
VERTEX
  5
504
  8
6
 10
-0.0200552999224328
 20
0.3188334159142414
 30
0.0
 42
-0.4327349346905139
  0
SEQEND
  5
505
  8
6
  0
POLYLINE
  5
308
  8
4
 66
     1
 10
0.0
 20
0.0
 30
0.0
 70
     1
  0
VERTEX
  5
506
  8
4
 10
-6.4999999999997717
 20
16.0
 30
0.0
  0
VERTEX
  5
507
  8
4
 10
-6.5
 20
0.0
 30
0.0
  0
VERTEX
  5
508
  8
4
 10
0.0
 20
0.0
 30
0.0
  0
VERTEX
  5
509
  8
4
 10
0.0
 20
20.0
 30
0.0
  0
VERTEX
  5
50A
  8
4
 10
-2.4999999999997722
 20
20.0
 30
0.0
 42
0.4142135623730951
  0
SEQEND
  5
50B
  8
4
  0
POLYLINE
  5
30C
  8
6
 66
     1
 10
0.0
 20
0.0
 30
0.0
  0
VERTEX
  5
50C
  8
6
 10
-1.4008099136797221
 20
-18.773066383679861
 30
0.0
 42
-0.0291558466228751
  0
VERTEX
  5
50D
  8
6
 10
-3.6633075576160081
 20
1.4494331061639509
 30
0.0
 42
0.1327522819770013
  0
VERTEX
  5
50E
  8
6
 10
-4.058069156699502
 20
3.7630160462574622
 30
0.0
 42
-0.5922717439205512
  0
VERTEX
  5
50F
  8
6
 10
-3.25
 20
5.2374032127520422
 30
0.0
 42
-0.5922717439206635
  0
VERTEX
  5
510
  8
6
 10
-2.4419308433004971
 20
3.763016046257234
 30
0.0
 42
0.1328113523651923
  0
VERTEX
  5
511
  8
6
 10
-2.8365932993503971
 20
1.4483934843813131
 30
0.0
 42
0.0506083937020611
  0
VERTEX
  5
512
  8
6
 10
-0.1008099136797682
 20
-18.773066383679861
 30
0.0
  0
SEQEND
  5
513
  8
6
  0
POLYLINE
  5
30D
  8
6
 66
     1
 10
0.0
 20
0.0
 30
0.0
  0
VERTEX
  5
514
  8
6
 10
-1.9208099136797041
 20
-18.773066383679861
 30
0.0
 42
-0.0180664712111431
  0
VERTEX
  5
515
  8
6
 10
-3.9432730853159219
 20
1.4633024457443751
 30
0.0
 42
0.1324695894867593
  0
VERTEX
  5
516
  8
6
 10
-4.3049542246001229
 20
3.629705934920139
 30
0.0
 42
-0.5867084866790316
  0
VERTEX
  5
517
  8
6
 10
-3.25
 20
5.5174032127520141
 30
0.0
 42
-0.5867084866791127
  0
VERTEX
  5
518
  8
6
 10
-2.1950457753998762
 20
3.6297059349199108
 30
0.0
 42
0.132607238862008
  0
VERTEX
  5
519
  8
6
 10
-2.556503042341546
 20
1.461031223654345
 30
0.0
 42
0.0613697108295767
  0
VERTEX
  5
51A
  8
6
 10
0.4191900863202136
 20
-18.773066383679861
 30
0.0
  0
SEQEND
  5
51B
  8
6
  0
POLYLINE
  5
30E
  8
6
 66
     1
 10
0.0
 20
0.0
 30
0.0
  0
VERTEX
  5
51C
  8
6
 10
-0.9894712956404418
 20
-18.773066383679861
 30
0.0
 42
-0.0337916250904843
  0
VERTEX
  5
51D
  8
6
 10
-3.3833310487984809
 20
1.4360757050067141
 30
0.0
 42
0.1331579098238507
  0
VERTEX
  5
51E
  8
6
 10
-3.8127018816508089
 20
3.8994155208258681
 30
0.0
 42
-0.600780471392009
  0
VERTEX
  5
51F
  8
6
 10
-3.25
 20
4.9574032127520686
 30
0.0
 42
-0.600780471392009
  0
VERTEX
  5
520
  8
6
 10
-2.6872981183489619
 20
3.8994155208258681
 30
0.0
 42
0.1331579098238511
  0
VERTEX
  5
521
  8
6
 10
-3.1166689512012899
 20
1.436075705006487
 30
0.0
 42
0.0451936090438102
  0
VERTEX
  5
522
  8
6
 10
-0.5187283340310387
 20
-18.773066383679861
 30
0.0
  0
SEQEND
  5
523
  8
6
  0
LINE
  5
30F
  8
6
  6
STRICHPUNKT
 10
-4.2973804217087936
 20
12.100000000000019
 30
0.0
 11
14.96861957829128
 21
12.100000000000019
 31
0.0
  0
CIRCLE
  5
311
  8
6
 10
-3.25
 20
4.2787699097189034
 30
0.0
 40
0.5425533030331441
  0
POLYLINE
  5
312
  8
6
 66
     1
 10
0.0
 20
0.0
 30
0.0
 70
     1
  0
VERTEX
  5
524
  8
6
 10
-4.0953969203983434
 20
1.2269336163201381
 30
0.0
  0
VERTEX
  5
525
  8
6
 10
-4.4047210809380877
 20
1.2269336163201381
 30
0.0
 42
-0.4142135623730951
  0
VERTEX
  5
526
  8
6
 10
-4.8205210809383061
 20
1.6427336163203561
 30
0.0
  0
VERTEX
  5
527
  8
6
 10
-4.8205210809383061
 20
5.5842000000000089
 30
0.0
 42
-0.4142135623730951
  0
VERTEX
  5
528
  8
6
 10
-4.4047210809380877
 20
6.0
 30
0.0
  0
VERTEX
  5
529
  8
6
 10
-2.0952789190616841
 20
6.0
 30
0.0
 42
-0.4142135623730951
  0
VERTEX
  5
52A
  8
6
 10
-1.679478919061693
 20
5.5842000000000089
 30
0.0
  0
VERTEX
  5
52B
  8
6
 10
-1.679478919061693
 20
1.6427336163203561
 30
0.0
 42
-0.4142135623730951
  0
VERTEX
  5
52C
  8
6
 10
-2.0952789190616841
 20
1.2269336163201381
 30
0.0
  0
VERTEX
  5
52D
  8
6
 10
-2.4046030796014288
 20
1.2269336163201381
 30
0.0
  0
VERTEX
  5
52E
  8
6
 10
-2.4046030796014288
 20
1.6427336163203561
 30
0.0
  0
VERTEX
  5
52F
  8
6
 10
-2.20867891906164
 20
1.6427336163203561
 30
0.0
 42
0.4142135623730945
  0
VERTEX
  5
530
  8
6
 10
-2.0952789190616841
 20
1.7561336163203121
 30
0.0
  0
VERTEX
  5
531
  8
6
 10
-2.0952789190616841
 20
5.470800000000053
 30
0.0
 42
0.4142135623730948
  0
VERTEX
  5
532
  8
6
 10
-2.20867891906164
 20
5.5842000000000089
 30
0.0
  0
VERTEX
  5
533
  8
6
 10
-4.2913210809381317
 20
5.5842000000000089
 30
0.0
 42
0.4142135623730951
  0
VERTEX
  5
534
  8
6
 10
-4.404721080938315
 20
5.470800000000053
 30
0.0
  0
VERTEX
  5
535
  8
6
 10
-4.4047210809380877
 20
1.7561336163203121
 30
0.0
 42
0.4142135623730955
  0
VERTEX
  5
536
  8
6
 10
-4.2913210809381317
 20
1.6427336163203561
 30
0.0
  0
VERTEX
  5
537
  8
6
 10
-4.0953969203983434
 20
1.6427336163203561
 30
0.0
  0
SEQEND
  5
538
  8
6
  0
POINT
  5
313
  8
5
 10
-3.25
 20
0.0
 30
0.0
  0
POINT
  5
314
  8
5
 10
-3.25
 20
0.0
 30
0.0
  0
POLYLINE
  5
315
  8
6
 66
     1
 10
0.0
 20
0.0
 30
0.0
  0
VERTEX
  5
539
  8
6
 10
-1.6086291171807261
 20
10.98268415172083
 30
0.0
 42
0.0347698152739638
  0
VERTEX
  5
53A
  8
6
 10
-2.0453302862117648
 20
10.67181629642209
 30
0.0
  0
VERTEX
  5
53B
  8
6
 10
-2.4179959360328658
 20
10.314575974185621
 30
0.0
  0
SEQEND
  5
53C
  8
6
  0
POLYLINE
  5
316
  8
6
 66
     1
 10
0.0
 20
0.0
 30
0.0
  0
VERTEX
  5
53D
  8
6
 10
0.0
 20
11.528654341814381
 30
0.0
 42
0.0716230936514669
  0
VERTEX
  5
53E
  8
6
 10
-1.066181442512061
 20
11.258367884415801
 30
0.0
  0
SEQEND
  5
53F
  8
6
  0
POLYLINE
  5
317
  8
6
 66
     1
 10
0.0
 20
0.0
 30
0.0
  0
VERTEX
  5
540
  8
6
 10
-2.4179959360328658
 20
13.9372282014387
 30
0.0
  0
VERTEX
  5
541
  8
6
 10
-2.0455060114925341
 20
13.52800000000002
 30
0.0
 42
0.0337004454472373
  0
VERTEX
  5
542
  8
6
 10
-1.6086291171807261
 20
13.222078023043309
 30
0.0
 42
-3.2234280385613259
  0
SEQEND
  5
543
  8
6
  0
POLYLINE
  5
318
  8
6
 66
     1
 10
0.0
 20
0.0
 30
0.0
  0
VERTEX
  5
544
  8
6
 10
-1.066181442512061
 20
12.94873720389864
 30
0.0
 42
0.0698020145797582
  0
VERTEX
  5
545
  8
6
 10
0.0
 20
12.67577505004777
 30
0.0
 42
-3.2234280385613259
  0
SEQEND
  5
546
  8
6
  0
POINT
  5
319
  8
5
 10
-3.25
 20
0.0
 30
0.0
  0
DIMENSION
  5
324
  8
1
  2
*D7
 10
0.0000000000000007
 20
30.72599351800886
 30
0.0
 11
-3.249999999999885
 21
33.512998975034783
 31
0.0
 70
     0
 13
-6.4999999999997717
 23
16.0
 33
0.0
 14
0.0
 24
20.0
 34
0.0
  0
VIEWPORT
  5
22
 67
     1
  8
0
 10
210.0
 20
170.2366863905325
 30
0.0
 40
420.0
 41
340.47337278106511
 68
     1
 69
     1
1001
ACAD
1000
MVIEW
1002
{
1070
    16
1010
0.0
1020
0.0
1030
0.0
1010
0.0
1020
0.0
1030
1.0
1040
0.0
1040
340.47337278106511
1040
210.0
1040
170.2366863905325
1040
50.0
1040
0.0
1040
0.0
1070
     0
1070
   100
1070
     1
1070
     1
1070
     0
1070
     0
1070
     0
1070
     0
1040
0.0
1040
0.0
1040
0.0
1040
5.0
1040
5.0
1040
10.0
1040
10.0
1070
     0
1002
{
1002
}
1002
}
  0
ENDSEC
  0
EOF
