  0
SECTION
  2
HEADER
  9
$ACADVER
  1
AC1009
  9
$INSBASE
 10
0.0
 20
0.0
 30
0.0
  9
$EXTMIN
 10
-35.01892006608989
 20
-12.542723750861679
 30
-0.0000000000000058
  9
$EXTMAX
 10
43.075562097453023
 20
9.7961431133982142
 30
0.0000000000000104
  9
$LIMMIN
 10
-150.0
 20
-150.0
  9
$LIMMAX
 10
150.0
 20
150.0
  9
$ORTHOMODE
 70
     0
  9
$REGENMODE
 70
     1
  9
$FILLMODE
 70
     1
  9
$QTEXTMODE
 70
     0
  9
$MIRRTEXT
 70
     0
  9
$DRAGMODE
 70
     2
  9
$LTSCALE
 40
1.0
  9
$OSMODE
 70
   111
  9
$ATTMODE
 70
     1
  9
$TEXTSIZE
 40
3.5
  9
$TRACEWID
 40
1.0
  9
$TEXTSTYLE
  7
BESCHLAG
  9
$CLAYER
  8
0
  9
$CELTYPE
  6
BYLAYER
  9
$CECOLOR
 62
   256
  9
$DIMSCALE
 40
1.0
  9
$DIMASZ
 40
2.0
  9
$DIMEXO
 40
2.0
  9
$DIMDLI
 40
0.0
  9
$DIMRND
 40
0.0
  9
$DIMDLE
 40
1.0
  9
$DIMEXE
 40
1.0
  9
$DIMTP
 40
0.0
  9
$DIMTM
 40
0.0
  9
$DIMTXT
 40
3.5
  9
$DIMCEN
 40
0.0
  9
$DIMTSZ
 40
0.0
  9
$DIMTOL
 70
     0
  9
$DIMLIM
 70
     0
  9
$DIMTIH
 70
     0
  9
$DIMTOH
 70
     0
  9
$DIMSE1
 70
     0
  9
$DIMSE2
 70
     0
  9
$DIMTAD
 70
     1
  9
$DIMZIN
 70
     8
  9
$DIMBLK
  1

  9
$DIMASO
 70
     1
  9
$DIMSHO
 70
     1
  9
$DIMPOST
  1

  9
$DIMAPOST
  1

  9
$DIMALT
 70
     0
  9
$DIMALTD
 70
     2
  9
$DIMALTF
 40
0.039370078740157
  9
$DIMLFAC
 40
1.0
  9
$DIMTOFL
 70
     1
  9
$DIMTVP
 40
0.0
  9
$DIMTIX
 70
     1
  9
$DIMSOXD
 70
     0
  9
$DIMSAH
 70
     1
  9
$DIMBLK1
  1
OBLIQUE
  9
$DIMBLK2
  1
OBLIQUE
  9
$DIMSTYLE
  2
OPO-SSTRICH
  9
$DIMCLRD
 70
   256
  9
$DIMCLRE
 70
   256
  9
$DIMCLRT
 70
   256
  9
$DIMTFAC
 40
0.7114285714285716
  9
$DIMGAP
 40
1.0
  9
$LUNITS
 70
     2
  9
$LUPREC
 70
     1
  9
$SKETCHINC
 40
1.0
  9
$FILLETRAD
 40
0.0
  9
$AUNITS
 70
     0
  9
$AUPREC
 70
     1
  9
$MENU
  1
D:\ACL_CGWG\CGTAB13
  9
$ELEVATION
 40
0.0
  9
$PELEVATION
 40
0.0
  9
$THICKNESS
 40
0.0
  9
$LIMCHECK
 70
     0
  9
$BLIPMODE
 70
     0
  9
$CHAMFERA
 40
1.0
  9
$CHAMFERB
 40
1.0
  9
$SKPOLY
 70
     0
  9
$TDCREATE
 40
2451739.8688617591
  9
$TDUPDATE
 40
2452087.609217592
  9
$TDINDWG
 40
0.000888669
  9
$TDUSRTIMER
 40
0.0008884838
  9
$USRTIMER
 70
     1
  9
$ANGBASE
 50
0.0
  9
$ANGDIR
 70
     0
  9
$PDMODE
 70
    35
  9
$PDSIZE
 40
5.0
  9
$PLINEWID
 40
0.0
  9
$COORDS
 70
     1
  9
$SPLFRAME
 70
     0
  9
$SPLINETYPE
 70
     6
  9
$SPLINESEGS
 70
     8
  9
$ATTDIA
 70
     1
  9
$ATTREQ
 70
     1
  9
$HANDLING
 70
-16383
  9
$HANDSEED
  5
437
  9
$SURFTAB1
 70
    12
  9
$SURFTAB2
 70
    12
  9
$SURFTYPE
 70
     6
  9
$SURFU
 70
    12
  9
$SURFV
 70
    12
  9
$UCSNAME
  2

  9
$UCSORG
 10
0.0
 20
0.0
 30
0.0
  9
$UCSXDIR
 10
1.0
 20
0.0
 30
0.0
  9
$UCSYDIR
 10
0.0
 20
1.0
 30
0.0
  9
$PUCSNAME
  2

  9
$PUCSORG
 10
0.0
 20
0.0
 30
0.0
  9
$PUCSXDIR
 10
1.0
 20
0.0
 30
0.0
  9
$PUCSYDIR
 10
0.0
 20
1.0
 30
0.0
  9
$USERI1
 70
     0
  9
$USERI2
 70
     0
  9
$USERI3
 70
     0
  9
$USERI4
 70
     0
  9
$USERI5
 70
     0
  9
$USERR1
 40
0.0
  9
$USERR2
 40
0.0
  9
$USERR3
 40
0.0
  9
$USERR4
 40
0.0
  9
$USERR5
 40
0.0
  9
$WORLDVIEW
 70
     1
  9
$SHADEDGE
 70
     3
  9
$SHADEDIF
 70
    70
  9
$TILEMODE
 70
     1
  9
$MAXACTVP
 70
    48
  9
$PLIMCHECK
 70
     0
  9
$PEXTMIN
 10
1.0000000000000000E+020
 20
1.0000000000000000E+020
 30
1.0000000000000000E+020
  9
$PEXTMAX
 10
-1.0000000000000000E+020
 20
-1.0000000000000000E+020
 30
-1.0000000000000000E+020
  9
$PLIMMIN
 10
0.0
 20
0.0
  9
$PLIMMAX
 10
420.0
 20
297.0
  9
$UNITMODE
 70
     0
  9
$VISRETAIN
 70
     1
  9
$PLINEGEN
 70
     0
  9
$PSLTSCALE
 70
     1
  0
ENDSEC
  0
SECTION
  2
TABLES
  0
TABLE
  2
VPORT
 70
     2
  0
VPORT
  2
*ACTIVE
 70
     0
 10
0.0
 20
0.0
 11
1.0
 21
1.0
 12
4.028321015681569
 22
-1.3732903187317329
 13
0.0
 23
0.0
 14
0.5
 24
0.5
 15
10.0
 25
10.0
 16
0.0
 26
0.0
 36
1.0
 17
0.0
 27
0.0
 37
0.0
 40
48.840559512825578
 41
1.6070460704607039
 42
50.0
 43
0.0
 44
0.0
 50
0.0
 51
0.0
 71
     0
 72
   800
 73
     1
 74
     1
 75
     0
 76
     0
 77
     0
 78
     0
  0
ENDTAB
  0
TABLE
  2
LTYPE
 70
     1
  0
LTYPE
  2
CONTINUOUS
 70
     0
  3
_______________________________________________
 72
    65
 73
     2
 40
1.0
 49
1.0
 49
0.0
  0
ENDTAB
  0
TABLE
  2
LAYER
 70
     7
  0
LAYER
  2
0
 70
     0
 62
    30
  6
CONTINUOUS
  0
LAYER
  2
1
 70
     0
 62
     2
  6
CONTINUOUS
  0
LAYER
  2
2
 70
     0
 62
     9
  6
CONTINUOUS
  0
LAYER
  2
4
 70
     1
 62
     4
  6
CONTINUOUS
  0
LAYER
  2
5
 70
     0
 62
     1
  6
CONTINUOUS
  0
LAYER
  2
6
 70
     0
 62
     3
  6
CONTINUOUS
  0
LAYER
  2
DEFPOINTS
 70
     0
 62
     7
  6
CONTINUOUS
  0
ENDTAB
  0
TABLE
  2
STYLE
 70
     2
  0
STYLE
  2
STANDARD
 70
     0
 40
0.0
 41
1.0
 50
0.0
 71
     0
 42
2.5
  3
txt
  4

  0
STYLE
  2
BESCHLAG
 70
     0
 40
0.0
 41
1.0
 50
0.0
 71
     0
 42
3.5
  3
txt
  4

  0
ENDTAB
  0
TABLE
  2
VIEW
 70
     0
  0
ENDTAB
  0
TABLE
  2
UCS
 70
     0
  0
ENDTAB
  0
TABLE
  2
APPID
 70
     1
  0
APPID
  2
ACAD
 70
     0
  0
ENDTAB
  0
TABLE
  2
DIMSTYLE
 70
     1
  0
DIMSTYLE
  2
OPO-SSTRICH
 70
     0
  3

  4

  5

  6
OBLIQUE
  7
OBLIQUE
 40
1.0
 41
2.0
 42
2.0
 43
0.0
 44
1.0
 45
0.0
 46
1.0
 47
0.0
 48
0.0
140
3.5
141
0.0
142
0.0
143
0.039370078740157
144
1.0
145
0.0
146
0.7114285714285716
147
1.0
 71
     0
 72
     0
 73
     0
 74
     0
 75
     0
 76
     0
 77
     1
 78
     8
170
     0
171
     2
172
     1
173
     1
174
     1
175
     0
176
   256
177
   256
178
   256
  0
ENDTAB
  0
ENDSEC
  0
SECTION
  2
BLOCKS
  0
BLOCK
  8
0
  2
$MODEL_SPACE
 70
     0
 10
0.0
 20
0.0
 30
0.0
  3
$MODEL_SPACE
  1

  0
ENDBLK
  5
1C
  8
0
  0
BLOCK
 67
     1
  8
0
  2
$PAPER_SPACE
 70
     0
 10
0.0
 20
0.0
 30
0.0
  3
$PAPER_SPACE
  1

  0
ENDBLK
  5
19
 67
     1
  8
0
  0
BLOCK
  8
0
  2
_OBLIQUE
 70
     0
 10
0.0
 20
0.0
 30
0.0
  3
_OBLIQUE
  1

  0
LINE
  5
204
  8
0
 62
     0
 10
-0.5
 20
-0.5
 30
0.0
 11
0.5
 21
0.5
 31
0.0
  0
ENDBLK
  5
206
  8
0
  0
BLOCK
  8
0
  2
NULLPUNKT
 70
     0
 10
0.0
 20
0.0
 30
0.0
  3
NULLPUNKT
  1

  0
SOLID
  5
254
  8
5
 10
0.0
 20
0.0
 30
0.0
 11
2.0
 21
0.0
 31
0.0
 12
0.0
 22
-2.0
 32
0.0
 13
0.0
 23
-2.0
 33
0.0
  0
SOLID
  5
255
  8
5
 10
0.0
 20
0.0
 30
0.0
 11
-2.0
 21
0.0
 31
0.0
 12
0.0
 22
2.0
 32
0.0
 13
0.0
 23
2.0
 33
0.0
  0
POLYLINE
  5
256
  8
5
 66
     1
 10
0.0
 20
0.0
 30
0.0
  0
VERTEX
  5
3AF
  8
5
 10
0.0
 20
2.0
 30
0.0
  0
VERTEX
  5
3B0
  8
5
 10
0.0
 20
-2.0
 30
0.0
  0
SEQEND
  5
3B1
  8
5
  0
POLYLINE
  5
257
  8
5
 66
     1
 10
0.0
 20
0.0
 30
0.0
  0
VERTEX
  5
3B2
  8
5
 10
-2.0
 20
0.0
 30
0.0
  0
VERTEX
  5
3B3
  8
5
 10
2.0
 20
0.0
 30
0.0
  0
SEQEND
  5
3B4
  8
5
  0
CIRCLE
  5
258
  8
5
 10
0.0
 20
0.0
 30
0.0
 40
2.0
  0
ENDBLK
  5
25A
  8
0
  0
BLOCK
  8
0
  2
*X2
 70
     1
 10
0.0
 20
0.0
 30
0.0
  3
*X2
  1

  0
LINE
  5
284
  8
0
 62
     0
 10
969.29154803824031
 20
169.0163198616896
 30
0.0
 11
972.30428240552942
 21
172.02905422897871
 31
0.0
  0
LINE
  5
285
  8
0
 62
     0
 10
967.18572128587846
 20
168.60754938417571
 30
0.0
 11
970.66716629069094
 21
172.088994388988
 31
0.0
  0
LINE
  5
286
  8
0
 62
     0
 10
963.91667401945983
 20
167.03555839260471
 30
0.0
 11
964.88156221899635
 21
168.0004465921412
 31
0.0
  0
LINE
  5
287
  8
0
 62
     0
 10
965.48866501103078
 20
168.60754938417571
 30
0.0
 11
968.98854243730659
 21
172.1074268104515
 31
0.0
  0
LINE
  5
288
  8
0
 62
     0
 10
963.50165313250284
 20
168.3175937804954
 30
0.0
 11
967.26520467647117
 21
172.08114532446379
 31
0.0
  0
LINE
  5
289
  8
0
 62
     0
 10
961.85354870111564
 20
168.366545623956
 30
0.0
 11
965.4933831416364
 21
172.00638006447679
 31
0.0
  0
LINE
  5
28A
  8
0
 62
     0
 10
958.30917653596748
 20
166.51922973365549
 30
0.0
 11
959.11239679542473
 21
167.3224499931126
 31
0.0
  0
LINE
  5
28B
  8
0
 62
     0
 10
959.98889151969377
 20
168.19894471738161
 30
0.0
 11
963.66854645872195
 21
171.8785996564099
 31
0.0
  0
LINE
  5
28C
  8
0
 62
     0
 10
957.60586140630767
 20
167.51297087884339
 30
0.0
 11
961.78526577139507
 21
171.69237524393071
 31
0.0
  0
LINE
  5
28D
  8
0
 62
     0
 10
956.10215259543338
 20
167.70631834281679
 30
0.0
 11
959.83694452379382
 21
171.44111027117719
 31
0.0
  0
LINE
  5
28E
  8
0
 62
     0
 10
952.2525408918433
 20
165.5537629140743
 30
0.0
 11
953.15774923535253
 21
166.45897125758361
 31
0.0
  0
LINE
  5
28F
  8
0
 62
     0
 10
954.08475684829796
 20
167.38597887052879
 30
0.0
 11
957.81543281830625
 21
171.11665484053731
 31
0.0
  0
LINE
  5
290
  8
0
 62
     0
 10
951.64417689830759
 20
166.6424551953865
 30
0.0
 11
955.71045950241535
 21
170.708737799494
 31
0.0
  0
LINE
  5
291
  8
0
 62
     0
 10
949.82362656167174
 20
166.51896113359811
 30
0.0
 11
953.50876382870536
 21
170.20409840063181
 31
0.0
  0
LINE
  5
292
  8
0
 62
     0
 10
947.5868416573943
 20
165.97923250416861
 30
0.0
 11
951.19270552270848
 21
169.5850963694827
 31
0.0
  0
LINE
  5
293
  8
0
 62
     0
 10
944.48424647572415
 20
164.57369359734611
 30
0.0
 11
945.01697226472595
 21
165.10641938634811
 31
0.0
  0
LINE
  5
294
  8
0
 62
     0
 10
945.35005675311697
 20
165.43950387473899
 30
0.0
 11
948.73790892978104
 21
168.82735605140309
 31
0.0
  0
LINE
  5
295
  8
0
 62
     0
 10
942.61239453871929
 20
164.3988979351889
 30
0.0
 11
946.10896457967613
 21
167.8954679761458
 31
0.0
  0
LINE
  5
296
  8
0
 62
     0
 10
940.74054260171442
 20
164.22410227303169
 30
0.0
 11
943.25077044058844
 21
166.7343301119059
 31
0.0
  0
LINE
  5
297
  8
0
 62
     0
 10
939.11788461870992
 20
164.29850056487479
 30
0.0
 11
940.06844378960591
 21
165.2490597357708
 31
0.0
  0
LINE
  5
298
  8
0
 62
     0
 10
970.57983383557394
 20
168.60754938417571
 30
0.0
 11
973.90272252466013
 21
171.9304380732618
 31
0.0
  0
LINE
  5
299
  8
0
 62
     0
 10
972.27689011042173
 20
168.60754938417571
 30
0.0
 11
975.46494539112655
 21
171.7956046648805
 31
0.0
  0
LINE
  5
29A
  8
0
 62
     0
 10
973.20946023535123
 20
167.84306323425761
 30
0.0
 11
976.99310094323789
 21
171.6267039421441
 31
0.0
  0
LINE
  5
29B
  8
0
 62
     0
 10
974.10799169285895
 20
167.0445384169175
 30
0.0
 11
974.82057867035405
 21
167.7571253944127
 31
0.0
  0
LINE
  5
29C
  8
0
 62
     0
 10
975.50432559601313
 20
168.44087232007161
 30
0.0
 11
978.48908099514836
 21
171.4256277192068
 31
0.0
  0
LINE
  5
29D
  8
0
 62
     0
 10
977.06142515382157
 20
168.30091560303251
 30
0.0
 11
979.95455958067873
 21
171.19405002988961
 31
0.0
  0
LINE
  5
29E
  8
0
 62
     0
 10
978.61852471163024
 20
168.16095888599341
 30
0.0
 11
981.3910254270121
 21
170.9334596013752
 31
0.0
  0
LINE
  5
29F
  8
0
 62
     0
 10
978.90138296654993
 20
166.74676086606519
 30
0.0
 11
982.79980835698393
 21
170.64518625649939
 31
0.0
  0
LINE
  5
2A0
  8
0
 62
     0
 10
980.31657312577443
 20
166.4648947504422
 30
0.0
 11
980.79247090927925
 21
166.94079253394719
 31
0.0
  0
LINE
  5
2A1
  8
0
 62
     0
 10
981.62988976897145
 20
167.778211393639
 30
0.0
 11
984.18210095127563
 21
170.33042257594329
 31
0.0
  0
LINE
  5
2A2
  8
0
 62
     0
 10
983.09439870183996
 20
167.54566405166
 30
0.0
 11
985.53897646925668
 21
169.9902418190766
 31
0.0
  0
LINE
  5
2A3
  8
0
 62
     0
 10
984.55890763470848
 20
167.313116709681
 30
0.0
 11
986.87140378703953
 21
169.62561286201179
 31
0.0
  0
LINE
  5
2A4
  8
0
 62
     0
 10
984.81655299253794
 20
165.87370579266249
 30
0.0
 11
988.18025993542506
 21
169.23741273554961
 31
0.0
  0
LINE
  5
2A5
  8
0
 62
     0
 10
986.14954237325742
 20
165.50963889853409
 30
0.0
 11
986.67774173582336
 21
166.03783826110021
 31
0.0
  0
LINE
  5
2A6
  8
0
 62
     0
 10
987.39258271848985
 20
166.75267924376649
 30
0.0
 11
989.46634068998833
 21
168.8264372152652
 31
0.0
  0
LINE
  5
2A7
  8
0
 62
     0
 10
988.75974690163002
 20
166.4227871520591
 30
0.0
 11
990.73036956770363
 21
168.3934098181328
 31
0.0
  0
LINE
  5
2A8
  8
0
 62
     0
 10
990.12691108477054
 20
166.09289506035171
 30
0.0
 11
991.97300551028354
 21
167.93898948586491
 31
0.0
  0
LINE
  5
2A9
  8
0
 62
     0
 10
991.4940752679106
 20
165.7630029686444
 30
0.0
 11
993.19484947756121
 21
167.463777178295
 31
0.0
  0
LINE
  5
2AA
  8
0
 62
     0
 10
992.86123945105101
 20
165.43311087693689
 30
0.0
 11
994.39645013027985
 21
166.9683215561659
 31
0.0
  0
LINE
  5
2AB
  8
0
 62
     0
 10
993.69902166583029
 20
164.57383681686869
 30
0.0
 11
995.57830874736135
 21
166.45312389839961
 31
0.0
  0
LINE
  5
2AC
  8
0
 62
     0
 10
995.25113942004486
 20
164.4288982962355
 30
0.0
 11
996.74088349576164
 21
165.91864237195219
 31
0.0
  0
LINE
  5
2AD
  8
0
 62
     0
 10
996.80325717425956
 20
164.2839597756022
 30
0.0
 11
997.88459314964211
 21
165.3652957509849
 31
0.0
  0
LINE
  5
2AE
  8
0
 62
     0
 10
998.35537492847368
 20
164.13902125496901
 30
0.0
 11
998.99052075292195
 21
164.7741670794172
 31
0.0
  0
ENDBLK
  5
2B0
  8
0
  0
BLOCK
  8
0
  2
*D3
 70
     1
 10
0.0
 20
0.0
 30
0.0
  3
*D3
  1

  0
LINE
  5
2E0
  8
1
 10
-30.0
 20
-2.0
 30
0.0
 11
-30.0
 21
-12.532189177568171
 31
0.0
  0
LINE
  5
2E1
  8
1
 10
30.0
 20
-2.0
 30
0.0
 11
30.0
 21
-12.532189177568171
 31
0.0
  0
LINE
  5
2E2
  8
1
 10
-31.0
 20
-11.532189177568171
 30
0.0
 11
31.0
 21
-11.532189177568171
 31
0.0
  0
INSERT
  5
2E3
  8
1
  2
_OBLIQUE
 10
-30.0
 20
-11.532189177568171
 30
0.0
 41
2.0
 42
2.0
 43
2.0
 50
180.0
  0
INSERT
  5
2E4
  8
1
  2
_OBLIQUE
 10
30.0
 20
-11.532189177568171
 30
0.0
 41
2.0
 42
2.0
 43
2.0
  0
TEXT
  5
2E5
  8
0
 10
-2.6942360163710779
 20
-10.465340610037471
 30
0.0
 40
3.5
  1
60
  7
BESCHLAG
  0
POINT
  5
2E6
  8
DEFPOINTS
 62
     0
 10
-30.0
 20
0.0
 30
0.0
  0
POINT
  5
2E7
  8
DEFPOINTS
 62
     0
 10
30.0
 20
0.0
 30
0.0
  0
POINT
  5
2E8
  8
DEFPOINTS
 62
     0
 10
30.0
 20
-11.532189177568171
 30
0.0
  0
ENDBLK
  5
2D3
  8
0
  0
BLOCK
  8
0
  2
*D4
 70
     1
 10
0.0
 20
0.0
 30
0.0
  3
*D4
  1

  0
LINE
  5
2E9
  8
1
 10
2.0
 20
-0.0000000000000006
 30
0.0
 11
43.067442133752593
 21
-0.0000000000000122
 31
0.0
  0
LINE
  5
2EA
  8
1
 10
1.99999999968827
 20
8.0
 30
0.0
 11
43.067442133752593
 21
7.9999999999999867
 31
0.0
  0
LINE
  5
2EB
  8
1
 10
42.067442133752593
 20
-1.0000000000000111
 30
0.0
 11
42.067442133752593
 21
8.9999999999999876
 31
0.0
  0
INSERT
  5
2EC
  8
1
  2
_OBLIQUE
 10
42.067442133752593
 20
-0.0000000000000119
 30
0.0
 41
2.0
 42
2.0
 43
2.0
 50
270.0
  0
INSERT
  5
2ED
  8
1
  2
_OBLIQUE
 10
42.067442133752593
 20
7.9999999999999867
 30
0.0
 41
2.0
 42
2.0
 43
2.0
 50
90.0
  0
TEXT
  5
2EE
  8
0
 10
41.000593566221887
 20
2.6487039563437871
 30
0.0
 40
3.5
  1
8
 50
90.0
  7
BESCHLAG
  0
POINT
  5
2EF
  8
DEFPOINTS
 62
     0
 10
0.0
 20
0.0
 30
0.0
  0
POINT
  5
2F0
  8
DEFPOINTS
 62
     0
 10
-0.0000000003117293
 20
8.0
 30
0.0
  0
POINT
  5
2F1
  8
DEFPOINTS
 62
     0
 10
42.067442133752593
 20
7.9999999999999867
 30
0.0
  0
ENDBLK
  5
2DF
  8
0
  0
ENDSEC
  0
SECTION
  2
ENTITIES
  0
INSERT
  5
25B
  8
5
  2
NULLPUNKT
 10
0.0
 20
0.0
 30
0.0
  0
INSERT
  5
2BF
  8
2
  2
*X2
 10
-969.09240092544997
 20
-164.10754938417571
 30
0.0
1001
ACAD
1000
HATCH
1002
{
1070
    16
1000
_U,O
1040
1.1999999999999991
1040
0.7853981633974483
1070
     0
1002
}
  0
POLYLINE
  5
2C0
  8
6
 66
     1
 10
0.0
 20
0.0
 30
0.0
  0
VERTEX
  5
3B5
  8
6
 10
29.599999999999909
 20
0.0
 30
0.0
  0
VERTEX
  5
3B6
  8
6
 10
24.269012764775649
 20
0.4978136493123202
 30
0.0
 42
-0.6228903064377031
  0
VERTEX
  5
3B7
  8
6
 10
24.077529598846919
 20
1.0011457609421079
 30
0.0
  0
VERTEX
  5
3B8
  8
6
 10
24.267828831948009
 20
1.2051568201311511
 30
0.0
  0
VERTEX
  5
3B9
  8
6
 10
17.811783563734021
 20
2.7629786998681989
 30
0.0
 42
0.5754114353259321
  0
VERTEX
  5
3BA
  8
6
 10
17.453181175053029
 20
2.388151615866263
 30
0.0
  0
VERTEX
  5
3BB
  8
6
 10
17.64286524069621
 20
1.730997367381178
 30
0.0
 42
-0.5633539980141455
  0
VERTEX
  5
3BC
  8
6
 10
17.294928893457829
 20
1.353801274953411
 30
0.0
  0
VERTEX
  5
3BD
  8
6
 10
15.917334459003079
 20
1.6335536801821029
 30
0.0
 42
-0.5633539980139629
  0
VERTEX
  5
3BE
  8
6
 10
15.744087795859739
 20
2.1165880346354689
 30
0.0
  0
VERTEX
  5
3BF
  8
6
 10
16.167565010317041
 20
2.638443343592598
 30
0.0
 42
0.5775608125482671
  0
VERTEX
  5
3C0
  8
6
 10
15.98166217396237
 20
3.123766503854994
 30
0.0
  0
VERTEX
  5
3C1
  8
6
 10
11.822001702179019
 20
3.784273220160002
 30
0.0
 42
0.5748947162525427
  0
VERTEX
  5
3C2
  8
6
 10
11.494053656339471
 20
3.3826539067054
 30
0.0
  0
VERTEX
  5
3C3
  8
6
 10
11.736367074338879
 20
2.7364449386086558
 30
0.0
 42
-0.5633539980143445
  0
VERTEX
  5
3C4
  8
6
 10
11.418776732873081
 20
2.333365580565669
 30
0.0
  0
VERTEX
  5
3C5
  8
6
 10
10.02361627797654
 20
2.5052816623167469
 30
0.0
 42
-0.5633539980137068
  0
VERTEX
  5
3C6
  8
6
 10
9.8133778857722973
 20
2.973401745539149
 30
0.0
  0
VERTEX
  5
3C7
  8
6
 10
10.20630328854622
 20
3.5428860941506168
 30
0.0
 42
0.5742609907500431
  0
VERTEX
  5
3C8
  8
6
 10
9.9862320635070319
 20
4.0120536079994054
 30
0.0
  0
VERTEX
  5
3C9
  8
6
 10
5.8886965225715349
 20
4.3803522305149718
 30
0.0
 42
0.5744805140351607
  0
VERTEX
  5
3CA
  8
6
 10
5.5885699518976253
 20
3.9577685166584611
 30
0.0
  0
VERTEX
  5
3CB
  8
6
 10
5.8736417326435912
 20
3.3284556056378269
 30
0.0
 42
-0.5633539980138611
  0
VERTEX
  5
3CC
  8
6
 10
5.5835749399011538
 20
2.9051379357722449
 30
0.0
  0
VERTEX
  5
3CD
  8
6
 10
4.1800674263758992
 20
2.983843040731017
 30
0.0
 42
-0.5633539980137571
  0
VERTEX
  5
3CE
  8
6
 10
3.939147556644456
 20
3.436937082008626
 30
0.0
  0
VERTEX
  5
3CF
  8
6
 10
4.3023268793244824
 20
4.0464353664774526
 30
0.0
 42
0.5819512675994834
  0
VERTEX
  5
3D0
  8
6
 10
4.0446101679317499
 20
4.5
 30
0.0
  0
VERTEX
  5
3D1
  8
6
 10
0.6079175903041687
 20
4.5
 30
0.0
  0
VERTEX
  5
3D2
  8
6
 10
0.1842268502173283
 20
4.9236907400868404
 30
0.0
  0
VERTEX
  5
3D3
  8
6
 10
0.0
 20
5.0
 30
0.0
  0
VERTEX
  5
3D4
  8
6
 10
-0.1842268502168736
 20
4.9236907400868404
 30
0.0
  0
VERTEX
  5
3D5
  8
6
 10
-0.607917590303714
 20
4.5
 30
0.0
  0
VERTEX
  5
3D6
  8
6
 10
-4.0446101679317499
 20
4.5
 30
0.0
 42
0.5819512675997837
  0
VERTEX
  5
3D7
  8
6
 10
-4.3023268793244824
 20
4.04643536647768
 30
0.0
  0
VERTEX
  5
3D8
  8
6
 10
-3.939147556644456
 20
3.436937082008626
 30
0.0
 42
-0.5633539980136951
  0
VERTEX
  5
3D9
  8
6
 10
-4.1800674263754436
 20
2.983843040731017
 30
0.0
  0
VERTEX
  5
3DA
  8
6
 10
-5.5835749399011538
 20
2.9051379357722449
 30
0.0
 42
-0.5633539980135037
  0
VERTEX
  5
3DB
  8
6
 10
-5.8736417326435912
 20
3.3284556056378269
 30
0.0
  0
VERTEX
  5
3DC
  8
6
 10
-5.5885699518976253
 20
3.9577685166584611
 30
0.0
 42
0.5744805140347888
  0
VERTEX
  5
3DD
  8
6
 10
-5.888696522571081
 20
4.3803522305149718
 30
0.0
  0
VERTEX
  5
3DE
  8
6
 10
-9.9862320635070319
 20
4.0120536079994054
 30
0.0
 42
0.5742609907503375
  0
VERTEX
  5
3DF
  8
6
 10
-10.20630328854622
 20
3.5428860941506168
 30
0.0
  0
VERTEX
  5
3E0
  8
6
 10
-9.8133778857722973
 20
2.9734017455389221
 30
0.0
 42
-0.5633539980137808
  0
VERTEX
  5
3E1
  8
6
 10
-10.02361627797608
 20
2.5052816623167469
 30
0.0
  0
VERTEX
  5
3E2
  8
6
 10
-11.418776732873081
 20
2.333365580565669
 30
0.0
 42
-0.5633539980144017
  0
VERTEX
  5
3E3
  8
6
 10
-11.73636707433843
 20
2.7364449386086558
 30
0.0
  0
VERTEX
  5
3E4
  8
6
 10
-11.494053656339471
 20
3.3826539067054
 30
0.0
 42
0.5748947162524517
  0
VERTEX
  5
3E5
  8
6
 10
-11.822001702178561
 20
3.784273220160002
 30
0.0
  0
VERTEX
  5
3E6
  8
6
 10
-15.98166217396237
 20
3.123766503854994
 30
0.0
 42
0.5775608125483545
  0
VERTEX
  5
3E7
  8
6
 10
-16.167565010317041
 20
2.638443343592598
 30
0.0
  0
VERTEX
  5
3E8
  8
6
 10
-15.744087795859279
 20
2.1165880346354689
 30
0.0
 42
-0.563353998014331
  0
VERTEX
  5
3E9
  8
6
 10
-15.91733445900263
 20
1.6335536801821029
 30
0.0
  0
VERTEX
  5
3EA
  8
6
 10
-17.294928893457829
 20
1.353801274953411
 30
0.0
 42
-0.5633539980140015
  0
VERTEX
  5
3EB
  8
6
 10
-17.64286524069621
 20
1.730997367381405
 30
0.0
  0
VERTEX
  5
3EC
  8
6
 10
-17.453181175053029
 20
2.3881516158660361
 30
0.0
 42
0.5754114353257737
  0
VERTEX
  5
3ED
  8
6
 10
-17.811783563734021
 20
2.7629786998679711
 30
0.0
  0
VERTEX
  5
3EE
  8
6
 10
-24.267828831948009
 20
1.2051568201311511
 30
0.0
  0
VERTEX
  5
3EF
  8
6
 10
-24.077529598846919
 20
1.0011457609421079
 30
0.0
 42
-0.6228903064378873
  0
VERTEX
  5
3F0
  8
6
 10
-24.269012764775649
 20
0.4978136493123202
 30
0.0
  0
VERTEX
  5
3F1
  8
6
 10
-29.599999999999909
 20
0.0
 30
0.0
 42
-0.8641379514293154
  0
VERTEX
  5
3F2
  8
6
 10
-29.783730156872711
 20
0.7553072324840287
 30
0.0
 42
-0.1196809321597593
  0
VERTEX
  5
3F3
  8
6
 10
0.0
 20
8.0
 30
0.0
 42
-0.1200670250535229
  0
VERTEX
  5
3F4
  8
6
 10
29.783730156872931
 20
0.7553072324840287
 30
0.0
 42
-0.7856142347239367
  0
VERTEX
  5
3F5
  8
6
 10
29.599999999999909
 20
0.0
 30
0.0
 42
-0.6472212326107645
  0
SEQEND
  5
3F6
  8
6
  0
TEXT
  5
2C1
  8
1
 10
8.2960326883658126
 20
-4.714331752889052
 30
0.0
 40
2.4999999499999999
  1
Hebgo 154
  0
POLYLINE
  5
2C2
  8
5
 66
     1
 10
0.0
 20
0.0
 30
0.0
  0
VERTEX
  5
3F7
  8
5
 10
8.9970750504107855
 20
4.1009619680942251
 30
0.0
  0
VERTEX
  5
3F8
  8
5
 10
8.8972762282091935
 20
3.8535988646283381
 30
0.0
  0
VERTEX
  5
3F9
  8
5
 10
8.7158559430542937
 20
3.7134479841465691
 30
0.0
  0
VERTEX
  5
3FA
  8
5
 10
8.7488424704795307
 20
3.482610492798357
 30
0.0
  0
VERTEX
  5
3FB
  8
5
 10
8.6168963607785827
 20
3.3424596123165879
 30
0.0
  0
VERTEX
  5
3FC
  8
5
 10
8.4602131633505451
 20
3.227042983213777
 30
0.0
  0
VERTEX
  5
3FD
  8
5
 10
8.3695030207732088
 20
3.0786459412247491
 30
0.0
  0
VERTEX
  5
3FE
  8
5
 10
8.3777524604715836
 20
2.987959330358307
 30
0.0
  0
VERTEX
  5
3FF
  8
5
 10
8.3447659330463466
 20
2.732391820773727
 30
0.0
  0
VERTEX
  5
400
  8
5
 10
8.2375625267561645
 20
2.6169709585283272
 30
0.0
  0
VERTEX
  5
401
  8
5
 10
8.1386029444804535
 20
2.4933081679184852
 30
0.0
  0
VERTEX
  5
402
  8
5
 10
7.7840061981851241
 20
2.2789629995845639
 30
0.0
  0
VERTEX
  5
403
  8
5
 10
7.7345264070472686
 20
2.262474909712636
 30
0.0
  0
VERTEX
  5
404
  8
5
 10
7.5778432096194592
 20
2.2212525684617499
 30
0.0
  0
VERTEX
  5
405
  8
5
 10
7.3304498696140854
 20
1.866752286503697
 30
0.0
  0
VERTEX
  5
406
  8
5
 10
7.2479891667348957
 20
1.685383297913404
 30
0.0
  0
VERTEX
  5
407
  8
5
 10
7.0253329144566123
 20
1.462787734930088
 30
0.0
  0
VERTEX
  5
408
  8
5
 10
6.7696957504367674
 20
1.438057716693492
 30
0.0
  0
VERTEX
  5
409
  8
5
 10
6.5387956741442386
 20
1.380347285570906
 30
0.0
  0
VERTEX
  5
40A
  8
5
 10
6.3656192130035834
 20
1.2896606747044641
 30
0.0
  0
VERTEX
  5
40B
  8
5
 10
6.1841989278486826
 20
1.223708315217209
 30
0.0
  0
VERTEX
  5
40C
  8
5
 10
5.8295965658694513
 20
0.9516484826181113
 30
0.0
  0
VERTEX
  5
40D
  8
5
 10
5.7801223904154986
 20
0.6053943621670898
 30
0.0
  0
VERTEX
  5
40E
  8
5
 10
5.8295965658694513
 20
0.3580687809471783
 30
0.0
  0
VERTEX
  5
40F
  8
5
 10
6.0110224667082539
 20
0.1107474328696298
 30
0.0
  0
VERTEX
  5
410
  8
5
 10
6.035759554435117
 20
0.0
 30
0.0
  0
SEQEND
  5
411
  8
5
  0
POLYLINE
  5
2C3
  8
5
 66
     1
 10
0.0
 20
0.0
 30
0.0
  0
VERTEX
  5
412
  8
5
 10
-35.0
 20
0.0
 30
0.0
  0
VERTEX
  5
413
  8
5
 10
35.0
 20
0.0
 30
0.0
  0
SEQEND
  5
414
  8
5
  0
DIMENSION
  5
2C4
  8
1
  2
*D3
 10
30.0
 20
-11.532189177568171
 30
0.0
 11
0.0000000000000002
 21
-8.7451837205422507
 31
0.0
 70
     0
 13
-30.0
 23
0.0
 33
0.0
 14
30.0
 24
0.0
 34
0.0
  0
POLYLINE
  5
2C5
  8
5
 66
     1
 10
0.0
 20
0.0
 30
0.0
  0
VERTEX
  5
415
  8
5
 10
-8.9970750497891459
 20
4.1009619680942251
 30
0.0
  0
VERTEX
  5
416
  8
5
 10
-8.8972762275875539
 20
3.8535988646283381
 30
0.0
  0
VERTEX
  5
417
  8
5
 10
-8.715855942432654
 20
3.7134479841465691
 30
0.0
  0
VERTEX
  5
418
  8
5
 10
-8.748842469857891
 20
3.482610492798357
 30
0.0
  0
VERTEX
  5
419
  8
5
 10
-8.616896360156943
 20
3.3424596123165879
 30
0.0
  0
VERTEX
  5
41A
  8
5
 10
-8.4602131627291328
 20
3.227042983213777
 30
0.0
  0
VERTEX
  5
41B
  8
5
 10
-8.3695030201517966
 20
3.0786459412247491
 30
0.0
  0
VERTEX
  5
41C
  8
5
 10
-8.3777524598499422
 20
2.987959330358307
 30
0.0
  0
VERTEX
  5
41D
  8
5
 10
-8.3447659324247052
 20
2.732391820773727
 30
0.0
  0
VERTEX
  5
41E
  8
5
 10
-8.2375625261347523
 20
2.6169709585283272
 30
0.0
  0
VERTEX
  5
41F
  8
5
 10
-8.1386029438590413
 20
2.4933081679184852
 30
0.0
  0
VERTEX
  5
420
  8
5
 10
-7.7840061975637118
 20
2.2789629995845639
 30
0.0
  0
VERTEX
  5
421
  8
5
 10
-7.7345264064258572
 20
2.262474909712636
 30
0.0
  0
VERTEX
  5
422
  8
5
 10
-7.5778432089978187
 20
2.2212525684617499
 30
0.0
  0
VERTEX
  5
423
  8
5
 10
-7.3304498689926731
 20
1.866752286503697
 30
0.0
  0
VERTEX
  5
424
  8
5
 10
-7.2479891661134843
 20
1.685383297913404
 30
0.0
  0
VERTEX
  5
425
  8
5
 10
-7.0253329138349718
 20
1.462787734930088
 30
0.0
  0
VERTEX
  5
426
  8
5
 10
-6.7696957498153552
 20
1.438057716693492
 30
0.0
  0
VERTEX
  5
427
  8
5
 10
-6.5387956735225989
 20
1.380347285570906
 30
0.0
  0
VERTEX
  5
428
  8
5
 10
-6.3656192123821711
 20
1.2896606747044641
 30
0.0
  0
VERTEX
  5
429
  8
5
 10
-6.1841989272272713
 20
1.223708315217209
 30
0.0
  0
VERTEX
  5
42A
  8
5
 10
-5.829596565248039
 20
0.9516484826181113
 30
0.0
  0
VERTEX
  5
42B
  8
5
 10
-5.7801223897940872
 20
0.6053943621670898
 30
0.0
  0
VERTEX
  5
42C
  8
5
 10
-5.829596565248039
 20
0.3580687809471783
 30
0.0
  0
VERTEX
  5
42D
  8
5
 10
-6.0110224660868417
 20
0.1107474328696298
 30
0.0
  0
VERTEX
  5
42E
  8
5
 10
-6.0357595538137039
 20
0.0
 30
0.0
  0
SEQEND
  5
42F
  8
5
  0
POLYLINE
  5
2C6
  8
4
 66
     1
 10
0.0
 20
0.0
 30
0.0
 70
     1
  0
VERTEX
  5
430
  8
4
 10
30.0
 20
0.6501963955527117
 30
0.0
 42
0.2449934534815719
  0
VERTEX
  5
431
  8
4
 10
-30.0
 20
0.6501963955527117
 30
0.0
  0
VERTEX
  5
432
  8
4
 10
-30.0
 20
0.0
 30
0.0
  0
VERTEX
  5
433
  8
4
 10
-23.696136780848519
 20
0.0
 30
0.0
 42
-0.1397389378570051
  0
VERTEX
  5
434
  8
4
 10
23.696136780848519
 20
0.0
 30
0.0
  0
VERTEX
  5
435
  8
4
 10
30.0
 20
0.0
 30
0.0
  0
SEQEND
  5
436
  8
4
  0
DIMENSION
  5
2C7
  8
1
  2
*D4
 10
42.067442133752593
 20
7.9999999999999867
 30
0.0
 11
39.280436676726673
 21
3.9999999999999951
 31
0.0
 70
     0
 13
0.0
 23
0.0
 33
0.0
 14
-0.0000000003117293
 24
8.0
 34
0.0
 50
90.0
  0
VIEWPORT
  5
22
 67
     1
  8
0
 10
210.0
 20
170.2366863905325
 30
0.0
 40
420.0
 41
340.47337278106511
 68
     1
 69
     1
1001
ACAD
1000
MVIEW
1002
{
1070
    16
1010
0.0
1020
0.0
1030
0.0
1010
0.0
1020
0.0
1030
1.0
1040
0.0
1040
340.47337278106511
1040
210.0
1040
170.2366863905325
1040
50.0
1040
0.0
1040
0.0
1070
     0
1070
   100
1070
     1
1070
     1
1070
     0
1070
     0
1070
     0
1070
     0
1040
0.0
1040
0.0
1040
0.0
1040
5.0
1040
5.0
1040
10.0
1040
10.0
1070
     0
1002
{
1002
}
1002
}
  0
ENDSEC
  0
EOF
