  0
SECTION
  2
HEADER
  9
$ACADVER
  1
AC1009
  9
$INSBASE
 10
0.0
 20
0.0
 30
0.0
  9
$EXTMIN
 10
-97.093720747652256
 20
-15.586675203713289
 30
0.0
  9
$EXTMAX
 10
2.0000000000000009
 20
29.410538379188999
 30
0.0
  9
$LIMMIN
 10
-150.0
 20
-150.0
  9
$LIMMAX
 10
150.0
 20
150.0
  9
$ORTHOMODE
 70
     0
  9
$REGENMODE
 70
     1
  9
$FILLMODE
 70
     1
  9
$QTEXTMODE
 70
     0
  9
$MIRRTEXT
 70
     0
  9
$DRAGMODE
 70
     2
  9
$LTSCALE
 40
4.0
  9
$OSMODE
 70
   111
  9
$ATTMODE
 70
     1
  9
$TEXTSIZE
 40
3.5
  9
$TRACEWID
 40
1.0
  9
$TEXTSTYLE
  7
BESCHLAG
  9
$CLAYER
  8
0
  9
$CELTYPE
  6
BYLAYER
  9
$CECOLOR
 62
   256
  9
$DIMSCALE
 40
1.0
  9
$DIMASZ
 40
2.0
  9
$DIMEXO
 40
2.0
  9
$DIMDLI
 40
0.0
  9
$DIMRND
 40
0.0
  9
$DIMDLE
 40
1.0
  9
$DIMEXE
 40
1.0
  9
$DIMTP
 40
0.0
  9
$DIMTM
 40
0.0
  9
$DIMTXT
 40
3.5
  9
$DIMCEN
 40
0.0
  9
$DIMTSZ
 40
0.0
  9
$DIMTOL
 70
     0
  9
$DIMLIM
 70
     0
  9
$DIMTIH
 70
     0
  9
$DIMTOH
 70
     0
  9
$DIMSE1
 70
     0
  9
$DIMSE2
 70
     0
  9
$DIMTAD
 70
     1
  9
$DIMZIN
 70
     8
  9
$DIMBLK
  1

  9
$DIMASO
 70
     1
  9
$DIMSHO
 70
     1
  9
$DIMPOST
  1

  9
$DIMAPOST
  1

  9
$DIMALT
 70
     0
  9
$DIMALTD
 70
     2
  9
$DIMALTF
 40
0.039370078740157
  9
$DIMLFAC
 40
1.0
  9
$DIMTOFL
 70
     1
  9
$DIMTVP
 40
0.0
  9
$DIMTIX
 70
     1
  9
$DIMSOXD
 70
     0
  9
$DIMSAH
 70
     1
  9
$DIMBLK1
  1
OBLIQUE
  9
$DIMBLK2
  1
OBLIQUE
  9
$DIMSTYLE
  2
OPO-SSTRICH
  9
$DIMCLRD
 70
   256
  9
$DIMCLRE
 70
   256
  9
$DIMCLRT
 70
   256
  9
$DIMTFAC
 40
0.7114285714285716
  9
$DIMGAP
 40
1.0
  9
$LUNITS
 70
     2
  9
$LUPREC
 70
     1
  9
$SKETCHINC
 40
1.0
  9
$FILLETRAD
 40
0.0
  9
$AUNITS
 70
     0
  9
$AUPREC
 70
     1
  9
$MENU
  1
D:\ACL_CGWG\CGTAB13
  9
$ELEVATION
 40
0.0
  9
$PELEVATION
 40
0.0
  9
$THICKNESS
 40
0.0
  9
$LIMCHECK
 70
     0
  9
$BLIPMODE
 70
     0
  9
$CHAMFERA
 40
1.0
  9
$CHAMFERB
 40
1.0
  9
$SKPOLY
 70
     0
  9
$TDCREATE
 40
2451739.8719413658
  9
$TDUPDATE
 40
2452087.6213504402
  9
$TDINDWG
 40
0.0007442245
  9
$TDUSRTIMER
 40
0.0007442245
  9
$USRTIMER
 70
     1
  9
$ANGBASE
 50
0.0
  9
$ANGDIR
 70
     0
  9
$PDMODE
 70
    35
  9
$PDSIZE
 40
5.0
  9
$PLINEWID
 40
0.0
  9
$COORDS
 70
     1
  9
$SPLFRAME
 70
     0
  9
$SPLINETYPE
 70
     6
  9
$SPLINESEGS
 70
     8
  9
$ATTDIA
 70
     1
  9
$ATTREQ
 70
     1
  9
$HANDLING
 70
-16383
  9
$HANDSEED
  5
4B1
  9
$SURFTAB1
 70
    12
  9
$SURFTAB2
 70
    12
  9
$SURFTYPE
 70
     6
  9
$SURFU
 70
    12
  9
$SURFV
 70
    12
  9
$UCSNAME
  2

  9
$UCSORG
 10
0.0
 20
0.0
 30
0.0
  9
$UCSXDIR
 10
1.0
 20
0.0
 30
0.0
  9
$UCSYDIR
 10
0.0
 20
1.0
 30
0.0
  9
$PUCSNAME
  2

  9
$PUCSORG
 10
0.0
 20
0.0
 30
0.0
  9
$PUCSXDIR
 10
1.0
 20
0.0
 30
0.0
  9
$PUCSYDIR
 10
0.0
 20
1.0
 30
0.0
  9
$USERI1
 70
     0
  9
$USERI2
 70
     0
  9
$USERI3
 70
     0
  9
$USERI4
 70
     0
  9
$USERI5
 70
     0
  9
$USERR1
 40
0.0
  9
$USERR2
 40
0.0
  9
$USERR3
 40
0.0
  9
$USERR4
 40
0.0
  9
$USERR5
 40
0.0
  9
$WORLDVIEW
 70
     1
  9
$SHADEDGE
 70
     3
  9
$SHADEDIF
 70
    70
  9
$TILEMODE
 70
     1
  9
$MAXACTVP
 70
    48
  9
$PLIMCHECK
 70
     0
  9
$PEXTMIN
 10
1.0000000000000000E+020
 20
1.0000000000000000E+020
 30
1.0000000000000000E+020
  9
$PEXTMAX
 10
-1.0000000000000000E+020
 20
-1.0000000000000000E+020
 30
-1.0000000000000000E+020
  9
$PLIMMIN
 10
0.0
 20
0.0
  9
$PLIMMAX
 10
420.0
 20
297.0
  9
$UNITMODE
 70
     0
  9
$VISRETAIN
 70
     1
  9
$PLINEGEN
 70
     0
  9
$PSLTSCALE
 70
     1
  0
ENDSEC
  0
SECTION
  2
TABLES
  0
TABLE
  2
VPORT
 70
     2
  0
VPORT
  2
*ACTIVE
 70
     0
 10
0.0
 20
0.0
 11
1.0
 21
1.0
 12
-47.550200772879407
 22
7.965231824752383
 13
0.0
 23
0.0
 14
0.5
 24
0.5
 15
10.0
 25
10.0
 16
0.0
 26
0.0
 36
1.0
 17
0.0
 27
0.0
 37
0.0
 40
62.033073532504623
 41
1.6070460704607039
 42
50.0
 43
0.0
 44
0.0
 50
0.0
 51
0.0
 71
     0
 72
   800
 73
     1
 74
     1
 75
     0
 76
     0
 77
     0
 78
     0
  0
ENDTAB
  0
TABLE
  2
LTYPE
 70
     2
  0
LTYPE
  2
CONTINUOUS
 70
     0
  3
_______________________________________________
 72
    65
 73
     2
 40
1.0
 49
1.0
 49
0.0
  0
LTYPE
  2
STRICHPUNKT
 70
     0
  3
__ . __ . __ . __ . __ . __ . __ . __ . __ . __
 72
    65
 73
     4
 40
1.0
 49
0.5
 49
-0.25
 49
0.0
 49
-0.25
  0
ENDTAB
  0
TABLE
  2
LAYER
 70
     7
  0
LAYER
  2
0
 70
     0
 62
    30
  6
CONTINUOUS
  0
LAYER
  2
1
 70
     0
 62
     2
  6
CONTINUOUS
  0
LAYER
  2
2
 70
     0
 62
     9
  6
CONTINUOUS
  0
LAYER
  2
4
 70
     1
 62
     4
  6
CONTINUOUS
  0
LAYER
  2
5
 70
     0
 62
     1
  6
CONTINUOUS
  0
LAYER
  2
6
 70
     0
 62
     3
  6
CONTINUOUS
  0
LAYER
  2
DEFPOINTS
 70
     0
 62
     7
  6
CONTINUOUS
  0
ENDTAB
  0
TABLE
  2
STYLE
 70
     2
  0
STYLE
  2
STANDARD
 70
     0
 40
0.0
 41
1.0
 50
0.0
 71
     0
 42
2.5
  3
txt
  4

  0
STYLE
  2
BESCHLAG
 70
     0
 40
0.0
 41
1.0
 50
0.0
 71
     0
 42
3.5
  3
txt
  4

  0
ENDTAB
  0
TABLE
  2
VIEW
 70
     0
  0
ENDTAB
  0
TABLE
  2
UCS
 70
     0
  0
ENDTAB
  0
TABLE
  2
APPID
 70
     1
  0
APPID
  2
ACAD
 70
     0
  0
ENDTAB
  0
TABLE
  2
DIMSTYLE
 70
     1
  0
DIMSTYLE
  2
OPO-SSTRICH
 70
     0
  3

  4

  5

  6
OBLIQUE
  7
OBLIQUE
 40
1.0
 41
2.0
 42
2.0
 43
0.0
 44
1.0
 45
0.0
 46
1.0
 47
0.0
 48
0.0
140
3.5
141
0.0
142
0.0
143
0.039370078740157
144
1.0
145
0.0
146
0.7114285714285716
147
1.0
 71
     0
 72
     0
 73
     0
 74
     0
 75
     0
 76
     0
 77
     1
 78
     8
170
     0
171
     2
172
     1
173
     1
174
     1
175
     0
176
   256
177
   256
178
   256
  0
ENDTAB
  0
ENDSEC
  0
SECTION
  2
BLOCKS
  0
BLOCK
  8
0
  2
$MODEL_SPACE
 70
     0
 10
0.0
 20
0.0
 30
0.0
  3
$MODEL_SPACE
  1

  0
ENDBLK
  5
1C
  8
0
  0
BLOCK
 67
     1
  8
0
  2
$PAPER_SPACE
 70
     0
 10
0.0
 20
0.0
 30
0.0
  3
$PAPER_SPACE
  1

  0
ENDBLK
  5
19
 67
     1
  8
0
  0
BLOCK
  8
0
  2
_OBLIQUE
 70
     0
 10
0.0
 20
0.0
 30
0.0
  3
_OBLIQUE
  1

  0
LINE
  5
204
  8
0
 62
     0
 10
-0.5
 20
-0.5
 30
0.0
 11
0.5
 21
0.5
 31
0.0
  0
ENDBLK
  5
206
  8
0
  0
BLOCK
  8
0
  2
NULLPUNKT
 70
     0
 10
0.0
 20
0.0
 30
0.0
  3
NULLPUNKT
  1

  0
SOLID
  5
254
  8
5
 10
0.0
 20
0.0
 30
0.0
 11
2.0
 21
0.0
 31
0.0
 12
0.0
 22
-2.0
 32
0.0
 13
0.0
 23
-2.0
 33
0.0
  0
SOLID
  5
255
  8
5
 10
0.0
 20
0.0
 30
0.0
 11
-2.0
 21
0.0
 31
0.0
 12
0.0
 22
2.0
 32
0.0
 13
0.0
 23
2.0
 33
0.0
  0
POLYLINE
  5
256
  8
5
 66
     1
 10
0.0
 20
0.0
 30
0.0
  0
VERTEX
  5
3EE
  8
5
 10
0.0
 20
2.0
 30
0.0
  0
VERTEX
  5
3EF
  8
5
 10
0.0
 20
-2.0
 30
0.0
  0
SEQEND
  5
3F0
  8
5
  0
POLYLINE
  5
257
  8
5
 66
     1
 10
0.0
 20
0.0
 30
0.0
  0
VERTEX
  5
3F1
  8
5
 10
-2.0
 20
0.0
 30
0.0
  0
VERTEX
  5
3F2
  8
5
 10
2.0
 20
0.0
 30
0.0
  0
SEQEND
  5
3F3
  8
5
  0
CIRCLE
  5
258
  8
5
 10
0.0
 20
0.0
 30
0.0
 40
2.0
  0
ENDBLK
  5
25A
  8
0
  0
BLOCK
  8
0
  2
*X2
 70
     1
 10
0.0
 20
0.0
 30
0.0
  3
*X2
  1

  0
LINE
  5
286
  8
0
 62
     0
 10
209.03469187185789
 20
-150.74123839585729
 30
0.0
 11
212.48693144243111
 21
-147.28899882528421
 31
0.0
  0
LINE
  5
287
  8
0
 62
     0
 10
207.33763559701009
 20
-150.74123839585729
 30
0.0
 11
209.6384033047091
 21
-148.4404706881584
 31
0.0
  0
LINE
  5
288
  8
0
 62
     0
 10
205.64057932216249
 20
-150.74123839585729
 30
0.0
 11
208.7898751675049
 21
-147.59194255051489
 31
0.0
  0
LINE
  5
289
  8
0
 62
     0
 10
203.9435230473147
 20
-150.74123839585729
 30
0.0
 11
205.9965441053227
 21
-148.68821733784941
 31
0.0
  0
LINE
  5
28A
  8
0
 62
     0
 10
202.24646677246699
 20
-150.74123839585729
 30
0.0
 11
205.0928188925788
 21
-147.89488627574559
 31
0.0
  0
LINE
  5
28B
  8
0
 62
     0
 10
200.54941049761931
 20
-150.74123839585729
 30
0.0
 11
204.24429075537461
 21
-147.04635813810211
 31
0.0
  0
LINE
  5
28C
  8
0
 62
     0
 10
198.8523542227716
 20
-150.74123839585729
 30
0.0
 11
201.39576261765259
 21
-148.1978300009763
 31
0.0
  0
LINE
  5
28D
  8
0
 62
     0
 10
197.15529794792391
 20
-150.74123839585729
 30
0.0
 11
200.5472344804484
 21
-147.34930186333281
 31
0.0
  0
LINE
  5
28E
  8
0
 62
     0
 10
195.4582416730762
 20
-150.74123839585729
 30
0.0
 11
197.6987063433105
 21
-148.50077372562311
 31
0.0
  0
LINE
  5
28F
  8
0
 62
     0
 10
193.76118539822841
 20
-150.74123839585729
 30
0.0
 11
196.85017820433811
 21
-147.65224558974759
 31
0.0
  0
LINE
  5
290
  8
0
 62
     0
 10
192.0641291233807
 20
-150.74123839585729
 30
0.0
 11
194.1173372549957
 21
-148.6880302642424
 31
0.0
  0
LINE
  5
291
  8
0
 62
     0
 10
190.36707284853301
 20
-150.74123839585729
 30
0.0
 11
193.1531219312173
 21
-147.95518931317309
 31
0.0
  0
LINE
  5
292
  8
0
 62
     0
 10
188.6700165736853
 20
-150.74123839585729
 30
0.0
 11
192.30459379346141
 21
-147.10666117608119
 31
0.0
  0
LINE
  5
293
  8
0
 62
     0
 10
186.97296029883759
 20
-150.74123839585729
 30
0.0
 11
189.45606565480571
 21
-148.2581330398892
 31
0.0
  0
LINE
  5
294
  8
0
 62
     0
 10
185.27590402398991
 20
-150.74123839585729
 30
0.0
 11
188.60753751818439
 21
-147.4096049016629
 31
0.0
  0
LINE
  5
295
  8
0
 62
     0
 10
183.5788477491422
 20
-150.74123839585729
 30
0.0
 11
185.7590093796716
 21
-148.56107676532801
 31
0.0
  0
LINE
  5
296
  8
0
 62
     0
 10
173.68179147429441
 20
-158.9412383958574
 30
0.0
 11
175.6254013772708
 21
-156.99762849288101
 31
0.0
  0
LINE
  5
297
  8
0
 62
     0
 10
181.8817914742944
 20
-150.74123839585729
 30
0.0
 11
184.9104812430501
 21
-147.7125486271016
 31
0.0
  0
LINE
  5
298
  8
0
 62
     0
 10
172.09555637211059
 20
-158.83041722319351
 30
0.0
 11
177.1081851371911
 21
-153.817788458113
 31
0.0
  0
LINE
  5
299
  8
0
 62
     0
 10
180.18473519944669
 20
-150.74123839585729
 30
0.0
 11
183.9600196840459
 21
-146.9659539112582
 31
0.0
  0
LINE
  5
29A
  8
0
 62
     0
 10
173.42236410156499
 20
-155.80655321889139
 30
0.0
 11
181.2134249684768
 21
-148.01549235197959
 31
0.0
  0
LINE
  5
29B
  8
0
 62
     0
 10
174.90514786148529
 20
-152.62671318412339
 30
0.0
 11
180.3648968301421
 21
-147.16696421546661
 31
0.0
  0
LINE
  5
29C
  8
0
 62
     0
 10
176.3879316214055
 20
-149.44687314935541
 30
0.0
 11
178.8935663749036
 21
-146.9412383958574
 31
0.0
  0
LINE
  5
29D
  8
0
 62
     0
 10
210.7317481467056
 20
-150.74123839585729
 30
0.0
 11
213.3354595796352
 21
-148.13752696292769
 31
0.0
  0
LINE
  5
29E
  8
0
 62
     0
 10
212.42880442155331
 20
-150.74123839585729
 30
0.0
 11
216.18331652639631
 21
-146.98672629101429
 31
0.0
  0
LINE
  5
29F
  8
0
 62
     0
 10
214.12586069640099
 20
-150.74123839585729
 30
0.0
 11
217.03251585456141
 21
-147.83458323769699
 31
0.0
  0
LINE
  5
2A0
  8
0
 62
     0
 10
215.8229169712487
 20
-150.74123839585729
 30
0.0
 11
217.9022931462959
 21
-148.66186222081021
 31
0.0
  0
LINE
  5
2A1
  8
0
 62
     0
 10
217.51997324609641
 20
-150.74123839585729
 30
0.0
 11
220.72957212948751
 21
-147.53163951246631
 31
0.0
  0
LINE
  5
2A2
  8
0
 62
     0
 10
219.21702952094421
 20
-150.74123839585729
 30
0.0
 11
221.57810026669179
 21
-148.3801676501098
 31
0.0
  0
LINE
  5
2A3
  8
0
 62
     0
 10
220.91408579579189
 20
-150.74123839585729
 30
0.0
 11
224.42662840441369
 21
-147.22869578723561
 31
0.0
  0
LINE
  5
2A4
  8
0
 62
     0
 10
222.6111420706396
 20
-150.74123839585729
 30
0.0
 11
225.27515654161789
 21
-148.07722392487909
 31
0.0
  0
LINE
  5
2A5
  8
0
 62
     0
 10
224.30819834548731
 20
-150.74123839585729
 30
0.0
 11
228.10273896020391
 21
-146.9466977811407
 31
0.0
  0
LINE
  5
2A6
  8
0
 62
     0
 10
226.00525462033499
 20
-150.74123839585729
 30
0.0
 11
228.97221281686191
 21
-147.77428019933041
 31
0.0
  0
LINE
  5
2A7
  8
0
 62
     0
 10
237.05393392129139
 20
-139.69255909490099
 30
0.0
 11
237.5238711530497
 21
-139.22262186314271
 31
0.0
  0
LINE
  5
2A8
  8
0
 62
     0
 10
227.70231089518279
 20
-150.74123839585729
 30
0.0
 11
229.8247164397626
 21
-148.61883285127749
 31
0.0
  0
LINE
  5
2A9
  8
0
 62
     0
 10
237.29665495571609
 20
-141.14689433532411
 30
0.0
 11
239.27961001578771
 21
-139.16393927525249
 31
0.0
  0
LINE
  5
2AA
  8
0
 62
     0
 10
229.3993671700305
 20
-150.74123839585729
 30
0.0
 11
232.66926909030411
 21
-147.47133647558371
 31
0.0
  0
LINE
  5
2AB
  8
0
 62
     0
 10
237.5510372949328
 20
-142.58956827095511
 30
0.0
 11
240.24981473455199
 21
-139.89079083133581
 31
0.0
  0
LINE
  5
2AC
  8
0
 62
     0
 10
231.0964234448781
 20
-150.74123839585729
 30
0.0
 11
233.51779722787259
 21
-148.31986461286289
 31
0.0
  0
LINE
  5
2AD
  8
0
 62
     0
 10
240.0902202387023
 20
-141.74744160203329
 30
0.0
 11
242.1271825445435
 21
-139.71047929619201
 31
0.0
  0
LINE
  5
2AE
  8
0
 62
     0
 10
237.73641278548931
 20
-144.1012490552462
 30
0.0
 11
239.94584816244179
 21
-141.89181367829369
 31
0.0
  0
LINE
  5
2AF
  8
0
 62
     0
 10
232.79347971972581
 20
-150.74123839585729
 30
0.0
 11
239.73153098238001
 21
-143.80318713320329
 31
0.0
  0
LINE
  5
2B0
  8
0
 62
     0
 10
241.79347971972589
 20
-141.74123839585741
 30
0.0
 11
244.0045503545351
 21
-139.53016776104809
 31
0.0
  0
LINE
  5
2B1
  8
0
 62
     0
 10
234.49053599457361
 20
-150.74123839585729
 30
0.0
 11
239.51939894802399
 21
-145.71237544240699
 31
0.0
  0
LINE
  5
2B2
  8
0
 62
     0
 10
243.49053599457349
 20
-141.74123839585741
 30
0.0
 11
245.8819181645267
 21
-139.34985622590429
 31
0.0
  0
LINE
  5
2B3
  8
0
 62
     0
 10
236.1875922694212
 20
-150.74123839585729
 30
0.0
 11
239.307266913668
 21
-147.62156375161069
 31
0.0
  0
LINE
  5
2B4
  8
0
 62
     0
 10
245.1875922694212
 20
-141.74123839585741
 30
0.0
 11
247.75928597451809
 21
-139.16954469076049
 31
0.0
  0
LINE
  5
2B5
  8
0
 62
     0
 10
237.884648544269
 20
-150.74123839585729
 30
0.0
 11
239.09513487931201
 21
-149.53075206081439
 31
0.0
  0
LINE
  5
2B6
  8
0
 62
     0
 10
246.07909949336241
 20
-142.54678744676411
 30
0.0
 11
249.8130627562216
 21
-138.81282418390481
 31
0.0
  0
LINE
  5
2B7
  8
0
 62
     0
 10
246.2966708106506
 20
-144.02627240432361
 30
0.0
 11
248.4606363976408
 21
-141.86230681733321
 31
0.0
  0
LINE
  5
2B8
  8
0
 62
     0
 10
249.08170481911671
 20
-141.24123839585741
 30
0.0
 11
251.56863821296071
 21
-138.75430500201341
 31
0.0
  0
LINE
  5
2B9
  8
0
 62
     0
 10
246.5142421279387
 20
-145.5057573618831
 30
0.0
 11
248.4606363976408
 21
-143.55936309218089
 31
0.0
  0
LINE
  5
2BA
  8
0
 62
     0
 10
250.77876109396439
 20
-141.24123839585741
 30
0.0
 11
251.96063639764091
 21
-140.059363092181
 31
0.0
  0
LINE
  5
2BB
  8
0
 62
     0
 10
244.9606363976408
 20
-148.75641936702871
 30
0.0
 11
245.1758173688122
 21
-148.54123839585731
 31
0.0
  0
LINE
  5
2BC
  8
0
 62
     0
 10
246.73181344522689
 20
-146.98524231944259
 30
0.0
 11
248.4606363976408
 21
-145.25641936702871
 31
0.0
  0
LINE
  5
2BD
  8
0
 62
     0
 10
244.9606363976408
 20
-150.45347564187631
 30
0.0
 11
248.4606363976408
 21
-146.95347564187631
 31
0.0
  0
LINE
  5
2BE
  8
0
 62
     0
 10
246.36992991850761
 20
-150.74123839585729
 30
0.0
 11
248.4606363976408
 21
-148.65053191672411
 31
0.0
  0
LINE
  5
2BF
  8
0
 62
     0
 10
248.06698619335529
 20
-150.74123839585729
 30
0.0
 11
249.56698619335529
 21
-149.24123839585741
 31
0.0
  0
LINE
  5
2C0
  8
0
 62
     0
 10
249.764042468203
 20
-150.74123839585729
 30
0.0
 11
251.71337778417131
 21
-148.79190307988901
 31
0.0
  0
LINE
  5
2C1
  8
0
 62
     0
 10
251.46109874305071
 20
-150.74123839585729
 30
0.0
 11
251.96063639764091
 21
-150.24170074126721
 31
0.0
  0
ENDBLK
  5
2C3
  8
0
  0
BLOCK
  8
0
  2
*D3
 70
     1
 10
0.0
 20
0.0
 30
0.0
  3
*D3
  1

  0
LINE
  5
314
  8
1
 10
-3.5
 20
-1.7999999999999541
 30
0.0
 11
-3.5
 21
-15.586675203713289
 31
0.0
  0
LINE
  5
315
  8
1
 10
-83.499999999999986
 20
-10.163032306626061
 30
0.0
 11
-83.499999999999986
 21
-15.586675203713289
 31
0.0
  0
LINE
  5
316
  8
1
 10
-2.5
 20
-14.5866752037133
 30
0.0
 11
-84.500000000000014
 21
-14.5866752037133
 31
0.0
  0
INSERT
  5
317
  8
1
  2
_OBLIQUE
 10
-3.5
 20
-14.5866752037133
 30
0.0
 41
2.0
 42
2.0
 43
2.0
  0
INSERT
  5
318
  8
1
  2
_OBLIQUE
 10
-83.499999999999986
 20
-14.5866752037133
 30
0.0
 41
2.0
 42
2.0
 43
2.0
 50
180.0
  0
TEXT
  5
319
  8
0
 10
-46.20139836289222
 20
-13.5198266361826
 30
0.0
 40
3.5
  1
80
  7
BESCHLAG
  0
POINT
  5
31A
  8
DEFPOINTS
 62
     0
 10
-3.5
 20
0.2000000000000455
 30
0.0
  0
POINT
  5
31B
  8
DEFPOINTS
 62
     0
 10
-83.499999999999986
 20
-8.1630323066260644
 30
0.0
  0
POINT
  5
31C
  8
DEFPOINTS
 62
     0
 10
-83.499999999999986
 20
-14.5866752037133
 30
0.0
  0
ENDBLK
  5
2F9
  8
0
  0
BLOCK
  8
0
  2
*D4
 70
     1
 10
0.0
 20
0.0
 30
0.0
  3
*D4
  1

  0
LINE
  5
31D
  8
1
 10
-3.5
 20
14.0
 30
0.0
 11
-3.4999999999999991
 21
24.91497221274971
 31
0.0
  0
LINE
  5
31E
  8
1
 10
0.0000000000000001
 20
2.0
 30
0.0
 11
0.0000000000000015
 21
24.91497221274971
 31
0.0
  0
LINE
  5
31F
  8
1
 10
-3.4999999999999991
 20
23.91497221274971
 30
0.0
 11
-5.4999999999999991
 21
23.91497221274971
 31
0.0
  0
LINE
  5
320
  8
1
 10
0.0000000000000015
 20
23.91497221274971
 30
0.0
 11
2.0000000000000009
 21
23.91497221274971
 31
0.0
  0
LINE
  5
321
  8
1
 10
-3.4999999999999991
 20
23.91497221274971
 30
0.0
 11
0.0000000000000015
 21
23.91497221274971
 31
0.0
  0
INSERT
  5
322
  8
1
  2
_OBLIQUE
 10
-3.4999999999999991
 20
23.91497221274971
 30
0.0
 41
2.0
 42
2.0
 43
2.0
  0
INSERT
  5
323
  8
1
  2
_OBLIQUE
 10
0.0000000000000015
 20
23.91497221274971
 30
0.0
 41
2.0
 42
2.0
 43
2.0
 50
180.0
  0
TEXT
  5
324
  8
0
 10
-5.153308321964527
 20
24.984208229120789
 30
0.0
 40
3.5
  1
3.5
  7
BESCHLAG
  0
POINT
  5
325
  8
DEFPOINTS
 62
     0
 10
-3.5
 20
12.0
 30
0.0
  0
POINT
  5
326
  8
DEFPOINTS
 62
     0
 10
0.0
 20
0.0
 30
0.0
  0
POINT
  5
327
  8
DEFPOINTS
 62
     0
 10
0.0000000000000015
 20
23.91497221274971
 30
0.0
  0
ENDBLK
  5
307
  8
0
  0
BLOCK
  8
0
  2
*D5
 70
     1
 10
0.0
 20
0.0
 30
0.0
  3
*D5
  1

  0
LINE
  5
328
  8
1
 10
-5.5
 20
12.0
 30
0.0
 11
-24.109825210042111
 21
12.0
 31
0.0
  0
LINE
  5
329
  8
1
 10
-5.5
 20
0.0000000000000006
 30
0.0
 11
-24.109825210042111
 21
0.0000000000000058
 31
0.0
  0
LINE
  5
32A
  8
1
 10
-23.109825210042111
 20
13.0
 30
0.0
 11
-23.109825210042111
 21
-0.9999999999999945
 31
0.0
  0
INSERT
  5
32B
  8
1
  2
_OBLIQUE
 10
-23.109825210042111
 20
12.0
 30
0.0
 41
2.0
 42
2.0
 43
2.0
 50
90.0
  0
INSERT
  5
32C
  8
1
  2
_OBLIQUE
 10
-23.109825210042111
 20
0.0000000000000056
 30
0.0
 41
2.0
 42
2.0
 43
2.0
 50
270.0
  0
TEXT
  5
32D
  8
0
 10
-24.116987556563259
 20
3.1434174624829492
 30
0.0
 40
3.5
  1
12
 50
90.0
  7
BESCHLAG
  0
POINT
  5
32E
  8
DEFPOINTS
 62
     0
 10
-3.5
 20
12.0
 30
0.0
  0
POINT
  5
32F
  8
DEFPOINTS
 62
     0
 10
-3.5
 20
0.0
 30
0.0
  0
POINT
  5
330
  8
DEFPOINTS
 62
     0
 10
-23.109825210042111
 20
0.0000000000000056
 30
0.0
  0
ENDBLK
  5
313
  8
0
  0
ENDSEC
  0
SECTION
  2
ENTITIES
  0
INSERT
  5
25B
  8
5
  2
NULLPUNKT
 10
0.0
 20
0.0
 30
0.0
  0
DIMENSION
  5
2E2
  8
1
  2
*D3
 10
-83.499999999999986
 20
-14.5866752037133
 30
0.0
 11
-43.5
 21
-11.799669746687369
 31
0.0
 70
     0
 13
-3.5
 23
0.2000000000000455
 33
0.0
 14
-83.499999999999986
 24
-8.1630323066260644
 34
0.0
  0
INSERT
  5
2E3
  8
2
  2
*X2
 10
-255.4606363976408
 20
150.74123839585729
 30
0.0
1001
ACAD
1000
HATCH
1002
{
1070
    16
1000
_U,I
1040
1.1999999999999991
1040
0.7853981633974483
1070
     0
1002
}
  0
TEXT
  5
2E4
  8
1
 10
-68.817069072066943
 20
5.6683747236990021
 30
0.0
 40
2.4999999499999999
  1
Hebgo 167/627
  0
POLYLINE
  5
2E5
  8
5
 66
     1
 10
0.0
 20
0.0
 30
0.0
  0
VERTEX
  5
3F4
  8
5
 10
-69.959409863170777
 20
0.0
 30
0.0
  0
VERTEX
  5
3F5
  8
5
 10
-70.147406114211662
 20
-0.3740541751267301
 30
0.0
  0
VERTEX
  5
3F6
  8
5
 10
-70.13565248773898
 20
-0.7381890893179844
 30
0.0
  0
VERTEX
  5
3F7
  8
5
 10
-69.865414545492285
 20
-1.055344588516391
 30
0.0
  0
VERTEX
  5
3F8
  8
5
 10
-70.018155532798801
 20
-1.3842428248917711
 30
0.0
  0
VERTEX
  5
3F9
  8
5
 10
-70.006407522010022
 20
-1.7131410612671509
 30
0.0
  0
VERTEX
  5
3FA
  8
5
 10
-69.877162556281064
 20
-1.9010841200938551
 30
0.0
  0
VERTEX
  5
3FB
  8
5
 10
-69.665670283662394
 20
-2.171251738014234
 30
0.0
  0
VERTEX
  5
3FC
  8
5
 10
-68.98419019128346
 20
-2.9817545917758248
 30
0.0
  0
VERTEX
  5
3FD
  8
5
 10
-68.937192532444215
 20
-3.345889505967079
 30
0.0
  0
VERTEX
  5
3FE
  8
5
 10
-68.866693236343281
 20
-3.710028653300923
 30
0.0
  0
VERTEX
  5
3FF
  8
5
 10
-68.690450611775077
 20
-4.0389268896763042
 30
0.0
  0
VERTEX
  5
400
  8
5
 10
-68.431955064633257
 20
-4.3090945075969103
 30
0.0
  0
VERTEX
  5
401
  8
5
 10
-68.384957405794012
 20
-4.35608238887471
 30
0.0
  0
VERTEX
  5
402
  8
5
 10
-68.255712440065054
 20
-4.7202215362085553
 30
0.0
  0
VERTEX
  5
403
  8
5
 10
-67.82097426835503
 20
-5.1195973613582728
 30
0.0
  0
VERTEX
  5
404
  8
5
 10
-67.550730710424432
 20
-5.2722995092265128
 30
0.0
  0
VERTEX
  5
405
  8
5
 10
-66.845754596467714
 20
-5.6481856268799211
 30
0.0
  0
VERTEX
  5
406
  8
5
 10
-66.458014083596936
 20
-5.6599325971992576
 30
0.0
  0
VERTEX
  5
407
  8
5
 10
-66.299027132198262
 20
-5.6893041258231269
 30
0.0
  0
SEQEND
  5
408
  8
5
  0
DIMENSION
  5
2E6
  8
1
  2
*D4
 10
0.0000000000000015
 20
23.91497221274971
 30
0.0
 11
-1.749999999999998
 21
26.70317139419582
 31
0.0
 70
     0
 13
-3.5
 23
12.0
 33
0.0
 14
0.0
 24
0.0
 34
0.0
  0
DIMENSION
  5
2E7
  8
1
  2
*D5
 10
-23.109825210042111
 20
0.0000000000000056
 30
0.0
 11
-25.866987556563259
 21
6.0000000000000018
 31
0.0
 70
     0
 13
-3.5
 23
12.0
 33
0.0
 14
-3.5
 24
0.0
 34
0.0
 50
90.0
  0
POLYLINE
  5
2E8
  8
6
 66
     1
 10
0.0
 20
0.0
 30
0.0
 70
     1
  0
VERTEX
  5
409
  8
6
 10
-17.764955767383981
 20
7.3313570069499292
 30
0.0
  0
VERTEX
  5
40A
  8
6
 10
-18.399960240675
 20
10.932646331700649
 30
0.0
 42
-0.4562050656786162
  0
VERTEX
  5
40B
  8
6
 10
-17.92421377928531
 20
11.5191928740237
 30
0.0
  0
VERTEX
  5
40C
  8
6
 10
-16.077245796854641
 20
11.5807584734382
 30
0.0
 42
-0.1989123673796593
  0
VERTEX
  5
40D
  8
6
 10
-15.933951405052991
 20
11.52692377474613
 30
0.0
  0
VERTEX
  5
40E
  8
6
 10
-15.107743615283651
 20
10.754019713348949
 30
0.0
 42
0.4142135623731022
  0
VERTEX
  5
40F
  8
6
 10
-14.825057906824661
 20
10.76344257029745
 30
0.0
  0
VERTEX
  5
410
  8
6
 10
-14.13219068158832
 20
11.50409374210175
 30
0.0
 42
-0.4142135623730963
  0
VERTEX
  5
411
  8
6
 10
-13.849504973129561
 20
11.513516599050259
 30
0.0
  0
VERTEX
  5
412
  8
6
 10
-13.10885380132526
 20
10.82064937381414
 30
0.0
 42
0.4142135623730953
  0
VERTEX
  5
413
  8
6
 10
-12.826168092866279
 20
10.830072230762649
 30
0.0
  0
VERTEX
  5
414
  8
6
 10
-12.133300867630171
 20
11.57072340256695
 30
0.0
 42
-0.4142135623730998
  0
VERTEX
  5
415
  8
6
 10
-11.850615159171181
 20
11.580146259515679
 30
0.0
  0
VERTEX
  5
416
  8
6
 10
-11.10996398736688
 20
10.88727903427934
 30
0.0
 42
0.4142135623730999
  0
VERTEX
  5
417
  8
6
 10
-10.827278278908119
 20
10.896701891228069
 30
0.0
  0
VERTEX
  5
418
  8
6
 10
-10.134411053672009
 20
11.63735306303237
 30
0.0
 42
-0.4142135623730963
  0
VERTEX
  5
419
  8
6
 10
-9.8517253452127989
 20
11.646775919980881
 30
0.0
  0
VERTEX
  5
41A
  8
6
 10
-9.1110741734087242
 20
10.95390869474476
 30
0.0
 42
0.4142135623730941
  0
VERTEX
  5
41B
  8
6
 10
-8.8283884649499669
 20
10.963331551693271
 30
0.0
  0
VERTEX
  5
41C
  8
6
 10
-8.1355212397136256
 20
11.703982723497569
 30
0.0
 42
-0.4142135623730912
  0
VERTEX
  5
41D
  8
6
 10
-7.8528355312546401
 20
11.71340558044607
 30
0.0
  0
VERTEX
  5
41E
  8
6
 10
-7.1121843594505663
 20
11.020538355209959
 30
0.0
 42
0.4142135623730953
  0
VERTEX
  5
41F
  8
6
 10
-6.8294986509913542
 20
11.029961212158691
 30
0.0
  0
VERTEX
  5
420
  8
6
 10
-6.0565945895941686
 20
11.856169001928031
 30
0.0
 42
-0.1989123673796594
  0
VERTEX
  5
421
  8
6
 10
-5.9172032729370576
 20
11.91942655756861
 30
0.0
  0
VERTEX
  5
422
  8
6
 10
-3.5
 20
12.0
 30
0.0
  0
VERTEX
  5
423
  8
6
 10
-3.5
 20
9.6499999999998636
 30
0.0
 42
-0.4142135623730951
  0
VERTEX
  5
424
  8
6
 10
-4.3500000000001364
 20
8.7999999999999545
 30
0.0
  0
VERTEX
  5
425
  8
6
 10
-4.3535898384861857
 20
8.7999999999999545
 30
0.0
 42
-0.577350269189631
  0
VERTEX
  5
426
  8
6
 10
-4.5267949192432289
 20
9.0999999999999091
 30
0.0
  0
VERTEX
  5
427
  8
6
 10
-4.295854811567323
 20
9.5
 30
0.0
  0
VERTEX
  5
428
  8
6
 10
-6.800000000000181
 20
9.5
 30
0.0
 42
0.4142135623730951
  0
VERTEX
  5
429
  8
6
 10
-7.0
 20
9.2999999999999545
 30
0.0
  0
VERTEX
  5
42A
  8
6
 10
-7.0
 20
1.700000000000045
 30
0.0
 42
0.4142135623730951
  0
VERTEX
  5
42B
  8
6
 10
-6.800000000000181
 20
1.5
 30
0.0
  0
VERTEX
  5
42C
  8
6
 10
-4.295854811567323
 20
1.5
 30
0.0
  0
VERTEX
  5
42D
  8
6
 10
-4.5267949192432289
 20
1.8999999999998629
 30
0.0
 42
-0.5773502691896296
  0
VERTEX
  5
42E
  8
6
 10
-4.3535898384861857
 20
2.200000000000045
 30
0.0
  0
VERTEX
  5
42F
  8
6
 10
-4.3500000000001364
 20
2.200000000000045
 30
0.0
 42
-0.4142135623730909
  0
VERTEX
  5
430
  8
6
 10
-3.5
 20
1.3499999999999091
 30
0.0
  0
VERTEX
  5
431
  8
6
 10
-3.5
 20
0.2000000000000455
 30
0.0
 42
-0.4142135623730951
  0
VERTEX
  5
432
  8
6
 10
-3.700000000000045
 20
0.0
 30
0.0
  0
VERTEX
  5
433
  8
6
 10
-10.30000000000018
 20
0.0
 30
0.0
 42
-0.4142135623730951
  0
VERTEX
  5
434
  8
6
 10
-10.5
 20
0.2000000000000455
 30
0.0
  0
VERTEX
  5
435
  8
6
 10
-10.5
 20
2.0
 30
0.0
 42
-0.4142135623730951
  0
VERTEX
  5
436
  8
6
 10
-10.30000000000018
 20
2.200000000000045
 30
0.0
  0
VERTEX
  5
437
  8
6
 10
-8.7315628267933771
 20
2.200000000000045
 30
0.0
 42
0.4576557074357447
  0
VERTEX
  5
438
  8
6
 10
-8.5336909997204202
 20
2.429098798098948
 30
0.0
  0
VERTEX
  5
439
  8
6
 10
-9.474867470308709
 20
8.829098798098812
 30
0.0
 42
0.3720661125927524
  0
VERTEX
  5
43A
  8
6
 10
-9.6727392973816677
 20
9.0
 30
0.0
  0
VERTEX
  5
43B
  8
6
 10
-15.32099144137487
 20
9.0
 30
0.0
 42
0.3821619133551315
  0
VERTEX
  5
43C
  8
6
 10
-15.519768188309619
 20
8.8220863052149525
 30
0.0
  0
VERTEX
  5
43D
  8
6
 10
-16.480231811690821
 20
0.1779136947850475
 30
0.0
 42
-0.3821619133551317
  0
VERTEX
  5
43E
  8
6
 10
-16.679008558625348
 20
0.0
 30
0.0
  0
VERTEX
  5
43F
  8
6
 10
-76.790418353561336
 20
0.0
 30
0.0
 42
0.2914734195860876
  0
VERTEX
  5
440
  8
6
 10
-76.971679910968533
 20
-0.1154763476520202
 30
0.0
  0
VERTEX
  5
441
  8
6
 10
-80.68770769734806
 20
-8.0845236523482527
 30
0.0
 42
-0.2914734195860876
  0
VERTEX
  5
442
  8
6
 10
-80.868969254755257
 20
-8.2000000000000455
 30
0.0
  0
VERTEX
  5
443
  8
6
 10
-83.186062884576344
 20
-8.2000000000000455
 30
0.0
 42
-0.5486187866266677
  0
VERTEX
  5
444
  8
6
 10
-83.367324441984024
 20
-7.9154763476519738
 30
0.0
  0
VERTEX
  5
445
  8
6
 10
-77.958155607385606
 20
3.6845236523481608
 30
0.0
 42
-0.2914734195860876
  0
VERTEX
  5
446
  8
6
 10
-77.776894049978409
 20
3.7999999999999541
 30
0.0
  0
VERTEX
  5
447
  8
6
 10
-75.404308099941545
 20
3.7999999999999541
 30
0.0
 42
-0.198912367379658
  0
VERTEX
  5
448
  8
6
 10
-75.26288674370403
 20
3.7414213562371961
 30
0.0
  0
VERTEX
  5
449
  8
6
 10
-73.687150809130117
 20
2.1656854250461488
 30
0.0
 42
0.4142135621382702
  0
VERTEX
  5
44A
  8
6
 10
-73.121465384407415
 20
2.1656854248192299
 30
0.0
  0
VERTEX
  5
44B
  8
6
 10
-71.545729453522426
 20
3.7414213565609771
 30
0.0
 42
-0.4142135623730951
  0
VERTEX
  5
44C
  8
6
 10
-71.262886741047851
 20
3.7414213565609771
 30
0.0
  0
VERTEX
  5
44D
  8
6
 10
-69.68715081296682
 20
2.1656854254995319
 30
0.0
 42
0.414213562373096
  0
VERTEX
  5
44E
  8
6
 10
-69.121465388017214
 20
2.1656854250461488
 30
0.0
  0
VERTEX
  5
44F
  8
6
 10
-67.545729453522426
 20
3.7414213565609771
 30
0.0
 42
-0.4142135623730951
  0
VERTEX
  5
450
  8
6
 10
-67.262886741047851
 20
3.7414213565609771
 30
0.0
  0
VERTEX
  5
451
  8
6
 10
-65.68715081296682
 20
2.1656854254995319
 30
0.0
 42
0.414213562373096
  0
VERTEX
  5
452
  8
6
 10
-65.121465388017214
 20
2.1656854250461488
 30
0.0
  0
VERTEX
  5
453
  8
6
 10
-63.545729453522419
 20
3.7414213565609771
 30
0.0
 42
-0.4142135623730951
  0
VERTEX
  5
454
  8
6
 10
-63.262886741047851
 20
3.7414213565609771
 30
0.0
  0
VERTEX
  5
455
  8
6
 10
-61.687150809140583
 20
2.1656854258867488
 30
0.0
 42
0.4142135627739707
  0
VERTEX
  5
456
  8
6
 10
-61.121465383803979
 20
2.1656854258203562
 30
0.0
  0
VERTEX
  5
457
  8
6
 10
-59.545729458609678
 20
3.7414213565609771
 30
0.0
 42
-0.414213562373096
  0
VERTEX
  5
458
  8
6
 10
-59.262886746135109
 20
3.7414213565609771
 30
0.0
  0
VERTEX
  5
459
  8
6
 10
-57.687150808548502
 20
2.1656854247253241
 30
0.0
 42
0.4142135619722224
  0
VERTEX
  5
45A
  8
6
 10
-57.121465383986333
 20
2.165685424658931
 30
0.0
  0
VERTEX
  5
45B
  8
6
 10
-55.545729453522419
 20
3.7414213565609771
 30
0.0
 42
-0.4142135623730951
  0
VERTEX
  5
45C
  8
6
 10
-55.262886741047851
 20
3.7414213565609771
 30
0.0
  0
VERTEX
  5
45D
  8
6
 10
-53.687150810802223
 20
2.1656854254995319
 30
0.0
 42
0.4142135623730971
  0
VERTEX
  5
45E
  8
6
 10
-53.121465385852609
 20
2.1656854250461488
 30
0.0
  0
VERTEX
  5
45F
  8
6
 10
-51.545729453522419
 20
3.7414213565609771
 30
0.0
 42
-0.4142135623730951
  0
VERTEX
  5
460
  8
6
 10
-51.262886741047851
 20
3.7414213565609771
 30
0.0
  0
VERTEX
  5
461
  8
6
 10
-49.687150810802223
 20
2.1656854254995319
 30
0.0
 42
0.4142135623730971
  0
VERTEX
  5
462
  8
6
 10
-49.121465385852609
 20
2.1656854250461488
 30
0.0
  0
VERTEX
  5
463
  8
6
 10
-47.545729453522434
 20
3.7414213565609771
 30
0.0
 42
-0.4142135623730951
  0
VERTEX
  5
464
  8
6
 10
-47.262886741047851
 20
3.7414213565609771
 30
0.0
  0
VERTEX
  5
465
  8
6
 10
-45.687150810802223
 20
2.1656854254995319
 30
0.0
 42
0.4142135623730971
  0
VERTEX
  5
466
  8
6
 10
-45.121465385852623
 20
2.1656854250461488
 30
0.0
  0
VERTEX
  5
467
  8
6
 10
-43.545729453522419
 20
3.7414213565609771
 30
0.0
 42
-0.4142135623730951
  0
VERTEX
  5
468
  8
6
 10
-43.262886741047851
 20
3.7414213565609771
 30
0.0
  0
VERTEX
  5
469
  8
6
 10
-41.687150810802223
 20
2.1656854254995319
 30
0.0
 42
0.4142135623730971
  0
VERTEX
  5
46A
  8
6
 10
-41.121465385852609
 20
2.1656854250461488
 30
0.0
  0
VERTEX
  5
46B
  8
6
 10
-39.545729453522419
 20
3.7414213565609771
 30
0.0
 42
-0.4142135623730951
  0
VERTEX
  5
46C
  8
6
 10
-39.262886741047851
 20
3.7414213565609771
 30
0.0
  0
VERTEX
  5
46D
  8
6
 10
-37.687150810802223
 20
2.1656854254995319
 30
0.0
 42
0.4142135623730971
  0
VERTEX
  5
46E
  8
6
 10
-37.121465385852609
 20
2.1656854250461488
 30
0.0
  0
VERTEX
  5
46F
  8
6
 10
-35.545729453522419
 20
3.7414213565609771
 30
0.0
 42
-0.4142135623730951
  0
VERTEX
  5
470
  8
6
 10
-35.262886741047851
 20
3.7414213565609771
 30
0.0
  0
VERTEX
  5
471
  8
6
 10
-33.687150810802223
 20
2.1656854254995319
 30
0.0
 42
0.4142135623730971
  0
VERTEX
  5
472
  8
6
 10
-33.121465385852609
 20
2.1656854250461488
 30
0.0
  0
VERTEX
  5
473
  8
6
 10
-31.545729453522419
 20
3.7414213565609771
 30
0.0
 42
-0.4142135623730951
  0
VERTEX
  5
474
  8
6
 10
-31.262886741047851
 20
3.7414213565609771
 30
0.0
  0
VERTEX
  5
475
  8
6
 10
-29.687150810802219
 20
2.1656854254995319
 30
0.0
 42
0.4142135623730971
  0
VERTEX
  5
476
  8
6
 10
-29.121465385852609
 20
2.1656854250461488
 30
0.0
  0
VERTEX
  5
477
  8
6
 10
-27.545729453522419
 20
3.7414213565609771
 30
0.0
 42
-0.4142135623730951
  0
VERTEX
  5
478
  8
6
 10
-27.262886741047851
 20
3.7414213565609771
 30
0.0
  0
VERTEX
  5
479
  8
6
 10
-25.687150809694451
 20
2.165685425685524
 30
0.0
 42
0.4142135625656129
  0
VERTEX
  5
47A
  8
6
 10
-25.121465384559311
 20
2.1656854254179052
 30
0.0
  0
VERTEX
  5
47B
  8
6
 10
-23.5457294560922
 20
3.7414213564345569
 30
0.0
 42
-0.4142135622884685
  0
VERTEX
  5
47C
  8
6
 10
-23.262886743658321
 20
3.7414213564345569
 30
0.0
  0
VERTEX
  5
47D
  8
6
 10
-21.687150812009349
 20
2.1656854253226352
 30
0.0
 42
0.4142135623730953
  0
VERTEX
  5
47E
  8
6
 10
-21.121465387060191
 20
2.1656854254042619
 30
0.0
  0
VERTEX
  5
47F
  8
6
 10
-18.598058682530791
 20
4.6890921307199269
 30
0.0
 42
0.2446984431877688
  0
SEQEND
  5
480
  8
6
  0
POLYLINE
  5
2E9
  8
6
 66
     1
 10
0.0
 20
0.0
 30
0.0
  0
VERTEX
  5
481
  8
6
 10
-6.7573679204913333
 20
7.8801505100391287
 30
0.0
  0
VERTEX
  5
482
  8
6
 10
-6.7573679204913333
 20
3.3730299308317622
 30
0.0
 42
0.1696954651108379
  0
VERTEX
  5
483
  8
6
 10
-6.5685377741874609
 20
2.8326722693334432
 30
0.0
  0
VERTEX
  5
484
  8
6
 10
-5.4009903132127874
 20
1.586363461016389
 30
0.0
  0
VERTEX
  5
485
  8
6
 10
-4.9827643231483298
 20
1.586363461016389
 30
0.0
  0
VERTEX
  5
486
  8
6
 10
-4.7823644096081352
 20
2.2661682497525808
 30
0.0
  0
VERTEX
  5
487
  8
6
 10
-3.5
 20
2.2661682497525808
 30
0.0
  0
VERTEX
  5
488
  8
6
 10
-3.5
 20
0.7494868104695343
 30
0.0
  0
VERTEX
  5
489
  8
6
 10
-3.057182309771405
 20
0.7494868104695343
 30
0.0
 42
0.2540269605425094
  0
VERTEX
  5
48A
  8
6
 10
-2.2033042976734118
 20
1.7866248699949661
 30
0.0
  0
VERTEX
  5
48B
  8
6
 10
-2.2033042976734118
 20
7.3819413863152468
 30
0.0
 42
-1.1750180217696331
  0
VERTEX
  5
48C
  8
6
 10
-1.415447986432127
 20
6.9959332008957062
 30
0.0
 42
-0.1198833152030244
  0
VERTEX
  5
48D
  8
6
 10
-0.9298694544554564
 20
1.0957199816159571
 30
0.0
 42
1.036378075569043
  0
VERTEX
  5
48E
  8
6
 10
-0.20866659641365
 20
1.0022347647975489
 30
0.0
 42
0.0303262569459768
  0
VERTEX
  5
48F
  8
6
 10
0.0
 20
6.0223318088428641
 30
0.0
 42
0.3603369118027708
  0
VERTEX
  5
490
  8
6
 10
-3.5
 20
10.271869074298129
 30
0.0
  0
VERTEX
  5
491
  8
6
 10
-3.5
 20
8.7502665323513611
 30
0.0
  0
VERTEX
  5
492
  8
6
 10
-4.7126600633735052
 20
8.7502665323513611
 30
0.0
  0
VERTEX
  5
493
  8
6
 10
-5.0524686257115263
 20
9.4300713210875529
 30
0.0
  0
VERTEX
  5
494
  8
6
 10
-5.3225729291577863
 20
9.4300713210875529
 30
0.0
  0
VERTEX
  5
495
  8
6
 10
-6.6382420767506574
 20
8.1053234964572312
 30
0.0
 42
0.1487578823938294
  0
VERTEX
  5
496
  8
6
 10
-6.7573679204913333
 20
7.8801505100391287
 30
0.0
 42
-0.1965725914261801
  0
SEQEND
  5
497
  8
6
  0
POLYLINE
  5
2EA
  8
6
 66
     1
 10
0.0
 20
0.0
 30
0.0
 70
     1
  0
VERTEX
  5
498
  8
6
 10
-4.124948973313848
 20
3.781881911245363
 30
0.0
 42
0.3491661681579718
  0
VERTEX
  5
499
  8
6
 10
-3.501702141524901
 20
4.28641401954087
 30
0.0
  0
VERTEX
  5
49A
  8
6
 10
-3.501702141524901
 20
6.4948657567592809
 30
0.0
 42
0.3803193669681215
  0
VERTEX
  5
49B
  8
6
 10
-4.3912893149952188
 20
7.1716157108476182
 30
0.0
  0
VERTEX
  5
49C
  8
6
 10
-5.070835080392043
 20
7.1716157108476182
 30
0.0
 42
0.2833203699984759
  0
VERTEX
  5
49D
  8
6
 10
-5.7297885842756378
 20
6.5042410847904639
 30
0.0
  0
VERTEX
  5
49E
  8
6
 10
-5.7297885842756378
 20
4.4013246759536742
 30
0.0
 42
0.2919982932858083
  0
VERTEX
  5
49F
  8
6
 10
-5.1352275711776647
 20
3.781881911245363
 30
0.0
  0
SEQEND
  5
4A0
  8
6
  0
LINE
  5
2EB
  8
6
  6
STRICHPUNKT
 10
-12.962799518621519
 20
12.992739979222049
 30
0.0
 11
-12.962799518621519
 21
-12.6696355239444
 31
0.0
  0
POLYLINE
  5
2EC
  8
5
 66
     1
 10
0.0
 20
0.0
 30
0.0
  0
VERTEX
  5
4A1
  8
5
 10
0.0
 20
-10.0
 30
0.0
  0
VERTEX
  5
4A2
  8
5
 10
0.0
 20
0.0
 30
0.0
  0
VERTEX
  5
4A3
  8
5
 10
-45.0
 20
0.0
 30
0.0
  0
VERTEX
  5
4A4
  8
5
 10
-75.698310130988602
 20
-8.2000000000000455
 30
0.0
  0
VERTEX
  5
4A5
  8
5
 10
-97.093720747652256
 20
-8.2000000000000455
 30
0.0
  0
SEQEND
  5
4A6
  8
5
  0
POLYLINE
  5
2ED
  8
4
 66
     1
 10
0.0
 20
0.0
 30
0.0
  0
VERTEX
  5
4A7
  8
4
 10
-80.736483754594474
 20
-8.2000000000000455
 30
0.0
  0
VERTEX
  5
4A8
  8
4
 10
-83.459195635787864
 20
-8.2000000000000455
 30
0.0
  0
VERTEX
  5
4A9
  8
4
 10
-77.902857046103918
 20
3.7991569918783621
 30
0.0
  0
VERTEX
  5
4AA
  8
4
 10
-17.278619139533021
 20
3.7991569918783621
 30
0.0
  0
VERTEX
  5
4AB
  8
4
 10
-18.49075875484823
 20
11.503081454527541
 30
0.0
  0
VERTEX
  5
4AC
  8
4
 10
-3.5
 20
12.0
 30
0.0
  0
VERTEX
  5
4AD
  8
4
 10
-3.5
 20
0.0
 30
0.0
  0
VERTEX
  5
4AE
  8
4
 10
-76.790418353561336
 20
0.0
 30
0.0
  0
VERTEX
  5
4AF
  8
4
 10
-80.736483754594474
 20
-8.2000000000000455
 30
0.0
  0
SEQEND
  5
4B0
  8
4
  0
VIEWPORT
  5
22
 67
     1
  8
0
 10
210.0
 20
170.2366863905325
 30
0.0
 40
420.0
 41
340.47337278106511
 68
     1
 69
     1
1001
ACAD
1000
MVIEW
1002
{
1070
    16
1010
0.0
1020
0.0
1030
0.0
1010
0.0
1020
0.0
1030
1.0
1040
0.0
1040
340.47337278106511
1040
210.0
1040
170.2366863905325
1040
50.0
1040
0.0
1040
0.0
1070
     0
1070
   100
1070
     1
1070
     1
1070
     0
1070
     0
1070
     0
1070
     0
1040
0.0
1040
0.0
1040
0.0
1040
5.0
1040
5.0
1040
10.0
1040
10.0
1070
     0
1002
{
1002
}
1002
}
  0
ENDSEC
  0
EOF
