  0
SECTION
  2
HEADER
  9
$ACADVER
  1
AC1009
  9
$INSBASE
 10
0.0
 20
0.0
 30
0.0
  9
$EXTMIN
 10
-36.163329247109687
 20
-11.94763097673137
 30
-0.0000000000000058
  9
$EXTMAX
 10
7.2555547315342892
 20
66.764832144562206
 30
0.0000000000000104
  9
$LIMMIN
 10
-150.0
 20
-150.0
  9
$LIMMAX
 10
150.0
 20
150.0
  9
$ORTHOMODE
 70
     0
  9
$REGENMODE
 70
     1
  9
$FILLMODE
 70
     1
  9
$QTEXTMODE
 70
     0
  9
$MIRRTEXT
 70
     0
  9
$DRAGMODE
 70
     2
  9
$LTSCALE
 40
1.0
  9
$OSMODE
 70
   111
  9
$ATTMODE
 70
     1
  9
$TEXTSIZE
 40
3.5
  9
$TRACEWID
 40
1.0
  9
$TEXTSTYLE
  7
BESCHLAG
  9
$CLAYER
  8
0
  9
$CELTYPE
  6
BYLAYER
  9
$CECOLOR
 62
   256
  9
$DIMSCALE
 40
1.0
  9
$DIMASZ
 40
2.0
  9
$DIMEXO
 40
2.0
  9
$DIMDLI
 40
0.0
  9
$DIMRND
 40
0.0
  9
$DIMDLE
 40
1.0
  9
$DIMEXE
 40
1.0
  9
$DIMTP
 40
0.0
  9
$DIMTM
 40
0.0
  9
$DIMTXT
 40
3.5
  9
$DIMCEN
 40
0.0
  9
$DIMTSZ
 40
0.0
  9
$DIMTOL
 70
     0
  9
$DIMLIM
 70
     0
  9
$DIMTIH
 70
     0
  9
$DIMTOH
 70
     0
  9
$DIMSE1
 70
     0
  9
$DIMSE2
 70
     0
  9
$DIMTAD
 70
     1
  9
$DIMZIN
 70
     8
  9
$DIMBLK
  1

  9
$DIMASO
 70
     1
  9
$DIMSHO
 70
     1
  9
$DIMPOST
  1

  9
$DIMAPOST
  1

  9
$DIMALT
 70
     0
  9
$DIMALTD
 70
     2
  9
$DIMALTF
 40
0.039370078740157
  9
$DIMLFAC
 40
1.0
  9
$DIMTOFL
 70
     1
  9
$DIMTVP
 40
0.0
  9
$DIMTIX
 70
     1
  9
$DIMSOXD
 70
     0
  9
$DIMSAH
 70
     1
  9
$DIMBLK1
  1
OBLIQUE
  9
$DIMBLK2
  1
OBLIQUE
  9
$DIMSTYLE
  2
OPO-SSTRICH
  9
$DIMCLRD
 70
   256
  9
$DIMCLRE
 70
   256
  9
$DIMCLRT
 70
   256
  9
$DIMTFAC
 40
0.7114285714285716
  9
$DIMGAP
 40
1.0
  9
$LUNITS
 70
     2
  9
$LUPREC
 70
     1
  9
$SKETCHINC
 40
1.0
  9
$FILLETRAD
 40
0.0
  9
$AUNITS
 70
     0
  9
$AUPREC
 70
     1
  9
$MENU
  1
D:\ACL_CGWG\CGTAB13
  9
$ELEVATION
 40
0.0
  9
$PELEVATION
 40
0.0
  9
$THICKNESS
 40
0.0
  9
$LIMCHECK
 70
     0
  9
$BLIPMODE
 70
     0
  9
$CHAMFERA
 40
1.0
  9
$CHAMFERB
 40
1.0
  9
$SKPOLY
 70
     0
  9
$TDCREATE
 40
2451739.8994726501
  9
$TDUPDATE
 40
2452087.634090161
  9
$TDINDWG
 40
0.0010454977
  9
$TDUSRTIMER
 40
0.0010454977
  9
$USRTIMER
 70
     1
  9
$ANGBASE
 50
0.0
  9
$ANGDIR
 70
     0
  9
$PDMODE
 70
    35
  9
$PDSIZE
 40
5.0
  9
$PLINEWID
 40
0.0
  9
$COORDS
 70
     1
  9
$SPLFRAME
 70
     0
  9
$SPLINETYPE
 70
     6
  9
$SPLINESEGS
 70
     8
  9
$ATTDIA
 70
     1
  9
$ATTREQ
 70
     1
  9
$HANDLING
 70
-16383
  9
$HANDSEED
  5
47D
  9
$SURFTAB1
 70
    12
  9
$SURFTAB2
 70
    12
  9
$SURFTYPE
 70
     6
  9
$SURFU
 70
    12
  9
$SURFV
 70
    12
  9
$UCSNAME
  2

  9
$UCSORG
 10
0.0
 20
0.0
 30
0.0
  9
$UCSXDIR
 10
1.0
 20
0.0
 30
0.0
  9
$UCSYDIR
 10
0.0
 20
1.0
 30
0.0
  9
$PUCSNAME
  2

  9
$PUCSORG
 10
0.0
 20
0.0
 30
0.0
  9
$PUCSXDIR
 10
1.0
 20
0.0
 30
0.0
  9
$PUCSYDIR
 10
0.0
 20
1.0
 30
0.0
  9
$USERI1
 70
     0
  9
$USERI2
 70
     0
  9
$USERI3
 70
     0
  9
$USERI4
 70
     0
  9
$USERI5
 70
     0
  9
$USERR1
 40
0.0
  9
$USERR2
 40
0.0
  9
$USERR3
 40
0.0
  9
$USERR4
 40
0.0
  9
$USERR5
 40
0.0
  9
$WORLDVIEW
 70
     1
  9
$SHADEDGE
 70
     3
  9
$SHADEDIF
 70
    70
  9
$TILEMODE
 70
     1
  9
$MAXACTVP
 70
    48
  9
$PLIMCHECK
 70
     0
  9
$PEXTMIN
 10
1.0000000000000000E+020
 20
1.0000000000000000E+020
 30
1.0000000000000000E+020
  9
$PEXTMAX
 10
-1.0000000000000000E+020
 20
-1.0000000000000000E+020
 30
-1.0000000000000000E+020
  9
$PLIMMIN
 10
0.0
 20
0.0
  9
$PLIMMAX
 10
420.0
 20
297.0
  9
$UNITMODE
 70
     0
  9
$VISRETAIN
 70
     1
  9
$PLINEGEN
 70
     0
  9
$PSLTSCALE
 70
     1
  0
ENDSEC
  0
SECTION
  2
TABLES
  0
TABLE
  2
VPORT
 70
     2
  0
VPORT
  2
*ACTIVE
 70
     0
 10
0.0
 20
0.0
 11
1.0
 21
1.0
 12
-14.45388725778769
 22
27.408600583915408
 13
0.0
 23
0.0
 14
0.5
 24
0.5
 15
10.0
 25
10.0
 16
0.0
 26
0.0
 36
1.0
 17
0.0
 27
0.0
 37
0.0
 40
79.351535893590949
 41
1.6070460704607039
 42
50.0
 43
0.0
 44
0.0
 50
0.0
 51
0.0
 71
     0
 72
   800
 73
     1
 74
     1
 75
     0
 76
     0
 77
     0
 78
     0
  0
ENDTAB
  0
TABLE
  2
LTYPE
 70
     1
  0
LTYPE
  2
CONTINUOUS
 70
     0
  3
_______________________________________________
 72
    65
 73
     2
 40
1.0
 49
1.0
 49
0.0
  0
ENDTAB
  0
TABLE
  2
LAYER
 70
     7
  0
LAYER
  2
0
 70
     0
 62
    30
  6
CONTINUOUS
  0
LAYER
  2
1
 70
     0
 62
     2
  6
CONTINUOUS
  0
LAYER
  2
2
 70
     0
 62
     9
  6
CONTINUOUS
  0
LAYER
  2
4
 70
     1
 62
     4
  6
CONTINUOUS
  0
LAYER
  2
5
 70
     0
 62
     1
  6
CONTINUOUS
  0
LAYER
  2
6
 70
     0
 62
     3
  6
CONTINUOUS
  0
LAYER
  2
DEFPOINTS
 70
     0
 62
     7
  6
CONTINUOUS
  0
ENDTAB
  0
TABLE
  2
STYLE
 70
     2
  0
STYLE
  2
STANDARD
 70
     0
 40
0.0
 41
1.0
 50
0.0
 71
     0
 42
2.5
  3
txt
  4

  0
STYLE
  2
BESCHLAG
 70
     0
 40
0.0
 41
0.9
 50
0.0
 71
     0
 42
3.5
  3
txt
  4

  0
ENDTAB
  0
TABLE
  2
VIEW
 70
     0
  0
ENDTAB
  0
TABLE
  2
UCS
 70
     0
  0
ENDTAB
  0
TABLE
  2
APPID
 70
     1
  0
APPID
  2
ACAD
 70
     0
  0
ENDTAB
  0
TABLE
  2
DIMSTYLE
 70
     1
  0
DIMSTYLE
  2
OPO-SSTRICH
 70
     0
  3

  4

  5

  6
OBLIQUE
  7
OBLIQUE
 40
1.0
 41
2.0
 42
2.0
 43
0.0
 44
1.0
 45
0.0
 46
1.0
 47
0.0
 48
0.0
140
3.5
141
0.0
142
0.0
143
0.039370078740157
144
1.0
145
0.0
146
0.7114285714285716
147
1.0
 71
     0
 72
     0
 73
     0
 74
     0
 75
     0
 76
     0
 77
     1
 78
     8
170
     0
171
     2
172
     1
173
     1
174
     1
175
     0
176
   256
177
   256
178
   256
  0
ENDTAB
  0
ENDSEC
  0
SECTION
  2
BLOCKS
  0
BLOCK
  8
0
  2
$MODEL_SPACE
 70
     0
 10
0.0
 20
0.0
 30
0.0
  3
$MODEL_SPACE
  1

  0
ENDBLK
  5
1C
  8
0
  0
BLOCK
 67
     1
  8
0
  2
$PAPER_SPACE
 70
     0
 10
0.0
 20
0.0
 30
0.0
  3
$PAPER_SPACE
  1

  0
ENDBLK
  5
19
 67
     1
  8
0
  0
BLOCK
  8
0
  2
_OBLIQUE
 70
     0
 10
0.0
 20
0.0
 30
0.0
  3
_OBLIQUE
  1

  0
LINE
  5
204
  8
0
 62
     0
 10
-0.5
 20
-0.5
 30
0.0
 11
0.5
 21
0.5
 31
0.0
  0
ENDBLK
  5
206
  8
0
  0
BLOCK
  8
0
  2
NULLPUNKT
 70
     0
 10
0.0
 20
0.0
 30
0.0
  3
NULLPUNKT
  1

  0
SOLID
  5
254
  8
5
 10
0.0
 20
0.0
 30
0.0
 11
2.0
 21
0.0
 31
0.0
 12
0.0
 22
-2.0
 32
0.0
 13
0.0
 23
-2.0
 33
0.0
  0
SOLID
  5
255
  8
5
 10
0.0
 20
0.0
 30
0.0
 11
-2.0
 21
0.0
 31
0.0
 12
0.0
 22
2.0
 32
0.0
 13
0.0
 23
2.0
 33
0.0
  0
POLYLINE
  5
256
  8
5
 66
     1
 10
0.0
 20
0.0
 30
0.0
  0
VERTEX
  5
405
  8
5
 10
0.0
 20
2.0
 30
0.0
  0
VERTEX
  5
406
  8
5
 10
0.0
 20
-2.0
 30
0.0
  0
SEQEND
  5
407
  8
5
  0
POLYLINE
  5
257
  8
5
 66
     1
 10
0.0
 20
0.0
 30
0.0
  0
VERTEX
  5
408
  8
5
 10
-2.0
 20
0.0
 30
0.0
  0
VERTEX
  5
409
  8
5
 10
2.0
 20
0.0
 30
0.0
  0
SEQEND
  5
40A
  8
5
  0
CIRCLE
  5
258
  8
5
 10
0.0
 20
0.0
 30
0.0
 40
2.0
  0
ENDBLK
  5
25A
  8
0
  0
BLOCK
  8
0
  2
*X2
 70
     1
 10
0.0
 20
0.0
 30
0.0
  3
*X2
  1

  0
LINE
  5
29E
  8
0
 62
     0
 10
1422.579209282253
 20
-513.76200031898804
 30
0.0
 11
1424.835979368622
 21
-511.505230232619
 31
0.0
  0
LINE
  5
29F
  8
0
 62
     0
 10
1422.0359793686221
 20
-512.6081739577719
 30
0.0
 11
1424.835979368622
 21
-509.8081739577716
 31
0.0
  0
LINE
  5
2A0
  8
0
 62
     0
 10
1422.0359793686221
 20
-510.9111176829241
 30
0.0
 11
1424.835979368622
 21
-508.1111176829238
 31
0.0
  0
LINE
  5
2A1
  8
0
 62
     0
 10
1422.0359793686221
 20
-509.21406140807619
 30
0.0
 11
1424.835979368622
 21
-506.41406140807601
 31
0.0
  0
LINE
  5
2A2
  8
0
 62
     0
 10
1422.0359793686221
 20
-507.51700513322851
 30
0.0
 11
1424.835979368622
 21
-504.71700513322821
 31
0.0
  0
LINE
  5
2A3
  8
0
 62
     0
 10
1427.4791575243869
 20
-502.07382697746351
 30
0.0
 11
1428.835979368622
 21
-500.71700513322833
 31
0.0
  0
LINE
  5
2A4
  8
0
 62
     0
 10
1422.0359793686221
 20
-505.81994885838083
 30
0.0
 11
1424.835979368622
 21
-503.01994885838047
 31
0.0
  0
LINE
  5
2A5
  8
0
 62
     0
 10
1427.42333531484
 20
-500.4325929121627
 30
0.0
 11
1428.835979368622
 21
-499.01994885838047
 31
0.0
  0
LINE
  5
2A6
  8
0
 62
     0
 10
1422.0359793686221
 20
-504.12289258353331
 30
0.0
 11
1424.835979368622
 21
-501.32289258353291
 31
0.0
  0
LINE
  5
2A7
  8
0
 62
     0
 10
1425.9401015467979
 20
-500.21877040535719
 30
0.0
 11
1427.9401015467979
 21
-498.2187704053573
 31
0.0
  0
LINE
  5
2A8
  8
0
 62
     0
 10
1422.0359793686221
 20
-502.42583630868552
 30
0.0
 11
1426.24304527195
 21
-498.2187704053573
 31
0.0
  0
LINE
  5
2A9
  8
0
 62
     0
 10
1422.0359793686221
 20
-500.72878003383772
 30
0.0
 11
1424.5459889971021
 21
-498.2187704053573
 31
0.0
  0
LINE
  5
2AA
  8
0
 62
     0
 10
1422.0359793686221
 20
-499.03172375898993
 30
0.0
 11
1422.8489327222551
 21
-498.2187704053573
 31
0.0
  0
LINE
  5
2AB
  8
0
 62
     0
 10
1423.427737419677
 20
-514.61052845641211
 30
0.0
 11
1425.819495470731
 21
-512.2187704053573
 31
0.0
  0
LINE
  5
2AC
  8
0
 62
     0
 10
1427.4359793686219
 20
-510.60228650746689
 30
0.0
 11
1427.819495470731
 21
-510.2187704053573
 31
0.0
  0
LINE
  5
2AD
  8
0
 62
     0
 10
1424.2762655571
 20
-515.45905659383595
 30
0.0
 11
1428.7961085291361
 21
-510.93921362179998
 31
0.0
  0
LINE
  5
2AE
  8
0
 62
     0
 10
1425.124793694524
 20
-516.30758473125968
 30
0.0
 11
1428.835979368622
 21
-512.59639905716244
 31
0.0
  0
LINE
  5
2AF
  8
0
 62
     0
 10
1425.335979368622
 20
-517.79345533201024
 30
0.0
 11
1428.835979368622
 21
-514.29345533201013
 31
0.0
  0
LINE
  5
2B0
  8
0
 62
     0
 10
1398.835979368622
 20
-545.99051160685758
 30
0.0
 11
1399.9077205701219
 21
-544.91877040535735
 31
0.0
  0
LINE
  5
2B1
  8
0
 62
     0
 10
1425.335979368622
 20
-519.49051160685769
 30
0.0
 11
1428.835979368622
 21
-515.99051160685769
 31
0.0
  0
LINE
  5
2B2
  8
0
 62
     0
 10
1398.835979368622
 20
-547.68756788170538
 30
0.0
 11
1402.0683406696539
 21
-544.45520658067323
 31
0.0
  0
LINE
  5
2B3
  8
0
 62
     0
 10
1425.335979368622
 20
-521.18756788170549
 30
0.0
 11
1428.835979368622
 21
-517.68756788170538
 31
0.0
  0
LINE
  5
2B4
  8
0
 62
     0
 10
1400.001833119818
 20
-548.2187704053573
 30
0.0
 11
1403.301833119818
 21
-544.91877040535735
 31
0.0
  0
LINE
  5
2B5
  8
0
 62
     0
 10
1425.335979368622
 20
-522.88462415655317
 30
0.0
 11
1428.835979368622
 21
-519.38462415655306
 31
0.0
  0
LINE
  5
2B6
  8
0
 62
     0
 10
1401.6988893946659
 20
-548.2187704053573
 30
0.0
 11
1405.5295831729011
 21
-544.38807662712225
 31
0.0
  0
LINE
  5
2B7
  8
0
 62
     0
 10
1425.335979368622
 20
-524.58168043140097
 30
0.0
 11
1428.835979368622
 21
-521.08168043140086
 31
0.0
  0
LINE
  5
2B8
  8
0
 62
     0
 10
1403.3959456695129
 20
-548.2187704053573
 30
0.0
 11
1406.6959456695131
 21
-544.91877040535735
 31
0.0
  0
LINE
  5
2B9
  8
0
 62
     0
 10
1425.335979368622
 20
-526.27873670624865
 30
0.0
 11
1428.835979368622
 21
-522.77873670624876
 31
0.0
  0
LINE
  5
2BA
  8
0
 62
     0
 10
1405.093001944361
 20
-548.2187704053573
 30
0.0
 11
1408.9908256761471
 21
-544.32094667357092
 31
0.0
  0
LINE
  5
2BB
  8
0
 62
     0
 10
1425.335979368622
 20
-527.97579298109622
 30
0.0
 11
1428.835979368622
 21
-524.47579298109622
 31
0.0
  0
LINE
  5
2BC
  8
0
 62
     0
 10
1406.790058219208
 20
-548.2187704053573
 30
0.0
 11
1410.0900582192089
 21
-544.91877040535735
 31
0.0
  0
LINE
  5
2BD
  8
0
 62
     0
 10
1425.335979368622
 20
-529.67284925594402
 30
0.0
 11
1428.835979368622
 21
-526.17284925594402
 31
0.0
  0
LINE
  5
2BE
  8
0
 62
     0
 10
1408.487114494056
 20
-548.2187704053573
 30
0.0
 11
1412.452068179394
 21
-544.25381672001993
 31
0.0
  0
LINE
  5
2BF
  8
0
 62
     0
 10
1425.335979368622
 20
-531.3699055307917
 30
0.0
 11
1428.835979368622
 21
-527.8699055307917
 31
0.0
  0
LINE
  5
2C0
  8
0
 62
     0
 10
1410.1841707689041
 20
-548.2187704053573
 30
0.0
 11
1413.4841707689041
 21
-544.91877040535735
 31
0.0
  0
LINE
  5
2C1
  8
0
 62
     0
 10
1425.335979368622
 20
-533.06696180563961
 30
0.0
 11
1428.835979368622
 21
-529.56696180563938
 31
0.0
  0
LINE
  5
2C2
  8
0
 62
     0
 10
1411.881227043752
 20
-548.2187704053573
 30
0.0
 11
1415.881227043752
 21
-544.2187704053573
 31
0.0
  0
LINE
  5
2C3
  8
0
 62
     0
 10
1425.335979368622
 20
-534.7640180804874
 30
0.0
 11
1428.835979368622
 21
-531.26401808048729
 31
0.0
  0
LINE
  5
2C4
  8
0
 62
     0
 10
1413.578283318599
 20
-548.2187704053573
 30
0.0
 11
1416.878283318599
 21
-544.91877040535735
 31
0.0
  0
LINE
  5
2C5
  8
0
 62
     0
 10
1425.335979368622
 20
-536.46107435533474
 30
0.0
 11
1428.835979368622
 21
-532.96107435533474
 31
0.0
  0
LINE
  5
2C6
  8
0
 62
     0
 10
1415.2753395934469
 20
-548.2187704053573
 30
0.0
 11
1419.2753395934469
 21
-544.2187704053573
 31
0.0
  0
LINE
  5
2C7
  8
0
 62
     0
 10
1425.335979368622
 20
-538.15813063018265
 30
0.0
 11
1428.835979368622
 21
-534.65813063018254
 31
0.0
  0
LINE
  5
2C8
  8
0
 62
     0
 10
1416.9723958682951
 20
-548.2187704053573
 30
0.0
 11
1420.9723958682951
 21
-544.2187704053573
 31
0.0
  0
LINE
  5
2C9
  8
0
 62
     0
 10
1425.335979368622
 20
-539.85518690503045
 30
0.0
 11
1428.835979368622
 21
-536.35518690503034
 31
0.0
  0
LINE
  5
2CA
  8
0
 62
     0
 10
1418.669452143143
 20
-548.2187704053573
 30
0.0
 11
1428.835979368622
 21
-538.05224317987813
 31
0.0
  0
LINE
  5
2CB
  8
0
 62
     0
 10
1420.36650841799
 20
-548.2187704053573
 30
0.0
 11
1428.835979368622
 21
-539.74929945472593
 31
0.0
  0
LINE
  5
2CC
  8
0
 62
     0
 10
1422.0635646928381
 20
-548.2187704053573
 30
0.0
 11
1428.835979368622
 21
-541.44635572957327
 31
0.0
  0
LINE
  5
2CD
  8
0
 62
     0
 10
1423.760620967686
 20
-548.2187704053573
 30
0.0
 11
1428.835979368622
 21
-543.14341200442118
 31
0.0
  0
LINE
  5
2CE
  8
0
 62
     0
 10
1425.457677242533
 20
-548.2187704053573
 30
0.0
 11
1428.835979368622
 21
-544.84046827926886
 31
0.0
  0
LINE
  5
2CF
  8
0
 62
     0
 10
1427.1547335173809
 20
-548.2187704053573
 30
0.0
 11
1428.835979368622
 21
-546.53752455411654
 31
0.0
  0
ENDBLK
  5
2D1
  8
0
  0
BLOCK
  8
0
  2
*D3
 70
     1
 10
0.0
 20
0.0
 30
0.0
  3
*D3
  1

  0
LINE
  5
323
  8
1
 10
0.0000000000000001
 20
52.0
 30
0.0
 11
0.0000000000000008
 21
62.264258194860531
 31
0.0
  0
LINE
  5
324
  8
1
 10
-7.0
 20
52.0
 30
0.0
 11
-6.9999999999999991
 21
62.264258194860531
 31
0.0
  0
LINE
  5
325
  8
1
 10
1.0
 20
61.264258194860531
 30
0.0
 11
-7.9999999999999991
 21
61.264258194860531
 31
0.0
  0
INSERT
  5
326
  8
1
  2
_OBLIQUE
 10
0.0000000000000007
 20
61.264258194860531
 30
0.0
 41
2.0
 42
2.0
 43
2.0
  0
INSERT
  5
327
  8
1
  2
_OBLIQUE
 10
-6.9999999999999991
 20
61.264258194860531
 30
0.0
 41
2.0
 42
2.0
 43
2.0
 50
180.0
  0
TEXT
  5
328
  8
0
 10
-4.7279843110504771
 20
62.264258194860531
 30
0.0
 40
3.5
  1
7
 41
0.9
  7
BESCHLAG
  0
POINT
  5
329
  8
DEFPOINTS
 62
     0
 10
0.0
 20
50.0
 30
0.0
  0
POINT
  5
32A
  8
DEFPOINTS
 62
     0
 10
-7.0
 20
50.0
 30
0.0
  0
POINT
  5
32B
  8
DEFPOINTS
 62
     0
 10
-6.9999999999999991
 20
61.264258194860531
 30
0.0
  0
ENDBLK
  5
2FC
  8
0
  0
BLOCK
  8
0
  2
*D4
 70
     1
 10
0.0
 20
0.0
 30
0.0
  3
*D4
  1

  0
LINE
  5
32C
  8
1
 10
-30.0
 20
-2.0
 30
0.0
 11
-30.0
 21
-11.92541035247995
 31
0.0
  0
LINE
  5
32D
  8
1
 10
-0.0000000000000001
 20
-2.0
 30
0.0
 11
-0.0000000000000007
 21
-11.92541035247995
 31
0.0
  0
LINE
  5
32E
  8
1
 10
-31.0
 20
-10.92541035247995
 30
0.0
 11
0.9999999999999992
 21
-10.92541035247995
 31
0.0
  0
INSERT
  5
32F
  8
1
  2
_OBLIQUE
 10
-30.0
 20
-10.92541035247995
 30
0.0
 41
2.0
 42
2.0
 43
2.0
 50
180.0
  0
INSERT
  5
330
  8
1
  2
_OBLIQUE
 10
-0.0000000000000007
 20
-10.92541035247995
 30
0.0
 41
2.0
 42
2.0
 43
2.0
  0
TEXT
  5
331
  8
0
 10
-17.434481582537519
 20
-9.8561743361088787
 30
0.0
 40
3.5
  1
30
 41
0.9
  7
BESCHLAG
  0
POINT
  5
332
  8
DEFPOINTS
 62
     0
 10
-30.0
 20
0.0
 30
0.0
  0
POINT
  5
333
  8
DEFPOINTS
 62
     0
 10
0.0
 20
0.0
 30
0.0
  0
POINT
  5
334
  8
DEFPOINTS
 62
     0
 10
-0.0000000000000007
 20
-10.92541035247995
 30
0.0
  0
ENDBLK
  5
308
  8
0
  0
BLOCK
  8
0
  2
*D5
 70
     1
 10
0.0
 20
0.0
 30
0.0
  3
*D5
  1

  0
LINE
  5
335
  8
1
 10
-2.0
 20
0.0000000000000006
 30
0.0
 11
-19.492996527514379
 21
0.0000000000000055
 31
0.0
  0
LINE
  5
336
  8
1
 10
-8.8000000000001801
 20
50.0
 30
0.0
 11
-19.492996527514372
 21
50.0
 31
0.0
  0
LINE
  5
337
  8
1
 10
-18.492996527514379
 20
-0.9999999999999948
 30
0.0
 11
-18.492996527514379
 21
51.000000000000007
 31
0.0
  0
INSERT
  5
338
  8
1
  2
_OBLIQUE
 10
-18.492996527514379
 20
0.0000000000000052
 30
0.0
 41
2.0
 42
2.0
 43
2.0
 50
270.0
  0
INSERT
  5
339
  8
1
  2
_OBLIQUE
 10
-18.492996527514379
 20
50.0
 30
0.0
 41
2.0
 42
2.0
 43
2.0
 50
90.0
  0
TEXT
  5
33A
  8
0
 10
-19.55984509504508
 20
22.56659276944065
 30
0.0
 40
3.5
  1
50
 50
90.0
 41
0.9
  7
BESCHLAG
  0
POINT
  5
33B
  8
DEFPOINTS
 62
     0
 10
0.0
 20
0.0
 30
0.0
  0
POINT
  5
33C
  8
DEFPOINTS
 62
     0
 10
-6.800000000000181
 20
50.0
 30
0.0
  0
POINT
  5
33D
  8
DEFPOINTS
 62
     0
 10
-18.492996527514379
 20
50.0
 30
0.0
  0
ENDBLK
  5
314
  8
0
  0
BLOCK
  8
0
  2
*D6
 70
     1
 10
0.0
 20
0.0
 30
0.0
  3
*D6
  1

  0
LINE
  5
33E
  8
1
 10
0.0000000000000001
 20
51.999999999999091
 30
0.0
 11
0.0000000000000008
 21
62.264258194860759
 31
0.0
  0
LINE
  5
33F
  8
1
 10
3.0000000000004539
 20
51.999999999999091
 30
0.0
 11
3.0000000000004552
 21
62.264258194860759
 31
0.0
  0
LINE
  5
340
  8
1
 10
0.0000000000000007
 20
61.264258194860759
 30
0.0
 11
-1.9999999999999989
 21
61.264258194860759
 31
0.0
  0
LINE
  5
341
  8
1
 10
3.0000000000004552
 20
61.264258194860759
 30
0.0
 11
5.0000000000004547
 21
61.264258194860759
 31
0.0
  0
LINE
  5
342
  8
1
 10
0.0000000000000007
 20
61.264258194860759
 30
0.0
 11
3.0000000000004552
 21
61.264258194860759
 31
0.0
  0
INSERT
  5
343
  8
1
  2
_OBLIQUE
 10
0.0000000000000007
 20
61.264258194860759
 30
0.0
 41
2.0
 42
2.0
 43
2.0
  0
INSERT
  5
344
  8
1
  2
_OBLIQUE
 10
3.0000000000004552
 20
61.264258194860759
 30
0.0
 41
2.0
 42
2.0
 43
2.0
 50
180.0
  0
TEXT
  5
345
  8
0
 10
0.2838335607096419
 20
62.333494211231837
 30
0.0
 40
3.5
  1
3
 41
0.9
  7
BESCHLAG
  0
POINT
  5
346
  8
DEFPOINTS
 62
     0
 10
0.0
 20
49.999999999999091
 30
0.0
  0
POINT
  5
347
  8
DEFPOINTS
 62
     0
 10
3.0000000000004539
 20
49.999999999999091
 30
0.0
  0
POINT
  5
348
  8
DEFPOINTS
 62
     0
 10
3.0000000000004552
 20
61.264258194860759
 30
0.0
  0
ENDBLK
  5
322
  8
0
  0
ENDSEC
  0
SECTION
  2
ENTITIES
  0
INSERT
  5
25B
  8
5
  2
NULLPUNKT
 10
0.0
 20
0.0
 30
0.0
  0
INSERT
  5
2E4
  8
2
  2
*X2
 10
-1428.835979368622
 20
548.2187704053573
 30
0.0
1001
ACAD
1000
HATCH
1002
{
1070
    16
1000
_U,I
1040
1.1999999999999991
1040
0.7853981633974483
1070
     0
1002
}
  0
DIMENSION
  5
2E5
  8
1
  2
*D3
 10
-6.9999999999999991
 20
61.264258194860531
 30
0.0
 11
-3.4999999999999991
 21
64.014258194860531
 31
0.0
 70
     0
 13
0.0
 23
50.0
 33
0.0
 14
-7.0
 24
50.0
 34
0.0
  0
POLYLINE
  5
2E6
  8
5
 66
     1
 10
0.0
 20
0.0
 30
0.0
  0
VERTEX
  5
40B
  8
5
 10
7.2449054883429653
 20
35.0
 30
0.0
  0
VERTEX
  5
40C
  8
5
 10
3.0
 20
35.0
 30
0.0
  0
VERTEX
  5
40D
  8
5
 10
3.0
 20
55.546043805017227
 30
0.0
  0
SEQEND
  5
40E
  8
5
  0
POINT
  5
2E7
  8
5
 10
-4.0
 20
42.0
 30
0.0
  0
DIMENSION
  5
2E8
  8
1
  2
*D4
 10
-0.0000000000000007
 20
-10.92541035247995
 30
0.0
 11
-15.0
 21
-8.1372111710338455
 31
0.0
 70
     0
 13
-30.0
 23
0.0
 33
0.0
 14
0.0
 24
0.0
 34
0.0
  0
DIMENSION
  5
2E9
  8
1
  2
*D5
 10
-18.492996527514379
 20
50.0
 30
0.0
 11
-21.280001984540309
 21
25.0
 31
0.0
 70
     0
 13
0.0
 23
0.0
 33
0.0
 14
-6.800000000000181
 24
50.0
 34
0.0
 50
90.0
  0
POLYLINE
  5
2EA
  8
6
 66
     1
 10
0.0
 20
0.0
 30
0.0
  0
VERTEX
  5
40F
  8
6
 10
1.026056266155364
 20
42.004764165460983
 30
0.0
 42
-0.0523662851020724
  0
VERTEX
  5
410
  8
6
 10
1.438194332162311
 20
45.010549786088632
 30
0.0
 42
0.1698680870516715
  0
VERTEX
  5
411
  8
6
 10
1.451504661664557
 20
45.60920440109976
 30
0.0
 42
0.3581952709156561
  0
VERTEX
  5
412
  8
6
 10
0.4704820347242276
 20
45.804817305722281
 30
0.0
  0
VERTEX
  5
413
  8
6
 10
-1.038613679051877
 20
44.791377892166103
 30
0.0
 42
0.162990172482064
  0
VERTEX
  5
414
  8
6
 10
-1.6124768191718879
 20
43.617242876091041
 30
0.0
 42
0.0297520103796801
  0
VERTEX
  5
415
  8
6
 10
-1.704040960494694
 20
42.0
 30
0.0
 42
0.0297520103796801
  0
VERTEX
  5
416
  8
6
 10
-1.5585380551679
 20
40.386715332997483
 30
0.0
 42
0.162990172482064
  0
VERTEX
  5
417
  8
6
 10
-0.9457976311905441
 20
39.232392539154709
 30
0.0
  0
VERTEX
  5
418
  8
6
 10
1.04892567442107
 20
38.269897445242798
 30
0.0
 42
0.5496470159714418
  0
VERTEX
  5
419
  8
6
 10
1.6368888395325021
 20
38.485258868500289
 30
0.0
 42
0.0587952726232103
  0
VERTEX
  5
41A
  8
6
 10
1.537198917016894
 20
39.08091746746004
 30
0.0
 42
-0.0523662851020724
  0
VERTEX
  5
41B
  8
6
 10
1.0249458641985709
 20
42.071268917123227
 30
0.0
  0
SEQEND
  5
41C
  8
6
  0
DIMENSION
  5
2EB
  8
1
  2
*D6
 10
3.0000000000004552
 20
61.264258194860759
 30
0.0
 11
1.500000000000228
 21
64.052457376306876
 31
0.0
 70
     0
 13
0.0
 23
49.999999999999091
 33
0.0
 14
3.0000000000004539
 24
49.999999999999091
 34
0.0
  0
POLYLINE
  5
2EC
  8
6
 66
     1
 10
0.0
 20
0.0
 30
0.0
 70
     1
  0
VERTEX
  5
41D
  8
6
 10
3.0000000000004539
 20
42.0
 30
0.0
 42
0.3348758971066404
  0
VERTEX
  5
41E
  8
6
 10
2.2492577808686738
 20
43.224359999999933
 30
0.0
  0
VERTEX
  5
41F
  8
6
 10
2.2133367313601862
 20
45.366841127836317
 30
0.0
 42
0.4158738464929489
  0
VERTEX
  5
420
  8
6
 10
0.1004407448997426
 20
46.486559934489136
 30
0.0
  0
VERTEX
  5
421
  8
6
 10
-1.0910500870868409
 20
45.655470733634502
 30
0.0
 42
-0.9647680298900043
  0
VERTEX
  5
422
  8
6
 10
-1.8643632994760531
 20
46.192684910880423
 30
0.0
  0
VERTEX
  5
423
  8
6
 10
-1.5812058813924059
 20
46.846000647300571
 30
0.0
 42
0.6694204690004703
  0
VERTEX
  5
424
  8
6
 10
-2.0112692976938429
 20
47.485949553366481
 30
0.0
  0
VERTEX
  5
425
  8
6
 10
-3.8314881777816931
 20
47.059039563579972
 30
0.0
 42
0.2464814616015845
  0
VERTEX
  5
426
  8
6
 10
-4.0005204590549956
 20
46.759254551122012
 30
0.0
 42
0.0150420667643324
  0
VERTEX
  5
427
  8
6
 10
-4.0005204590549956
 20
46.477327331757351
 30
0.0
 42
0.2063969197888626
  0
VERTEX
  5
428
  8
6
 10
-3.8283452408065841
 20
46.108892360459322
 30
0.0
  0
VERTEX
  5
429
  8
6
 10
-3.4976411549425839
 20
45.675972370466752
 30
0.0
 42
-0.0984306399189399
  0
VERTEX
  5
42A
  8
6
 10
-3.1796605032623111
 20
45.027832911664511
 30
0.0
  0
VERTEX
  5
42B
  8
6
 10
-3.1796605032623111
 20
42.0
 30
0.0
  0
VERTEX
  5
42C
  8
6
 10
-3.1796605032623111
 20
38.972167088335482
 30
0.0
 42
-0.0984306399189399
  0
VERTEX
  5
42D
  8
6
 10
-3.4976411549425839
 20
38.324027629533248
 30
0.0
  0
VERTEX
  5
42E
  8
6
 10
-3.8283452408065841
 20
37.891107639540671
 30
0.0
 42
0.2063969197888626
  0
VERTEX
  5
42F
  8
6
 10
-4.0005204590549956
 20
37.522672668242649
 30
0.0
 42
0.0150420667643324
  0
VERTEX
  5
430
  8
6
 10
-4.0005204590549956
 20
37.24074544887776
 30
0.0
 42
0.2464814616015845
  0
VERTEX
  5
431
  8
6
 10
-3.8314881777816931
 20
36.940960436420021
 30
0.0
  0
VERTEX
  5
432
  8
6
 10
-2.0112692976938429
 20
36.514050446633519
 30
0.0
 42
0.6345177691905591
  0
VERTEX
  5
433
  8
6
 10
-1.5812058813924059
 20
37.153999352698968
 30
0.0
  0
VERTEX
  5
434
  8
6
 10
-1.8536631272083921
 20
37.781294360421718
 30
0.0
 42
-0.9846311026449575
  0
VERTEX
  5
435
  8
6
 10
-1.0910500870868409
 20
38.344529266365271
 30
0.0
  0
VERTEX
  5
436
  8
6
 10
0.1004407448997426
 20
37.513440065510849
 30
0.0
 42
0.4158738464929489
  0
VERTEX
  5
437
  8
6
 10
2.2133367313601862
 20
38.633158872163669
 30
0.0
  0
VERTEX
  5
438
  8
6
 10
2.2492577808686738
 20
40.775639999999832
 30
0.0
 42
0.3348758971066357
  0
SEQEND
  5
439
  8
6
  0
POINT
  5
2ED
  8
5
 10
-4.0
 20
42.0
 30
0.0
  0
TEXT
  5
2EE
  8
1
 10
-36.16065614081338
 20
12.888508208417811
 30
0.0
 40
2.4999999499999999
  1
Hebgo 190/520
  0
POLYLINE
  5
2EF
  8
6
 66
     1
 10
0.0
 20
0.0
 30
0.0
 70
     1
  0
VERTEX
  5
43A
  8
6
 10
-0.3000000000001819
 20
0.0
 30
0.0
  0
VERTEX
  5
43B
  8
6
 10
-29.699999999999811
 20
0.0
 30
0.0
 42
-0.4142135623730951
  0
VERTEX
  5
43C
  8
6
 10
-30.0
 20
0.2999999999999545
 30
0.0
  0
VERTEX
  5
43D
  8
6
 10
-30.0
 20
3.0
 30
0.0
 42
-0.4142135623730964
  0
VERTEX
  5
43E
  8
6
 10
-29.699999999999811
 20
3.2999999999999541
 30
0.0
  0
VERTEX
  5
43F
  8
6
 10
-28.5
 20
3.2999999999999541
 30
0.0
  0
VERTEX
  5
440
  8
6
 10
-28.095854811567278
 20
4.0
 30
0.0
  0
VERTEX
  5
441
  8
6
 10
-26.904145188432722
 20
4.0
 30
0.0
  0
VERTEX
  5
442
  8
6
 10
-26.5
 20
3.2999999999999541
 30
0.0
  0
VERTEX
  5
443
  8
6
 10
-25.0
 20
3.2999999999999541
 30
0.0
  0
VERTEX
  5
444
  8
6
 10
-24.595854811567271
 20
4.0
 30
0.0
  0
VERTEX
  5
445
  8
6
 10
-23.404145188432722
 20
4.0
 30
0.0
  0
VERTEX
  5
446
  8
6
 10
-23.0
 20
3.2999999999999541
 30
0.0
  0
VERTEX
  5
447
  8
6
 10
-21.499999999999989
 20
3.2999999999999541
 30
0.0
  0
VERTEX
  5
448
  8
6
 10
-21.095854811567271
 20
4.0
 30
0.0
  0
VERTEX
  5
449
  8
6
 10
-19.904145188432722
 20
4.0
 30
0.0
  0
VERTEX
  5
44A
  8
6
 10
-19.5
 20
3.2999999999999541
 30
0.0
  0
VERTEX
  5
44B
  8
6
 10
-18.0
 20
3.2999999999999541
 30
0.0
  0
VERTEX
  5
44C
  8
6
 10
-17.595854811567278
 20
4.0
 30
0.0
  0
VERTEX
  5
44D
  8
6
 10
-16.404145188432722
 20
4.0
 30
0.0
  0
VERTEX
  5
44E
  8
6
 10
-16.0
 20
3.2999999999999541
 30
0.0
  0
VERTEX
  5
44F
  8
6
 10
-14.5
 20
3.2999999999999541
 30
0.0
  0
VERTEX
  5
450
  8
6
 10
-14.095854811567269
 20
4.0
 30
0.0
  0
VERTEX
  5
451
  8
6
 10
-12.90414518843272
 20
4.0
 30
0.0
  0
VERTEX
  5
452
  8
6
 10
-12.5
 20
3.2999999999999541
 30
0.0
  0
VERTEX
  5
453
  8
6
 10
-11.0
 20
3.2999999999999541
 30
0.0
  0
VERTEX
  5
454
  8
6
 10
-10.595854811567269
 20
4.0
 30
0.0
  0
VERTEX
  5
455
  8
6
 10
-7.1242640687119092
 20
4.0
 30
0.0
 42
0.1989123673796575
  0
VERTEX
  5
456
  8
6
 10
-6.912132034356091
 20
4.0878679656441363
 30
0.0
  0
VERTEX
  5
457
  8
6
 10
-3.5878679656439081
 20
7.4121320343558628
 30
0.0
 42
0.1989123673796587
  0
VERTEX
  5
458
  8
6
 10
-3.5
 20
7.6242640687119092
 30
0.0
  0
VERTEX
  5
459
  8
6
 10
-3.5
 20
31.575735931287909
 30
0.0
 42
0.1989123673796548
  0
VERTEX
  5
45A
  8
6
 10
-3.5878679656439081
 20
31.787867965643951
 30
0.0
  0
VERTEX
  5
45B
  8
6
 10
-6.7121320343558182
 20
34.912132034355857
 30
0.0
 42
-0.1989123673796564
  0
VERTEX
  5
45C
  8
6
 10
-6.800000000000181
 20
35.124264068711909
 30
0.0
  0
VERTEX
  5
45D
  8
6
 10
-6.800000000000181
 20
49.699999999999811
 30
0.0
 42
-0.4142135623730951
  0
VERTEX
  5
45E
  8
6
 10
-6.5
 20
50.0
 30
0.0
  0
VERTEX
  5
45F
  8
6
 10
-0.3000000000001819
 20
50.0
 30
0.0
 42
-0.4142135623730979
  0
VERTEX
  5
460
  8
6
 10
0.0
 20
49.699999999999811
 30
0.0
  0
VERTEX
  5
461
  8
6
 10
0.0
 20
47.0
 30
0.0
 42
-0.4142135623730951
  0
VERTEX
  5
462
  8
6
 10
-1.0
 20
46.0
 30
0.0
  0
VERTEX
  5
463
  8
6
 10
-1.0999999999999091
 20
46.0
 30
0.0
 42
-0.4142135623730951
  0
VERTEX
  5
464
  8
6
 10
-1.4000000000000901
 20
46.299999999999947
 30
0.0
  0
VERTEX
  5
465
  8
6
 10
-1.4000000000000901
 20
47.699999999999811
 30
0.0
 42
0.4142135623730951
  0
VERTEX
  5
466
  8
6
 10
-1.700000000000272
 20
48.0
 30
0.0
  0
VERTEX
  5
467
  8
6
 10
-3.6999999999998181
 20
48.0
 30
0.0
 42
0.4142135623730951
  0
VERTEX
  5
468
  8
6
 10
-4.0
 20
47.699999999999811
 30
0.0
  0
VERTEX
  5
469
  8
6
 10
-4.0
 20
36.299999999999947
 30
0.0
 42
0.4142135623730951
  0
VERTEX
  5
46A
  8
6
 10
-3.6999999999998181
 20
36.0
 30
0.0
  0
VERTEX
  5
46B
  8
6
 10
-1.700000000000272
 20
36.0
 30
0.0
 42
0.4142135623730951
  0
VERTEX
  5
46C
  8
6
 10
-1.4000000000000901
 20
36.299999999999947
 30
0.0
  0
VERTEX
  5
46D
  8
6
 10
-1.4000000000000901
 20
37.699999999999811
 30
0.0
 42
-0.4142135623730951
  0
VERTEX
  5
46E
  8
6
 10
-1.0999999999999091
 20
38.0
 30
0.0
  0
VERTEX
  5
46F
  8
6
 10
-1.0
 20
38.0
 30
0.0
 42
-0.4142135623730951
  0
VERTEX
  5
470
  8
6
 10
0.0
 20
37.0
 30
0.0
  0
VERTEX
  5
471
  8
6
 10
0.0
 20
0.2999999999999545
 30
0.0
 42
-0.4142135623730951
  0
SEQEND
  5
472
  8
6
  0
POLYLINE
  5
2F0
  8
4
 66
     1
 10
0.0
 20
0.0
 30
0.0
 70
     1
  0
VERTEX
  5
473
  8
4
 10
0.0
 20
0.0
 30
0.0
  0
VERTEX
  5
474
  8
4
 10
-30.0
 20
0.0
 30
0.0
  0
VERTEX
  5
475
  8
4
 10
-30.0
 20
4.0
 30
0.0
  0
VERTEX
  5
476
  8
4
 10
-7.0
 20
4.0
 30
0.0
  0
VERTEX
  5
477
  8
4
 10
-3.5
 20
7.5
 30
0.0
  0
VERTEX
  5
478
  8
4
 10
-3.5
 20
31.699999999999822
 30
0.0
  0
VERTEX
  5
479
  8
4
 10
-6.800000000000181
 20
35.0
 30
0.0
  0
VERTEX
  5
47A
  8
4
 10
-6.800000000000181
 20
50.0
 30
0.0
  0
VERTEX
  5
47B
  8
4
 10
0.0
 20
50.0
 30
0.0
  0
SEQEND
  5
47C
  8
4
  0
VIEWPORT
  5
22
 67
     1
  8
0
 10
210.0
 20
170.2366863905325
 30
0.0
 40
420.0
 41
340.47337278106511
 68
     1
 69
     1
1001
ACAD
1000
MVIEW
1002
{
1070
    16
1010
0.0
1020
0.0
1030
0.0
1010
0.0
1020
0.0
1030
1.0
1040
0.0
1040
340.47337278106511
1040
210.0
1040
170.2366863905325
1040
50.0
1040
0.0
1040
0.0
1070
     0
1070
   100
1070
     1
1070
     1
1070
     0
1070
     0
1070
     0
1070
     0
1040
0.0
1040
0.0
1040
0.0
1040
5.0
1040
5.0
1040
10.0
1040
10.0
1070
     0
1002
{
1002
}
1002
}
  0
ENDSEC
  0
EOF
