  0
SECTION
  2
HEADER
  9
$ACADVER
  1
AC1009
  9
$INSBASE
 10
0.0
 20
0.0
 30
0.0
  9
$EXTMIN
 10
-33.94317543593138
 20
-15.1977530508276
 30
-0.0000000000000058
  9
$EXTMAX
 10
17.280579157267528
 20
14.05334526679178
 30
0.0000000000000104
  9
$LIMMIN
 10
-150.0
 20
-150.0
  9
$LIMMAX
 10
150.0
 20
150.0
  9
$ORTHOMODE
 70
     0
  9
$REGENMODE
 70
     1
  9
$FILLMODE
 70
     1
  9
$QTEXTMODE
 70
     0
  9
$MIRRTEXT
 70
     0
  9
$DRAGMODE
 70
     2
  9
$LTSCALE
 40
1.0
  9
$OSMODE
 70
   111
  9
$ATTMODE
 70
     1
  9
$TEXTSIZE
 40
3.5
  9
$TRACEWID
 40
1.0
  9
$TEXTSTYLE
  7
BESCHLAG
  9
$CLAYER
  8
0
  9
$CELTYPE
  6
BYLAYER
  9
$CECOLOR
 62
   256
  9
$DIMSCALE
 40
1.0
  9
$DIMASZ
 40
2.0
  9
$DIMEXO
 40
2.0
  9
$DIMDLI
 40
0.0
  9
$DIMRND
 40
0.0
  9
$DIMDLE
 40
1.0
  9
$DIMEXE
 40
1.0
  9
$DIMTP
 40
0.0
  9
$DIMTM
 40
0.0
  9
$DIMTXT
 40
3.5
  9
$DIMCEN
 40
0.0
  9
$DIMTSZ
 40
0.0
  9
$DIMTOL
 70
     0
  9
$DIMLIM
 70
     0
  9
$DIMTIH
 70
     0
  9
$DIMTOH
 70
     0
  9
$DIMSE1
 70
     0
  9
$DIMSE2
 70
     0
  9
$DIMTAD
 70
     1
  9
$DIMZIN
 70
     8
  9
$DIMBLK
  1

  9
$DIMASO
 70
     1
  9
$DIMSHO
 70
     1
  9
$DIMPOST
  1

  9
$DIMAPOST
  1

  9
$DIMALT
 70
     0
  9
$DIMALTD
 70
     2
  9
$DIMALTF
 40
0.039370078740157
  9
$DIMLFAC
 40
1.0
  9
$DIMTOFL
 70
     1
  9
$DIMTVP
 40
0.0
  9
$DIMTIX
 70
     1
  9
$DIMSOXD
 70
     0
  9
$DIMSAH
 70
     1
  9
$DIMBLK1
  1
OBLIQUE
  9
$DIMBLK2
  1
OBLIQUE
  9
$DIMSTYLE
  2
OPO-SSTRICH
  9
$DIMCLRD
 70
   256
  9
$DIMCLRE
 70
   256
  9
$DIMCLRT
 70
   256
  9
$DIMTFAC
 40
0.7114285714285716
  9
$DIMGAP
 40
1.0
  9
$LUNITS
 70
     2
  9
$LUPREC
 70
     1
  9
$SKETCHINC
 40
1.0
  9
$FILLETRAD
 40
0.0
  9
$AUNITS
 70
     0
  9
$AUPREC
 70
     1
  9
$MENU
  1
D:\ACL_CGWG\CGTAB13
  9
$ELEVATION
 40
0.0
  9
$PELEVATION
 40
0.0
  9
$THICKNESS
 40
0.0
  9
$LIMCHECK
 70
     0
  9
$BLIPMODE
 70
     0
  9
$CHAMFERA
 40
1.0
  9
$CHAMFERB
 40
1.0
  9
$SKPOLY
 70
     0
  9
$TDCREATE
 40
2451739.847579028
  9
$TDUPDATE
 40
2452086.7134143519
  9
$TDINDWG
 40
0.0011561458
  9
$TDUSRTIMER
 40
0.0011561458
  9
$USRTIMER
 70
     1
  9
$ANGBASE
 50
0.0
  9
$ANGDIR
 70
     0
  9
$PDMODE
 70
    35
  9
$PDSIZE
 40
5.0
  9
$PLINEWID
 40
0.0
  9
$COORDS
 70
     1
  9
$SPLFRAME
 70
     0
  9
$SPLINETYPE
 70
     6
  9
$SPLINESEGS
 70
     8
  9
$ATTDIA
 70
     1
  9
$ATTREQ
 70
     1
  9
$HANDLING
 70
-16383
  9
$HANDSEED
  5
40C
  9
$SURFTAB1
 70
    12
  9
$SURFTAB2
 70
    12
  9
$SURFTYPE
 70
     6
  9
$SURFU
 70
    12
  9
$SURFV
 70
    12
  9
$UCSNAME
  2

  9
$UCSORG
 10
0.0
 20
0.0
 30
0.0
  9
$UCSXDIR
 10
1.0
 20
0.0
 30
0.0
  9
$UCSYDIR
 10
0.0
 20
1.0
 30
0.0
  9
$PUCSNAME
  2

  9
$PUCSORG
 10
0.0
 20
0.0
 30
0.0
  9
$PUCSXDIR
 10
1.0
 20
0.0
 30
0.0
  9
$PUCSYDIR
 10
0.0
 20
1.0
 30
0.0
  9
$USERI1
 70
     0
  9
$USERI2
 70
     0
  9
$USERI3
 70
     0
  9
$USERI4
 70
     0
  9
$USERI5
 70
     0
  9
$USERR1
 40
0.0
  9
$USERR2
 40
0.0
  9
$USERR3
 40
0.0
  9
$USERR4
 40
0.0
  9
$USERR5
 40
0.0
  9
$WORLDVIEW
 70
     1
  9
$SHADEDGE
 70
     3
  9
$SHADEDIF
 70
    70
  9
$TILEMODE
 70
     1
  9
$MAXACTVP
 70
    48
  9
$PLIMCHECK
 70
     0
  9
$PEXTMIN
 10
1.0000000000000000E+020
 20
1.0000000000000000E+020
 30
1.0000000000000000E+020
  9
$PEXTMAX
 10
-1.0000000000000000E+020
 20
-1.0000000000000000E+020
 30
-1.0000000000000000E+020
  9
$PLIMMIN
 10
0.0
 20
0.0
  9
$PLIMMAX
 10
420.0
 20
297.0
  9
$UNITMODE
 70
     0
  9
$VISRETAIN
 70
     1
  9
$PLINEGEN
 70
     0
  9
$PSLTSCALE
 70
     1
  0
ENDSEC
  0
SECTION
  2
TABLES
  0
TABLE
  2
VPORT
 70
     2
  0
VPORT
  2
*ACTIVE
 70
     0
 10
0.0
 20
0.0
 11
1.0
 21
1.0
 12
-8.3312981393319205
 22
-0.5722038920179103
 13
0.0
 23
0.0
 14
0.5
 24
0.5
 15
10.0
 25
10.0
 16
0.0
 26
0.0
 36
1.0
 17
0.0
 27
0.0
 37
0.0
 40
32.03551346227411
 41
1.6070460704607039
 42
50.0
 43
0.0
 44
0.0
 50
0.0
 51
0.0
 71
     0
 72
   800
 73
     1
 74
     1
 75
     0
 76
     0
 77
     0
 78
     0
  0
ENDTAB
  0
TABLE
  2
LTYPE
 70
     1
  0
LTYPE
  2
CONTINUOUS
 70
     0
  3
_______________________________________________
 72
    65
 73
     2
 40
1.0
 49
1.0
 49
0.0
  0
ENDTAB
  0
TABLE
  2
LAYER
 70
     5
  0
LAYER
  2
0
 70
     0
 62
    30
  6
CONTINUOUS
  0
LAYER
  2
1
 70
     0
 62
     2
  6
CONTINUOUS
  0
LAYER
  2
5
 70
     0
 62
     1
  6
CONTINUOUS
  0
LAYER
  2
6
 70
     0
 62
     3
  6
CONTINUOUS
  0
LAYER
  2
DEFPOINTS
 70
     0
 62
     7
  6
CONTINUOUS
  0
ENDTAB
  0
TABLE
  2
STYLE
 70
     2
  0
STYLE
  2
STANDARD
 70
     0
 40
0.0
 41
1.0
 50
0.0
 71
     0
 42
2.5
  3
txt
  4

  0
STYLE
  2
BESCHLAG
 70
     0
 40
0.0
 41
1.0
 50
0.0
 71
     0
 42
3.5
  3
txt
  4

  0
ENDTAB
  0
TABLE
  2
VIEW
 70
     0
  0
ENDTAB
  0
TABLE
  2
UCS
 70
     0
  0
ENDTAB
  0
TABLE
  2
APPID
 70
     1
  0
APPID
  2
ACAD
 70
     0
  0
ENDTAB
  0
TABLE
  2
DIMSTYLE
 70
     1
  0
DIMSTYLE
  2
OPO-SSTRICH
 70
     0
  3

  4

  5

  6
OBLIQUE
  7
OBLIQUE
 40
1.0
 41
2.0
 42
2.0
 43
0.0
 44
1.0
 45
0.0
 46
1.0
 47
0.0
 48
0.0
140
3.5
141
0.0
142
0.0
143
0.039370078740157
144
1.0
145
0.0
146
0.7114285714285716
147
1.0
 71
     0
 72
     0
 73
     0
 74
     0
 75
     0
 76
     0
 77
     1
 78
     8
170
     0
171
     2
172
     1
173
     1
174
     1
175
     0
176
   256
177
   256
178
   256
  0
ENDTAB
  0
ENDSEC
  0
SECTION
  2
BLOCKS
  0
BLOCK
  8
0
  2
$MODEL_SPACE
 70
     0
 10
0.0
 20
0.0
 30
0.0
  3
$MODEL_SPACE
  1

  0
ENDBLK
  5
1C
  8
0
  0
BLOCK
 67
     1
  8
0
  2
$PAPER_SPACE
 70
     0
 10
0.0
 20
0.0
 30
0.0
  3
$PAPER_SPACE
  1

  0
ENDBLK
  5
19
 67
     1
  8
0
  0
BLOCK
  8
0
  2
_OBLIQUE
 70
     0
 10
0.0
 20
0.0
 30
0.0
  3
_OBLIQUE
  1

  0
LINE
  5
204
  8
0
 62
     0
 10
-0.5
 20
-0.5
 30
0.0
 11
0.5
 21
0.5
 31
0.0
  0
ENDBLK
  5
206
  8
0
  0
BLOCK
  8
0
  2
NULLPUNKT
 70
     0
 10
0.0
 20
0.0
 30
0.0
  3
NULLPUNKT
  1

  0
SOLID
  5
254
  8
5
 10
0.0
 20
0.0
 30
0.0
 11
2.0
 21
0.0
 31
0.0
 12
0.0
 22
-2.0
 32
0.0
 13
0.0
 23
-2.0
 33
0.0
  0
SOLID
  5
255
  8
5
 10
0.0
 20
0.0
 30
0.0
 11
-2.0
 21
0.0
 31
0.0
 12
0.0
 22
2.0
 32
0.0
 13
0.0
 23
2.0
 33
0.0
  0
POLYLINE
  5
256
  8
5
 66
     1
 10
0.0
 20
0.0
 30
0.0
  0
VERTEX
  5
3CB
  8
5
 10
0.0
 20
2.0
 30
0.0
  0
VERTEX
  5
3CC
  8
5
 10
0.0
 20
-2.0
 30
0.0
  0
SEQEND
  5
3CD
  8
5
  0
POLYLINE
  5
257
  8
5
 66
     1
 10
0.0
 20
0.0
 30
0.0
  0
VERTEX
  5
3CE
  8
5
 10
-2.0
 20
0.0
 30
0.0
  0
VERTEX
  5
3CF
  8
5
 10
2.0
 20
0.0
 30
0.0
  0
SEQEND
  5
3D0
  8
5
  0
CIRCLE
  5
258
  8
5
 10
0.0
 20
0.0
 30
0.0
 40
2.0
  0
ENDBLK
  5
25A
  8
0
  0
BLOCK
  8
0
  2
*D2
 70
     1
 10
0.0
 20
0.0
 30
0.0
  3
*D2
  1

  0
LINE
  5
2EA
  8
1
 10
-20.0
 20
-2.0
 30
0.0
 11
-20.0
 21
-15.194593816453439
 31
0.0
  0
LINE
  5
2EB
  8
1
 10
-12.0
 20
-2.0
 30
0.0
 11
-12.0
 21
-15.194593816453439
 31
0.0
  0
LINE
  5
2EC
  8
1
 10
-21.0
 20
-14.194593816453439
 30
0.0
 11
-11.0
 21
-14.194593816453439
 31
0.0
  0
INSERT
  5
2ED
  8
1
  2
_OBLIQUE
 10
-20.0
 20
-14.194593816453439
 30
0.0
 41
2.0
 42
2.0
 43
2.0
 50
180.0
  0
INSERT
  5
2EE
  8
1
  2
_OBLIQUE
 10
-12.0
 20
-14.194593816453439
 30
0.0
 41
2.0
 42
2.0
 43
2.0
  0
TEXT
  5
2EF
  8
0
 10
-17.351296043656209
 20
-13.12774524892275
 30
0.0
 40
3.5
  1
8
  7
BESCHLAG
  0
POINT
  5
2F0
  8
DEFPOINTS
 62
     0
 10
-20.0
 20
0.0
 30
0.0
  0
POINT
  5
2F1
  8
DEFPOINTS
 62
     0
 10
-12.0
 20
0.0
 30
0.0
  0
POINT
  5
2F2
  8
DEFPOINTS
 62
     0
 10
-12.0
 20
-14.194593816453439
 30
0.0
  0
ENDBLK
  5
2C5
  8
0
  0
BLOCK
  8
0
  2
*D3
 70
     1
 10
0.0
 20
0.0
 30
0.0
  3
*D3
  1

  0
LINE
  5
2F3
  8
1
 10
-22.0
 20
5.0
 30
0.0
 11
-29.43839344902835
 21
5.0000000000000018
 31
0.0
  0
LINE
  5
2F4
  8
1
 10
-22.0
 20
0.0000000000000006
 30
0.0
 11
-29.43839344902835
 21
0.0000000000000027
 31
0.0
  0
LINE
  5
2F5
  8
1
 10
-28.43839344902835
 20
6.0000000000000018
 30
0.0
 11
-28.43839344902835
 21
-0.9999999999999976
 31
0.0
  0
INSERT
  5
2F6
  8
1
  2
_OBLIQUE
 10
-28.43839344902835
 20
5.0000000000000018
 30
0.0
 41
2.0
 42
2.0
 43
2.0
 50
90.0
  0
INSERT
  5
2F7
  8
1
  2
_OBLIQUE
 10
-28.43839344902835
 20
0.0000000000000024
 30
0.0
 41
2.0
 42
2.0
 43
2.0
 50
270.0
  0
TEXT
  5
2F8
  8
0
 10
-29.4980796700379
 20
1.1367667121418801
 30
0.0
 40
3.5
  1
5
 50
90.0
  7
BESCHLAG
  0
POINT
  5
2F9
  8
DEFPOINTS
 62
     0
 10
-20.0
 20
5.0
 30
0.0
  0
POINT
  5
2FA
  8
DEFPOINTS
 62
     0
 10
-20.0
 20
0.0
 30
0.0
  0
POINT
  5
2FB
  8
DEFPOINTS
 62
     0
 10
-28.43839344902835
 20
0.0000000000000024
 30
0.0
  0
ENDBLK
  5
2D1
  8
0
  0
BLOCK
  8
0
  2
*D4
 70
     1
 10
0.0
 20
0.0
 30
0.0
  3
*D4
  1

  0
LINE
  5
2FC
  8
1
 10
-12.0
 20
-2.0
 30
0.0
 11
-12.0
 21
-15.194593816453439
 31
0.0
  0
LINE
  5
2FD
  8
1
 10
-0.0000000000000001
 20
-2.0
 30
0.0
 11
-0.0000000000000009
 21
-15.194593816453439
 31
0.0
  0
LINE
  5
2FE
  8
1
 10
-13.0
 20
-14.194593816453439
 30
0.0
 11
0.9999999999999991
 21
-14.194593816453439
 31
0.0
  0
INSERT
  5
2FF
  8
1
  2
_OBLIQUE
 10
-12.0
 20
-14.194593816453439
 30
0.0
 41
2.0
 42
2.0
 43
2.0
 50
180.0
  0
INSERT
  5
300
  8
1
  2
_OBLIQUE
 10
-0.0000000000000009
 20
-14.194593816453439
 30
0.0
 41
2.0
 42
2.0
 43
2.0
  0
TEXT
  5
301
  8
0
 10
-8.8565825375170526
 20
-13.187431469932299
 30
0.0
 40
3.5
  1
12
  7
BESCHLAG
  0
POINT
  5
302
  8
DEFPOINTS
 62
     0
 10
-12.0
 20
0.0
 30
0.0
  0
POINT
  5
303
  8
DEFPOINTS
 62
     0
 10
0.0
 20
0.0
 30
0.0
  0
POINT
  5
304
  8
DEFPOINTS
 62
     0
 10
-0.0000000000000009
 20
-14.194593816453439
 30
0.0
  0
ENDBLK
  5
2DD
  8
0
  0
BLOCK
  8
0
  2
*D5
 70
     1
 10
0.0
 20
0.0
 30
0.0
  3
*D5
  1

  0
LINE
  5
305
  8
1
 10
-6.0
 20
5.0
 30
0.0
 11
17.2622372379792
 21
4.999999999999992
 31
0.0
  0
LINE
  5
306
  8
1
 10
-18.0
 20
-0.0000000000000006
 30
0.0
 11
17.2622372379792
 21
-0.0000000000000106
 31
0.0
  0
LINE
  5
307
  8
1
 10
16.2622372379792
 20
5.999999999999992
 30
0.0
 11
16.2622372379792
 21
-1.00000000000001
 31
0.0
  0
INSERT
  5
308
  8
1
  2
_OBLIQUE
 10
16.2622372379792
 20
4.999999999999992
 30
0.0
 41
2.0
 42
2.0
 43
2.0
 50
90.0
  0
INSERT
  5
309
  8
1
  2
_OBLIQUE
 10
16.2622372379792
 20
-0.0000000000000103
 30
0.0
 41
2.0
 42
2.0
 43
2.0
 50
270.0
  0
TEXT
  5
30A
  8
0
 10
15.20255101696965
 20
1.1367667121418761
 30
0.0
 40
3.5
  1
5
 50
90.0
  7
BESCHLAG
  0
POINT
  5
30B
  8
DEFPOINTS
 62
     0
 10
-8.0
 20
5.0
 30
0.0
  0
POINT
  5
30C
  8
DEFPOINTS
 62
     0
 10
-20.0
 20
0.0
 30
0.0
  0
POINT
  5
30D
  8
DEFPOINTS
 62
     0
 10
16.2622372379792
 20
-0.0000000000000103
 30
0.0
  0
ENDBLK
  5
2E9
  8
0
  0
ENDSEC
  0
SECTION
  2
ENTITIES
  0
INSERT
  5
25B
  8
5
  2
NULLPUNKT
 10
0.0
 20
0.0
 30
0.0
  0
POLYLINE
  5
2AF
  8
6
 66
     1
 10
0.0
 20
0.0
 30
0.0
 70
     1
  0
VERTEX
  5
3D1
  8
6
 10
-10.62149830202679
 20
1.4757748809573741
 30
0.0
 42
-0.4858397222940089
  0
VERTEX
  5
3D2
  8
6
 10
-10.705459171092111
 20
1.598453024643504
 30
0.0
  0
VERTEX
  5
3D3
  8
6
 10
-10.84108823416681
 20
2.9608263330603668
 30
0.0
 42
-0.6136798175662652
  0
VERTEX
  5
3D4
  8
6
 10
-10.518161852522089
 20
3.1674421783993689
 30
0.0
 42
-0.1276735541698247
  0
VERTEX
  5
3D5
  8
6
 10
-9.3556267802246111
 20
2.7090132744502848
 30
0.0
 42
0.313527764045464
  0
VERTEX
  5
3D6
  8
6
 10
-8.7291495358890643
 20
2.889802127534721
 30
0.0
 42
-0.3604189203397662
  0
VERTEX
  5
3D7
  8
6
 10
-7.4761951087034504
 20
3.5419334270439999
 30
0.0
 42
-0.2227411953340717
  0
VERTEX
  5
3D8
  8
6
 10
-5.725933952948707
 20
2.7412969915941399
 30
0.0
 42
0.1099795462289435
  0
VERTEX
  5
3D9
  8
6
 10
-4.7184035856507762
 20
2.2828680412966369
 30
0.0
  0
VERTEX
  5
3DA
  8
6
 10
-3.943380183623503
 20
2.2376708280254429
 30
0.0
 42
-0.7178545111737389
  0
VERTEX
  5
3DB
  8
6
 10
-3.91754611736178
 20
1.5726260323889389
 30
0.0
  0
SEQEND
  5
3DC
  8
6
  0
POLYLINE
  5
2B0
  8
6
 66
     1
 10
0.0
 20
0.0
 30
0.0
  0
VERTEX
  5
3DD
  8
6
 10
-12.140143119593629
 20
3.2098514830245222
 30
0.0
 42
-0.7124069329153512
  0
VERTEX
  5
3DE
  8
6
 10
-10.83020151386472
 20
3.052786802112109
 30
0.0
  0
SEQEND
  5
3DF
  8
6
  0
DIMENSION
  5
2B1
  8
1
  2
*D2
 10
-12.0
 20
-14.194593816453439
 30
0.0
 11
-16.0
 21
-11.407588359427519
 31
0.0
 70
     0
 13
-20.0
 23
0.0
 33
0.0
 14
-12.0
 24
0.0
 34
0.0
  0
POLYLINE
  5
2B2
  8
6
 66
     1
 10
0.0
 20
0.0
 30
0.0
  0
VERTEX
  5
3E0
  8
6
 10
-3.6983266102456578
 20
1.8318553756162139
 30
0.0
 42
-0.581407000296759
  0
VERTEX
  5
3E1
  8
6
 10
-2.3879681757007338
 20
1.5566803672621741
 30
0.0
  0
VERTEX
  5
3E2
  8
6
 10
-2.1063638738041841
 20
0.0011754179151922
 30
0.0
  0
SEQEND
  5
3E3
  8
6
  0
DIMENSION
  5
2B3
  8
1
  2
*D3
 10
-28.43839344902835
 20
0.0000000000000024
 30
0.0
 11
-31.218236559533128
 21
2.4999999999999978
 31
0.0
 70
     0
 13
-20.0
 23
5.0
 33
0.0
 14
-20.0
 24
0.0
 34
0.0
 50
90.0
  0
TEXT
  5
2B4
  8
1
 10
-5.9620594947830341
 20
9.2383907277316553
 30
0.0
 40
2.5
  1
Hebgo 555
 41
0.9
  7
BESCHLAG
  0
POLYLINE
  5
2B5
  8
5
 66
     1
 10
0.0
 20
0.0
 30
0.0
  0
VERTEX
  5
3E4
  8
5
 10
-15.0
 20
11.0
 30
0.0
  0
VERTEX
  5
3E5
  8
5
 10
-15.0
 20
11.0
 30
0.0
  0
VERTEX
  5
3E6
  8
5
 10
-12.0
 20
11.0
 30
0.0
  0
VERTEX
  5
3E7
  8
5
 10
-12.0
 20
5.0
 30
0.0
  0
VERTEX
  5
3E8
  8
5
 10
-20.0
 20
5.0
 30
0.0
  0
VERTEX
  5
3E9
  8
5
 10
-20.0
 20
0.0
 30
0.0
  0
VERTEX
  5
3EA
  8
5
 10
0.0
 20
0.0
 30
0.0
  0
VERTEX
  5
3EB
  8
5
 10
0.0
 20
-5.0
 30
0.0
  0
SEQEND
  5
3EC
  8
5
  0
POLYLINE
  5
2B6
  8
5
 66
     1
 10
0.0
 20
0.0
 30
0.0
  0
VERTEX
  5
3ED
  8
5
 10
-8.0
 20
14.03451344036591
 30
0.0
  0
VERTEX
  5
3EE
  8
5
 10
-8.0
 20
5.0
 30
0.0
  0
VERTEX
  5
3EF
  8
5
 10
7.6876042139001584
 20
5.0
 30
0.0
  0
SEQEND
  5
3F0
  8
5
  0
POLYLINE
  5
2B7
  8
6
 66
     1
 10
0.0
 20
0.0
 30
0.0
 70
     1
  0
VERTEX
  5
3F1
  8
6
 10
-17.93131825023147
 20
0.3752340769805187
 30
0.0
 42
-0.4998996967720081
  0
VERTEX
  5
3F2
  8
6
 10
-18.76053218503284
 20
0.1801787670182193
 30
0.0
 42
-0.1425898299994934
  0
VERTEX
  5
3F3
  8
6
 10
-19.384881461586239
 20
0.9799055193242338
 30
0.0
  0
VERTEX
  5
3F4
  8
6
 10
-19.228794173191091
 20
2.7451560188648041
 30
0.0
 42
-0.4094027238325266
  0
VERTEX
  5
3F5
  8
6
 10
-18.7019994518846
 20
3.1937832225083862
 30
0.0
 42
0.2084249701822753
  0
VERTEX
  5
3F6
  8
6
 10
-15.33321892551748
 20
4.8204484322084218
 30
0.0
 42
-0.8456708805026421
  0
VERTEX
  5
3F7
  8
6
 10
-14.61131509371671
 20
4.527865559962037
 30
0.0
 42
-0.2282420555153113
  0
VERTEX
  5
3F8
  8
6
 10
-17.21916984321205
 20
2.3452926427117968
 30
0.0
 42
0.8945910612436042
  0
VERTEX
  5
3F9
  8
6
 10
-17.19965893216294
 20
2.1014735052589231
 30
0.0
  0
VERTEX
  5
3FA
  8
6
 10
-12.46826198815824
 20
2.1014735052589231
 30
0.0
 42
0.1235565244978233
  0
VERTEX
  5
3FB
  8
6
 10
-12.0
 20
6.5487344240840448
 30
0.0
 42
-0.6441294145665237
  0
VERTEX
  5
3FC
  8
6
 10
-11.15127515414906
 20
6.5292289116272277
 30
0.0
 42
0.0542420791818769
  0
VERTEX
  5
3FD
  8
6
 10
-10.48790405549652
 20
4.6176869759634647
 30
0.0
 42
0.1803841061614446
  0
VERTEX
  5
3FE
  8
6
 10
-10.03915303987378
 20
4.2178235998104583
 30
0.0
 42
0.2445347162401854
  0
VERTEX
  5
3FF
  8
6
 10
-9.219694591339703
 20
4.3055984522146673
 30
0.0
 42
-0.344046847221613
  0
VERTEX
  5
400
  8
6
 10
-6.4101227853625451
 20
4.5689231484728898
 30
0.0
 42
0.2516632288921921
  0
VERTEX
  5
401
  8
6
 10
-5.6882188920758381
 20
4.6176869759634647
 30
0.0
 42
-0.0760034197438005
  0
VERTEX
  5
402
  8
6
 10
-1.115353549541396
 20
4.9624177692992362
 30
0.0
 42
-0.8340202357938267
  0
VERTEX
  5
403
  8
6
 10
-1.061873487099092
 20
4.2994484157321722
 30
0.0
 42
-0.0135189096569286
  0
VERTEX
  5
404
  8
6
 10
-4.4966409854318954
 20
3.4877185920197462
 30
0.0
 42
0.7889965731020149
  0
VERTEX
  5
405
  8
6
 10
-4.5035305493588558
 20
3.3086393054895771
 30
0.0
  0
VERTEX
  5
406
  8
6
 10
-2.547135542054547
 20
3.2110465771332879
 30
0.0
 42
-0.3460266289074351
  0
VERTEX
  5
407
  8
6
 10
-1.809600071743716
 20
2.309273695295246
 30
0.0
  0
VERTEX
  5
408
  8
6
 10
-1.8055467324361409
 20
0.138990147813729
 30
0.0
 42
-0.4430370807793517
  0
VERTEX
  5
409
  8
6
 10
-1.913710875498509
 20
0.0
 30
0.0
  0
VERTEX
  5
40A
  8
6
 10
-12.263397391396211
 20
0.0631456922773168
 30
0.0
  0
SEQEND
  5
40B
  8
6
  0
DIMENSION
  5
2B8
  8
1
  2
*D4
 10
-0.0000000000000009
 20
-14.194593816453439
 30
0.0
 11
-6.0
 21
-11.437431469932299
 31
0.0
 70
     0
 13
-12.0
 23
0.0
 33
0.0
 14
0.0
 24
0.0
 34
0.0
  0
DIMENSION
  5
2B9
  8
1
  2
*D5
 10
16.2622372379792
 20
-0.0000000000000103
 30
0.0
 11
13.48239412747443
 21
2.4999999999999938
 31
0.0
 70
     0
 13
-8.0
 23
5.0
 33
0.0
 14
-20.0
 24
0.0
 34
0.0
 50
90.0
  0
VIEWPORT
  5
22
 67
     1
  8
0
 10
210.0
 20
170.2366863905325
 30
0.0
 40
420.0
 41
340.47337278106511
 68
     1
 69
     1
1001
ACAD
1000
MVIEW
1002
{
1070
    16
1010
0.0
1020
0.0
1030
0.0
1010
0.0
1020
0.0
1030
1.0
1040
0.0
1040
340.47337278106511
1040
210.0
1040
170.2366863905325
1040
50.0
1040
0.0
1040
0.0
1070
     0
1070
   100
1070
     1
1070
     1
1070
     0
1070
     0
1070
     0
1070
     0
1040
0.0
1040
0.0
1040
0.0
1040
5.0
1040
5.0
1040
10.0
1040
10.0
1070
     0
1002
{
1002
}
1002
}
  0
ENDSEC
  0
EOF
