  0
SECTION
  2
HEADER
  9
$ACADVER
  1
AC1009
  9
$INSBASE
 10
0.0
 20
0.0
 30
0.0
  9
$EXTMIN
 10
-31.517027972169441
 20
-31.013487932520771
 30
-0.0000000000112498
  9
$EXTMAX
 10
21.606445861522161
 20
18.562317440009672
 30
0.0000000000002956
  9
$LIMMIN
 10
-150.0
 20
-150.0
  9
$LIMMAX
 10
150.0
 20
150.0
  9
$ORTHOMODE
 70
     0
  9
$REGENMODE
 70
     1
  9
$FILLMODE
 70
     1
  9
$QTEXTMODE
 70
     0
  9
$MIRRTEXT
 70
     0
  9
$DRAGMODE
 70
     2
  9
$LTSCALE
 40
3.0
  9
$OSMODE
 70
   111
  9
$ATTMODE
 70
     1
  9
$TEXTSIZE
 40
3.5
  9
$TRACEWID
 40
1.0
  9
$TEXTSTYLE
  7
BESCHLAG
  9
$CLAYER
  8
0
  9
$CELTYPE
  6
BYLAYER
  9
$CECOLOR
 62
   256
  9
$DIMSCALE
 40
1.0
  9
$DIMASZ
 40
2.0
  9
$DIMEXO
 40
2.0
  9
$DIMDLI
 40
0.0
  9
$DIMRND
 40
0.0
  9
$DIMDLE
 40
1.0
  9
$DIMEXE
 40
1.0
  9
$DIMTP
 40
0.0
  9
$DIMTM
 40
0.0
  9
$DIMTXT
 40
3.5
  9
$DIMCEN
 40
0.0
  9
$DIMTSZ
 40
0.0
  9
$DIMTOL
 70
     0
  9
$DIMLIM
 70
     0
  9
$DIMTIH
 70
     0
  9
$DIMTOH
 70
     0
  9
$DIMSE1
 70
     0
  9
$DIMSE2
 70
     0
  9
$DIMTAD
 70
     1
  9
$DIMZIN
 70
     8
  9
$DIMBLK
  1

  9
$DIMASO
 70
     1
  9
$DIMSHO
 70
     1
  9
$DIMPOST
  1

  9
$DIMAPOST
  1

  9
$DIMALT
 70
     0
  9
$DIMALTD
 70
     2
  9
$DIMALTF
 40
0.039370078740157
  9
$DIMLFAC
 40
1.0
  9
$DIMTOFL
 70
     1
  9
$DIMTVP
 40
0.0
  9
$DIMTIX
 70
     1
  9
$DIMSOXD
 70
     0
  9
$DIMSAH
 70
     1
  9
$DIMBLK1
  1
OBLIQUE
  9
$DIMBLK2
  1
OBLIQUE
  9
$DIMSTYLE
  2
OPO-SSTRICH
  9
$DIMCLRD
 70
   256
  9
$DIMCLRE
 70
   256
  9
$DIMCLRT
 70
   256
  9
$DIMTFAC
 40
0.7114285714285716
  9
$DIMGAP
 40
1.0
  9
$LUNITS
 70
     2
  9
$LUPREC
 70
     1
  9
$SKETCHINC
 40
1.0
  9
$FILLETRAD
 40
0.0
  9
$AUNITS
 70
     0
  9
$AUPREC
 70
     1
  9
$MENU
  1
D:\ACL_CGWG\CGTAB13
  9
$ELEVATION
 40
0.0
  9
$PELEVATION
 40
0.0
  9
$THICKNESS
 40
0.0
  9
$LIMCHECK
 70
     0
  9
$BLIPMODE
 70
     0
  9
$CHAMFERA
 40
1.0
  9
$CHAMFERB
 40
1.0
  9
$SKPOLY
 70
     0
  9
$TDCREATE
 40
2451739.870436551
  9
$TDUPDATE
 40
2452087.6059808792
  9
$TDINDWG
 40
0.0008175926
  9
$TDUSRTIMER
 40
0.0008175926
  9
$USRTIMER
 70
     1
  9
$ANGBASE
 50
0.0
  9
$ANGDIR
 70
     0
  9
$PDMODE
 70
    35
  9
$PDSIZE
 40
5.0
  9
$PLINEWID
 40
0.0
  9
$COORDS
 70
     1
  9
$SPLFRAME
 70
     0
  9
$SPLINETYPE
 70
     6
  9
$SPLINESEGS
 70
     8
  9
$ATTDIA
 70
     1
  9
$ATTREQ
 70
     1
  9
$HANDLING
 70
-16383
  9
$HANDSEED
  5
458
  9
$SURFTAB1
 70
    12
  9
$SURFTAB2
 70
    12
  9
$SURFTYPE
 70
     6
  9
$SURFU
 70
    12
  9
$SURFV
 70
    12
  9
$UCSNAME
  2

  9
$UCSORG
 10
0.0
 20
0.0
 30
0.0
  9
$UCSXDIR
 10
1.0
 20
0.0
 30
0.0
  9
$UCSYDIR
 10
0.0
 20
1.0
 30
0.0
  9
$PUCSNAME
  2

  9
$PUCSORG
 10
0.0
 20
0.0
 30
0.0
  9
$PUCSXDIR
 10
1.0
 20
0.0
 30
0.0
  9
$PUCSYDIR
 10
0.0
 20
1.0
 30
0.0
  9
$USERI1
 70
     0
  9
$USERI2
 70
     0
  9
$USERI3
 70
     0
  9
$USERI4
 70
     0
  9
$USERI5
 70
     0
  9
$USERR1
 40
0.0
  9
$USERR2
 40
0.0
  9
$USERR3
 40
0.0
  9
$USERR4
 40
0.0
  9
$USERR5
 40
0.0
  9
$WORLDVIEW
 70
     1
  9
$SHADEDGE
 70
     3
  9
$SHADEDIF
 70
    70
  9
$TILEMODE
 70
     1
  9
$MAXACTVP
 70
    48
  9
$PLIMCHECK
 70
     0
  9
$PEXTMIN
 10
1.0000000000000000E+020
 20
1.0000000000000000E+020
 30
1.0000000000000000E+020
  9
$PEXTMAX
 10
-1.0000000000000000E+020
 20
-1.0000000000000000E+020
 30
-1.0000000000000000E+020
  9
$PLIMMIN
 10
0.0
 20
0.0
  9
$PLIMMAX
 10
420.0
 20
297.0
  9
$UNITMODE
 70
     0
  9
$VISRETAIN
 70
     1
  9
$PLINEGEN
 70
     0
  9
$PSLTSCALE
 70
     1
  0
ENDSEC
  0
SECTION
  2
TABLES
  0
TABLE
  2
VPORT
 70
     2
  0
VPORT
  2
*ACTIVE
 70
     0
 10
0.0
 20
0.0
 11
1.0
 21
1.0
 12
-4.9552910553236433
 22
-6.2255852462555481
 13
0.0
 23
0.0
 14
0.5
 24
0.5
 15
10.0
 25
10.0
 16
0.0
 26
0.0
 36
1.0
 17
0.0
 27
0.0
 37
0.0
 40
49.978315294364251
 41
1.6070460704607039
 42
50.0
 43
0.0
 44
0.0
 50
0.0
 51
0.0
 71
     0
 72
   800
 73
     1
 74
     1
 75
     0
 76
     0
 77
     0
 78
     0
  0
ENDTAB
  0
TABLE
  2
LTYPE
 70
     2
  0
LTYPE
  2
CONTINUOUS
 70
     0
  3
_______________________________________________
 72
    65
 73
     2
 40
1.0
 49
1.0
 49
0.0
  0
LTYPE
  2
STRICHPUNKT
 70
     0
  3
__ . __ . __ . __ . __ . __ . __ . __ . __ . __
 72
    65
 73
     4
 40
1.0
 49
0.5
 49
-0.25
 49
0.0
 49
-0.25
  0
ENDTAB
  0
TABLE
  2
LAYER
 70
     7
  0
LAYER
  2
0
 70
     0
 62
    30
  6
CONTINUOUS
  0
LAYER
  2
1
 70
     0
 62
     2
  6
CONTINUOUS
  0
LAYER
  2
2
 70
     0
 62
     9
  6
CONTINUOUS
  0
LAYER
  2
4
 70
     1
 62
     4
  6
CONTINUOUS
  0
LAYER
  2
5
 70
     0
 62
     1
  6
CONTINUOUS
  0
LAYER
  2
6
 70
     0
 62
     3
  6
CONTINUOUS
  0
LAYER
  2
DEFPOINTS
 70
     0
 62
     7
  6
CONTINUOUS
  0
ENDTAB
  0
TABLE
  2
STYLE
 70
     2
  0
STYLE
  2
STANDARD
 70
     0
 40
0.0
 41
1.0
 50
0.0
 71
     0
 42
2.5
  3
txt
  4

  0
STYLE
  2
BESCHLAG
 70
     0
 40
0.0
 41
1.0
 50
0.0
 71
     0
 42
3.5
  3
txt
  4

  0
ENDTAB
  0
TABLE
  2
VIEW
 70
     0
  0
ENDTAB
  0
TABLE
  2
UCS
 70
     0
  0
ENDTAB
  0
TABLE
  2
APPID
 70
     1
  0
APPID
  2
ACAD
 70
     0
  0
ENDTAB
  0
TABLE
  2
DIMSTYLE
 70
     1
  0
DIMSTYLE
  2
OPO-SSTRICH
 70
     0
  3

  4

  5

  6
OBLIQUE
  7
OBLIQUE
 40
1.0
 41
2.0
 42
2.0
 43
0.0
 44
1.0
 45
0.0
 46
1.0
 47
0.0
 48
0.0
140
3.5
141
0.0
142
0.0
143
0.039370078740157
144
1.0
145
0.0
146
0.7114285714285716
147
1.0
 71
     0
 72
     0
 73
     0
 74
     0
 75
     0
 76
     0
 77
     1
 78
     8
170
     0
171
     2
172
     1
173
     1
174
     1
175
     0
176
   256
177
   256
178
   256
  0
ENDTAB
  0
ENDSEC
  0
SECTION
  2
BLOCKS
  0
BLOCK
  8
0
  2
$MODEL_SPACE
 70
     0
 10
0.0
 20
0.0
 30
0.0
  3
$MODEL_SPACE
  1

  0
ENDBLK
  5
1C
  8
0
  0
BLOCK
 67
     1
  8
0
  2
$PAPER_SPACE
 70
     0
 10
0.0
 20
0.0
 30
0.0
  3
$PAPER_SPACE
  1

  0
ENDBLK
  5
19
 67
     1
  8
0
  0
BLOCK
  8
0
  2
_OBLIQUE
 70
     0
 10
0.0
 20
0.0
 30
0.0
  3
_OBLIQUE
  1

  0
LINE
  5
204
  8
0
 62
     0
 10
-0.5
 20
-0.5
 30
0.0
 11
0.5
 21
0.5
 31
0.0
  0
ENDBLK
  5
206
  8
0
  0
BLOCK
  8
0
  2
NULLPUNKT
 70
     0
 10
0.0
 20
0.0
 30
0.0
  3
NULLPUNKT
  1

  0
SOLID
  5
254
  8
5
 10
0.0
 20
0.0
 30
0.0
 11
2.0
 21
0.0
 31
0.0
 12
0.0
 22
-2.0
 32
0.0
 13
0.0
 23
-2.0
 33
0.0
  0
SOLID
  5
255
  8
5
 10
0.0
 20
0.0
 30
0.0
 11
-2.0
 21
0.0
 31
0.0
 12
0.0
 22
2.0
 32
0.0
 13
0.0
 23
2.0
 33
0.0
  0
POLYLINE
  5
256
  8
5
 66
     1
 10
0.0
 20
0.0
 30
0.0
  0
VERTEX
  5
3F9
  8
5
 10
0.0
 20
2.0
 30
0.0
  0
VERTEX
  5
3FA
  8
5
 10
0.0
 20
-2.0
 30
0.0
  0
SEQEND
  5
3FB
  8
5
  0
POLYLINE
  5
257
  8
5
 66
     1
 10
0.0
 20
0.0
 30
0.0
  0
VERTEX
  5
3FC
  8
5
 10
-2.0
 20
0.0
 30
0.0
  0
VERTEX
  5
3FD
  8
5
 10
2.0
 20
0.0
 30
0.0
  0
SEQEND
  5
3FE
  8
5
  0
CIRCLE
  5
258
  8
5
 10
0.0
 20
0.0
 30
0.0
 40
2.0
  0
ENDBLK
  5
25A
  8
0
  0
BLOCK
  8
0
  2
*X2
 70
     1
 10
0.0
 20
0.0
 30
0.0
  3
*X2
  1

  0
LINE
  5
29E
  8
0
 62
     0
 10
982.49529751687271
 20
161.12006049057919
 30
0.0
 11
985.49529751687271
 21
164.12006049057911
 31
0.0
  0
LINE
  5
29F
  8
0
 62
     0
 10
982.49529751687271
 20
162.81711676542679
 30
0.0
 11
985.49529751687271
 21
165.81711676542679
 31
0.0
  0
LINE
  5
2A0
  8
0
 62
     0
 10
992.67339296046532
 20
172.9952122090194
 30
0.0
 11
993.47931073476707
 21
173.80112998332109
 31
0.0
  0
LINE
  5
2A1
  8
0
 62
     0
 10
982.49529751687271
 20
164.51417304027461
 30
0.0
 11
985.49529751687271
 21
167.51417304027461
 31
0.0
  0
LINE
  5
2A2
  8
0
 62
     0
 10
991.49529751687248
 20
173.51417304027439
 30
0.0
 11
993.49529751687248
 21
175.5141730402745
 31
0.0
  0
LINE
  5
2A3
  8
0
 62
     0
 10
982.49529751687271
 20
166.2112293151223
 30
0.0
 11
985.49529751687271
 21
169.2112293151223
 31
0.0
  0
LINE
  5
2A4
  8
0
 62
     0
 10
991.49529751687248
 20
175.21122931512221
 30
0.0
 11
993.39343419852605
 21
177.10936599677561
 31
0.0
  0
LINE
  5
2A5
  8
0
 62
     0
 10
982.49529751687271
 20
167.90828558997001
 30
0.0
 11
985.49529751687271
 21
170.90828558996989
 31
0.0
  0
LINE
  5
2A6
  8
0
 62
     0
 10
990.56623735381652
 20
175.97922542691381
 30
0.0
 11
992.6786146530801
 21
178.0916027261776
 31
0.0
  0
LINE
  5
2A7
  8
0
 62
     0
 10
982.49529751687271
 20
169.60534186481769
 30
0.0
 11
985.49529751687271
 21
172.60534186481769
 31
0.0
  0
LINE
  5
2A8
  8
0
 62
     0
 10
988.86918107896872
 20
175.97922542691381
 30
0.0
 11
991.36918107896872
 21
178.47922542691381
 31
0.0
  0
LINE
  5
2A9
  8
0
 62
     0
 10
982.49529751687271
 20
171.3023981396654
 30
0.0
 11
985.49529751687271
 21
174.30239813966531
 31
0.0
  0
LINE
  5
2AA
  8
0
 62
     0
 10
987.17212480412115
 20
175.97922542691381
 30
0.0
 11
989.67212480412115
 21
178.47922542691381
 31
0.0
  0
LINE
  5
2AB
  8
0
 62
     0
 10
982.49529751687271
 20
172.99945441451311
 30
0.0
 11
987.97506852927336
 21
178.47922542691381
 31
0.0
  0
LINE
  5
2AC
  8
0
 62
     0
 10
982.49529751687271
 20
174.69651068936091
 30
0.0
 11
986.27801225442556
 21
178.47922542691381
 31
0.0
  0
LINE
  5
2AD
  8
0
 62
     0
 10
982.08095597957799
 20
175.97922542691381
 30
0.0
 11
984.58095597957777
 21
178.47922542691381
 31
0.0
  0
LINE
  5
2AE
  8
0
 62
     0
 10
980.3838997047302
 20
175.97922542691381
 30
0.0
 11
982.8838997047302
 21
178.47922542691381
 31
0.0
  0
LINE
  5
2AF
  8
0
 62
     0
 10
978.68684342988263
 20
175.97922542691381
 30
0.0
 11
981.1868434298824
 21
178.47922542691381
 31
0.0
  0
LINE
  5
2B0
  8
0
 62
     0
 10
976.98978715503483
 20
175.97922542691381
 30
0.0
 11
979.48978715503472
 21
178.47922542691381
 31
0.0
  0
LINE
  5
2B1
  8
0
 62
     0
 10
976.72684110068326
 20
177.41333564741021
 30
0.0
 11
977.56118729637626
 21
178.24768184310301
 31
0.0
  0
LINE
  5
2B2
  8
0
 62
     0
 10
982.49529751687271
 20
159.4230042157314
 30
0.0
 11
985.49631372520514
 21
162.4240204240638
 31
0.0
  0
LINE
  5
2B3
  8
0
 62
     0
 10
982.49529751687271
 20
157.72594794088371
 30
0.0
 11
986.06886331427643
 21
161.29951373828749
 31
0.0
  0
LINE
  5
2B4
  8
0
 62
     0
 10
982.49529751687271
 20
156.028891666036
 30
0.0
 11
987.44563127775052
 21
160.97922542691381
 31
0.0
  0
LINE
  5
2B5
  8
0
 62
     0
 10
982.49529751687271
 20
154.33183539118821
 30
0.0
 11
985.49529751687271
 21
157.33183539118809
 31
0.0
  0
LINE
  5
2B6
  8
0
 62
     0
 10
991.49529751687248
 20
163.33183539118809
 30
0.0
 11
992.1426875525982
 21
163.97922542691381
 31
0.0
  0
LINE
  5
2B7
  8
0
 62
     0
 10
986.6426875525982
 20
158.47922542691381
 30
0.0
 11
989.14268755259832
 21
160.97922542691381
 31
0.0
  0
LINE
  5
2B8
  8
0
 62
     0
 10
983.33974382744577
 20
153.47922542691381
 30
0.0
 11
985.49529751687271
 21
155.6347791163405
 31
0.0
  0
LINE
  5
2B9
  8
0
 62
     0
 10
991.49529751687248
 20
161.6347791163405
 30
0.0
 11
993.3533334635066
 21
163.4928150629745
 31
0.0
  0
LINE
  5
2BA
  8
0
 62
     0
 10
988.33974382744577
 20
158.47922542691381
 30
0.0
 11
990.83974382744589
 21
160.97922542691381
 31
0.0
  0
LINE
  5
2BB
  8
0
 62
     0
 10
985.03680010229368
 20
153.47922542691381
 30
0.0
 11
985.49529751687271
 21
153.9377228414927
 31
0.0
  0
LINE
  5
2BC
  8
0
 62
     0
 10
990.03680010229357
 20
158.47922542691381
 30
0.0
 11
993.49529751687248
 21
161.93772284149259
 31
0.0
  0
LINE
  5
2BD
  8
0
 62
     0
 10
991.48999763442055
 20
158.23536668419311
 30
0.0
 11
993.49529751687248
 21
160.24066656664499
 31
0.0
  0
LINE
  5
2BE
  8
0
 62
     0
 10
991.49529751687248
 20
156.54361029179731
 30
0.0
 11
993.49529751687248
 21
158.54361029179719
 31
0.0
  0
LINE
  5
2BF
  8
0
 62
     0
 10
991.49529751687248
 20
154.84655401694951
 30
0.0
 11
993.49529751687248
 21
156.84655401694951
 31
0.0
  0
LINE
  5
2C0
  8
0
 62
     0
 10
991.49529751687248
 20
153.14949774210189
 30
0.0
 11
993.49529751687248
 21
155.1494977421018
 31
0.0
  0
LINE
  5
2C1
  8
0
 62
     0
 10
991.49529751687248
 20
151.45244146725409
 30
0.0
 11
993.49529751687248
 21
153.45244146725409
 31
0.0
  0
LINE
  5
2C2
  8
0
 62
     0
 10
991.49529751687248
 20
149.75538519240649
 30
0.0
 11
993.49529751687248
 21
151.75538519240649
 31
0.0
  0
LINE
  5
2C3
  8
0
 62
     0
 10
991.49529751687248
 20
148.0583289175587
 30
0.0
 11
993.49529751687248
 21
150.0583289175587
 31
0.0
  0
LINE
  5
2C4
  8
0
 62
     0
 10
991.49529751687248
 20
146.3612726427109
 30
0.0
 11
993.49529751687248
 21
148.3612726427109
 31
0.0
  0
LINE
  5
2C5
  8
0
 62
     0
 10
992.81030657592305
 20
145.97922542691381
 30
0.0
 11
993.49529751687248
 21
146.6642163678633
 31
0.0
  0
ENDBLK
  5
2C7
  8
0
  0
BLOCK
  8
0
  2
*D3
 70
     1
 10
0.0
 20
0.0
 30
0.0
  3
*D3
  1

  0
LINE
  5
318
  8
1
 10
-5.9999999999997717
 20
2.0
 30
0.0
 11
-5.9999999999997708
 21
14.06803747083233
 31
0.0
  0
LINE
  5
319
  8
1
 10
0.0000000000000001
 20
2.0
 30
0.0
 11
0.0000000000000009
 21
14.06803747083233
 31
0.0
  0
LINE
  5
31A
  8
1
 10
-6.9999999999997708
 20
13.06803747083233
 30
0.0
 11
1.0
 21
13.06803747083233
 31
0.0
  0
INSERT
  5
31B
  8
1
  2
_OBLIQUE
 10
-5.9999999999997708
 20
13.06803747083233
 30
0.0
 41
2.0
 42
2.0
 43
2.0
 50
180.0
  0
INSERT
  5
31C
  8
1
  2
_OBLIQUE
 10
0.0000000000000008
 20
13.06803747083233
 30
0.0
 41
2.0
 42
2.0
 43
2.0
  0
TEXT
  5
31D
  8
0
 10
-4.3393587994541818
 20
14.13488603836303
 30
0.0
 40
3.5
  1
6
  7
BESCHLAG
  0
POINT
  5
31E
  8
DEFPOINTS
 62
     0
 10
-5.9999999999997717
 20
0.0
 30
0.0
  0
POINT
  5
31F
  8
DEFPOINTS
 62
     0
 10
0.0
 20
0.0
 30
0.0
  0
POINT
  5
320
  8
DEFPOINTS
 62
     0
 10
0.0000000000000008
 20
13.06803747083233
 30
0.0
  0
ENDBLK
  5
2F3
  8
0
  0
BLOCK
  8
0
  2
*D4
 70
     1
 10
0.0
 20
0.0
 30
0.0
  3
*D4
  1

  0
LINE
  5
321
  8
1
 10
0.0000000000000001
 20
2.0
 30
0.0
 11
0.0000000000000009
 21
14.06803747083233
 31
0.0
  0
LINE
  5
322
  8
1
 10
11.0
 20
4.5
 30
0.0
 11
11.0
 21
14.06803747083233
 31
0.0
  0
LINE
  5
323
  8
1
 10
-0.9999999999999992
 20
13.06803747083233
 30
0.0
 11
12.0
 21
13.06803747083233
 31
0.0
  0
INSERT
  5
324
  8
1
  2
_OBLIQUE
 10
0.0000000000000008
 20
13.06803747083233
 30
0.0
 41
2.0
 42
2.0
 43
2.0
 50
180.0
  0
INSERT
  5
325
  8
1
  2
_OBLIQUE
 10
11.0
 20
13.06803747083233
 30
0.0
 41
2.0
 42
2.0
 43
2.0
  0
TEXT
  5
326
  8
0
 10
2.963335607094133
 20
14.07519981735348
 30
0.0
 40
3.5
  1
11
  7
BESCHLAG
  0
POINT
  5
327
  8
DEFPOINTS
 62
     0
 10
0.0
 20
0.0
 30
0.0
  0
POINT
  5
328
  8
DEFPOINTS
 62
     0
 10
11.0
 20
2.5
 30
0.0
  0
POINT
  5
329
  8
DEFPOINTS
 62
     0
 10
11.0
 20
13.06803747083233
 30
0.0
  0
ENDBLK
  5
2FF
  8
0
  0
BLOCK
  8
0
  2
*D5
 70
     1
 10
0.0
 20
0.0
 30
0.0
  3
*D5
  1

  0
LINE
  5
32A
  8
1
 10
-2.0
 20
-30.0
 30
0.0
 11
-15.100412200958321
 21
-30.0
 31
0.0
  0
LINE
  5
32B
  8
1
 10
-2.0
 20
0.0000000000000006
 30
0.0
 11
-15.10041220095831
 21
0.0000000000000043
 31
0.0
  0
LINE
  5
32C
  8
1
 10
-14.100412200958321
 20
-30.999999999999989
 30
0.0
 11
-14.10041220095831
 21
1.0000000000000031
 31
0.0
  0
INSERT
  5
32D
  8
1
  2
_OBLIQUE
 10
-14.100412200958321
 20
-30.0
 30
0.0
 41
2.0
 42
2.0
 43
2.0
 50
270.0
  0
INSERT
  5
32E
  8
1
  2
_OBLIQUE
 10
-14.10041220095831
 20
0.000000000000004
 30
0.0
 41
2.0
 42
2.0
 43
2.0
 50
90.0
  0
TEXT
  5
32F
  8
0
 10
-15.169648217329391
 20
-17.704979536152791
 30
0.0
 40
3.5
  1
30
 50
90.0
  7
BESCHLAG
  0
POINT
  5
330
  8
DEFPOINTS
 62
     0
 10
0.0
 20
-30.0
 30
0.0
  0
POINT
  5
331
  8
DEFPOINTS
 62
     0
 10
0.0
 20
0.0
 30
0.0
  0
POINT
  5
332
  8
DEFPOINTS
 62
     0
 10
-14.10041220095831
 20
0.000000000000004
 30
0.0
  0
ENDBLK
  5
30B
  8
0
  0
BLOCK
  8
0
  2
*D6
 70
     1
 10
0.0
 20
0.0
 30
0.0
  3
*D6
  1

  0
LINE
  5
333
  8
1
 10
11.0
 20
4.5
 30
0.0
 11
11.0
 21
14.06803747083233
 31
0.0
  0
LINE
  5
334
  8
1
 10
16.0
 20
-18.0
 30
0.0
 11
16.0
 21
14.06803747083233
 31
0.0
  0
LINE
  5
335
  8
1
 10
10.0
 20
13.06803747083233
 30
0.0
 11
17.0
 21
13.06803747083233
 31
0.0
  0
INSERT
  5
336
  8
1
  2
_OBLIQUE
 10
11.0
 20
13.06803747083233
 30
0.0
 41
2.0
 42
2.0
 43
2.0
 50
180.0
  0
INSERT
  5
337
  8
1
  2
_OBLIQUE
 10
16.0
 20
13.06803747083233
 30
0.0
 41
2.0
 42
2.0
 43
2.0
  0
TEXT
  5
338
  8
0
 10
12.136766712141879
 20
14.127723691841879
 30
0.0
 40
3.5
  1
5
  7
BESCHLAG
  0
POINT
  5
339
  8
DEFPOINTS
 62
     0
 10
11.0
 20
2.5
 30
0.0
  0
POINT
  5
33A
  8
DEFPOINTS
 62
     0
 10
16.0
 20
-20.0
 30
0.0
  0
POINT
  5
33B
  8
DEFPOINTS
 62
     0
 10
16.0
 20
13.06803747083233
 30
0.0
  0
ENDBLK
  5
317
  8
0
  0
ENDSEC
  0
SECTION
  2
ENTITIES
  0
INSERT
  5
25B
  8
5
  2
NULLPUNKT
 10
0.0
 20
0.0
 30
0.0
  0
INSERT
  5
2DB
  8
2
  2
*X2
 10
-982.49529751687248
 20
-175.97922542691381
 30
0.0
1001
ACAD
1000
HATCH
1002
{
1070
    16
1000
_U,I
1040
1.1999999999999991
1040
0.7853981633974483
1070
     0
1002
}
  0
POLYLINE
  5
2DC
  8
5
 66
     1
 10
0.0
 20
0.0
 30
0.0
  0
VERTEX
  5
3FF
  8
5
 10
16.0
 20
12.643470985631209
 30
0.0
  0
VERTEX
  5
400
  8
5
 10
16.0
 20
-20.0
 30
0.0
  0
VERTEX
  5
401
  8
5
 10
21.590166435468738
 20
-20.0
 30
0.0
  0
SEQEND
  5
402
  8
5
  0
POLYLINE
  5
2DD
  8
6
 66
     1
 10
0.0
 20
0.0
 30
0.0
 70
     1
  0
VERTEX
  5
403
  8
6
 10
10.66282807045854
 20
-5.7832801569308003
 30
0.0
  0
VERTEX
  5
404
  8
6
 10
10.66282807045854
 20
-9.9100671137479122
 30
0.0
 42
-0.3542222137672995
  0
VERTEX
  5
405
  8
6
 10
9.8181108111880349
 20
-10.75501752133175
 30
0.0
  0
VERTEX
  5
406
  8
6
 10
8.3123105420704633
 20
-10.748894700985479
 30
0.0
 42
-0.343655940181943
  0
VERTEX
  5
407
  8
6
 10
7.5043201259850321
 20
-9.8121018104594668
 30
0.0
  0
VERTEX
  5
408
  8
6
 10
7.5043201259850321
 20
-5.5199984821082353
 30
0.0
 42
-0.2923726044221553
  0
VERTEX
  5
409
  8
6
 10
8.4102487682325773
 20
-4.7791361537218791
 30
0.0
  0
VERTEX
  5
40A
  8
6
 10
9.5242961327012381
 20
-4.7791361537218791
 30
0.0
 42
-0.345210202999001
  0
SEQEND
  5
40B
  8
6
  0
LINE
  5
2DE
  8
6
  6
STRICHPUNKT
 10
3.4204912853060701
 20
-7.5
 30
0.0
 11
-10.38887349426181
 21
-7.5
 31
0.0
  0
DIMENSION
  5
2DF
  8
1
  2
*D3
 10
0.0000000000000008
 20
13.06803747083233
 30
0.0
 11
-2.999999999999885
 21
15.85504292785825
 31
0.0
 70
     0
 13
-5.9999999999997717
 23
0.0
 33
0.0
 14
0.0
 24
0.0
 34
0.0
  0
DIMENSION
  5
2E0
  8
1
  2
*D4
 10
11.0
 20
13.06803747083233
 30
0.0
 11
5.5
 21
15.82519981735348
 31
0.0
 70
     0
 13
0.0
 23
0.0
 33
0.0
 14
11.0
 24
2.5
 34
0.0
  0
POLYLINE
  5
2E1
  8
4
 66
     1
 10
0.0
 20
0.0
 30
0.0
 70
     1
  0
VERTEX
  5
40C
  8
4
 10
11.0
 20
2.5
 30
0.0
  0
VERTEX
  5
40D
  8
4
 10
-5.9999999999997717
 20
2.5
 30
0.0
  0
VERTEX
  5
40E
  8
4
 10
-5.9999999999997717
 20
0.0
 30
0.0
  0
VERTEX
  5
40F
  8
4
 10
0.0
 20
0.0
 30
0.0
  0
VERTEX
  5
410
  8
4
 10
0.0
 20
-22.5
 30
0.0
  0
VERTEX
  5
411
  8
4
 10
9.0
 20
-22.5
 30
0.0
  0
VERTEX
  5
412
  8
4
 10
9.0
 20
-30.0
 30
0.0
  0
VERTEX
  5
413
  8
4
 10
11.0
 20
-30.0
 30
0.0
  0
SEQEND
  5
414
  8
4
  0
POLYLINE
  5
2E2
  8
6
 66
     1
 10
0.0
 20
0.0
 30
0.0
 70
     1
  0
VERTEX
  5
415
  8
6
 10
4.5
 20
0.0
 30
0.0
  0
VERTEX
  5
416
  8
6
 10
8.6999999999998181
 20
0.0
 30
0.0
 42
-0.4142135623730951
  0
VERTEX
  5
417
  8
6
 10
9.0
 20
-0.3000000000000682
 30
0.0
  0
VERTEX
  5
418
  8
6
 10
9.0
 20
-2.700000000000045
 30
0.0
 42
0.4142135623730951
  0
VERTEX
  5
419
  8
6
 10
9.2999999999997272
 20
-3.0
 30
0.0
  0
VERTEX
  5
41A
  8
6
 10
10.0
 20
-3.0
 30
0.0
 42
0.4142135623730951
  0
VERTEX
  5
41B
  8
6
 10
11.0
 20
-2.0
 30
0.0
  0
VERTEX
  5
41C
  8
6
 10
11.0
 20
0.5
 30
0.0
 42
0.4142135623730951
  0
VERTEX
  5
41D
  8
6
 10
9.0
 20
2.5
 30
0.0
  0
VERTEX
  5
41E
  8
6
 10
-4.0
 20
2.5
 30
0.0
 42
0.4142135623730951
  0
VERTEX
  5
41F
  8
6
 10
-5.9999999999997717
 20
0.5
 30
0.0
  0
VERTEX
  5
420
  8
6
 10
-5.9999999999997717
 20
0.0
 30
0.0
  0
VERTEX
  5
421
  8
6
 10
-0.2999999999997271
 20
0.0
 30
0.0
 42
-0.4142135623730951
  0
VERTEX
  5
422
  8
6
 10
0.0
 20
-0.3000000000000682
 30
0.0
  0
VERTEX
  5
423
  8
6
 10
0.0
 20
-22.5
 30
0.0
  0
VERTEX
  5
424
  8
6
 10
3.0
 20
-22.5
 30
0.0
  0
VERTEX
  5
425
  8
6
 10
3.0
 20
-17.5
 30
0.0
  0
VERTEX
  5
426
  8
6
 10
8.6999999999998181
 20
-17.5
 30
0.0
 42
-0.4142135623730951
  0
VERTEX
  5
427
  8
6
 10
9.0
 20
-17.800000000000061
 30
0.0
  0
VERTEX
  5
428
  8
6
 10
9.0
 20
-30.0
 30
0.0
  0
VERTEX
  5
429
  8
6
 10
11.0
 20
-30.0
 30
0.0
  0
VERTEX
  5
42A
  8
6
 10
11.0
 20
-13.0
 30
0.0
 42
0.4142135623730951
  0
VERTEX
  5
42B
  8
6
 10
10.0
 20
-12.0
 30
0.0
  0
VERTEX
  5
42C
  8
6
 10
9.2999999999997272
 20
-12.0
 30
0.0
 42
0.4142135623730951
  0
VERTEX
  5
42D
  8
6
 10
9.0
 20
-12.300000000000059
 30
0.0
  0
VERTEX
  5
42E
  8
6
 10
9.0
 20
-14.70000000000004
 30
0.0
 42
-0.4142135623730951
  0
VERTEX
  5
42F
  8
6
 10
8.6999999999998181
 20
-15.0
 30
0.0
  0
VERTEX
  5
430
  8
6
 10
4.5
 20
-15.0
 30
0.0
 42
-0.4142135623730951
  0
VERTEX
  5
431
  8
6
 10
3.0
 20
-13.5
 30
0.0
  0
VERTEX
  5
432
  8
6
 10
3.0
 20
-7.7000000000000446
 30
0.0
  0
VERTEX
  5
433
  8
6
 10
2.7339121519157739
 20
-7.5
 30
0.0
  0
VERTEX
  5
434
  8
6
 10
3.0
 20
-7.3000000000000682
 30
0.0
  0
VERTEX
  5
435
  8
6
 10
3.0
 20
-1.5
 30
0.0
 42
-0.4142135623730951
  0
SEQEND
  5
436
  8
6
  0
DIMENSION
  5
2E3
  8
1
  2
*D5
 10
-14.10041220095831
 20
0.000000000000004
 30
0.0
 11
-16.88861138240442
 21
-15.0
 31
0.0
 70
     0
 13
0.0
 23
-30.0
 33
0.0
 14
0.0
 24
0.0
 34
0.0
 50
90.0
  0
POLYLINE
  5
2E4
  8
5
 66
     1
 10
0.0
 20
0.0
 30
0.0
  0
VERTEX
  5
437
  8
5
 10
-10.23573221204537
 20
0.0
 30
0.0
  0
VERTEX
  5
438
  8
5
 10
0.0
 20
0.0
 30
0.0
  0
VERTEX
  5
439
  8
5
 10
0.0
 20
-30.0
 30
0.0
  0
VERTEX
  5
43A
  8
5
 10
20.392567364901421
 20
-30.0
 30
0.0
  0
SEQEND
  5
43B
  8
5
  0
POLYLINE
  5
2E5
  8
6
 66
     1
 10
0.0
 20
0.0
 30
0.0
 70
     1
  0
VERTEX
  5
43C
  8
6
 10
8.0351495953887024
 20
-1.9433583048729579
 30
0.0
 42
-0.4340228066750199
  0
VERTEX
  5
43D
  8
6
 10
8.4111141981961737
 20
-1.931028189114272
 30
0.0
  0
VERTEX
  5
43E
  8
6
 10
9.0952464994365982
 20
-2.9729226374469131
 30
0.0
  0
VERTEX
  5
43F
  8
6
 10
10.691555213496031
 20
-2.9729226374469131
 30
0.0
 42
0.2926708623625712
  0
VERTEX
  5
440
  8
6
 10
10.99972294542612
 20
-2.7756407853074729
 30
0.0
  0
VERTEX
  5
441
  8
6
 10
11.00526932112234
 20
-0.6809080349383976
 30
0.0
 42
-0.4725495945331585
  0
VERTEX
  5
442
  8
6
 10
11.332544075812161
 20
-0.4205895196990923
 30
0.0
 42
-0.1497715981737393
  0
VERTEX
  5
443
  8
6
 10
11.899572642269041
 20
-0.5438906772861856
 30
0.0
 42
-0.1375660736324291
  0
VERTEX
  5
444
  8
6
 10
12.87954595946257
 20
-2.1899605311729138
 30
0.0
 42
-0.3441417900027466
  0
VERTEX
  5
445
  8
6
 10
14.95874044175207
 20
-13.28304954879615
 30
0.0
 42
-1.013427136496432
  0
VERTEX
  5
446
  8
6
 10
13.851828184894201
 20
-12.681067028864961
 30
0.0
 42
0.2618032337289678
  0
VERTEX
  5
447
  8
6
 10
12.98134378352097
 20
-4.9627911245144096
 30
0.0
 42
1.48716411242179
  0
VERTEX
  5
448
  8
6
 10
12.40053834649825
 20
-4.7566205934944028
 30
0.0
  0
VERTEX
  5
449
  8
6
 10
12.506638700037451
 20
-12.137755886324721
 30
0.0
 42
-0.264033326694127
  0
VERTEX
  5
44A
  8
6
 10
11.31339213349883
 20
-14.03462016943115
 30
0.0
 42
-0.4546962762195842
  0
VERTEX
  5
44B
  8
6
 10
11.00112674008869
 20
-13.8201182016827
 30
0.0
  0
VERTEX
  5
44C
  8
6
 10
10.998302670211149
 20
-12.29896506325178
 30
0.0
 42
0.5545890291270417
  0
VERTEX
  5
44D
  8
6
 10
10.665730590443671
 20
-12.03325618559199
 30
0.0
  0
VERTEX
  5
44E
  8
6
 10
9.2432184756412425
 20
-12.03325618559199
 30
0.0
 42
0.3795622521557158
  0
VERTEX
  5
44F
  8
6
 10
8.9211080627128467
 20
-12.32255209259926
 30
0.0
  0
VERTEX
  5
450
  8
6
 10
8.3526535935361608
 20
-14.52625194603444
 30
0.0
 42
-0.2098868600260434
  0
VERTEX
  5
451
  8
6
 10
8.2485150956285906
 20
-14.63618622417504
 30
0.0
 42
-0.3590346299987293
  0
VERTEX
  5
452
  8
6
 10
7.4319783744203951
 20
-14.47782733641122
 30
0.0
  0
VERTEX
  5
453
  8
6
 10
5.8198342616565242
 20
-11.582081611206259
 30
0.0
 42
-0.1375040557749069
  0
VERTEX
  5
454
  8
6
 10
5.6810496572506963
 20
-11.02678989571165
 30
0.0
  0
VERTEX
  5
455
  8
6
 10
5.6810496572506963
 20
-5.1612923326862301
 30
0.0
 42
-0.1555493545182818
  0
VERTEX
  5
456
  8
6
 10
6.201491990766498
 20
-3.6807428169587411
 30
0.0
  0
SEQEND
  5
457
  8
6
  0
DIMENSION
  5
2E6
  8
1
  2
*D6
 10
16.0
 20
13.06803747083233
 30
0.0
 11
13.5
 21
15.84788058133711
 31
0.0
 70
     0
 13
11.0
 23
2.5
 33
0.0
 14
16.0
 24
-20.0
 34
0.0
  0
TEXT
  5
2E7
  8
1
 10
-31.50146526716707
 20
-6.5047043498075254
 30
0.0
 40
2.4999999499999999
  1
Hebgo 130/610
  0
VIEWPORT
  5
22
 67
     1
  8
0
 10
210.0
 20
170.2366863905325
 30
0.0
 40
420.0
 41
340.47337278106511
 68
     1
 69
     1
1001
ACAD
1000
MVIEW
1002
{
1070
    16
1010
0.0
1020
0.0
1030
0.0
1010
0.0
1020
0.0
1030
1.0
1040
0.0
1040
340.47337278106511
1040
210.0
1040
170.2366863905325
1040
50.0
1040
0.0
1040
0.0
1070
     0
1070
   100
1070
     1
1070
     1
1070
     0
1070
     0
1070
     0
1070
     0
1040
0.0
1040
0.0
1040
0.0
1040
5.0
1040
5.0
1040
10.0
1040
10.0
1070
     0
1002
{
1002
}
1002
}
  0
ENDSEC
  0
EOF
