  0
SECTION
  2
HEADER
  9
$ACADVER
  1
AC1009
  9
$INSBASE
 10
0.0
 20
0.0
 30
0.0
  9
$EXTMIN
 10
-101.30023293923681
 20
-27.892269185878359
 30
0.0
  9
$EXTMAX
 10
11.6099191423309
 20
33.891008707262237
 30
0.0
  9
$LIMMIN
 10
-150.0
 20
-150.0
  9
$LIMMAX
 10
150.0
 20
150.0
  9
$ORTHOMODE
 70
     0
  9
$REGENMODE
 70
     1
  9
$FILLMODE
 70
     1
  9
$QTEXTMODE
 70
     0
  9
$MIRRTEXT
 70
     0
  9
$DRAGMODE
 70
     2
  9
$LTSCALE
 40
4.0
  9
$OSMODE
 70
   111
  9
$ATTMODE
 70
     1
  9
$TEXTSIZE
 40
3.5
  9
$TRACEWID
 40
1.0
  9
$TEXTSTYLE
  7
BESCHLAG
  9
$CLAYER
  8
0
  9
$CELTYPE
  6
BYLAYER
  9
$CECOLOR
 62
   256
  9
$DIMSCALE
 40
1.0
  9
$DIMASZ
 40
2.0
  9
$DIMEXO
 40
2.0
  9
$DIMDLI
 40
0.0
  9
$DIMRND
 40
0.0
  9
$DIMDLE
 40
1.0
  9
$DIMEXE
 40
1.0
  9
$DIMTP
 40
0.0
  9
$DIMTM
 40
0.0
  9
$DIMTXT
 40
3.5
  9
$DIMCEN
 40
0.0
  9
$DIMTSZ
 40
0.0
  9
$DIMTOL
 70
     0
  9
$DIMLIM
 70
     0
  9
$DIMTIH
 70
     0
  9
$DIMTOH
 70
     0
  9
$DIMSE1
 70
     0
  9
$DIMSE2
 70
     0
  9
$DIMTAD
 70
     1
  9
$DIMZIN
 70
     8
  9
$DIMBLK
  1

  9
$DIMASO
 70
     1
  9
$DIMSHO
 70
     1
  9
$DIMPOST
  1

  9
$DIMAPOST
  1

  9
$DIMALT
 70
     0
  9
$DIMALTD
 70
     2
  9
$DIMALTF
 40
0.039370078740157
  9
$DIMLFAC
 40
1.0
  9
$DIMTOFL
 70
     1
  9
$DIMTVP
 40
0.0
  9
$DIMTIX
 70
     1
  9
$DIMSOXD
 70
     0
  9
$DIMSAH
 70
     1
  9
$DIMBLK1
  1
OBLIQUE
  9
$DIMBLK2
  1
OBLIQUE
  9
$DIMSTYLE
  2
OPO-SSTRICH
  9
$DIMCLRD
 70
   256
  9
$DIMCLRE
 70
   256
  9
$DIMCLRT
 70
   256
  9
$DIMTFAC
 40
0.7114285714285716
  9
$DIMGAP
 40
1.0
  9
$LUNITS
 70
     2
  9
$LUPREC
 70
     1
  9
$SKETCHINC
 40
1.0
  9
$FILLETRAD
 40
0.0
  9
$AUNITS
 70
     0
  9
$AUPREC
 70
     1
  9
$MENU
  1
D:\ACL_CGWG\CGTAB13
  9
$ELEVATION
 40
0.0
  9
$PELEVATION
 40
0.0
  9
$THICKNESS
 40
0.0
  9
$LIMCHECK
 70
     0
  9
$BLIPMODE
 70
     0
  9
$CHAMFERA
 40
1.0
  9
$CHAMFERB
 40
1.0
  9
$SKPOLY
 70
     0
  9
$TDCREATE
 40
2451739.8768599881
  9
$TDUPDATE
 40
2452087.6175267589
  9
$TDINDWG
 40
0.0121280787
  9
$TDUSRTIMER
 40
0.0121280787
  9
$USRTIMER
 70
     1
  9
$ANGBASE
 50
0.0
  9
$ANGDIR
 70
     0
  9
$PDMODE
 70
    35
  9
$PDSIZE
 40
5.0
  9
$PLINEWID
 40
0.0
  9
$COORDS
 70
     1
  9
$SPLFRAME
 70
     0
  9
$SPLINETYPE
 70
     6
  9
$SPLINESEGS
 70
     8
  9
$ATTDIA
 70
     1
  9
$ATTREQ
 70
     1
  9
$HANDLING
 70
-16383
  9
$HANDSEED
  5
5E9
  9
$SURFTAB1
 70
    12
  9
$SURFTAB2
 70
    12
  9
$SURFTYPE
 70
     6
  9
$SURFU
 70
    12
  9
$SURFV
 70
    12
  9
$UCSNAME
  2

  9
$UCSORG
 10
0.0
 20
0.0
 30
0.0
  9
$UCSXDIR
 10
1.0
 20
0.0
 30
0.0
  9
$UCSYDIR
 10
0.0
 20
1.0
 30
0.0
  9
$PUCSNAME
  2

  9
$PUCSORG
 10
0.0
 20
0.0
 30
0.0
  9
$PUCSXDIR
 10
1.0
 20
0.0
 30
0.0
  9
$PUCSYDIR
 10
0.0
 20
1.0
 30
0.0
  9
$USERI1
 70
     0
  9
$USERI2
 70
     0
  9
$USERI3
 70
     0
  9
$USERI4
 70
     0
  9
$USERI5
 70
     0
  9
$USERR1
 40
0.0
  9
$USERR2
 40
0.0
  9
$USERR3
 40
0.0
  9
$USERR4
 40
0.0
  9
$USERR5
 40
0.0
  9
$WORLDVIEW
 70
     1
  9
$SHADEDGE
 70
     3
  9
$SHADEDIF
 70
    70
  9
$TILEMODE
 70
     1
  9
$MAXACTVP
 70
    48
  9
$PLIMCHECK
 70
     0
  9
$PEXTMIN
 10
1.0000000000000000E+020
 20
1.0000000000000000E+020
 30
1.0000000000000000E+020
  9
$PEXTMAX
 10
-1.0000000000000000E+020
 20
-1.0000000000000000E+020
 30
-1.0000000000000000E+020
  9
$PLIMMIN
 10
0.0
 20
0.0
  9
$PLIMMAX
 10
420.0
 20
297.0
  9
$UNITMODE
 70
     0
  9
$VISRETAIN
 70
     1
  9
$PLINEGEN
 70
     0
  9
$PSLTSCALE
 70
     1
  0
ENDSEC
  0
SECTION
  2
TABLES
  0
TABLE
  2
VPORT
 70
     2
  0
VPORT
  2
*ACTIVE
 70
     0
 10
0.0
 20
0.0
 11
1.0
 21
1.0
 12
-44.837951013862501
 22
4.1979603233781111
 13
0.0
 23
0.0
 14
0.5
 24
0.5
 15
10.0
 25
10.0
 16
0.0
 26
0.0
 36
1.0
 17
0.0
 27
0.0
 37
0.0
 40
70.669864913683853
 41
1.6070460704607039
 42
50.0
 43
0.0
 44
0.0
 50
0.0
 51
0.0
 71
     0
 72
   800
 73
     1
 74
     1
 75
     0
 76
     0
 77
     0
 78
     0
  0
ENDTAB
  0
TABLE
  2
LTYPE
 70
     2
  0
LTYPE
  2
CONTINUOUS
 70
     0
  3
_______________________________________________
 72
    65
 73
     2
 40
1.0
 49
1.0
 49
0.0
  0
LTYPE
  2
STRICHPUNKT
 70
     0
  3
__ . __ . __ . __ . __ . __ . __ . __ . __ . __
 72
    65
 73
     4
 40
1.0
 49
0.5
 49
-0.25
 49
0.0
 49
-0.25
  0
ENDTAB
  0
TABLE
  2
LAYER
 70
     7
  0
LAYER
  2
0
 70
     0
 62
    30
  6
CONTINUOUS
  0
LAYER
  2
1
 70
     0
 62
     2
  6
CONTINUOUS
  0
LAYER
  2
2
 70
     0
 62
     9
  6
CONTINUOUS
  0
LAYER
  2
4
 70
     1
 62
     4
  6
CONTINUOUS
  0
LAYER
  2
5
 70
     0
 62
     1
  6
CONTINUOUS
  0
LAYER
  2
6
 70
     0
 62
     3
  6
CONTINUOUS
  0
LAYER
  2
DEFPOINTS
 70
     0
 62
     7
  6
CONTINUOUS
  0
ENDTAB
  0
TABLE
  2
STYLE
 70
     2
  0
STYLE
  2
STANDARD
 70
     0
 40
0.0
 41
1.0
 50
0.0
 71
     0
 42
2.5
  3
txt
  4

  0
STYLE
  2
BESCHLAG
 70
     0
 40
0.0
 41
1.0
 50
0.0
 71
     0
 42
3.5
  3
txt
  4

  0
ENDTAB
  0
TABLE
  2
VIEW
 70
     0
  0
ENDTAB
  0
TABLE
  2
UCS
 70
     0
  0
ENDTAB
  0
TABLE
  2
APPID
 70
     1
  0
APPID
  2
ACAD
 70
     0
  0
ENDTAB
  0
TABLE
  2
DIMSTYLE
 70
     1
  0
DIMSTYLE
  2
OPO-SSTRICH
 70
     0
  3

  4

  5

  6
OBLIQUE
  7
OBLIQUE
 40
1.0
 41
2.0
 42
2.0
 43
0.0
 44
1.0
 45
0.0
 46
1.0
 47
0.0
 48
0.0
140
3.5
141
0.0
142
0.0
143
0.039370078740157
144
1.0
145
0.0
146
0.7114285714285716
147
1.0
 71
     0
 72
     0
 73
     0
 74
     0
 75
     0
 76
     0
 77
     1
 78
     8
170
     0
171
     2
172
     1
173
     1
174
     1
175
     0
176
   256
177
   256
178
   256
  0
ENDTAB
  0
ENDSEC
  0
SECTION
  2
BLOCKS
  0
BLOCK
  8
0
  2
$MODEL_SPACE
 70
     0
 10
0.0
 20
0.0
 30
0.0
  3
$MODEL_SPACE
  1

  0
ENDBLK
  5
1C
  8
0
  0
BLOCK
 67
     1
  8
0
  2
$PAPER_SPACE
 70
     0
 10
0.0
 20
0.0
 30
0.0
  3
$PAPER_SPACE
  1

  0
ENDBLK
  5
19
 67
     1
  8
0
  0
BLOCK
  8
0
  2
_OBLIQUE
 70
     0
 10
0.0
 20
0.0
 30
0.0
  3
_OBLIQUE
  1

  0
LINE
  5
204
  8
0
 62
     0
 10
-0.5
 20
-0.5
 30
0.0
 11
0.5
 21
0.5
 31
0.0
  0
ENDBLK
  5
206
  8
0
  0
BLOCK
  8
0
  2
NULLPUNKT
 70
     0
 10
0.0
 20
0.0
 30
0.0
  3
NULLPUNKT
  1

  0
SOLID
  5
254
  8
5
 10
0.0
 20
0.0
 30
0.0
 11
2.0
 21
0.0
 31
0.0
 12
0.0
 22
-2.0
 32
0.0
 13
0.0
 23
-2.0
 33
0.0
  0
SOLID
  5
255
  8
5
 10
0.0
 20
0.0
 30
0.0
 11
-2.0
 21
0.0
 31
0.0
 12
0.0
 22
2.0
 32
0.0
 13
0.0
 23
2.0
 33
0.0
  0
POLYLINE
  5
256
  8
5
 66
     1
 10
0.0
 20
0.0
 30
0.0
  0
VERTEX
  5
4B3
  8
5
 10
0.0
 20
2.0
 30
0.0
  0
VERTEX
  5
4B4
  8
5
 10
0.0
 20
-2.0
 30
0.0
  0
SEQEND
  5
4B5
  8
5
  0
POLYLINE
  5
257
  8
5
 66
     1
 10
0.0
 20
0.0
 30
0.0
  0
VERTEX
  5
4B6
  8
5
 10
-2.0
 20
0.0
 30
0.0
  0
VERTEX
  5
4B7
  8
5
 10
2.0
 20
0.0
 30
0.0
  0
SEQEND
  5
4B8
  8
5
  0
CIRCLE
  5
258
  8
5
 10
0.0
 20
0.0
 30
0.0
 40
2.0
  0
ENDBLK
  5
25A
  8
0
  0
BLOCK
  8
0
  2
*X2
 70
     1
 10
0.0
 20
0.0
 30
0.0
  3
*X2
  1

  0
LINE
  5
26C
  8
0
 62
     0
 10
610.06883460537495
 20
-213.0034586957662
 30
0.0
 11
612.25776559402982
 21
-210.8145277071113
 31
0.0
  0
LINE
  5
26D
  8
0
 62
     0
 10
613.12633059728455
 20
-209.94596270385659
 30
0.0
 11
613.26527541948872
 21
-209.80701788165251
 31
0.0
  0
LINE
  5
26E
  8
0
 62
     0
 10
608.13423997877487
 20
-213.2409970475185
 30
0.0
 11
610.29754147637971
 21
-211.0776955499137
 31
0.0
  0
LINE
  5
26F
  8
0
 62
     0
 10
610.98300051679917
 20
-210.3922365094941
 30
0.0
 11
611.3050513018386
 21
-210.0701857244548
 31
0.0
  0
LINE
  5
270
  8
0
 62
     0
 10
606.19964535217514
 20
-213.47853539927061
 30
0.0
 11
608.33731735872971
 21
-211.3408633927161
 31
0.0
  0
LINE
  5
271
  8
0
 62
     0
 10
608.83967043631378
 20
-210.83851031513191
 30
0.0
 11
609.3448271841886
 21
-210.33335356725721
 31
0.0
  0
LINE
  5
272
  8
0
 62
     0
 10
604.26505072557518
 20
-213.7160737510228
 30
0.0
 11
606.37709324107959
 21
-211.60403123551839
 31
0.0
  0
LINE
  5
273
  8
0
 62
     0
 10
606.69634035582885
 20
-211.2847841207691
 30
0.0
 11
607.3846030665386
 21
-210.59652141005941
 31
0.0
  0
LINE
  5
274
  8
0
 62
     0
 10
602.33045609897511
 20
-213.95361210277511
 30
0.0
 11
604.41686912342959
 21
-211.86719907832071
 31
0.0
  0
LINE
  5
275
  8
0
 62
     0
 10
604.55301027534495
 20
-211.73105792640541
 30
0.0
 11
605.42437894888826
 21
-210.8596892528619
 31
0.0
  0
LINE
  5
276
  8
0
 62
     0
 10
600.39586147237549
 20
-214.19115045452719
 30
0.0
 11
603.46415483123826
 21
-211.12285709566419
 31
0.0
  0
LINE
  5
277
  8
0
 62
     0
 10
598.46126684577541
 20
-214.42868880627941
 30
0.0
 11
601.50393071358815
 21
-211.38602493846651
 31
0.0
  0
LINE
  5
278
  8
0
 62
     0
 10
596.52667221917557
 20
-214.6662271580316
 30
0.0
 11
599.54370659593815
 21
-211.64919278126891
 31
0.0
  0
LINE
  5
279
  8
0
 62
     0
 10
594.59207759257572
 20
-214.9037655097838
 30
0.0
 11
597.58348247828815
 21
-211.9123606240712
 31
0.0
  0
LINE
  5
27A
  8
0
 62
     0
 10
592.65748296597565
 20
-215.14130386153599
 30
0.0
 11
595.62325836063815
 21
-212.17552846687349
 31
0.0
  0
LINE
  5
27B
  8
0
 62
     0
 10
590.7228883393758
 20
-215.37884221328821
 30
0.0
 11
593.66303424298803
 21
-212.438696309676
 31
0.0
  0
LINE
  5
27C
  8
0
 62
     0
 10
588.78829371277595
 20
-215.61638056504029
 30
0.0
 11
591.70281012533803
 21
-212.70186415247821
 31
0.0
  0
LINE
  5
27D
  8
0
 62
     0
 10
586.85369908617611
 20
-215.85391891679251
 30
0.0
 11
589.74258600768803
 21
-212.96503199528061
 31
0.0
  0
LINE
  5
27E
  8
0
 62
     0
 10
584.91910445957615
 20
-216.0914572685447
 30
0.0
 11
587.78236189003803
 21
-213.2281998380829
 31
0.0
  0
LINE
  5
27F
  8
0
 62
     0
 10
582.98450983297607
 20
-216.32899562029689
 30
0.0
 11
585.82213777238792
 21
-213.4913676808853
 31
0.0
  0
LINE
  5
280
  8
0
 62
     0
 10
581.04991520637634
 20
-216.56653397204909
 30
0.0
 11
583.8619136547378
 21
-213.75453552368771
 31
0.0
  0
LINE
  5
281
  8
0
 62
     0
 10
579.11532057977638
 20
-216.80407232380131
 30
0.0
 11
581.90168953708769
 21
-214.01770336649
 31
0.0
  0
LINE
  5
282
  8
0
 62
     0
 10
567.99399291099746
 20
-226.22834371773251
 30
0.0
 11
569.09605970956795
 21
-225.12627691916191
 31
0.0
  0
LINE
  5
283
  8
0
 62
     0
 10
577.18072595317665
 20
-217.0416106755535
 30
0.0
 11
579.9414654194378
 21
-214.28087120929229
 31
0.0
  0
LINE
  5
284
  8
0
 62
     0
 10
567.56447733160928
 20
-224.9608030222729
 30
0.0
 11
568.91047440960006
 21
-223.61480594428221
 31
0.0
  0
LINE
  5
285
  8
0
 62
     0
 10
575.24613132657669
 20
-217.27914902730569
 30
0.0
 11
577.98124130178769
 21
-214.5440390520946
 31
0.0
  0
LINE
  5
286
  8
0
 62
     0
 10
567.37889203164116
 20
-223.4493320473932
 30
0.0
 11
568.72488910963193
 21
-222.10333496940251
 31
0.0
  0
LINE
  5
287
  8
0
 62
     0
 10
573.31153669997661
 20
-217.51668737905791
 30
0.0
 11
576.02101718413746
 21
-214.80720689489689
 31
0.0
  0
LINE
  5
288
  8
0
 62
     0
 10
567.19330673167315
 20
-221.9378610725137
 30
0.0
 11
568.53930380966392
 21
-220.59186399452301
 31
0.0
  0
LINE
  5
289
  8
0
 62
     0
 10
571.37694207337677
 20
-217.75422573080999
 30
0.0
 11
574.06079306648746
 21
-215.07037473769941
 31
0.0
  0
LINE
  5
28A
  8
0
 62
     0
 10
567.00772143170514
 20
-220.426390097634
 30
0.0
 11
568.3537185096958
 21
-219.08039301964331
 31
0.0
  0
LINE
  5
28B
  8
0
 62
     0
 10
569.44234744677692
 20
-217.99176408256221
 30
0.0
 11
572.10056894883735
 21
-215.3335425805017
 31
0.0
  0
LINE
  5
28C
  8
0
 62
     0
 10
566.82213613173701
 20
-218.9149191227545
 30
0.0
 11
570.14034483118735
 21
-215.5967104233041
 31
0.0
  0
LINE
  5
28D
  8
0
 62
     0
 10
566.63655083176889
 20
-217.4034481478748
 30
0.0
 11
566.97944831577342
 21
-217.0605506638702
 31
0.0
  0
LINE
  5
28E
  8
0
 62
     0
 10
612.00342923197479
 20
-212.76592034401409
 30
0.0
 11
614.21798971167993
 21
-210.55135986430889
 31
0.0
  0
LINE
  5
28F
  8
0
 62
     0
 10
613.34255162946886
 20
-213.12385422136751
 30
0.0
 11
616.17821382933005
 21
-210.28819202150649
 31
0.0
  0
LINE
  5
290
  8
0
 62
     0
 10
613.34255162946886
 20
-214.82091049621539
 30
0.0
 11
614.84255162946897
 21
-213.32091049621539
 31
0.0
  0
LINE
  5
291
  8
0
 62
     0
 10
615.8726184851746
 20
-212.29084364050979
 30
0.0
 11
618.13843794698005
 21
-210.02502417870431
 31
0.0
  0
LINE
  5
292
  8
0
 62
     0
 10
613.34255162946886
 20
-216.51796677106299
 30
0.0
 11
614.84255162946897
 21
-215.01796677106299
 31
0.0
  0
LINE
  5
293
  8
0
 62
     0
 10
617.80721311177444
 20
-212.0533052887576
 30
0.0
 11
620.09866206463005
 21
-209.76185633590191
 31
0.0
  0
LINE
  5
294
  8
0
 62
     0
 10
613.34255162946886
 20
-218.2150230459107
 30
0.0
 11
614.84255162946897
 21
-216.71502304591081
 31
0.0
  0
LINE
  5
295
  8
0
 62
     0
 10
631.64255162946893
 20
-199.9150230459108
 30
0.0
 11
633.85050482739734
 21
-197.70706984798241
 31
0.0
  0
LINE
  5
296
  8
0
 62
     0
 10
619.7418077383744
 20
-211.81576693700529
 30
0.0
 11
622.05888618228005
 21
-209.49868849309959
 31
0.0
  0
LINE
  5
297
  8
0
 62
     0
 10
613.34255162946886
 20
-219.91207932075841
 30
0.0
 11
614.84255162946897
 21
-218.41207932075841
 31
0.0
  0
LINE
  5
298
  8
0
 62
     0
 10
631.64255162946893
 20
-201.61207932075851
 30
0.0
 11
635.13505636585694
 21
-198.11957458437041
 31
0.0
  0
LINE
  5
299
  8
0
 62
     0
 10
621.67640236497425
 20
-211.5782285852531
 30
0.0
 11
624.01911029993005
 21
-209.23552065029719
 31
0.0
  0
LINE
  5
29A
  8
0
 62
     0
 10
613.34255162946886
 20
-221.60913559560609
 30
0.0
 11
614.84255162946897
 21
-220.1091355956062
 31
0.0
  0
LINE
  5
29B
  8
0
 62
     0
 10
635.24461737709282
 20
-199.70706984798241
 30
0.0
 11
637.24461737709282
 21
-197.70706984798241
 31
0.0
  0
LINE
  5
29C
  8
0
 62
     0
 10
623.61099699157432
 20
-211.34069023350079
 30
0.0
 11
625.97933441758016
 21
-208.97235280749479
 31
0.0
  0
LINE
  5
29D
  8
0
 62
     0
 10
632.19093754022128
 20
-202.76074968485389
 30
0.0
 11
633.50862899384515
 21
-201.44305823122991
 31
0.0
  0
LINE
  5
29E
  8
0
 62
     0
 10
613.64211264070468
 20
-223.00663085921821
 30
0.0
 11
614.98585138366195
 21
-221.66289211626079
 31
0.0
  0
LINE
  5
29F
  8
0
 62
     0
 10
636.94167365194062
 20
-199.70706984798241
 30
0.0
 11
638.58211264070474
 21
-198.06663085921829
 31
0.0
  0
LINE
  5
2A0
  8
0
 62
     0
 10
625.31248257615437
 20
-211.33626092376861
 30
0.0
 11
627.61294885449047
 21
-209.0357946454323
 31
0.0
  0
LINE
  5
2A1
  8
0
 62
     0
 10
632.56409066038623
 20
-204.08465283953669
 30
0.0
 11
634.12979470209132
 21
-202.5189487978316
 31
0.0
  0
LINE
  5
2A2
  8
0
 62
     0
 10
615.49064077812852
 20
-222.85515899664199
 30
0.0
 11
616.63872992678807
 21
-221.70706984798241
 31
0.0
  0
LINE
  5
2A3
  8
0
 62
     0
 10
632.56409066038623
 20
-205.7817091143844
 30
0.0
 11
634.64255162946893
 21
-203.70324814530159
 31
0.0
  0
LINE
  5
2A4
  8
0
 62
     0
 10
625.34255162946886
 20
-213.0032481453016
 30
0.0
 11
627.14255162946893
 21
-211.20324814530159
 31
0.0
  0
LINE
  5
2A5
  8
0
 62
     0
 10
627.43870526826186
 20
-210.90709450650871
 30
0.0
 11
629.54754348109043
 21
-208.79825629368011
 31
0.0
  0
LINE
  5
2A6
  8
0
 62
     0
 10
632.56409066038623
 20
-207.47876538923211
 30
0.0
 11
634.64255162946893
 21
-205.40030442014941
 31
0.0
  0
LINE
  5
2A7
  8
0
 62
     0
 10
617.34255162946886
 20
-222.70706984798241
 30
0.0
 11
618.33578620163587
 21
-221.70706984798241
 31
0.0
  0
LINE
  5
2A8
  8
0
 62
     0
 10
629.13578620163594
 20
-210.9070698479824
 30
0.0
 11
631.48213810769028
 21
-208.56071794192789
 31
0.0
  0
LINE
  5
2A9
  8
0
 62
     0
 10
625.34255162946886
 20
-214.70030442014931
 30
0.0
 11
627.14255162946893
 21
-212.9003044201493
 31
0.0
  0
LINE
  5
2AA
  8
0
 62
     0
 10
618.68769705297632
 20
-223.0522152714897
 30
0.0
 11
620.03284247648355
 21
-221.70706984798241
 31
0.0
  0
LINE
  5
2AB
  8
0
 62
     0
 10
630.83284247648351
 20
-210.9070698479824
 30
0.0
 11
634.64255162946893
 21
-207.09736069499701
 31
0.0
  0
LINE
  5
2AC
  8
0
 62
     0
 10
625.34255162946886
 20
-216.39736069499691
 30
0.0
 11
627.14255162946893
 21
-214.59736069499689
 31
0.0
  0
LINE
  5
2AD
  8
0
 62
     0
 10
620.53622519040005
 20
-222.9007434089136
 30
0.0
 11
621.34255162946886
 21
-222.0944169698447
 31
0.0
  0
LINE
  5
2AE
  8
0
 62
     0
 10
632.52989875133119
 20
-210.9070698479824
 30
0.0
 11
634.64255162946893
 21
-208.7944169698448
 31
0.0
  0
LINE
  5
2AF
  8
0
 62
     0
 10
626.32989875133126
 20
-217.1070698479825
 30
0.0
 11
628.42989875133117
 21
-215.00706984798239
 31
0.0
  0
LINE
  5
2B0
  8
0
 62
     0
 10
628.02695502617894
 20
-217.1070698479825
 30
0.0
 11
630.12695502617908
 21
-215.00706984798239
 31
0.0
  0
LINE
  5
2B1
  8
0
 62
     0
 10
629.72401130102662
 20
-217.1070698479825
 30
0.0
 11
631.82401130102664
 21
-215.00706984798239
 31
0.0
  0
LINE
  5
2B2
  8
0
 62
     0
 10
631.42106757587442
 20
-217.1070698479825
 30
0.0
 11
633.52106757587444
 21
-215.00706984798239
 31
0.0
  0
LINE
  5
2B3
  8
0
 62
     0
 10
633.64255162946881
 20
-214.88558579438799
 30
0.0
 11
633.82106757587451
 21
-214.70706984798241
 31
0.0
  0
LINE
  5
2B4
  8
0
 62
     0
 10
632.84162936330301
 20
-217.3835643354015
 30
0.0
 11
634.42223041273485
 21
-215.8029632859697
 31
0.0
  0
LINE
  5
2B5
  8
0
 62
     0
 10
632.84255162946886
 20
-219.07969834408331
 30
0.0
 11
634.64255162946893
 21
-217.27969834408341
 31
0.0
  0
LINE
  5
2B6
  8
0
 62
     0
 10
632.84255162946886
 20
-220.77675461893111
 30
0.0
 11
634.64255162946893
 21
-218.9767546189311
 31
0.0
  0
LINE
  5
2B7
  8
0
 62
     0
 10
632.84255162946886
 20
-222.4738108937787
 30
0.0
 11
634.64255162946893
 21
-220.67381089377881
 31
0.0
  0
LINE
  5
2B8
  8
0
 62
     0
 10
638.74255162946884
 20
-216.5738108937789
 30
0.0
 11
640.60929267526524
 21
-214.70706984798241
 31
0.0
  0
LINE
  5
2B9
  8
0
 62
     0
 10
633.99945028979084
 20
-223.01396850830449
 30
0.0
 11
635.30634895011315
 21
-221.70706984798241
 31
0.0
  0
LINE
  5
2BA
  8
0
 62
     0
 10
638.74255162946884
 20
-218.27086716862661
 30
0.0
 11
642.30066627537838
 21
-214.7127525227171
 31
0.0
  0
LINE
  5
2BB
  8
0
 62
     0
 10
635.8479784272148
 20
-222.8624966457283
 30
0.0
 11
637.00340522496072
 21
-221.70706984798241
 31
0.0
  0
LINE
  5
2BC
  8
0
 62
     0
 10
642.00340522496072
 20
-216.70706984798241
 30
0.0
 11
642.54255162946868
 21
-216.16792344347431
 31
0.0
  0
LINE
  5
2BD
  8
0
 62
     0
 10
638.74255162946884
 20
-219.96792344347421
 30
0.0
 11
640.83098759142513
 21
-217.879487481518
 31
0.0
  0
LINE
  5
2BE
  8
0
 62
     0
 10
640.67575008412484
 20
-219.73178126366611
 30
0.0
 11
642.52529172584616
 21
-217.88223962194471
 31
0.0
  0
LINE
  5
2BF
  8
0
 62
     0
 10
637.69255162946877
 20
-222.70706984798241
 30
0.0
 11
640.59319797606111
 21
-219.8143333717297
 31
0.0
  0
LINE
  5
2C0
  8
0
 62
     0
 10
639.04503470206248
 20
-223.0595529205761
 30
0.0
 11
640.54255162946879
 21
-221.5620359931699
 31
0.0
  0
LINE
  5
2C1
  8
0
 62
     0
 10
642.42106412746352
 20
-219.68352349517511
 30
0.0
 11
644.2195958602673
 21
-217.88499176237141
 31
0.0
  0
LINE
  5
2C2
  8
0
 62
     0
 10
644.11573644125951
 20
-219.6859074562268
 30
0.0
 11
645.91389999468822
 21
-217.88774390279809
 31
0.0
  0
LINE
  5
2C3
  8
0
 62
     0
 10
645.81040875505573
 20
-219.68829141727841
 30
0.0
 11
647.60820412910925
 21
-217.8904960432248
 31
0.0
  0
LINE
  5
2C4
  8
0
 62
     0
 10
647.50508106885172
 20
-219.69067537833001
 30
0.0
 11
649.30250826353006
 21
-217.89324818365151
 31
0.0
  0
LINE
  5
2C5
  8
0
 62
     0
 10
649.19975338264783
 20
-219.69305933938159
 30
0.0
 11
650.99681239795109
 21
-217.89600032407819
 31
0.0
  0
LINE
  5
2C6
  8
0
 62
     0
 10
650.89442569644405
 20
-219.6954433004332
 30
0.0
 11
652.69111653237235
 21
-217.89875246450489
 31
0.0
  0
LINE
  5
2C7
  8
0
 62
     0
 10
652.58909801024004
 20
-219.69782726148489
 30
0.0
 11
655.09126058027095
 21
-217.1956646914538
 31
0.0
  0
LINE
  5
2C8
  8
0
 62
     0
 10
654.17370708588635
 20
-219.81027446068629
 30
0.0
 11
655.94756044016435
 21
-218.03642110640831
 31
0.0
  0
ENDBLK
  5
2CA
  8
0
  0
BLOCK
  8
0
  2
*X3
 70
     1
 10
0.0
 20
0.0
 30
0.0
  3
*X3
  1

  0
LINE
  5
30A
  8
0
 62
     0
 10
648.48074717839415
 20
-222.7086713718621
 30
0.0
 11
650.71313085217275
 21
-220.47628769808341
 31
0.0
  0
LINE
  5
30B
  8
0
 62
     0
 10
653.72187641171979
 20
-217.4675421385364
 30
0.0
 11
656.52003990705782
 21
-214.66937864319851
 31
0.0
  0
LINE
  5
30C
  8
0
 62
     0
 10
647.7736403972076
 20
-222.0015645906756
 30
0.0
 11
649.9047291649465
 21
-219.8704758229367
 31
0.0
  0
LINE
  5
30D
  8
0
 62
     0
 10
652.69125124748609
 20
-217.08395374039711
 30
0.0
 11
655.10582634468471
 21
-214.66937864319851
 31
0.0
  0
LINE
  5
30E
  8
0
 62
     0
 10
645.49051560257351
 20
-222.87047582293661
 30
0.0
 11
648.4905156025734
 21
-219.87047582293661
 31
0.0
  0
LINE
  5
30F
  8
0
 62
     0
 10
651.32212750567885
 20
-217.03886391983119
 30
0.0
 11
653.69161278231161
 21
-214.66937864319851
 31
0.0
  0
LINE
  5
310
  8
0
 62
     0
 10
644.0763020402004
 20
-222.87047582293661
 30
0.0
 11
647.0763020402004
 21
-219.8704758229365
 31
0.0
  0
LINE
  5
311
  8
0
 62
     0
 10
649.2773992199385
 20
-217.66937864319851
 30
0.0
 11
652.27739921993839
 21
-214.66937864319851
 31
0.0
  0
LINE
  5
312
  8
0
 62
     0
 10
642.6620884778273
 20
-222.87047582293661
 30
0.0
 11
645.66208847782741
 21
-219.8704758229365
 31
0.0
  0
LINE
  5
313
  8
0
 62
     0
 10
647.86318565756528
 20
-217.66937864319851
 30
0.0
 11
650.8631856575654
 21
-214.66937864319851
 31
0.0
  0
LINE
  5
314
  8
0
 62
     0
 10
641.29521327246152
 20
-222.82313746592931
 30
0.0
 11
644.24787491545442
 21
-219.87047582293641
 31
0.0
  0
LINE
  5
315
  8
0
 62
     0
 10
646.44897209519229
 20
-217.66937864319851
 30
0.0
 11
649.04576186233055
 21
-215.07258887606019
 31
0.0
  0
LINE
  5
316
  8
0
 62
     0
 10
641.14255162946847
 20
-221.561585546549
 30
0.0
 11
641.91273607657524
 21
-220.79140109944251
 31
0.0
  0
LINE
  5
317
  8
0
 62
     0
 10
645.03475853281907
 20
-217.66937864319851
 30
0.0
 11
648.03475853281896
 21
-214.66937864319851
 31
0.0
  0
LINE
  5
318
  8
0
 62
     0
 10
643.62054497044596
 20
-217.66937864319851
 30
0.0
 11
646.62054497044585
 21
-214.66937864319851
 31
0.0
  0
LINE
  5
319
  8
0
 62
     0
 10
643.14255162946893
 20
-216.73315842180261
 30
0.0
 11
645.20633140807297
 21
-214.66937864319851
 31
0.0
  0
LINE
  5
31A
  8
0
 62
     0
 10
643.14255162946893
 20
-215.31894485942951
 30
0.0
 11
643.79211784569975
 21
-214.66937864319851
 31
0.0
  0
LINE
  5
31B
  8
0
 62
     0
 10
649.73315628969272
 20
-222.87047582293661
 30
0.0
 11
652.40989419129016
 21
-220.19373792133899
 31
0.0
  0
LINE
  5
31C
  8
0
 62
     0
 10
655.43921124948633
 20
-217.16442086314299
 30
0.0
 11
657.81340254944985
 21
-214.79022956317951
 31
0.0
  0
LINE
  5
31D
  8
0
 62
     0
 10
651.14736985206582
 20
-222.87047582293661
 30
0.0
 11
654.10665753040769
 21
-219.9111881445946
 31
0.0
  0
LINE
  5
31E
  8
0
 62
     0
 10
656.34846703180381
 20
-217.6693786431986
 30
0.0
 11
658.84846703180392
 21
-215.16937864319851
 31
0.0
  0
LINE
  5
31F
  8
0
 62
     0
 10
652.56158341443893
 20
-222.87047582293661
 30
0.0
 11
654.83873558971914
 21
-220.5933236476564
 31
0.0
  0
LINE
  5
320
  8
0
 62
     0
 10
659.46094245569304
 20
-215.97111678168241
 30
0.0
 11
660.26268059417703
 21
-215.16937864319851
 31
0.0
  0
LINE
  5
321
  8
0
 62
     0
 10
653.97579697681203
 20
-222.87047582293661
 30
0.0
 11
656.9702748854055
 21
-219.8759979143432
 31
0.0
  0
LINE
  5
322
  8
0
 62
     0
 10
660.64862231074449
 20
-216.1976504890041
 30
0.0
 11
662.17689415655013
 21
-214.66937864319851
 31
0.0
  0
LINE
  5
323
  8
0
 62
     0
 10
655.39001053918514
 20
-222.87047582293661
 30
0.0
 11
657.53682706583345
 21
-220.7236592962883
 31
0.0
  0
LINE
  5
324
  8
0
 62
     0
 10
661.49628369268964
 20
-216.764202669432
 30
0.0
 11
663.39182967419595
 21
-214.86865668792569
 31
0.0
  0
LINE
  5
325
  8
0
 62
     0
 10
656.80422410155825
 20
-222.87047582293661
 30
0.0
 11
658.36460636661002
 21
-221.31009355788481
 31
0.0
  0
LINE
  5
326
  8
0
 62
     0
 10
662.0827179542863
 20
-217.59198197020859
 30
0.0
 11
663.64255162946893
 21
-216.03214829502591
 31
0.0
  0
LINE
  5
327
  8
0
 62
     0
 10
658.71843766393135
 20
-222.37047582293661
 30
0.0
 11
659.51908459511185
 21
-221.569828891756
 31
0.0
  0
LINE
  5
328
  8
0
 62
     0
 10
662.34245328815734
 20
-218.74646019871051
 30
0.0
 11
663.64255162946893
 21
-217.44636185739901
 31
0.0
  0
LINE
  5
329
  8
0
 62
     0
 10
660.13265122630435
 20
-222.37047582293661
 30
0.0
 11
663.6425516294687
 21
-218.8605754197724
 31
0.0
  0
LINE
  5
32A
  8
0
 62
     0
 10
661.119708209073
 20
-222.79763240254101
 30
0.0
 11
663.6425516294687
 21
-220.27478898214551
 31
0.0
  0
LINE
  5
32B
  8
0
 62
     0
 10
662.46107835105045
 20
-222.87047582293661
 30
0.0
 11
663.6425516294687
 21
-221.6890025445185
 31
0.0
  0
LINE
  5
32C
  8
0
 62
     0
 10
657.35289378409755
 20
-222.87047582293661
 30
0.0
 11
655.15868217060142
 21
-220.6762642094404
 31
0.0
  0
LINE
  5
32D
  8
0
 62
     0
 10
652.10894907131399
 20
-217.626531110153
 30
0.0
 11
649.89717411691424
 21
-215.4147561557532
 31
0.0
  0
LINE
  5
32E
  8
0
 62
     0
 10
655.93868022172455
 20
-222.87047582293661
 30
0.0
 11
653.44134733283488
 21
-220.373142934047
 31
0.0
  0
LINE
  5
32F
  8
0
 62
     0
 10
650.41218573219646
 20
-217.34398133340849
 30
0.0
 11
647.73758304198645
 21
-214.66937864319851
 31
0.0
  0
LINE
  5
330
  8
0
 62
     0
 10
654.52446665935145
 20
-222.87047582293661
 30
0.0
 11
651.72401249506845
 21
-220.07002165865359
 31
0.0
  0
LINE
  5
331
  8
0
 62
     0
 10
649.32336947961335
 20
-217.66937864319851
 30
0.0
 11
646.32336947961335
 21
-214.66937864319851
 31
0.0
  0
LINE
  5
332
  8
0
 62
     0
 10
653.11025309697845
 20
-222.87047582293661
 30
0.0
 11
650.7561403615332
 21
-220.51636308749141
 31
0.0
  0
LINE
  5
333
  8
0
 62
     0
 10
647.90915591724035
 20
-217.66937864319851
 30
0.0
 11
644.90915591724024
 21
-214.66937864319851
 31
0.0
  0
LINE
  5
334
  8
0
 62
     0
 10
651.69603953460535
 20
-222.87047582293661
 30
0.0
 11
648.69603953460523
 21
-219.87047582293661
 31
0.0
  0
LINE
  5
335
  8
0
 62
     0
 10
646.49494235486725
 20
-217.66937864319851
 30
0.0
 11
643.49494235486713
 21
-214.66937864319851
 31
0.0
  0
LINE
  5
336
  8
0
 62
     0
 10
650.28182597223224
 20
-222.87047582293661
 30
0.0
 11
647.28182597223213
 21
-219.8704758229365
 31
0.0
  0
LINE
  5
337
  8
0
 62
     0
 10
645.08072879249414
 20
-217.66937864319851
 30
0.0
 11
643.14255162946893
 21
-215.7312014801733
 31
0.0
  0
LINE
  5
338
  8
0
 62
     0
 10
648.86761240985913
 20
-222.87047582293661
 30
0.0
 11
645.86761240985902
 21
-219.8704758229365
 31
0.0
  0
LINE
  5
339
  8
0
 62
     0
 10
643.66651523012104
 20
-217.66937864319851
 30
0.0
 11
643.14255162946893
 21
-217.1454150425464
 31
0.0
  0
LINE
  5
33A
  8
0
 62
     0
 10
647.04797523847731
 20
-222.465052213928
 30
0.0
 11
644.4533988474858
 21
-219.87047582293641
 31
0.0
  0
LINE
  5
33B
  8
0
 62
     0
 10
646.03918528511292
 20
-222.87047582293661
 30
0.0
 11
643.55133109554367
 21
-220.38262163336751
 31
0.0
  0
LINE
  5
33C
  8
0
 62
     0
 10
644.62497172273982
 20
-222.87047582293661
 30
0.0
 11
642.54589699924566
 21
-220.79140109944251
 31
0.0
  0
LINE
  5
33D
  8
0
 62
     0
 10
643.21075816036682
 20
-222.87047582293661
 30
0.0
 11
641.14255162946847
 21
-220.8022692920386
 31
0.0
  0
LINE
  5
33E
  8
0
 62
     0
 10
641.79654459799372
 20
-222.87047582293661
 30
0.0
 11
641.14255162946847
 21
-222.21648285441159
 31
0.0
  0
LINE
  5
33F
  8
0
 62
     0
 10
658.42982948796976
 20
-222.5331979644356
 30
0.0
 11
655.84109623887605
 21
-219.94446471534189
 31
0.0
  0
LINE
  5
340
  8
0
 62
     0
 10
652.84102713062532
 20
-216.9443956070912
 30
0.0
 11
650.6042808981008
 21
-214.7076493745667
 31
0.0
  0
LINE
  5
341
  8
0
 62
     0
 10
659.68132090884387
 20
-222.37047582293661
 30
0.0
 11
658.77292208541564
 21
-221.4620769995085
 31
0.0
  0
LINE
  5
342
  8
0
 62
     0
 10
654.53779046974284
 20
-217.2269453838355
 30
0.0
 11
651.98022372910577
 21
-214.66937864319851
 31
0.0
  0
LINE
  5
343
  8
0
 62
     0
 10
661.59553447121675
 20
-222.87047582293661
 30
0.0
 11
660.21342760803748
 21
-221.4883689597572
 31
0.0
  0
LINE
  5
344
  8
0
 62
     0
 10
656.39443729147888
 20
-217.6693786431986
 30
0.0
 11
653.39443729147877
 21
-214.66937864319851
 31
0.0
  0
LINE
  5
345
  8
0
 62
     0
 10
663.00974803358997
 20
-222.87047582293661
 30
0.0
 11
661.18028497481805
 21
-221.04101276416469
 31
0.0
  0
LINE
  5
346
  8
0
 62
     0
 10
657.27146609837177
 20
-217.13219388771839
 30
0.0
 11
654.80865085385199
 21
-214.66937864319851
 31
0.0
  0
LINE
  5
347
  8
0
 62
     0
 10
663.6425516294687
 20
-222.08906585644209
 30
0.0
 11
661.8740036668753
 21
-220.32051789384869
 31
0.0
  0
LINE
  5
348
  8
0
 62
     0
 10
657.99196096868786
 20
-216.43847519566131
 30
0.0
 11
656.22286441622498
 21
-214.66937864319851
 31
0.0
  0
LINE
  5
349
  8
0
 62
     0
 10
663.6425516294687
 20
-220.6748522940691
 30
0.0
 11
662.28793966957801
 21
-219.32024033417841
 31
0.0
  0
LINE
  5
34A
  8
0
 62
     0
 10
658.99223852835814
 20
-216.0245391929586
 30
0.0
 11
657.63707797859809
 21
-214.66937864319851
 31
0.0
  0
LINE
  5
34B
  8
0
 62
     0
 10
663.6425516294687
 20
-219.26063873169599
 30
0.0
 11
662.16160310536884
 21
-217.77969020759619
 31
0.0
  0
LINE
  5
34C
  8
0
 62
     0
 10
660.53278865494042
 20
-216.15087575716771
 30
0.0
 11
659.55129154097108
 21
-215.16937864319851
 31
0.0
  0
LINE
  5
34D
  8
0
 62
     0
 10
663.6425516294687
 20
-217.84642516932291
 30
0.0
 11
660.9655051033443
 21
-215.16937864319851
 31
0.0
  0
LINE
  5
34E
  8
0
 62
     0
 10
663.64255162946893
 20
-216.43221160695009
 30
0.0
 11
661.87971866571729
 21
-214.66937864319851
 31
0.0
  0
ENDBLK
  5
350
  8
0
  0
BLOCK
  8
0
  2
*D4
 70
     1
 10
0.0
 20
0.0
 30
0.0
  3
*D4
  1

  0
LINE
  5
3BE
  8
1
 10
-28.999999999999769
 20
-12.525899772360839
 30
0.0
 11
-28.999999999999769
 21
-24.711692475452079
 31
0.0
  0
LINE
  5
3BF
  8
1
 10
-97.999999999999773
 20
-15.030650887779069
 30
0.0
 11
-97.999999999999773
 21
-24.711692475452079
 31
0.0
  0
LINE
  5
3C0
  8
1
 10
-27.999999999999769
 20
-23.711692475452079
 30
0.0
 11
-98.999999999999773
 21
-23.711692475452079
 31
0.0
  0
INSERT
  5
3C1
  8
1
  2
_OBLIQUE
 10
-28.999999999999769
 20
-23.711692475452079
 30
0.0
 41
2.0
 42
2.0
 43
2.0
  0
INSERT
  5
3C2
  8
1
  2
_OBLIQUE
 10
-97.999999999999773
 20
-23.711692475452079
 30
0.0
 41
2.0
 42
2.0
 43
2.0
 50
180.0
  0
TEXT
  5
3C3
  8
0
 10
-66.203785811732374
 20
-22.644843907921391
 30
0.0
 40
3.5
  1
69
  7
BESCHLAG
  0
POINT
  5
3C4
  8
DEFPOINTS
 62
     0
 10
-28.999999999999769
 20
-10.525899772360839
 30
0.0
  0
POINT
  5
3C5
  8
DEFPOINTS
 62
     0
 10
-97.999999999999773
 20
-13.030650887779069
 30
0.0
  0
POINT
  5
3C6
  8
DEFPOINTS
 62
     0
 10
-97.999999999999773
 20
-23.711692475452079
 30
0.0
  0
ENDBLK
  5
38C
  8
0
  0
BLOCK
  8
0
  2
*D5
 70
     1
 10
0.0
 20
0.0
 30
0.0
  3
*D5
  1

  0
LINE
  5
3C7
  8
1
 10
-28.999999999999769
 20
6.5
 30
0.0
 11
-28.999999999999769
 21
-24.711692475452079
 31
0.0
  0
LINE
  5
3C8
  8
1
 10
-22.999999999999769
 20
13.0
 30
0.0
 11
-22.999999999999769
 21
-24.711692475452079
 31
0.0
  0
LINE
  5
3C9
  8
1
 10
-29.999999999999769
 20
-23.711692475452079
 30
0.0
 11
-21.999999999999769
 21
-23.711692475452079
 31
0.0
  0
INSERT
  5
3CA
  8
1
  2
_OBLIQUE
 10
-28.999999999999769
 20
-23.711692475452079
 30
0.0
 41
2.0
 42
2.0
 43
2.0
 50
180.0
  0
INSERT
  5
3CB
  8
1
  2
_OBLIQUE
 10
-22.999999999999769
 20
-23.711692475452079
 30
0.0
 41
2.0
 42
2.0
 43
2.0
  0
TEXT
  5
3CC
  8
0
 10
-27.339358799454072
 20
-22.644843907921391
 30
0.0
 40
3.5
  1
6
  7
BESCHLAG
  0
POINT
  5
3CD
  8
DEFPOINTS
 62
     0
 10
-28.999999999999769
 20
8.5
 30
0.0
  0
POINT
  5
3CE
  8
DEFPOINTS
 62
     0
 10
-22.999999999999769
 20
15.0
 30
0.0
  0
POINT
  5
3CF
  8
DEFPOINTS
 62
     0
 10
-22.999999999999769
 20
-23.711692475452079
 30
0.0
  0
ENDBLK
  5
398
  8
0
  0
BLOCK
  8
0
  2
*D6
 70
     1
 10
0.0
 20
0.0
 30
0.0
  3
*D6
  1

  0
LINE
  5
3D0
  8
1
 10
-22.999999999999769
 20
13.0
 30
0.0
 11
-22.999999999999769
 21
-24.711692475452079
 31
0.0
  0
LINE
  5
3D1
  8
1
 10
-0.0000000000000001
 20
-2.0
 30
0.0
 11
-0.0000000000000015
 21
-24.711692475452079
 31
0.0
  0
LINE
  5
3D2
  8
1
 10
-23.999999999999769
 20
-23.711692475452079
 30
0.0
 11
0.9999999999999985
 21
-23.711692475452079
 31
0.0
  0
INSERT
  5
3D3
  8
1
  2
_OBLIQUE
 10
-22.999999999999769
 20
-23.711692475452079
 30
0.0
 41
2.0
 42
2.0
 43
2.0
 50
180.0
  0
INSERT
  5
3D4
  8
1
  2
_OBLIQUE
 10
-0.0000000000000015
 20
-23.711692475452079
 30
0.0
 41
2.0
 42
2.0
 43
2.0
  0
TEXT
  5
3D5
  8
0
 10
-14.179911323328669
 20
-22.642456459081
 30
0.0
 40
3.5
  1
23
  7
BESCHLAG
  0
POINT
  5
3D6
  8
DEFPOINTS
 62
     0
 10
-22.999999999999769
 20
15.0
 30
0.0
  0
POINT
  5
3D7
  8
DEFPOINTS
 62
     0
 10
0.0
 20
0.0
 30
0.0
  0
POINT
  5
3D8
  8
DEFPOINTS
 62
     0
 10
-0.0000000000000015
 20
-23.711692475452079
 30
0.0
  0
ENDBLK
  5
3A4
  8
0
  0
BLOCK
  8
0
  2
*D7
 70
     1
 10
0.0
 20
0.0
 30
0.0
  3
*D7
  1

  0
LINE
  5
3EC
  8
1
 10
-33.999999999999773
 20
25.5
 30
0.0
 11
-40.688032348196877
 21
25.5
 31
0.0
  0
LINE
  5
3ED
  8
1
 10
-34.000000000000227
 20
0.5000000000000006
 30
0.0
 11
-40.688032348196877
 21
0.5000000000000026
 31
0.0
  0
LINE
  5
3EE
  8
1
 10
-39.688032348196877
 20
26.5
 30
0.0
 11
-39.688032348196877
 21
-0.4999999999999979
 31
0.0
  0
TEXT
  5
3EF
  8
0
 10
-42.254880915727583
 20
17.143058566111311
 30
0.0
 40
3.5
  1
25
 50
90.0
  7
BESCHLAG
  0
INSERT
  5
3F0
  8
1
  2
_OBLIQUE
 10
-39.688032348196877
 20
25.5
 30
0.0
 41
2.0
 42
2.0
 43
2.0
 50
90.0
  0
INSERT
  5
3F1
  8
1
  2
_OBLIQUE
 10
-39.688032348196877
 20
0.5000000000000022
 30
0.0
 41
2.0
 42
2.0
 43
2.0
 50
270.0
  0
POINT
  5
3F2
  8
DEFPOINTS
 62
     0
 10
-31.999999999999769
 20
25.5
 30
0.0
  0
POINT
  5
3F3
  8
DEFPOINTS
 62
     0
 10
-32.00000000000022
 20
0.5
 30
0.0
  0
POINT
  5
3F4
  8
DEFPOINTS
 62
     0
 10
-39.688032348196877
 20
0.5000000000000022
 30
0.0
  0
ENDBLK
  5
3B1
  8
0
  0
BLOCK
  8
0
  2
*D8
 70
     1
 10
0.0
 20
0.0
 30
0.0
  3
*D8
  1

  0
LINE
  5
3E3
  8
1
 10
2.0
 20
-0.0000000000000006
 30
0.0
 11
11.6099191423309
 21
-0.0000000000000033
 31
0.0
  0
LINE
  5
3E4
  8
1
 10
1.5500000000001819
 20
8.5376912047838687
 30
0.0
 11
11.6099191423309
 21
8.5376912047838651
 31
0.0
  0
LINE
  5
3E5
  8
1
 10
10.6099191423309
 20
-1.0000000000000031
 30
0.0
 11
10.609919142330909
 21
9.5376912047838651
 31
0.0
  0
INSERT
  5
3E6
  8
1
  2
_OBLIQUE
 10
10.6099191423309
 20
-0.000000000000003
 30
0.0
 41
2.0
 42
2.0
 43
2.0
 50
270.0
  0
INSERT
  5
3E7
  8
1
  2
_OBLIQUE
 10
10.609919142330909
 20
8.5376912047838651
 30
0.0
 41
2.0
 42
2.0
 43
2.0
 50
90.0
  0
TEXT
  5
3E8
  8
0
 10
9.5430705748002111
 20
0.8691184536879772
 30
0.0
 40
3.5
  1
8.5
 50
90.0
  7
BESCHLAG
  0
POINT
  5
3E9
  8
DEFPOINTS
 62
     0
 10
0.0
 20
0.0
 30
0.0
  0
POINT
  5
3EA
  8
DEFPOINTS
 62
     0
 10
-0.4499999999998181
 20
8.5376912047838687
 30
0.0
  0
POINT
  5
3EB
  8
DEFPOINTS
 62
     0
 10
10.609919142330909
 20
8.5376912047838651
 30
0.0
  0
ENDBLK
  5
3BD
  8
0
  0
ENDSEC
  0
SECTION
  2
ENTITIES
  0
INSERT
  5
25B
  8
5
  2
NULLPUNKT
 10
0.0
 20
0.0
 30
0.0
  0
DIMENSION
  5
36C
  8
1
  2
*D4
 10
-97.999999999999773
 20
-23.711692475452079
 30
0.0
 11
-63.499999999999773
 21
-20.924687018426159
 31
0.0
 70
     0
 13
-28.999999999999769
 23
-10.525899772360839
 33
0.0
 14
-97.999999999999773
 24
-13.030650887779069
 34
0.0
  0
INSERT
  5
36D
  8
2
  2
*X2
 10
-663.6425516294687
 20
223.20706984798241
 30
0.0
1001
ACAD
1000
HATCH
1002
{
1070
    16
1000
_U,I
1040
1.1999999999999991
1040
0.7853981633974483
1070
     0
1002
}
  0
TEXT
  5
36E
  8
1
 10
-82.134572318104347
 20
14.70923183598506
 30
0.0
 40
2.5
  1
Hebgo 162/643
  0
POLYLINE
  5
36F
  8
4
 66
     1
 10
0.0
 20
0.0
 30
0.0
  0
VERTEX
  5
4B9
  8
4
 10
-94.429391494597894
 20
-2.8729135017074441
 30
0.0
  0
VERTEX
  5
4BA
  8
4
 10
-95.918210722059925
 20
-3.0557175168153199
 30
0.0
  0
VERTEX
  5
4BB
  8
4
 10
-97.016253506140401
 20
5.8871233094730542
 30
0.0
  0
VERTEX
  5
4BC
  8
4
 10
-94.068177407099711
 20
8.0525441263735047
 30
0.0
  0
VERTEX
  5
4BD
  8
4
 10
-31.999999999999769
 20
15.789074948209411
 30
0.0
  0
VERTEX
  5
4BE
  8
4
 10
-31.999999999999769
 20
25.5
 30
0.0
  0
VERTEX
  5
4BF
  8
4
 10
-24.999999999999769
 20
25.5
 30
0.0
  0
VERTEX
  5
4C0
  8
4
 10
-24.999999999999769
 20
23.5
 30
0.0
  0
VERTEX
  5
4C1
  8
4
 10
-28.999999999999769
 20
23.5
 30
0.0
  0
VERTEX
  5
4C2
  8
4
 10
-28.999999999999769
 20
8.5
 30
0.0
  0
VERTEX
  5
4C3
  8
4
 10
-21.099999999999898
 20
8.5
 30
0.0
  0
VERTEX
  5
4C4
  8
4
 10
-21.099999999999898
 20
6.0184776630701426
 30
0.0
  0
VERTEX
  5
4C5
  8
4
 10
-6.9284840231409808
 20
6.0184776630701426
 30
0.0
  0
VERTEX
  5
4C6
  8
4
 10
-6.9284840231409808
 20
2.7240065840462639
 30
0.0
  0
VERTEX
  5
4C7
  8
4
 10
-23.099999999999909
 20
2.7240065840462639
 30
0.0
  0
VERTEX
  5
4C8
  8
4
 10
-23.099999999999909
 20
0.0
 30
0.0
  0
VERTEX
  5
4C9
  8
4
 10
-50.29999999999972
 20
0.0
 30
0.0
  0
VERTEX
  5
4CA
  8
4
 10
-50.29999999999972
 20
1.5
 30
0.0
  0
SEQEND
  5
4CB
  8
4
  0
POLYLINE
  5
370
  8
6
 66
     1
 10
0.0
 20
0.0
 30
0.0
  0
VERTEX
  5
4CC
  8
6
 10
-31.078460969082471
 20
19.799999999999951
 30
0.0
  0
VERTEX
  5
4CD
  8
6
 10
-31.078460969082471
 20
14.779198975154941
 30
0.0
  0
VERTEX
  5
4CE
  8
6
 10
-37.371177420138793
 20
14.00655054882554
 30
0.0
  0
VERTEX
  5
4CF
  8
6
 10
-38.4855929151854
 20
14.87722735706188
 30
0.0
  0
VERTEX
  5
4D0
  8
6
 10
-39.356269723421519
 20
13.76281186201526
 30
0.0
  0
VERTEX
  5
4D1
  8
6
 10
-40.470685218468127
 20
14.6334886702516
 30
0.0
  0
VERTEX
  5
4D2
  8
6
 10
-41.341362026704253
 20
13.519073175204991
 30
0.0
  0
VERTEX
  5
4D3
  8
6
 10
-42.455777521750861
 20
14.389749983441099
 30
0.0
  0
VERTEX
  5
4D4
  8
6
 10
-43.326454329986973
 20
13.275334488394719
 30
0.0
  0
VERTEX
  5
4D5
  8
6
 10
-44.44086982503336
 20
14.14601129663083
 30
0.0
  0
VERTEX
  5
4D6
  8
6
 10
-45.3115466332697
 20
13.031595801584441
 30
0.0
  0
VERTEX
  5
4D7
  8
6
 10
-46.425962128315859
 20
13.90227260982055
 30
0.0
  0
VERTEX
  5
4D8
  8
6
 10
-47.296638936552199
 20
12.78785711477417
 30
0.0
  0
VERTEX
  5
4D9
  8
6
 10
-48.411054431598579
 20
13.65853392301028
 30
0.0
  0
VERTEX
  5
4DA
  8
6
 10
-49.281731239834691
 20
12.54411842796366
 30
0.0
  0
VERTEX
  5
4DB
  8
6
 10
-50.396146734881313
 20
13.4147952362
 30
0.0
  0
VERTEX
  5
4DC
  8
6
 10
-51.266823543117432
 20
12.300379741153391
 30
0.0
  0
VERTEX
  5
4DD
  8
6
 10
-52.38123903816404
 20
13.17105654938973
 30
0.0
  0
VERTEX
  5
4DE
  8
6
 10
-53.251915846400152
 20
12.05664105434311
 30
0.0
  0
VERTEX
  5
4DF
  8
6
 10
-54.366331341446767
 20
12.92731786257945
 30
0.0
  0
VERTEX
  5
4E0
  8
6
 10
-55.237008149682879
 20
11.812902367532841
 30
0.0
  0
VERTEX
  5
4E1
  8
6
 10
-56.351423644729259
 20
12.68357917576918
 30
0.0
  0
VERTEX
  5
4E2
  8
6
 10
-57.222100452965599
 20
11.569163680722561
 30
0.0
  0
VERTEX
  5
4E3
  8
6
 10
-58.336515948011993
 20
12.439840488958669
 30
0.0
  0
VERTEX
  5
4E4
  8
6
 10
-59.207192756248112
 20
11.325424993912289
 30
0.0
  0
VERTEX
  5
4E5
  8
6
 10
-60.321608251294492
 20
12.1961018021484
 30
0.0
  0
VERTEX
  5
4E6
  8
6
 10
-61.192285059530832
 20
11.081686307102011
 30
0.0
  0
VERTEX
  5
4E7
  8
6
 10
-62.306700554577212
 20
11.95236311533813
 30
0.0
  0
VERTEX
  5
4E8
  8
6
 10
-63.177377362813331
 20
10.83794762029174
 30
0.0
  0
VERTEX
  5
4E9
  8
6
 10
-64.291792857859946
 20
11.70862442852785
 30
0.0
  0
VERTEX
  5
4EA
  8
6
 10
-65.162469666096058
 20
10.594208933481459
 30
0.0
  0
VERTEX
  5
4EB
  8
6
 10
-66.276885161142673
 20
11.46488574171758
 30
0.0
  0
VERTEX
  5
4EC
  8
6
 10
-67.147561969378785
 20
10.350470246670961
 30
0.0
  0
VERTEX
  5
4ED
  8
6
 10
-68.261977464425172
 20
11.2211470549073
 30
0.0
  0
VERTEX
  5
4EE
  8
6
 10
-69.132654272661512
 20
10.106731559860689
 30
0.0
  0
VERTEX
  5
4EF
  8
6
 10
-70.247069767707899
 20
10.977408368097031
 30
0.0
  0
VERTEX
  5
4F0
  8
6
 10
-71.117746575944011
 20
9.8629928730504162
 30
0.0
  0
VERTEX
  5
4F1
  8
6
 10
-72.232162070990384
 20
10.73366968128675
 30
0.0
  0
VERTEX
  5
4F2
  8
6
 10
-73.102838879226738
 20
9.6192541862401413
 30
0.0
  0
VERTEX
  5
4F3
  8
6
 10
-74.217254374273125
 20
10.489930994476479
 30
0.0
  0
VERTEX
  5
4F4
  8
6
 10
-75.087931182509237
 20
9.3755154994298664
 30
0.0
  0
VERTEX
  5
4F5
  8
6
 10
-76.202346677555852
 20
10.246192307666201
 30
0.0
  0
VERTEX
  5
4F6
  8
6
 10
-77.073023485791964
 20
9.1317768126195915
 30
0.0
  0
VERTEX
  5
4F7
  8
6
 10
-78.187438980838579
 20
10.002453620855929
 30
0.0
  0
VERTEX
  5
4F8
  8
6
 10
-79.058115789074691
 20
8.8880381258093166
 30
0.0
  0
VERTEX
  5
4F9
  8
6
 10
-80.172531284121064
 20
9.7587149340454271
 30
0.0
  0
VERTEX
  5
4FA
  8
6
 10
-81.043208092357418
 20
8.6442994389990417
 30
0.0
  0
VERTEX
  5
4FB
  8
6
 10
-82.157623587403805
 20
9.514976247235154
 30
0.0
  0
VERTEX
  5
4FC
  8
6
 10
-83.028300395639917
 20
8.4005607521887669
 30
0.0
  0
VERTEX
  5
4FD
  8
6
 10
-84.142715890686304
 20
9.2712375604248791
 30
0.0
  0
VERTEX
  5
4FE
  8
6
 10
-85.013392698922416
 20
8.1568220653784902
 30
0.0
  0
VERTEX
  5
4FF
  8
6
 10
-86.127808193969031
 20
9.0274988736146042
 30
0.0
  0
VERTEX
  5
500
  8
6
 10
-86.998485002205143
 20
7.9130833785682171
 30
0.0
  0
VERTEX
  5
501
  8
6
 10
-88.112900497251758
 20
8.7837601868043294
 30
0.0
  0
VERTEX
  5
502
  8
6
 10
-88.983577305487856
 20
7.6693446917577139
 30
0.0
  0
VERTEX
  5
503
  8
6
 10
-90.097992800534485
 20
8.5400214999940545
 30
0.0
  0
VERTEX
  5
504
  8
6
 10
-90.968669608770597
 20
7.4256060049474391
 30
0.0
  0
VERTEX
  5
505
  8
6
 10
-92.083085103816984
 20
8.2962828131837796
 30
0.0
  0
VERTEX
  5
506
  8
6
 10
-92.953761912053324
 20
7.1818673181371651
 30
0.0
  0
VERTEX
  5
507
  8
6
 10
-94.068177407099711
 20
8.0525441263735047
 30
0.0
  0
VERTEX
  5
508
  8
6
 10
-97.016253506140401
 20
5.8871233094730542
 30
0.0
  0
VERTEX
  5
509
  8
6
 10
-95.954771525081469
 20
-2.7579536713228658
 30
0.0
 42
0.4142135623730971
  0
VERTEX
  5
50A
  8
6
 10
-95.620446876567485
 20
-3.01915671379379
 30
0.0
  0
VERTEX
  5
50B
  8
6
 10
-94.727155340090349
 20
-2.9094743047292009
 30
0.0
 42
0.4142135623730956
  0
VERTEX
  5
50C
  8
6
 10
-94.465952297619424
 20
-2.5751496562152161
 30
0.0
  0
VERTEX
  5
50D
  8
6
 10
-95.367785438817464
 20
4.7696918659305529
 30
0.0
 42
-0.4142135623730951
  0
VERTEX
  5
50E
  8
6
 10
-95.106582396346766
 20
5.1040165144445382
 30
0.0
  0
VERTEX
  5
50F
  8
6
 10
-50.636560803021439
 20
10.56424858912373
 30
0.0
 42
-0.4504671536907993
  0
VERTEX
  5
510
  8
6
 10
-50.29999999999972
 20
10.266484743631279
 30
0.0
  0
VERTEX
  5
511
  8
6
 10
-50.29999999999972
 20
0.5
 30
0.0
  0
VERTEX
  5
512
  8
6
 10
-49.79999999999972
 20
0.0
 30
0.0
  0
VERTEX
  5
513
  8
6
 10
-49.299999999999727
 20
0.5
 30
0.0
  0
VERTEX
  5
514
  8
6
 10
-48.799999999999727
 20
0.0
 30
0.0
  0
VERTEX
  5
515
  8
6
 10
-48.299999999999727
 20
0.5
 30
0.0
  0
VERTEX
  5
516
  8
6
 10
-47.79999999999972
 20
0.0
 30
0.0
  0
VERTEX
  5
517
  8
6
 10
-47.29999999999972
 20
0.5
 30
0.0
  0
VERTEX
  5
518
  8
6
 10
-46.799999999999727
 20
0.0
 30
0.0
  0
VERTEX
  5
519
  8
6
 10
-46.299999999999727
 20
0.5
 30
0.0
  0
VERTEX
  5
51A
  8
6
 10
-45.79999999999972
 20
0.0
 30
0.0
  0
VERTEX
  5
51B
  8
6
 10
-45.29999999999972
 20
0.5
 30
0.0
  0
VERTEX
  5
51C
  8
6
 10
-44.79999999999972
 20
0.0
 30
0.0
  0
VERTEX
  5
51D
  8
6
 10
-44.299999999999727
 20
0.5
 30
0.0
  0
VERTEX
  5
51E
  8
6
 10
-43.799999999999727
 20
0.0
 30
0.0
  0
VERTEX
  5
51F
  8
6
 10
-43.29999999999972
 20
0.5
 30
0.0
  0
VERTEX
  5
520
  8
6
 10
-42.79999999999972
 20
0.0
 30
0.0
  0
VERTEX
  5
521
  8
6
 10
-42.29999999999972
 20
0.5
 30
0.0
  0
VERTEX
  5
522
  8
6
 10
-42.29999999999972
 20
1.1999999999998181
 30
0.0
 42
0.4142135623730951
  0
VERTEX
  5
523
  8
6
 10
-42.599999999999902
 20
1.5
 30
0.0
  0
VERTEX
  5
524
  8
6
 10
-48.5
 20
1.5
 30
0.0
 42
-0.4142135623730956
  0
VERTEX
  5
525
  8
6
 10
-48.799999999999727
 20
1.7999999999999541
 30
0.0
  0
VERTEX
  5
526
  8
6
 10
-48.799999999999727
 20
10.52433232152748
 30
0.0
 42
-0.3788661086953132
  0
VERTEX
  5
527
  8
6
 10
-48.53656080302153
 20
10.8220961670197
 30
0.0
  0
VERTEX
  5
528
  8
6
 10
-38.636560803021439
 20
12.03766331995871
 30
0.0
 42
-0.4504671536908001
  0
VERTEX
  5
529
  8
6
 10
-38.299999999999727
 20
11.739899474466251
 30
0.0
  0
VERTEX
  5
52A
  8
6
 10
-38.299999999999727
 20
6.3999999999998627
 30
0.0
 42
0.4142135623730959
  0
VERTEX
  5
52B
  8
6
 10
-38.0
 20
6.0999999999999091
 30
0.0
  0
VERTEX
  5
52C
  8
6
 10
-31.099999999999898
 20
6.0999999999999091
 30
0.0
 42
-0.414213562373096
  0
VERTEX
  5
52D
  8
6
 10
-30.79999999999972
 20
5.7999999999999536
 30
0.0
  0
VERTEX
  5
52E
  8
6
 10
-30.79999999999972
 20
0.349999999999909
 30
0.0
  0
VERTEX
  5
52F
  8
6
 10
-30.449999999999822
 20
0.0
 30
0.0
  0
VERTEX
  5
530
  8
6
 10
-29.949999999999811
 20
0.5
 30
0.0
  0
VERTEX
  5
531
  8
6
 10
-29.449999999999822
 20
0.0
 30
0.0
  0
VERTEX
  5
532
  8
6
 10
-28.949999999999811
 20
0.5
 30
0.0
  0
VERTEX
  5
533
  8
6
 10
-28.449999999999811
 20
0.0
 30
0.0
  0
VERTEX
  5
534
  8
6
 10
-27.949999999999822
 20
0.5
 30
0.0
  0
VERTEX
  5
535
  8
6
 10
-27.449999999999811
 20
0.0
 30
0.0
  0
VERTEX
  5
536
  8
6
 10
-26.949999999999822
 20
0.5
 30
0.0
  0
VERTEX
  5
537
  8
6
 10
-26.449999999999811
 20
0.0
 30
0.0
  0
VERTEX
  5
538
  8
6
 10
-25.949999999999811
 20
0.5
 30
0.0
  0
VERTEX
  5
539
  8
6
 10
-25.449999999999822
 20
0.0
 30
0.0
  0
VERTEX
  5
53A
  8
6
 10
-24.949999999999811
 20
0.5
 30
0.0
  0
VERTEX
  5
53B
  8
6
 10
-24.449999999999822
 20
0.0
 30
0.0
  0
VERTEX
  5
53C
  8
6
 10
-23.949999999999811
 20
0.5
 30
0.0
  0
VERTEX
  5
53D
  8
6
 10
-23.449999999999811
 20
0.0
 30
0.0
  0
VERTEX
  5
53E
  8
6
 10
-23.099999999999909
 20
0.349999999999909
 30
0.0
  0
VERTEX
  5
53F
  8
6
 10
-23.099999999999909
 20
3.2259349309085792
 30
0.0
 42
-0.4244748162096039
  0
VERTEX
  5
540
  8
6
 10
-22.789530150989091
 20
3.5257521790144888
 30
0.0
  0
VERTEX
  5
541
  8
6
 10
-9.6920462795746971
 20
3.5073274421674792
 30
0.0
 42
-0.1990523613993445
  0
VERTEX
  5
542
  8
6
 10
-9.4829998426498605
 20
3.4119914895607049
 30
0.0
  0
VERTEX
  5
543
  8
6
 10
-8.9311125154467845
 20
2.8195252885473101
 30
0.0
 42
0.414371337763161
  0
VERTEX
  5
544
  8
6
 10
-8.5069967214922144
 20
2.8046004735606398
 30
0.0
  0
VERTEX
  5
545
  8
6
 10
-7.1119363979159971
 20
4.1055152713674943
 30
0.0
 42
0.4142135623730888
  0
VERTEX
  5
546
  8
6
 10
-7.0971297954490629
 20
4.5295208898719457
 30
0.0
  0
VERTEX
  5
547
  8
6
 10
-8.3966420510655553
 20
5.9230771710888339
 30
0.0
 42
0.4140983237049574
  0
VERTEX
  5
548
  8
6
 10
-8.8205613250102033
 20
5.9379642594083171
 30
0.0
  0
VERTEX
  5
549
  8
6
 10
-9.4124039212192656
 20
5.3864973195597941
 30
0.0
 42
-0.1988101110404441
  0
VERTEX
  5
54A
  8
6
 10
-9.6273869336887401
 20
5.3061666677922403
 30
0.0
  0
VERTEX
  5
54B
  8
6
 10
-22.81046984901058
 20
5.327580589120088
 30
0.0
 42
-0.4040262258351575
  0
VERTEX
  5
54C
  8
6
 10
-23.099999999999909
 20
5.6273978372257707
 30
0.0
  0
VERTEX
  5
54D
  8
6
 10
-23.099999999999909
 20
6.1999999999998181
 30
0.0
 42
-0.4142135623730855
  0
VERTEX
  5
54E
  8
6
 10
-22.79999999999972
 20
6.5
 30
0.0
  0
VERTEX
  5
54F
  8
6
 10
-21.39999999999986
 20
6.5
 30
0.0
 42
0.4142135623730951
  0
VERTEX
  5
550
  8
6
 10
-21.099999999999898
 20
6.7999999999999536
 30
0.0
  0
VERTEX
  5
551
  8
6
 10
-21.099999999999898
 20
8.1999999999998181
 30
0.0
 42
0.4142135623730951
  0
VERTEX
  5
552
  8
6
 10
-21.39999999999986
 20
8.5
 30
0.0
  0
VERTEX
  5
553
  8
6
 10
-24.599999999999909
 20
8.5
 30
0.0
 42
0.4142135623730951
  0
VERTEX
  5
554
  8
6
 10
-24.89999999999986
 20
8.1999999999998181
 30
0.0
  0
VERTEX
  5
555
  8
6
 10
-24.89999999999986
 20
1.7999999999999541
 30
0.0
 42
-0.4142135623730951
  0
VERTEX
  5
556
  8
6
 10
-25.199999999999811
 20
1.5
 30
0.0
  0
VERTEX
  5
557
  8
6
 10
-28.699999999999811
 20
1.5
 30
0.0
 42
-0.4142135623730971
  0
VERTEX
  5
558
  8
6
 10
-28.999999999999769
 20
1.7999999999999541
 30
0.0
  0
VERTEX
  5
559
  8
6
 10
-28.999999999999769
 20
6.7999999999999536
 30
0.0
  0
VERTEX
  5
55A
  8
6
 10
-29.619999999999891
 20
8.5
 30
0.0
  0
VERTEX
  5
55B
  8
6
 10
-29.999999999999769
 20
8.5
 30
0.0
  0
VERTEX
  5
55C
  8
6
 10
-29.999999999999769
 20
8.2000000000000455
 30
0.0
  0
VERTEX
  5
55D
  8
6
 10
-36.199999999999811
 20
8.2000000000000455
 30
0.0
 42
-0.4142135623730951
  0
VERTEX
  5
55E
  8
6
 10
-36.499999999999773
 20
8.5
 30
0.0
  0
VERTEX
  5
55F
  8
6
 10
-36.499999999999773
 20
12.0
 30
0.0
 42
-0.414213562373096
  0
VERTEX
  5
560
  8
6
 10
-36.199999999999811
 20
12.299999999999949
 30
0.0
  0
VERTEX
  5
561
  8
6
 10
-29.849999999999898
 20
12.299999999999949
 30
0.0
 42
0.4142135623730951
  0
VERTEX
  5
562
  8
6
 10
-28.999999999999769
 20
13.14999999999986
 30
0.0
  0
VERTEX
  5
563
  8
6
 10
-28.999999999999769
 20
19.799999999999951
 30
0.0
  0
VERTEX
  5
564
  8
6
 10
-30.199999999999811
 20
21.878460969082649
 30
0.0
  0
VERTEX
  5
565
  8
6
 10
-30.199999999999811
 20
22.5
 30
0.0
 42
-0.4142135623730951
  0
VERTEX
  5
566
  8
6
 10
-29.199999999999822
 20
23.5
 30
0.0
  0
VERTEX
  5
567
  8
6
 10
-25.849999999999909
 20
23.5
 30
0.0
 42
0.414213562373093
  0
VERTEX
  5
568
  8
6
 10
-24.999999999999769
 20
24.349999999999909
 30
0.0
  0
VERTEX
  5
569
  8
6
 10
-24.999999999999769
 20
25.07999999999992
 30
0.0
  0
VERTEX
  5
56A
  8
6
 10
-25.419999999999838
 20
25.5
 30
0.0
  0
VERTEX
  5
56B
  8
6
 10
-26.57999999999992
 20
25.5
 30
0.0
  0
VERTEX
  5
56C
  8
6
 10
-26.999999999999769
 20
25.07999999999992
 30
0.0
  0
VERTEX
  5
56D
  8
6
 10
-27.419999999999611
 20
25.5
 30
0.0
  0
VERTEX
  5
56E
  8
6
 10
-28.07999999999992
 20
25.5
 30
0.0
  0
VERTEX
  5
56F
  8
6
 10
-28.499999999999769
 20
25.07999999999992
 30
0.0
  0
VERTEX
  5
570
  8
6
 10
-28.919999999999622
 20
25.5
 30
0.0
  0
VERTEX
  5
571
  8
6
 10
-31.179999999999829
 20
25.5
 30
0.0
  0
VERTEX
  5
572
  8
6
 10
-31.999999999999769
 20
24.679999999999829
 30
0.0
  0
VERTEX
  5
573
  8
6
 10
-31.999999999999769
 20
21.39615242270656
 30
0.0
  0
VERTEX
  5
574
  8
6
 10
-30.999999999999769
 20
19.664101615137721
 30
0.0
  0
SEQEND
  5
575
  8
6
  0
POLYLINE
  5
371
  8
5
 66
     1
 10
0.0
 20
0.0
 30
0.0
  0
VERTEX
  5
576
  8
5
 10
-53.0
 20
-11.96316912996212
 30
0.0
  0
VERTEX
  5
577
  8
5
 10
-53.0
 20
0.0
 30
0.0
  0
VERTEX
  5
578
  8
5
 10
-101.30023293923681
 20
-5.1802378698973817
 30
0.0
  0
SEQEND
  5
579
  8
5
  0
POLYLINE
  5
372
  8
5
 66
     1
 10
0.0
 20
0.0
 30
0.0
  0
VERTEX
  5
57A
  8
5
 10
0.0
 20
-11.98615426501919
 30
0.0
  0
VERTEX
  5
57B
  8
5
 10
0.0
 20
0.0
 30
0.0
  0
VERTEX
  5
57C
  8
5
 10
-48.0
 20
0.0
 30
0.0
  0
VERTEX
  5
57D
  8
5
 10
-48.0
 20
-11.98615426501919
 30
0.0
  0
SEQEND
  5
57E
  8
5
  0
DIMENSION
  5
373
  8
1
  2
*D5
 10
-22.999999999999769
 20
-23.711692475452079
 30
0.0
 11
-25.999999999999769
 21
-20.924687018426159
 31
0.0
 70
     0
 13
-28.999999999999769
 23
8.5
 33
0.0
 14
-22.999999999999769
 24
15.0
 34
0.0
  0
DIMENSION
  5
374
  8
1
  2
*D6
 10
-0.0000000000000015
 20
-23.711692475452079
 30
0.0
 11
-11.499999999999879
 21
-20.923493294005969
 31
0.0
 70
     0
 13
-22.999999999999769
 23
15.0
 33
0.0
 14
0.0
 24
0.0
 34
0.0
  0
LINE
  5
375
  8
6
  6
STRICHPUNKT
 10
-13.999999999999771
 20
9.3001413397664692
 30
0.0
 11
-13.999999999999771
 21
-15.3399529210485
 31
0.0
  0
TEXT
  5
376
  8
1
 10
-19.050219139716319
 20
-27.448203701567301
 30
0.0
 40
1.5
  1
VAR. 25, 27
  0
INSERT
  5
377
  8
2
  2
*X3
 10
-663.6425516294687
 20
223.20706984798241
 30
0.0
1001
ACAD
1000
HATCH
1002
{
1070
    16
1000
_U,I
1040
1.0
1040
0.7853981633974483
1070
     1
1002
}
  0
POLYLINE
  5
378
  8
5
 66
     1
 10
0.0
 20
0.0
 30
0.0
  0
VERTEX
  5
57F
  8
5
 10
-22.999999999999769
 20
33.891008707262237
 30
0.0
  0
VERTEX
  5
580
  8
5
 10
-22.999999999999769
 20
15.0
 30
0.0
  0
VERTEX
  5
581
  8
5
 10
1.0
 20
15.0
 30
0.0
  0
VERTEX
  5
582
  8
5
 10
1.0
 20
-3.0
 30
0.0
  0
VERTEX
  5
583
  8
5
 10
4.9481751402765886
 20
-3.0
 30
0.0
  0
SEQEND
  5
584
  8
5
  0
POLYLINE
  5
379
  8
6
 66
     1
 10
0.0
 20
0.0
 30
0.0
  0
VERTEX
  5
585
  8
6
 10
0.0000000000002274
 20
5.3882397946526899
 30
0.0
  0
VERTEX
  5
586
  8
6
 10
0.0000000000002274
 20
8.0876912047838232
 30
0.0
  0
VERTEX
  5
587
  8
6
 10
-0.4499999999998181
 20
8.5376912047838687
 30
0.0
  0
VERTEX
  5
588
  8
6
 10
-2.0499999999999541
 20
8.5376912047838687
 30
0.0
  0
VERTEX
  5
589
  8
6
 10
-2.4999999999997722
 20
8.0876912047838232
 30
0.0
  0
VERTEX
  5
58A
  8
6
 10
-2.4999999999997722
 20
8.0376912047838687
 30
0.0
  0
VERTEX
  5
58B
  8
6
 10
-5.4999999999997717
 20
8.0376912047838687
 30
0.0
  0
VERTEX
  5
58C
  8
6
 10
-5.4999999999997717
 20
8.0876912047838232
 30
0.0
  0
VERTEX
  5
58D
  8
6
 10
-5.9499999999998181
 20
8.5376912047838687
 30
0.0
  0
VERTEX
  5
58E
  8
6
 10
-12.999999999999771
 20
8.5376912047838687
 30
0.0
  0
VERTEX
  5
58F
  8
6
 10
-13.999999999999771
 20
7.5376912047838678
 30
0.0
  0
VERTEX
  5
590
  8
6
 10
-14.999999999999771
 20
8.5376912047838687
 30
0.0
  0
VERTEX
  5
591
  8
6
 10
-20.299999999999951
 20
8.5376912047838687
 30
0.0
  0
VERTEX
  5
592
  8
6
 10
-20.499999999999769
 20
8.3376912047838232
 30
0.0
  0
VERTEX
  5
593
  8
6
 10
-20.499999999999769
 20
5.5376912047838678
 30
0.0
  0
VERTEX
  5
594
  8
6
 10
-13.579587173670911
 20
5.5376912047838678
 30
0.0
  0
VERTEX
  5
595
  8
6
 10
-12.591236345765081
 20
6.4586164812897087
 30
0.0
  0
VERTEX
  5
596
  8
6
 10
-11.732459632218021
 20
5.5376912047836413
 30
0.0
  0
VERTEX
  5
597
  8
6
 10
-11.579587173670911
 20
5.5376912047838678
 30
0.0
  0
VERTEX
  5
598
  8
6
 10
-10.591236345765081
 20
6.4586164812897087
 30
0.0
  0
VERTEX
  5
599
  8
6
 10
-9.7324596322180241
 20
5.5376912047836413
 30
0.0
  0
VERTEX
  5
59A
  8
6
 10
-9.5795871736709142
 20
5.5376912047838678
 30
0.0
  0
VERTEX
  5
59B
  8
6
 10
-8.5912363457650827
 20
6.4586164812897087
 30
0.0
  0
VERTEX
  5
59C
  8
6
 10
-7.7324596322180241
 20
5.5376912047836413
 30
0.0
  0
VERTEX
  5
59D
  8
6
 10
-6.6746442086891866
 20
5.5376912047838678
 30
0.0
 42
-4.8836046478686121
  0
VERTEX
  5
59E
  8
6
 10
-6.6746442086891866
 20
3.3365940250457689
 30
0.0
  0
VERTEX
  5
59F
  8
6
 10
-7.7324596322180241
 20
3.3365940250459971
 30
0.0
  0
VERTEX
  5
5A0
  8
6
 10
-8.5912363457650827
 20
2.415668748539928
 30
0.0
  0
VERTEX
  5
5A1
  8
6
 10
-9.5795871736709142
 20
3.3365940250457689
 30
0.0
  0
VERTEX
  5
5A2
  8
6
 10
-9.7324596322180241
 20
3.3365940250459971
 30
0.0
  0
VERTEX
  5
5A3
  8
6
 10
-10.591236345765081
 20
2.415668748539928
 30
0.0
  0
VERTEX
  5
5A4
  8
6
 10
-11.579587173670911
 20
3.3365940250457689
 30
0.0
  0
VERTEX
  5
5A5
  8
6
 10
-11.732459632218021
 20
3.3365940250459971
 30
0.0
  0
VERTEX
  5
5A6
  8
6
 10
-12.591236345765081
 20
2.415668748539928
 30
0.0
  0
VERTEX
  5
5A7
  8
6
 10
-13.579587173670911
 20
3.3365940250457689
 30
0.0
  0
VERTEX
  5
5A8
  8
6
 10
-19.579074723493932
 20
3.3365940250459971
 30
0.0
  0
VERTEX
  5
5A9
  8
6
 10
-20.499999999999769
 20
2.415668748539928
 30
0.0
  0
VERTEX
  5
5AA
  8
6
 10
-22.5
 20
2.415668748539928
 30
0.0
  0
VERTEX
  5
5AB
  8
6
 10
-22.5
 20
0.5365940250458153
 30
0.0
  0
VERTEX
  5
5AC
  8
6
 10
-22.299999999999951
 20
0.3365940250457697
 30
0.0
  0
VERTEX
  5
5AD
  8
6
 10
-17.0
 20
0.3365940250457697
 30
0.0
  0
VERTEX
  5
5AE
  8
6
 10
-16.0
 20
1.3365940250457691
 30
0.0
  0
VERTEX
  5
5AF
  8
6
 10
-15.0
 20
0.3365940250457697
 30
0.0
  0
VERTEX
  5
5B0
  8
6
 10
-5.5
 20
0.3365940250457697
 30
0.0
  0
VERTEX
  5
5B1
  8
6
 10
-5.5
 20
0.3865940250457243
 30
0.0
  0
VERTEX
  5
5B2
  8
6
 10
-5.0499999999999536
 20
0.8365940250457697
 30
0.0
  0
VERTEX
  5
5B3
  8
6
 10
-2.9499999999998181
 20
0.8365940250457697
 30
0.0
  0
VERTEX
  5
5B4
  8
6
 10
-2.5
 20
0.3865940250457243
 30
0.0
  0
VERTEX
  5
5B5
  8
6
 10
-2.5
 20
0.3365940250457697
 30
0.0
  0
VERTEX
  5
5B6
  8
6
 10
-0.4499999999998181
 20
0.3365940250457697
 30
0.0
  0
VERTEX
  5
5B7
  8
6
 10
0.0
 20
0.7865940250458153
 30
0.0
  0
VERTEX
  5
5B8
  8
6
 10
0.0
 20
5.5376912047838678
 30
0.0
  0
SEQEND
  5
5B9
  8
6
  0
POLYLINE
  5
37A
  8
6
 66
     1
 10
0.0
 20
0.0
 30
0.0
 70
     1
  0
VERTEX
  5
5BA
  8
6
 10
-28.999999999999769
 20
12.299999999999949
 30
0.0
  0
VERTEX
  5
5BB
  8
6
 10
-34.65649543141398
 20
12.299999999999949
 30
0.0
  0
VERTEX
  5
5BC
  8
6
 10
-35.8515006533828
 20
11.50825794124489
 30
0.0
 42
0.2765729576599896
  0
VERTEX
  5
5BD
  8
6
 10
-35.936307497965338
 20
11.330885620421441
 30
0.0
  0
VERTEX
  5
5BE
  8
6
 10
-35.936307497965338
 20
9.7885176960462559
 30
0.0
 42
0.2911329109570175
  0
VERTEX
  5
5BF
  8
6
 10
-35.774403565437979
 20
9.5340270266051448
 30
0.0
  0
VERTEX
  5
5C0
  8
6
 10
-33.584793748304492
 20
8.3482801841826131
 30
0.0
  0
VERTEX
  5
5C1
  8
6
 10
-32.849884182350699
 20
8.3482801841826131
 30
0.0
 42
0.6135978516351976
  0
VERTEX
  5
5C2
  8
6
 10
-32.618936310614572
 20
8.8665724814263722
 30
0.0
  0
VERTEX
  5
5C3
  8
6
 10
-33.562770904240999
 20
9.5935257816354351
 30
0.0
 42
-0.4920185377680598
  0
VERTEX
  5
5C4
  8
6
 10
-33.562770904240999
 20
9.7823448484698474
 30
0.0
  0
VERTEX
  5
5C5
  8
6
 10
-33.112876421589583
 20
9.7823448484698474
 30
0.0
  0
VERTEX
  5
5C6
  8
6
 10
-30.678741588026469
 20
8.3482801841826131
 30
0.0
  0
VERTEX
  5
5C7
  8
6
 10
-30.11369670682074
 20
8.3482801841826131
 30
0.0
 42
0.4435785838613815
  0
VERTEX
  5
5C8
  8
6
 10
-29.849852984352079
 20
8.6396892533598475
 30
0.0
 42
0.1080248885248478
  0
VERTEX
  5
5C9
  8
6
 10
-29.986848789777689
 20
9.0609407404488138
 30
0.0
 42
-0.1650309251609639
  0
VERTEX
  5
5CA
  8
6
 10
-30.879858302778299
 20
9.7816359868879772
 30
0.0
 42
-0.7085018574978005
  0
VERTEX
  5
5CB
  8
6
 10
-30.72764081428749
 20
9.9744981431381348
 30
0.0
  0
VERTEX
  5
5CC
  8
6
 10
-29.738226810177821
 20
9.9744981431381348
 30
0.0
 42
-0.1108564047810902
  0
VERTEX
  5
5CD
  8
6
 10
-28.96174413469884
 20
9.4967569331483901
 30
0.0
 42
0.1057808302764094
  0
VERTEX
  5
5CE
  8
6
 10
-27.297799923407862
 20
9.0092043965821631
 30
0.0
 42
-0.0383354534315201
  0
VERTEX
  5
5CF
  8
6
 10
-24.05441045564384
 20
8.5
 30
0.0
  0
VERTEX
  5
5D0
  8
6
 10
-22.741583589059239
 20
8.5
 30
0.0
 42
0.8928929749026098
  0
VERTEX
  5
5D1
  8
6
 10
-22.444143993781381
 20
9.2915199932349424
 30
0.0
 42
0.1343867415540466
  0
VERTEX
  5
5D2
  8
6
 10
-24.533513662132691
 20
10.360783541685571
 30
0.0
 42
-0.305616491539639
  0
VERTEX
  5
5D3
  8
6
 10
-26.004953010935651
 20
11.199551142099381
 30
0.0
 42
-0.0225368453985839
  0
VERTEX
  5
5D4
  8
6
 10
-25.880022695364911
 20
14.42364449704473
 30
0.0
 42
0.0820486087683995
  0
VERTEX
  5
5D5
  8
6
 10
-27.382867989984099
 20
20.229748881129119
 30
0.0
 42
-0.5531953199133618
  0
VERTEX
  5
5D6
  8
6
 10
-26.07109910835629
 20
22.166704228170602
 30
0.0
 42
-0.3406158711548123
  0
VERTEX
  5
5D7
  8
6
 10
-24.23462267407762
 20
20.542161038996252
 30
0.0
 42
-0.0568436315587013
  0
VERTEX
  5
5D8
  8
6
 10
-23.947282846598679
 20
19.502412576853651
 30
0.0
  0
VERTEX
  5
5D9
  8
6
 10
-23.947282846598679
 20
14.016455284632681
 30
0.0
 42
-0.1420523750318728
  0
VERTEX
  5
5DA
  8
6
 10
-24.569096386234829
 20
12.73252242590706
 30
0.0
 42
0.3627856233788124
  0
VERTEX
  5
5DB
  8
6
 10
-24.596920774624088
 20
12.41690503952668
 30
0.0
  0
VERTEX
  5
5DC
  8
6
 10
-23.609970857009099
 20
11.379696710315329
 30
0.0
 42
0.5200628854945981
  0
VERTEX
  5
5DD
  8
6
 10
-23.00089649444385
 20
11.66791871878058
 30
0.0
  0
VERTEX
  5
5DE
  8
6
 10
-23.00089649444385
 20
20.604643518170629
 30
0.0
 42
0.8845616996679478
  0
VERTEX
  5
5DF
  8
6
 10
-28.999999999999769
 20
21.199699376231809
 30
0.0
  0
SEQEND
  5
5E0
  8
6
  0
DIMENSION
  5
37B
  8
1
  2
*D7
 10
-39.688032348196877
 20
0.5000000000000022
 30
0.0
 11
-43.975037805222797
 21
19.836100858062188
 31
0.0
 70
   128
 13
-31.999999999999769
 23
25.5
 33
0.0
 14
-32.00000000000022
 24
0.5
 34
0.0
 50
90.0
  0
POINT
  5
37C
  8
5
 10
-28.999999999999769
 20
8.0383389505609557
 30
0.0
  0
POINT
  5
37D
  8
5
 10
-28.999999999999769
 20
8.0383389505609557
 30
0.0
  0
DIMENSION
  5
37E
  8
1
  2
*D8
 10
10.609919142330909
 20
8.5376912047838651
 30
0.0
 11
7.8229136853049859
 21
4.2688456023919326
 31
0.0
 70
     0
 13
0.0
 23
0.0
 33
0.0
 14
-0.4499999999998181
 24
8.5376912047838687
 34
0.0
 50
90.0
  0
POLYLINE
  5
37F
  8
5
 66
     1
 10
0.0
 20
0.0
 30
0.0
  0
VERTEX
  5
5E1
  8
5
 10
3.8041438526099678
 20
15.0
 30
0.0
  0
VERTEX
  5
5E2
  8
5
 10
5.0
 20
15.0
 30
0.0
  0
VERTEX
  5
5E3
  8
5
 10
5.0
 20
13.254045909564409
 30
0.0
  0
SEQEND
  5
5E4
  8
5
  0
POLYLINE
  5
380
  8
5
 66
     1
 10
0.0
 20
0.0
 30
0.0
  0
VERTEX
  5
5E5
  8
5
 10
1.804143852609968
 20
15.0
 30
0.0
  0
VERTEX
  5
5E6
  8
5
 10
3.0
 20
15.0
 30
0.0
  0
VERTEX
  5
5E7
  8
5
 10
3.0
 20
13.254045909564409
 30
0.0
  0
SEQEND
  5
5E8
  8
5
  0
VIEWPORT
  5
22
 67
     1
  8
0
 10
210.0
 20
170.2366863905325
 30
0.0
 40
420.0
 41
340.47337278106511
 68
     1
 69
     1
1001
ACAD
1000
MVIEW
1002
{
1070
    16
1010
0.0
1020
0.0
1030
0.0
1010
0.0
1020
0.0
1030
1.0
1040
0.0
1040
340.47337278106511
1040
210.0
1040
170.2366863905325
1040
50.0
1040
0.0
1040
0.0
1070
     0
1070
   100
1070
     1
1070
     1
1070
     0
1070
     0
1070
     0
1070
     0
1040
0.0
1040
0.0
1040
0.0
1040
5.0
1040
5.0
1040
10.0
1040
10.0
1070
     0
1002
{
1002
}
1002
}
  0
ENDSEC
  0
EOF
