  0
SECTION
  2
HEADER
  9
$ACADVER
  1
AC1009
  9
$INSBASE
 10
0.0
 20
0.0
 30
0.0
  9
$EXTMIN
 10
-220.6213203435596
 20
-378.00000000000091
 30
0.0
  9
$EXTMAX
 10
449.95051504751729
 20
323.6893682918668
 30
0.0
  9
$LIMMIN
 10
-150.0
 20
-150.0
  9
$LIMMAX
 10
150.0
 20
150.0
  9
$ORTHOMODE
 70
     0
  9
$REGENMODE
 70
     1
  9
$FILLMODE
 70
     1
  9
$QTEXTMODE
 70
     0
  9
$MIRRTEXT
 70
     0
  9
$DRAGMODE
 70
     2
  9
$LTSCALE
 40
1.0
  9
$OSMODE
 70
   111
  9
$ATTMODE
 70
     1
  9
$TEXTSIZE
 40
3.5
  9
$TRACEWID
 40
1.0
  9
$TEXTSTYLE
  7
BESCHLAG
  9
$CLAYER
  8
5
  9
$CELTYPE
  6
BYLAYER
  9
$CECOLOR
 62
   256
  9
$DIMSCALE
 40
1.0
  9
$DIMASZ
 40
2.0
  9
$DIMEXO
 40
2.0
  9
$DIMDLI
 40
0.0
  9
$DIMRND
 40
0.0
  9
$DIMDLE
 40
1.0
  9
$DIMEXE
 40
1.0
  9
$DIMTP
 40
0.0
  9
$DIMTM
 40
0.0
  9
$DIMTXT
 40
3.5
  9
$DIMCEN
 40
0.0
  9
$DIMTSZ
 40
0.0
  9
$DIMTOL
 70
     0
  9
$DIMLIM
 70
     0
  9
$DIMTIH
 70
     0
  9
$DIMTOH
 70
     0
  9
$DIMSE1
 70
     0
  9
$DIMSE2
 70
     0
  9
$DIMTAD
 70
     1
  9
$DIMZIN
 70
     8
  9
$DIMBLK
  1

  9
$DIMASO
 70
     1
  9
$DIMSHO
 70
     1
  9
$DIMPOST
  1

  9
$DIMAPOST
  1

  9
$DIMALT
 70
     0
  9
$DIMALTD
 70
     2
  9
$DIMALTF
 40
0.039370078740157
  9
$DIMLFAC
 40
1.0
  9
$DIMTOFL
 70
     1
  9
$DIMTVP
 40
0.0
  9
$DIMTIX
 70
     1
  9
$DIMSOXD
 70
     0
  9
$DIMSAH
 70
     1
  9
$DIMBLK1
  1
OBLIQUE
  9
$DIMBLK2
  1
OBLIQUE
  9
$DIMSTYLE
  2
OPO-SSTRICH
  9
$DIMCLRD
 70
   256
  9
$DIMCLRE
 70
   256
  9
$DIMCLRT
 70
   256
  9
$DIMTFAC
 40
0.7114285714285716
  9
$DIMGAP
 40
1.0
  9
$LUNITS
 70
     2
  9
$LUPREC
 70
     1
  9
$SKETCHINC
 40
1.0
  9
$FILLETRAD
 40
0.0
  9
$AUNITS
 70
     0
  9
$AUPREC
 70
     1
  9
$MENU
  1
D:\ACL_CGWG\CGTAB13
  9
$ELEVATION
 40
0.0
  9
$PELEVATION
 40
0.0
  9
$THICKNESS
 40
0.0
  9
$LIMCHECK
 70
     0
  9
$BLIPMODE
 70
     0
  9
$CHAMFERA
 40
1.0
  9
$CHAMFERB
 40
1.0
  9
$SKPOLY
 70
     0
  9
$TDCREATE
 40
2451739.9328741669
  9
$TDUPDATE
 40
2452087.6750336448
  9
$TDINDWG
 40
0.0079018866
  9
$TDUSRTIMER
 40
0.0079018866
  9
$USRTIMER
 70
     1
  9
$ANGBASE
 50
0.0
  9
$ANGDIR
 70
     0
  9
$PDMODE
 70
    35
  9
$PDSIZE
 40
5.0
  9
$PLINEWID
 40
0.0
  9
$COORDS
 70
     1
  9
$SPLFRAME
 70
     0
  9
$SPLINETYPE
 70
     6
  9
$SPLINESEGS
 70
     8
  9
$ATTDIA
 70
     1
  9
$ATTREQ
 70
     1
  9
$HANDLING
 70
-16383
  9
$HANDSEED
  5
530
  9
$SURFTAB1
 70
    12
  9
$SURFTAB2
 70
    12
  9
$SURFTYPE
 70
     6
  9
$SURFU
 70
    12
  9
$SURFV
 70
    12
  9
$UCSNAME
  2

  9
$UCSORG
 10
0.0
 20
0.0
 30
0.0
  9
$UCSXDIR
 10
1.0
 20
0.0
 30
0.0
  9
$UCSYDIR
 10
0.0
 20
1.0
 30
0.0
  9
$PUCSNAME
  2

  9
$PUCSORG
 10
0.0
 20
0.0
 30
0.0
  9
$PUCSXDIR
 10
1.0
 20
0.0
 30
0.0
  9
$PUCSYDIR
 10
0.0
 20
1.0
 30
0.0
  9
$USERI1
 70
     0
  9
$USERI2
 70
     0
  9
$USERI3
 70
     0
  9
$USERI4
 70
     0
  9
$USERI5
 70
     0
  9
$USERR1
 40
0.0
  9
$USERR2
 40
0.0
  9
$USERR3
 40
0.0
  9
$USERR4
 40
0.0
  9
$USERR5
 40
0.0
  9
$WORLDVIEW
 70
     1
  9
$SHADEDGE
 70
     3
  9
$SHADEDIF
 70
    70
  9
$TILEMODE
 70
     1
  9
$MAXACTVP
 70
    48
  9
$PLIMCHECK
 70
     0
  9
$PEXTMIN
 10
1.0000000000000000E+020
 20
1.0000000000000000E+020
 30
1.0000000000000000E+020
  9
$PEXTMAX
 10
-1.0000000000000000E+020
 20
-1.0000000000000000E+020
 30
-1.0000000000000000E+020
  9
$PLIMMIN
 10
0.0
 20
0.0
  9
$PLIMMAX
 10
420.0
 20
297.0
  9
$UNITMODE
 70
     0
  9
$VISRETAIN
 70
     1
  9
$PLINEGEN
 70
     0
  9
$PSLTSCALE
 70
     1
  0
ENDSEC
  0
SECTION
  2
TABLES
  0
TABLE
  2
VPORT
 70
     2
  0
VPORT
  2
*ACTIVE
 70
     0
 10
0.0
 20
0.0
 11
1.0
 21
1.0
 12
88.993556368848147
 22
-65.159793775451249
 13
0.0
 23
0.0
 14
0.5
 24
0.5
 15
10.0
 25
10.0
 16
0.0
 26
0.0
 36
1.0
 17
0.0
 27
0.0
 37
0.0
 40
630.8101824651153
 41
1.6070460704607039
 42
50.0
 43
0.0
 44
0.0
 50
0.0
 51
0.0
 71
     0
 72
   800
 73
     1
 74
     1
 75
     0
 76
     0
 77
     0
 78
     0
  0
ENDTAB
  0
TABLE
  2
LTYPE
 70
     3
  0
LTYPE
  2
CONTINUOUS
 70
     0
  3
_______________________________________________
 72
    65
 73
     2
 40
1.0
 49
1.0
 49
0.0
  0
LTYPE
  2
MITTE
 70
     0
  3
Mitte ____ _ ____ _ ____ _ ____ _ ____ _ ____
 72
    65
 73
     4
 40
50.799999999999997
 49
31.75
 49
-6.3499999999999988
 49
6.3499999999999988
 49
-6.3499999999999988
  0
LTYPE
  2
STRICHLINIE
 70
     0
  3
Strichlinie __ __ __ __ __ __ __ __ __ __ __ __
 72
    65
 73
     2
 40
19.04999999999999
 49
12.699999999999999
 49
-6.3499999999999988
  0
ENDTAB
  0
TABLE
  2
LAYER
 70
     6
  0
LAYER
  2
0
 70
     0
 62
    30
  6
CONTINUOUS
  0
LAYER
  2
1
 70
     0
 62
     2
  6
CONTINUOUS
  0
LAYER
  2
4
 70
     1
 62
     4
  6
CONTINUOUS
  0
LAYER
  2
5
 70
     0
 62
     1
  6
CONTINUOUS
  0
LAYER
  2
6
 70
     0
 62
     3
  6
CONTINUOUS
  0
LAYER
  2
DEFPOINTS
 70
     0
 62
     7
  6
CONTINUOUS
  0
ENDTAB
  0
TABLE
  2
STYLE
 70
     2
  0
STYLE
  2
STANDARD
 70
     0
 40
0.0
 41
1.0
 50
0.0
 71
     0
 42
2.5
  3
txt
  4

  0
STYLE
  2
BESCHLAG
 70
     0
 40
0.0
 41
1.0
 50
0.0
 71
     0
 42
3.5
  3
txt
  4

  0
ENDTAB
  0
TABLE
  2
VIEW
 70
     0
  0
ENDTAB
  0
TABLE
  2
UCS
 70
     0
  0
ENDTAB
  0
TABLE
  2
APPID
 70
     1
  0
APPID
  2
ACAD
 70
     0
  0
ENDTAB
  0
TABLE
  2
DIMSTYLE
 70
     2
  0
DIMSTYLE
  2
OPO-SSTRICH
 70
     0
  3

  4

  5

  6
OBLIQUE
  7
OBLIQUE
 40
1.0
 41
2.0
 42
2.0
 43
0.0
 44
1.0
 45
0.0
 46
1.0
 47
0.0
 48
0.0
140
3.5
141
0.0
142
0.0
143
0.039370078740157
144
1.0
145
0.0
146
0.7114285714285716
147
1.0
 71
     0
 72
     0
 73
     0
 74
     0
 75
     0
 76
     0
 77
     1
 78
     8
170
     0
171
     2
172
     1
173
     1
174
     1
175
     0
176
   256
177
   256
178
   256
  0
DIMSTYLE
  2
OPO-SSTRICH-10
 70
     0
  3

  4

  5

  6

  7

 40
10.0
 41
0.0
 42
2.0
 43
0.0
 44
1.0
 45
0.0
 46
1.0
 47
0.0
 48
0.0
140
1.8
141
2.0
142
1.0
143
0.039370078740157
144
1.0
145
0.0
146
1.388888888888888
147
1.0
 71
     0
 72
     0
 73
     0
 74
     0
 75
     0
 76
     0
 77
     1
 78
     8
170
     0
171
     2
172
     1
173
     0
174
     1
175
     0
176
   256
177
   256
178
   256
  0
ENDTAB
  0
ENDSEC
  0
SECTION
  2
BLOCKS
  0
BLOCK
  8
0
  2
$MODEL_SPACE
 70
     0
 10
0.0
 20
0.0
 30
0.0
  3
$MODEL_SPACE
  1

  0
ENDBLK
  5
1C
  8
0
  0
BLOCK
 67
     1
  8
0
  2
$PAPER_SPACE
 70
     0
 10
0.0
 20
0.0
 30
0.0
  3
$PAPER_SPACE
  1

  0
ENDBLK
  5
19
 67
     1
  8
0
  0
BLOCK
  8
0
  2
_OBLIQUE
 70
     0
 10
0.0
 20
0.0
 30
0.0
  3
_OBLIQUE
  1

  0
LINE
  5
204
  8
0
 62
     0
 10
-0.5
 20
-0.5
 30
0.0
 11
0.5
 21
0.5
 31
0.0
  0
ENDBLK
  5
206
  8
0
  0
BLOCK
  8
0
  2
NULLPUNKT
 70
     0
 10
0.0
 20
0.0
 30
0.0
  3
NULLPUNKT
  1

  0
SOLID
  5
254
  8
5
 10
0.0
 20
0.0
 30
0.0
 11
2.0
 21
0.0
 31
0.0
 12
0.0
 22
-2.0
 32
0.0
 13
0.0
 23
-2.0
 33
0.0
  0
SOLID
  5
255
  8
5
 10
0.0
 20
0.0
 30
0.0
 11
-2.0
 21
0.0
 31
0.0
 12
0.0
 22
2.0
 32
0.0
 13
0.0
 23
2.0
 33
0.0
  0
POLYLINE
  5
256
  8
5
 66
     1
 10
0.0
 20
0.0
 30
0.0
  0
VERTEX
  5
44C
  8
5
 10
0.0
 20
2.0
 30
0.0
  0
VERTEX
  5
44D
  8
5
 10
0.0
 20
-2.0
 30
0.0
  0
SEQEND
  5
44E
  8
5
  0
POLYLINE
  5
257
  8
5
 66
     1
 10
0.0
 20
0.0
 30
0.0
  0
VERTEX
  5
44F
  8
5
 10
-2.0
 20
0.0
 30
0.0
  0
VERTEX
  5
450
  8
5
 10
2.0
 20
0.0
 30
0.0
  0
SEQEND
  5
451
  8
5
  0
CIRCLE
  5
258
  8
5
 10
0.0
 20
0.0
 30
0.0
 40
2.0
  0
ENDBLK
  5
25A
  8
0
  0
BLOCK
  8
0
  2
*D2
 70
     1
 10
0.0
 20
0.0
 30
0.0
  3
*D2
  1

  0
LINE
  5
331
  8
1
 10
-0.0000000000000012
 20
-228.0
 30
0.0
 11
-0.0000000000000037
 21
-267.63025019651189
 31
0.0
  0
LINE
  5
332
  8
1
 10
388.0
 20
-48.000000000000909
 30
0.0
 11
388.0
 21
-267.63025019651189
 31
0.0
  0
LINE
  5
333
  8
1
 10
-10.0
 20
-257.63025019651189
 30
0.0
 11
398.0
 21
-257.63025019651189
 31
0.0
  0
LINE
  5
334
  8
1
 10
378.0
 20
-267.63025019651189
 30
0.0
 11
398.0
 21
-247.63025019651189
 31
0.0
  0
LINE
  5
335
  8
1
 10
-10.0
 20
-267.63025019651189
 30
0.0
 11
9.9999999999999964
 21
-247.63025019651189
 31
0.0
  0
TEXT
  5
336
  8
5
 10
173.04706684856751
 20
-247.274179255175
 30
0.0
 40
18.0
  1
388
  0
POINT
  5
337
  8
DEFPOINTS
 62
     0
 10
0.0
 20
-208.0
 30
0.0
  0
POINT
  5
338
  8
DEFPOINTS
 62
     0
 10
388.0
 20
-28.000000000000909
 30
0.0
  0
POINT
  5
339
  8
DEFPOINTS
 62
     0
 10
388.0
 20
-257.63025019651189
 30
0.0
  0
ENDBLK
  5
330
  8
0
  0
ENDSEC
  0
SECTION
  2
ENTITIES
  0
INSERT
  5
25B
  8
5
  2
NULLPUNKT
 10
0.0
 20
0.0
 30
0.0
  0
LINE
  5
2D2
  8
6
  6
MITTE
 10
-10.88955496426297
 20
-106.0000000000009
 30
0.0
 11
11.8211948102753
 21
-106.0000000000009
 31
0.0
  0
LINE
  5
2D3
  8
6
  6
MITTE
 10
-10.88955496426297
 20
-14.000000000000901
 30
0.0
 11
11.8211948102753
 21
-14.000000000000901
 31
0.0
  0
LINE
  5
2D4
  8
6
  6
MITTE
 10
-10.88955496426297
 20
-188.00000000000091
 30
0.0
 11
11.8211948102753
 21
-188.00000000000091
 31
0.0
  0
POINT
  5
2D5
  8
5
 10
-175.0
 20
-0.0000000000009095
 30
0.0
  0
POINT
  5
2D6
  8
5
 10
0.0
 20
-333.0000000000008
 30
0.0
  0
POLYLINE
  5
2D7
  8
6
 66
     1
 10
0.0
 20
0.0
 30
0.0
 70
     1
  0
VERTEX
  5
452
  8
6
 10
-217.0
 20
-0.0000000000009095
 30
0.0
  0
VERTEX
  5
453
  8
6
 10
-133.0
 20
-0.0000000000009095
 30
0.0
 42
-0.4142135623730951
  0
VERTEX
  5
454
  8
6
 10
-130.0
 20
-3.0000000000009091
 30
0.0
  0
VERTEX
  5
455
  8
6
 10
-130.0
 20
-40.000000000000909
 30
0.0
  0
VERTEX
  5
456
  8
6
 10
-148.69884281700789
 20
-205.33713648722821
 30
0.0
 42
-0.3816005979535422
  0
VERTEX
  5
457
  8
6
 10
-151.67983912511951
 20
-208.0000000000008
 30
0.0
  0
VERTEX
  5
458
  8
6
 10
-198.32016087487949
 20
-208.0000000000008
 30
0.0
 42
-0.3816005979535422
  0
VERTEX
  5
459
  8
6
 10
-201.301157182992
 20
-205.33713648722821
 30
0.0
  0
VERTEX
  5
45A
  8
6
 10
-220.0
 20
-40.000000000000909
 30
0.0
  0
VERTEX
  5
45B
  8
6
 10
-220.0
 20
-3.0000000000009091
 30
0.0
 42
-0.4142135623730951
  0
SEQEND
  5
45C
  8
6
  0
CIRCLE
  5
2D8
  8
4
 10
93.0
 20
-48.0
 30
0.0
 40
2.0
  0
POLYLINE
  5
2D9
  8
4
 66
     1
 10
0.0
 20
0.0
 30
0.0
 70
     1
  0
VERTEX
  5
45D
  8
4
 10
8.0
 20
0.0
 30
0.0
  0
VERTEX
  5
45E
  8
4
 10
8.0
 20
-28.0
 30
0.0
  0
VERTEX
  5
45F
  8
4
 10
16.0
 20
-28.0
 30
0.0
  0
VERTEX
  5
460
  8
4
 10
16.0
 20
0.0
 30
0.0
  0
SEQEND
  5
461
  8
4
  0
POLYLINE
  5
2DA
  8
4
 66
     1
 10
0.0
 20
0.0
 30
0.0
 70
     1
  0
VERTEX
  5
462
  8
4
 10
8.0
 20
-28.0
 30
0.0
  0
VERTEX
  5
463
  8
4
 10
23.0
 20
-63.0
 30
0.0
  0
VERTEX
  5
464
  8
4
 10
373.0
 20
-63.0
 30
0.0
  0
VERTEX
  5
465
  8
4
 10
388.0
 20
-28.0
 30
0.0
  0
SEQEND
  5
466
  8
4
  0
POLYLINE
  5
2DB
  8
4
 66
     1
 10
0.0
 20
0.0
 30
0.0
 70
     1
  0
VERTEX
  5
467
  8
4
 10
82.0
 20
-315.5
 30
0.0
  0
VERTEX
  5
468
  8
4
 10
82.0
 20
-311.5
 30
0.0
  0
VERTEX
  5
469
  8
4
 10
114.0
 20
-311.5
 30
0.0
  0
VERTEX
  5
46A
  8
4
 10
114.0
 20
-315.5
 30
0.0
  0
SEQEND
  5
46B
  8
4
  0
LINE
  5
2DC
  8
4
 10
47.0
 20
-311.5
 30
0.0
 11
47.0
 21
-315.5
 31
0.0
  0
POLYLINE
  5
2DD
  8
4
 66
     1
 10
0.0
 20
0.0
 30
0.0
 70
     1
  0
VERTEX
  5
46C
  8
4
 10
8.0
 20
-311.5
 30
0.0
  0
VERTEX
  5
46D
  8
4
 10
8.0
 20
-315.5
 30
0.0
  0
VERTEX
  5
46E
  8
4
 10
114.0
 20
-315.5
 30
0.0
  0
VERTEX
  5
46F
  8
4
 10
114.0
 20
-311.5
 30
0.0
  0
SEQEND
  5
470
  8
4
  0
POLYLINE
  5
2DE
  8
4
 66
     1
 10
0.0
 20
0.0
 30
0.0
 70
     1
  0
VERTEX
  5
471
  8
4
 10
82.0
 20
-354.49999999999989
 30
0.0
  0
VERTEX
  5
472
  8
4
 10
82.0
 20
-350.49999999999989
 30
0.0
  0
VERTEX
  5
473
  8
4
 10
114.0
 20
-350.49999999999989
 30
0.0
  0
VERTEX
  5
474
  8
4
 10
114.0
 20
-354.49999999999989
 30
0.0
  0
SEQEND
  5
475
  8
4
  0
LINE
  5
2DF
  8
4
 10
47.0
 20
-350.49999999999989
 30
0.0
 11
47.0
 21
-354.49999999999989
 31
0.0
  0
POLYLINE
  5
2E0
  8
4
 66
     1
 10
0.0
 20
0.0
 30
0.0
 70
     1
  0
VERTEX
  5
476
  8
4
 10
8.0
 20
-354.49999999999989
 30
0.0
  0
VERTEX
  5
477
  8
4
 10
8.0
 20
-350.49999999999989
 30
0.0
  0
VERTEX
  5
478
  8
4
 10
114.0
 20
-350.49999999999989
 30
0.0
  0
VERTEX
  5
479
  8
4
 10
114.0
 20
-354.49999999999989
 30
0.0
  0
SEQEND
  5
47A
  8
4
  0
POLYLINE
  5
2E1
  8
4
 66
     1
 10
0.0
 20
0.0
 30
0.0
 70
     1
  0
VERTEX
  5
47B
  8
4
 10
0.0
 20
-288.0
 30
0.0
  0
VERTEX
  5
47C
  8
4
 10
0.0
 20
-378.0
 30
0.0
  0
VERTEX
  5
47D
  8
4
 10
8.0
 20
-378.0
 30
0.0
  0
VERTEX
  5
47E
  8
4
 10
8.0
 20
-288.0
 30
0.0
  0
SEQEND
  5
47F
  8
4
  0
POLYLINE
  5
2E2
  8
4
 66
     1
 10
0.0
 20
0.0
 30
0.0
 70
     1
  0
VERTEX
  5
480
  8
4
 10
8.0
 20
-319.0
 30
0.0
  0
VERTEX
  5
481
  8
4
 10
8.0
 20
-347.0
 30
0.0
  0
VERTEX
  5
482
  8
4
 10
16.0
 20
-347.0
 30
0.0
  0
VERTEX
  5
483
  8
4
 10
16.0
 20
-319.0
 30
0.0
  0
SEQEND
  5
484
  8
4
  0
POLYLINE
  5
2E3
  8
4
 66
     1
 10
0.0
 20
0.0
 30
0.0
 70
     1
  0
VERTEX
  5
485
  8
4
 10
8.6064507456831052
 20
-315.5
 30
0.0
  0
VERTEX
  5
486
  8
4
 10
8.6064507456831052
 20
-350.49999999999989
 30
0.0
  0
VERTEX
  5
487
  8
4
 10
388.0
 20
-350.49999999999989
 30
0.0
  0
VERTEX
  5
488
  8
4
 10
388.0
 20
-315.5
 30
0.0
  0
SEQEND
  5
489
  8
4
  0
POLYLINE
  5
2E4
  8
4
 66
     1
 10
0.0
 20
0.0
 30
0.0
 70
     1
  0
VERTEX
  5
48A
  8
4
 10
0.0
 20
0.0
 30
0.0
  0
VERTEX
  5
48B
  8
4
 10
0.0
 20
-208.0
 30
0.0
  0
VERTEX
  5
48C
  8
4
 10
8.0
 20
-208.0
 30
0.0
  0
VERTEX
  5
48D
  8
4
 10
8.0
 20
0.0
 30
0.0
  0
SEQEND
  5
48E
  8
4
  0
POLYLINE
  5
2E5
  8
4
 66
     1
 10
0.0
 20
0.0
 30
0.0
 70
     1
  0
VERTEX
  5
48F
  8
4
 10
8.0
 20
-208.0
 30
0.0
  0
VERTEX
  5
490
  8
4
 10
114.0
 20
-148.0
 30
0.0
  0
VERTEX
  5
491
  8
4
 10
114.0
 20
-34.0
 30
0.0
  0
VERTEX
  5
492
  8
4
 10
82.0
 20
-34.0
 30
0.0
  0
VERTEX
  5
493
  8
4
 10
82.0
 20
-112.0
 30
0.0
  0
VERTEX
  5
494
  8
4
 10
47.0
 20
-112.0
 30
0.0
  0
VERTEX
  5
495
  8
4
 10
8.0
 20
-76.0
 30
0.0
  0
SEQEND
  5
496
  8
4
  0
POLYLINE
  5
2E6
  8
4
 66
     1
 10
0.0
 20
0.0
 30
0.0
 70
     1
  0
VERTEX
  5
497
  8
4
 10
-157.5
 20
-63.0
 30
0.0
  0
VERTEX
  5
498
  8
4
 10
-157.5
 20
-28.0
 30
0.0
  0
VERTEX
  5
499
  8
4
 10
-192.5
 20
-28.0
 30
0.0
  0
VERTEX
  5
49A
  8
4
 10
-192.5
 20
-63.0
 30
0.0
  0
VERTEX
  5
49B
  8
4
 10
-189.49999999999989
 20
-63.0
 30
0.0
  0
VERTEX
  5
49C
  8
4
 10
-189.49999999999989
 20
-31.0
 30
0.0
  0
VERTEX
  5
49D
  8
4
 10
-160.49999999999989
 20
-31.0
 30
0.0
  0
VERTEX
  5
49E
  8
4
 10
-160.49999999999989
 20
-63.0
 30
0.0
  0
SEQEND
  5
49F
  8
4
  0
POLYLINE
  5
2E7
  8
4
 66
     1
 10
0.0
 20
0.0
 30
0.0
 70
     1
  0
VERTEX
  5
4A0
  8
4
 10
-189.49999999999989
 20
0.0
 30
0.0
  0
VERTEX
  5
4A1
  8
4
 10
-189.49999999999989
 20
-28.0
 30
0.0
  0
VERTEX
  5
4A2
  8
4
 10
-160.49999999999989
 20
-28.0
 30
0.0
  0
VERTEX
  5
4A3
  8
4
 10
-160.49999999999989
 20
0.0
 30
0.0
  0
SEQEND
  5
4A4
  8
4
  0
POLYLINE
  5
2E8
  8
4
 66
     1
 10
0.0
 20
0.0
 30
0.0
 70
     1
  0
VERTEX
  5
4A5
  8
4
 10
-157.5
 20
-208.0
 30
0.0
  0
VERTEX
  5
4A6
  8
4
 10
-157.5
 20
-28.0
 30
0.0
  0
VERTEX
  5
4A7
  8
4
 10
-153.5
 20
-28.0
 30
0.0
  0
VERTEX
  5
4A8
  8
4
 10
-153.5
 20
-208.0
 30
0.0
  0
SEQEND
  5
4A9
  8
4
  0
POLYLINE
  5
2E9
  8
4
 66
     1
 10
0.0
 20
0.0
 30
0.0
 70
     1
  0
VERTEX
  5
4AA
  8
4
 10
-192.5
 20
-208.0
 30
0.0
  0
VERTEX
  5
4AB
  8
4
 10
-192.5
 20
-28.0
 30
0.0
  0
VERTEX
  5
4AC
  8
4
 10
-196.5
 20
-28.0
 30
0.0
  0
VERTEX
  5
4AD
  8
4
 10
-196.5
 20
-208.0
 30
0.0
  0
SEQEND
  5
4AE
  8
4
  0
POLYLINE
  5
2EA
  8
4
 66
     1
 10
0.0
 20
0.0
 30
0.0
  0
VERTEX
  5
4AF
  8
4
 10
-220.0
 20
0.0
 30
0.0
  0
VERTEX
  5
4B0
  8
4
 10
-130.0
 20
0.0
 30
0.0
  0
VERTEX
  5
4B1
  8
4
 10
-130.0
 20
-40.0
 30
0.0
  0
VERTEX
  5
4B2
  8
4
 10
-149.0
 20
-208.0
 30
0.0
  0
VERTEX
  5
4B3
  8
4
 10
-201.0
 20
-208.0
 30
0.0
  0
VERTEX
  5
4B4
  8
4
 10
-220.0
 20
-40.0
 30
0.0
  0
VERTEX
  5
4B5
  8
4
 10
-220.0
 20
0.0
 30
0.0
  0
SEQEND
  5
4B6
  8
4
  0
POLYLINE
  5
2EB
  8
5
  6
STRICHLINIE
 66
     1
 10
0.0
 20
0.0
 30
0.0
 70
     1
  0
VERTEX
  5
4B7
  8
5
  6
STRICHLINIE
 10
86.958276789578122
 20
-135.11198299114039
 30
0.0
  0
VERTEX
  5
4B8
  8
5
  6
STRICHLINIE
 10
119.0837794573663
 20
-114.6681066869277
 30
0.0
  0
VERTEX
  5
4B9
  8
5
  6
STRICHLINIE
 10
62.684747925834927
 20
230.75793350446381
 30
0.0
  0
VERTEX
  5
4BA
  8
5
  6
STRICHLINIE
 10
25.725042555343862
 20
239.92200350237081
 30
0.0
  0
SEQEND
  5
4BB
  8
5
  6
STRICHLINIE
  0
ARC
  5
2EC
  8
5
  6
STRICHLINIE
 10
93.0
 20
-48.000000000000909
 30
0.0
 40
295.67718883945031
 50
3.878524502853872
 51
103.15160181471769
  0
TEXT
  5
2ED
  8
1
 10
117.3286794045102
 20
-217.8727670855373
 30
0.0
 40
18.0
  1
Hebgo BS/380
  0
LINE
  5
2EE
  8
6
  6
MITTE
 10
-200.5476380477439
 20
-48.000000000000909
 30
0.0
 11
-149.4523619522551
 21
-48.000000000000909
 31
0.0
  0
LINE
  5
2EF
  8
6
  6
MITTE
 10
93.0
 20
-307.6959828317049
 30
0.0
 11
93.0
 21
-358.79125892719361
 31
0.0
  0
POLYLINE
  5
2F0
  8
6
 66
     1
 10
0.0
 20
0.0
 30
0.0
 70
     1
  0
VERTEX
  5
4BC
  8
6
 10
8.0
 20
-354.50000000000091
 30
0.0
  0
VERTEX
  5
4BD
  8
6
 10
8.0
 20
-350.50000000000091
 30
0.0
  0
VERTEX
  5
4BE
  8
6
 10
114.0
 20
-350.50000000000091
 30
0.0
  0
VERTEX
  5
4BF
  8
6
 10
114.0
 20
-354.50000000000091
 30
0.0
  0
SEQEND
  5
4C0
  8
6
  0
POLYLINE
  5
2F1
  8
6
 66
     1
 10
0.0
 20
0.0
 30
0.0
 70
     1
  0
VERTEX
  5
4C1
  8
6
 10
8.0
 20
-311.50000000000091
 30
0.0
  0
VERTEX
  5
4C2
  8
6
 10
8.0
 20
-315.50000000000091
 30
0.0
  0
VERTEX
  5
4C3
  8
6
 10
114.0
 20
-315.50000000000091
 30
0.0
  0
VERTEX
  5
4C4
  8
6
 10
114.0
 20
-311.50000000000091
 30
0.0
  0
SEQEND
  5
4C5
  8
6
  0
LINE
  5
2F2
  8
6
 10
47.0
 20
-350.50000000000091
 30
0.0
 11
47.0
 21
-354.50000000000091
 31
0.0
  0
LINE
  5
2F3
  8
6
 10
47.0
 20
-311.50000000000091
 30
0.0
 11
47.0
 21
-315.50000000000091
 31
0.0
  0
POLYLINE
  5
2F4
  8
6
 66
     1
 10
0.0
 20
0.0
 30
0.0
 70
     1
  0
VERTEX
  5
4C6
  8
6
 10
82.0
 20
-354.50000000000091
 30
0.0
  0
VERTEX
  5
4C7
  8
6
 10
82.0
 20
-350.50000000000091
 30
0.0
  0
VERTEX
  5
4C8
  8
6
 10
114.0
 20
-350.50000000000091
 30
0.0
  0
VERTEX
  5
4C9
  8
6
 10
114.0
 20
-354.50000000000091
 30
0.0
  0
SEQEND
  5
4CA
  8
6
  0
POLYLINE
  5
2F5
  8
6
 66
     1
 10
0.0
 20
0.0
 30
0.0
 70
     1
  0
VERTEX
  5
4CB
  8
6
 10
82.0
 20
-315.50000000000091
 30
0.0
  0
VERTEX
  5
4CC
  8
6
 10
82.0
 20
-311.50000000000091
 30
0.0
  0
VERTEX
  5
4CD
  8
6
 10
114.0
 20
-311.50000000000091
 30
0.0
  0
VERTEX
  5
4CE
  8
6
 10
114.0
 20
-315.50000000000091
 30
0.0
  0
SEQEND
  5
4CF
  8
6
  0
DIMENSION
  5
2F6
  8
1
  2
*D2
 10
388.0
 20
-257.63025019651189
 30
0.0
 11
194.0
 21
-238.4337972633605
 31
0.0
 70
     0
 13
0.0
 23
-208.0
 33
0.0
 14
388.0
 24
-28.000000000000909
 34
0.0
  0
LINE
  5
2F7
  8
6
  6
MITTE
 10
-10.88955496426297
 20
-364.00000000000091
 30
0.0
 11
11.8211948102753
 21
-364.00000000000091
 31
0.0
  0
LINE
  5
2F8
  8
6
  6
MITTE
 10
-10.88955496426297
 20
-302.00000000000091
 30
0.0
 11
11.8211948102753
 21
-302.00000000000091
 31
0.0
  0
LINE
  5
2F9
  8
6
  6
MITTE
 10
-10.88955496426297
 20
-333.0000000000008
 30
0.0
 11
11.8211948102753
 21
-333.0000000000008
 31
0.0
  0
LINE
  5
2FA
  8
6
  6
MITTE
 10
73.0
 20
-338.02323207100829
 30
0.0
 11
73.0
 21
-327.97676792899341
 31
0.0
  0
LINE
  5
2FB
  8
6
  6
MITTE
 10
67.976767928992558
 20
-333.0000000000008
 30
0.0
 11
78.023232071008351
 21
-333.0000000000008
 31
0.0
  0
CIRCLE
  5
2FC
  8
6
 10
73.0
 20
-333.0000000000008
 30
0.0
 40
3.2999999999999989
  0
LINE
  5
2FD
  8
6
  6
MITTE
 10
173.0
 20
-338.02323207100829
 30
0.0
 11
173.0
 21
-327.97676792899341
 31
0.0
  0
LINE
  5
2FE
  8
6
  6
MITTE
 10
167.9767679289925
 20
-333.0000000000008
 30
0.0
 11
178.02323207100829
 21
-333.0000000000008
 31
0.0
  0
CIRCLE
  5
2FF
  8
6
 10
173.0
 20
-333.0000000000008
 30
0.0
 40
3.2999999999999989
  0
LINE
  5
300
  8
6
  6
MITTE
 10
273.0
 20
-338.02323207100829
 30
0.0
 11
273.0
 21
-327.97676792899341
 31
0.0
  0
LINE
  5
301
  8
6
  6
MITTE
 10
267.9767679289925
 20
-333.0000000000008
 30
0.0
 11
278.02323207100829
 21
-333.0000000000008
 31
0.0
  0
CIRCLE
  5
302
  8
6
 10
273.0
 20
-333.0000000000008
 30
0.0
 40
3.2999999999999989
  0
LINE
  5
303
  8
6
  6
MITTE
 10
373.0
 20
-338.02323207100829
 30
0.0
 11
373.0
 21
-327.97676792899341
 31
0.0
  0
LINE
  5
304
  8
6
  6
MITTE
 10
367.9767679289925
 20
-333.0000000000008
 30
0.0
 11
378.02323207100829
 21
-333.0000000000008
 31
0.0
  0
CIRCLE
  5
305
  8
6
 10
373.0
 20
-333.0000000000008
 30
0.0
 40
3.2999999999999989
  0
POLYLINE
  5
306
  8
6
 66
     1
 10
0.0
 20
0.0
 30
0.0
 70
     1
  0
VERTEX
  5
4D0
  8
6
 10
8.6064507456831052
 20
-315.50000000000091
 30
0.0
  0
VERTEX
  5
4D1
  8
6
 10
8.6064507456831052
 20
-350.50000000000091
 30
0.0
  0
VERTEX
  5
4D2
  8
6
 10
388.0
 20
-350.50000000000091
 30
0.0
  0
VERTEX
  5
4D3
  8
6
 10
388.0
 20
-315.50000000000091
 30
0.0
  0
SEQEND
  5
4D4
  8
6
  0
POLYLINE
  5
307
  8
6
 66
     1
 10
0.0
 20
0.0
 30
0.0
 70
     1
  0
VERTEX
  5
4D5
  8
6
 10
8.0
 20
-319.00000000000091
 30
0.0
  0
VERTEX
  5
4D6
  8
6
 10
8.0
 20
-347.00000000000091
 30
0.0
  0
VERTEX
  5
4D7
  8
6
 10
16.0
 20
-347.00000000000091
 30
0.0
  0
VERTEX
  5
4D8
  8
6
 10
16.0
 20
-319.00000000000091
 30
0.0
  0
SEQEND
  5
4D9
  8
6
  0
LINE
  5
308
  8
6
 10
89.305088985643124
 20
-48.000000000000909
 30
0.0
 11
96.69491101435689
 21
-48.000000000000909
 31
0.0
  0
LINE
  5
309
  8
6
 10
93.0
 20
-44.305088985644034
 30
0.0
 11
93.0
 21
-51.694911014357778
 31
0.0
  0
CIRCLE
  5
30A
  8
6
 10
93.0
 20
-48.000000000000909
 30
0.0
 40
2.0
  0
POLYLINE
  5
30B
  8
6
 66
     1
 10
0.0
 20
0.0
 30
0.0
 70
     1
  0
VERTEX
  5
4DA
  8
6
 10
8.0
 20
-208.0000000000008
 30
0.0
  0
VERTEX
  5
4DB
  8
6
 10
114.0
 20
-148.00000000000091
 30
0.0
  0
VERTEX
  5
4DC
  8
6
 10
114.0
 20
-40.000000000000909
 30
0.0
 42
0.4142135623730951
  0
VERTEX
  5
4DD
  8
6
 10
108.0
 20
-34.000000000000902
 30
0.0
  0
VERTEX
  5
4DE
  8
6
 10
88.0
 20
-34.000000000000902
 30
0.0
 42
0.4142135623730951
  0
VERTEX
  5
4DF
  8
6
 10
82.0
 20
-40.000000000000909
 30
0.0
  0
VERTEX
  5
4E0
  8
6
 10
82.0
 20
-112.0000000000009
 30
0.0
  0
VERTEX
  5
4E1
  8
6
 10
47.0
 20
-112.0000000000009
 30
0.0
  0
VERTEX
  5
4E2
  8
6
 10
8.0
 20
-76.000000000000909
 30
0.0
  0
SEQEND
  5
4E3
  8
6
  0
LINE
  5
30C
  8
6
  6
MITTE
 10
373.0
 20
-17.110445035737939
 30
0.0
 11
373.0
 21
-32.29125892719366
 31
0.0
  0
LINE
  5
30D
  8
6
  6
MITTE
 10
273.0
 20
-17.110445035737939
 30
0.0
 11
273.0
 21
-32.29125892719366
 31
0.0
  0
LINE
  5
30E
  8
6
  6
MITTE
 10
173.0
 20
-17.110445035737939
 30
0.0
 11
173.0
 21
-32.29125892719366
 31
0.0
  0
LINE
  5
30F
  8
6
  6
MITTE
 10
73.0
 20
-17.110445035737939
 30
0.0
 11
73.0
 21
-32.29125892719366
 31
0.0
  0
LINE
  5
310
  8
6
  6
MITTE
 10
-175.0
 20
-17.110445035737939
 30
0.0
 11
-175.0
 21
-32.29125892719366
 31
0.0
  0
POLYLINE
  5
311
  8
6
 66
     1
 10
0.0
 20
0.0
 30
0.0
 70
     1
  0
VERTEX
  5
4E4
  8
6
 10
9.7921819553157547
 20
-32.181757895737967
 30
0.0
  0
VERTEX
  5
4E5
  8
6
 10
23.0
 20
-63.000000000000909
 30
0.0
  0
VERTEX
  5
4E6
  8
6
 10
373.0
 20
-63.000000000000909
 30
0.0
  0
VERTEX
  5
4E7
  8
6
 10
388.0
 20
-28.000000000000909
 30
0.0
  0
VERTEX
  5
4E8
  8
6
 10
12.549617045369811
 20
-28.000000000000909
 30
0.0
 42
0.5384365904277999
  0
SEQEND
  5
4E9
  8
6
  0
POLYLINE
  5
312
  8
6
 66
     1
 10
0.0
 20
0.0
 30
0.0
 70
     1
  0
VERTEX
  5
4EA
  8
6
 10
8.0
 20
-0.0000000000009095
 30
0.0
  0
VERTEX
  5
4EB
  8
6
 10
8.0
 20
-28.000000000000909
 30
0.0
  0
VERTEX
  5
4EC
  8
6
 10
16.0
 20
-28.000000000000909
 30
0.0
  0
VERTEX
  5
4ED
  8
6
 10
16.0
 20
-0.0000000000009095
 30
0.0
  0
SEQEND
  5
4EE
  8
6
  0
POLYLINE
  5
313
  8
6
 66
     1
 10
0.0
 20
0.0
 30
0.0
 70
     1
  0
VERTEX
  5
4EF
  8
6
 10
-192.5
 20
-208.0000000000008
 30
0.0
  0
VERTEX
  5
4F0
  8
6
 10
-192.5
 20
-28.000000000000909
 30
0.0
  0
VERTEX
  5
4F1
  8
6
 10
-196.5
 20
-28.000000000000909
 30
0.0
  0
VERTEX
  5
4F2
  8
6
 10
-196.5
 20
-208.0000000000008
 30
0.0
  0
SEQEND
  5
4F3
  8
6
  0
POLYLINE
  5
314
  8
6
 66
     1
 10
0.0
 20
0.0
 30
0.0
 70
     1
  0
VERTEX
  5
4F4
  8
6
 10
-157.5
 20
-208.0000000000008
 30
0.0
  0
VERTEX
  5
4F5
  8
6
 10
-157.5
 20
-28.000000000000909
 30
0.0
  0
VERTEX
  5
4F6
  8
6
 10
-153.5
 20
-28.000000000000909
 30
0.0
  0
VERTEX
  5
4F7
  8
6
 10
-153.5
 20
-208.0000000000008
 30
0.0
  0
SEQEND
  5
4F8
  8
6
  0
POLYLINE
  5
315
  8
6
 66
     1
 10
0.0
 20
0.0
 30
0.0
 70
     1
  0
VERTEX
  5
4F9
  8
6
 10
-189.49999999999989
 20
-0.0000000000009095
 30
0.0
  0
VERTEX
  5
4FA
  8
6
 10
-189.49999999999989
 20
-28.000000000000909
 30
0.0
  0
VERTEX
  5
4FB
  8
6
 10
-160.49999999999989
 20
-28.000000000000909
 30
0.0
  0
VERTEX
  5
4FC
  8
6
 10
-160.49999999999989
 20
-0.0000000000009095
 30
0.0
  0
SEQEND
  5
4FD
  8
6
  0
POLYLINE
  5
316
  8
6
 66
     1
 10
0.0
 20
0.0
 30
0.0
 70
     1
  0
VERTEX
  5
4FE
  8
6
 10
-157.5
 20
-63.000000000000909
 30
0.0
  0
VERTEX
  5
4FF
  8
6
 10
-157.5
 20
-28.000000000000909
 30
0.0
  0
VERTEX
  5
500
  8
6
 10
-192.5
 20
-28.000000000000909
 30
0.0
  0
VERTEX
  5
501
  8
6
 10
-192.5
 20
-63.000000000000909
 30
0.0
  0
VERTEX
  5
502
  8
6
 10
-189.49999999999989
 20
-63.000000000000909
 30
0.0
  0
VERTEX
  5
503
  8
6
 10
-189.49999999999989
 20
-31.000000000000909
 30
0.0
  0
VERTEX
  5
504
  8
6
 10
-160.49999999999989
 20
-31.000000000000909
 30
0.0
  0
VERTEX
  5
505
  8
6
 10
-160.49999999999989
 20
-63.000000000000909
 30
0.0
  0
SEQEND
  5
506
  8
6
  0
LINE
  5
317
  8
6
  6
MITTE
 10
-182.1875729185758
 20
-106.0000000000009
 30
0.0
 11
-167.81242708142321
 21
-106.0000000000009
 31
0.0
  0
CIRCLE
  5
318
  8
6
 10
-175.0
 20
-106.0000000000009
 30
0.0
 40
4.75
  0
LINE
  5
319
  8
6
  6
MITTE
 10
-175.0
 20
-98.812427081425085
 30
0.0
 11
-175.0
 21
-113.18757291857671
 31
0.0
  0
LINE
  5
31A
  8
6
  6
MITTE
 10
-175.0
 20
-180.812427081425
 30
0.0
 11
-175.0
 21
-195.18757291857671
 31
0.0
  0
CIRCLE
  5
31B
  8
6
 10
-175.0
 20
-188.00000000000091
 30
0.0
 40
4.75
  0
LINE
  5
31C
  8
6
  6
MITTE
 10
-182.1875729185758
 20
-188.00000000000091
 30
0.0
 11
-167.81242708142321
 21
-188.00000000000091
 31
0.0
  0
LINE
  5
31D
  8
6
  6
MITTE
 10
-144.0
 20
-6.812427081425084
 30
0.0
 11
-144.0
 21
-21.18757291857764
 31
0.0
  0
CIRCLE
  5
31E
  8
6
 10
-144.0
 20
-14.000000000000901
 30
0.0
 40
4.75
  0
LINE
  5
31F
  8
6
  6
MITTE
 10
-151.1875729185758
 20
-14.000000000000901
 30
0.0
 11
-136.81242708142321
 21
-14.000000000000901
 31
0.0
  0
LINE
  5
320
  8
6
  6
MITTE
 10
-206.0
 20
-6.812427081425084
 30
0.0
 11
-206.0
 21
-21.18757291857764
 31
0.0
  0
CIRCLE
  5
321
  8
6
 10
-206.0
 20
-14.000000000000901
 30
0.0
 40
4.75
  0
LINE
  5
322
  8
6
  6
MITTE
 10
-213.1875729185758
 20
-14.000000000000901
 30
0.0
 11
-198.81242708142321
 21
-14.000000000000901
 31
0.0
  0
POLYLINE
  5
323
  8
6
 66
     1
 10
0.0
 20
0.0
 30
0.0
 70
     1
  0
VERTEX
  5
507
  8
6
 10
0.0
 20
-288.00000000000091
 30
0.0
  0
VERTEX
  5
508
  8
6
 10
0.0
 20
-378.00000000000091
 30
0.0
  0
VERTEX
  5
509
  8
6
 10
8.0
 20
-378.00000000000091
 30
0.0
  0
VERTEX
  5
50A
  8
6
 10
8.0
 20
-288.00000000000091
 30
0.0
  0
SEQEND
  5
50B
  8
6
  0
POLYLINE
  5
324
  8
6
 66
     1
 10
0.0
 20
0.0
 30
0.0
 70
     1
  0
VERTEX
  5
50C
  8
6
 10
0.0
 20
-0.0000000000009095
 30
0.0
  0
VERTEX
  5
50D
  8
6
 10
0.0
 20
-208.0000000000008
 30
0.0
  0
VERTEX
  5
50E
  8
6
 10
8.0
 20
-208.0000000000008
 30
0.0
  0
VERTEX
  5
50F
  8
6
 10
8.0
 20
-0.0000000000009095
 30
0.0
  0
SEQEND
  5
510
  8
6
  0
POLYLINE
  5
405
  8
5
 66
     1
 10
0.0
 20
0.0
 30
0.0
  0
VERTEX
  5
511
  8
5
 10
171.72378813702659
 20
-166.88083603950571
 30
0.0
  0
VERTEX
  5
512
  8
5
 10
171.72378813702659
 20
-153.46685438097589
 30
0.0
  0
VERTEX
  5
513
  8
5
 10
199.20374616416211
 20
-153.46685438097589
 30
0.0
 42
0.6688883403246244
  0
VERTEX
  5
514
  8
5
 10
206.0598402037258
 20
-96.466475867237236
 30
0.0
 42
0.2843111683713686
  0
VERTEX
  5
515
  8
5
 10
195.06619760328249
 20
-96.466475867237236
 30
0.0
 42
0.7375816768467067
  0
VERTEX
  5
516
  8
5
 10
209.87724839414551
 20
-153.46685438097589
 30
0.0
 42
0.6688883403246244
  0
VERTEX
  5
517
  8
5
 10
216.73334243370911
 20
-96.466475867237236
 30
0.0
 42
0.2843111683713686
  0
VERTEX
  5
518
  8
5
 10
205.7396998332658
 20
-96.466475867237236
 30
0.0
 42
0.7375816768467067
  0
VERTEX
  5
519
  8
5
 10
220.5507506241288
 20
-153.46685438097589
 30
0.0
 42
0.6688883403246244
  0
VERTEX
  5
51A
  8
5
 10
227.40684466369251
 20
-96.466475867237236
 30
0.0
 42
0.2843111683713686
  0
VERTEX
  5
51B
  8
5
 10
216.4132020632492
 20
-96.466475867237236
 30
0.0
 42
0.7375816768467067
  0
VERTEX
  5
51C
  8
5
 10
231.22425285411211
 20
-153.46685438097589
 30
0.0
 42
0.6688883403246244
  0
VERTEX
  5
51D
  8
5
 10
238.0803468936758
 20
-96.466475867237236
 30
0.0
 42
0.2843111683713686
  0
VERTEX
  5
51E
  8
5
 10
227.08670429323249
 20
-96.466475867237236
 30
0.0
 42
0.7375816768467067
  0
VERTEX
  5
51F
  8
5
 10
241.89775508409551
 20
-153.46685438097589
 30
0.0
 42
0.6688883403246244
  0
VERTEX
  5
520
  8
5
 10
248.75384912365919
 20
-96.466475867237236
 30
0.0
 42
0.2843111683713686
  0
VERTEX
  5
521
  8
5
 10
237.76020652321591
 20
-96.466475867237236
 30
0.0
 42
0.7375816768467067
  0
VERTEX
  5
522
  8
5
 10
252.57125731407911
 20
-153.46685438097589
 30
0.0
 42
0.6688883403246244
  0
VERTEX
  5
523
  8
5
 10
259.42735135364268
 20
-96.466475867237236
 30
0.0
 42
0.2843111683713686
  0
VERTEX
  5
524
  8
5
 10
248.43370875319951
 20
-96.466475867237236
 30
0.0
 42
0.7375816768467067
  0
VERTEX
  5
525
  8
5
 10
263.2447595440633
 20
-153.46685438097589
 30
0.0
 42
0.6688883403246244
  0
VERTEX
  5
526
  8
5
 10
270.10085358362699
 20
-96.466475867237264
 30
0.0
 42
0.2843111683713686
  0
VERTEX
  5
527
  8
5
 10
259.10721098318368
 20
-96.466475867237264
 30
0.0
 42
0.7375816768467067
  0
VERTEX
  5
528
  8
5
 10
273.91826177404693
 20
-153.46685438097589
 30
0.0
 42
0.6688883403246244
  0
VERTEX
  5
529
  8
5
 10
280.77435581361061
 20
-96.466475867237264
 30
0.0
 42
0.2843111683713686
  0
VERTEX
  5
52A
  8
5
 10
269.7807132131673
 20
-96.466475867237264
 30
0.0
 42
0.7375816768467067
  0
VERTEX
  5
52B
  8
5
 10
284.59176400403038
 20
-153.46685438097589
 30
0.0
  0
VERTEX
  5
52C
  8
5
 10
309.77651295672598
 20
-153.46685438097589
 30
0.0
  0
VERTEX
  5
52D
  8
5
 10
309.77651295672598
 20
-88.134894222306457
 30
0.0
  0
VERTEX
  5
52E
  8
5
 10
321.7083102503197
 20
-88.134894222306457
 30
0.0
  0
SEQEND
  5
52F
  8
5
  0
VIEWPORT
  5
22
 67
     1
  8
0
 10
210.0
 20
170.2366863905325
 30
0.0
 40
420.0
 41
340.47337278106511
 68
     1
 69
     1
1001
ACAD
1000
MVIEW
1002
{
1070
    16
1010
0.0
1020
0.0
1030
0.0
1010
0.0
1020
0.0
1030
1.0
1040
0.0
1040
340.47337278106511
1040
210.0
1040
170.2366863905325
1040
50.0
1040
0.0
1040
0.0
1070
     0
1070
   100
1070
     1
1070
     1
1070
     0
1070
     0
1070
     0
1070
     0
1040
0.0
1040
0.0
1040
0.0
1040
5.0
1040
5.0
1040
10.0
1040
10.0
1070
     0
1002
{
1002
}
1002
}
  0
ENDSEC
  0
EOF
