  0
SECTION
  2
HEADER
  9
$ACADVER
  1
AC1009
  9
$INSBASE
 10
0.0
 20
0.0
 30
0.0
  9
$EXTMIN
 10
-33.805846334208923
 20
-16.662596802532899
 30
-0.0000000000112498
  9
$EXTMAX
 10
14.35089165385693
 20
22.384644104615631
 30
0.0000000000002956
  9
$LIMMIN
 10
-150.0
 20
-150.0
  9
$LIMMAX
 10
150.0
 20
150.0
  9
$ORTHOMODE
 70
     0
  9
$REGENMODE
 70
     1
  9
$FILLMODE
 70
     1
  9
$QTEXTMODE
 70
     0
  9
$MIRRTEXT
 70
     0
  9
$DRAGMODE
 70
     2
  9
$LTSCALE
 40
2.0
  9
$OSMODE
 70
   111
  9
$ATTMODE
 70
     1
  9
$TEXTSIZE
 40
3.5
  9
$TRACEWID
 40
1.0
  9
$TEXTSTYLE
  7
BESCHLAG
  9
$CLAYER
  8
0
  9
$CELTYPE
  6
BYLAYER
  9
$CECOLOR
 62
   256
  9
$DIMSCALE
 40
1.0
  9
$DIMASZ
 40
2.0
  9
$DIMEXO
 40
2.0
  9
$DIMDLI
 40
0.0
  9
$DIMRND
 40
0.0
  9
$DIMDLE
 40
1.0
  9
$DIMEXE
 40
1.0
  9
$DIMTP
 40
0.0
  9
$DIMTM
 40
0.0
  9
$DIMTXT
 40
3.5
  9
$DIMCEN
 40
0.0
  9
$DIMTSZ
 40
0.0
  9
$DIMTOL
 70
     0
  9
$DIMLIM
 70
     0
  9
$DIMTIH
 70
     0
  9
$DIMTOH
 70
     0
  9
$DIMSE1
 70
     0
  9
$DIMSE2
 70
     0
  9
$DIMTAD
 70
     1
  9
$DIMZIN
 70
     8
  9
$DIMBLK
  1

  9
$DIMASO
 70
     1
  9
$DIMSHO
 70
     1
  9
$DIMPOST
  1

  9
$DIMAPOST
  1

  9
$DIMALT
 70
     0
  9
$DIMALTD
 70
     2
  9
$DIMALTF
 40
0.039370078740157
  9
$DIMLFAC
 40
1.0
  9
$DIMTOFL
 70
     1
  9
$DIMTVP
 40
0.0
  9
$DIMTIX
 70
     1
  9
$DIMSOXD
 70
     0
  9
$DIMSAH
 70
     1
  9
$DIMBLK1
  1
OBLIQUE
  9
$DIMBLK2
  1
OBLIQUE
  9
$DIMSTYLE
  2
OPO-SSTRICH
  9
$DIMCLRD
 70
   256
  9
$DIMCLRE
 70
   256
  9
$DIMCLRT
 70
   256
  9
$DIMTFAC
 40
0.7114285714285716
  9
$DIMGAP
 40
1.0
  9
$LUNITS
 70
     2
  9
$LUPREC
 70
     1
  9
$SKETCHINC
 40
1.0
  9
$FILLETRAD
 40
0.0
  9
$AUNITS
 70
     0
  9
$AUPREC
 70
     1
  9
$MENU
  1
D:\ACL_CGWG\CGTAB13
  9
$ELEVATION
 40
0.0
  9
$PELEVATION
 40
0.0
  9
$THICKNESS
 40
0.0
  9
$LIMCHECK
 70
     0
  9
$BLIPMODE
 70
     0
  9
$CHAMFERA
 40
1.0
  9
$CHAMFERB
 40
1.0
  9
$SKPOLY
 70
     0
  9
$TDCREATE
 40
2451739.8634090968
  9
$TDUPDATE
 40
2452086.7315017008
  9
$TDINDWG
 40
0.0006915741
  9
$TDUSRTIMER
 40
0.0006914005
  9
$USRTIMER
 70
     1
  9
$ANGBASE
 50
0.0
  9
$ANGDIR
 70
     0
  9
$PDMODE
 70
    35
  9
$PDSIZE
 40
5.0
  9
$PLINEWID
 40
0.0
  9
$COORDS
 70
     1
  9
$SPLFRAME
 70
     0
  9
$SPLINETYPE
 70
     6
  9
$SPLINESEGS
 70
     8
  9
$ATTDIA
 70
     1
  9
$ATTREQ
 70
     1
  9
$HANDLING
 70
-16383
  9
$HANDSEED
  5
452
  9
$SURFTAB1
 70
    12
  9
$SURFTAB2
 70
    12
  9
$SURFTYPE
 70
     6
  9
$SURFU
 70
    12
  9
$SURFV
 70
    12
  9
$UCSNAME
  2

  9
$UCSORG
 10
0.0
 20
0.0
 30
0.0
  9
$UCSXDIR
 10
1.0
 20
0.0
 30
0.0
  9
$UCSYDIR
 10
0.0
 20
1.0
 30
0.0
  9
$PUCSNAME
  2

  9
$PUCSORG
 10
0.0
 20
0.0
 30
0.0
  9
$PUCSXDIR
 10
1.0
 20
0.0
 30
0.0
  9
$PUCSYDIR
 10
0.0
 20
1.0
 30
0.0
  9
$USERI1
 70
     0
  9
$USERI2
 70
     0
  9
$USERI3
 70
     0
  9
$USERI4
 70
     0
  9
$USERI5
 70
     0
  9
$USERR1
 40
0.0
  9
$USERR2
 40
0.0
  9
$USERR3
 40
0.0
  9
$USERR4
 40
0.0
  9
$USERR5
 40
0.0
  9
$WORLDVIEW
 70
     1
  9
$SHADEDGE
 70
     3
  9
$SHADEDIF
 70
    70
  9
$TILEMODE
 70
     1
  9
$MAXACTVP
 70
    48
  9
$PLIMCHECK
 70
     0
  9
$PEXTMIN
 10
1.0000000000000000E+020
 20
1.0000000000000000E+020
 30
1.0000000000000000E+020
  9
$PEXTMAX
 10
-1.0000000000000000E+020
 20
-1.0000000000000000E+020
 30
-1.0000000000000000E+020
  9
$PLIMMIN
 10
0.0
 20
0.0
  9
$PLIMMAX
 10
420.0
 20
297.0
  9
$UNITMODE
 70
     0
  9
$VISRETAIN
 70
     1
  9
$PLINEGEN
 70
     0
  9
$PSLTSCALE
 70
     1
  0
ENDSEC
  0
SECTION
  2
TABLES
  0
TABLE
  2
VPORT
 70
     2
  0
VPORT
  2
*ACTIVE
 70
     0
 10
0.0
 20
0.0
 11
1.0
 21
1.0
 12
-9.7274773401759962
 22
2.8610236510413638
 13
0.0
 23
0.0
 14
0.5
 24
0.5
 15
10.0
 25
10.0
 16
0.0
 26
0.0
 36
1.0
 17
0.0
 27
0.0
 37
0.0
 40
39.364268573512391
 41
1.6070460704607039
 42
50.0
 43
0.0
 44
0.0
 50
0.0
 51
0.0
 71
     0
 72
   800
 73
     1
 74
     1
 75
     0
 76
     0
 77
     0
 78
     0
  0
ENDTAB
  0
TABLE
  2
LTYPE
 70
     2
  0
LTYPE
  2
CONTINUOUS
 70
     0
  3
_______________________________________________
 72
    65
 73
     2
 40
1.0
 49
1.0
 49
0.0
  0
LTYPE
  2
STRICHPUNKT
 70
     0
  3
__ . __ . __ . __ . __ . __ . __ . __ . __ . __
 72
    65
 73
     4
 40
1.0
 49
0.5
 49
-0.25
 49
0.0
 49
-0.25
  0
ENDTAB
  0
TABLE
  2
LAYER
 70
     7
  0
LAYER
  2
0
 70
     0
 62
    30
  6
CONTINUOUS
  0
LAYER
  2
1
 70
     0
 62
     2
  6
CONTINUOUS
  0
LAYER
  2
2
 70
     0
 62
     9
  6
CONTINUOUS
  0
LAYER
  2
4
 70
     1
 62
     4
  6
CONTINUOUS
  0
LAYER
  2
5
 70
     0
 62
     1
  6
CONTINUOUS
  0
LAYER
  2
6
 70
     0
 62
     3
  6
CONTINUOUS
  0
LAYER
  2
DEFPOINTS
 70
     0
 62
     7
  6
CONTINUOUS
  0
ENDTAB
  0
TABLE
  2
STYLE
 70
     2
  0
STYLE
  2
STANDARD
 70
     0
 40
0.0
 41
1.0
 50
0.0
 71
     0
 42
2.5
  3
txt
  4

  0
STYLE
  2
BESCHLAG
 70
     0
 40
0.0
 41
1.0
 50
0.0
 71
     0
 42
3.5
  3
txt
  4

  0
ENDTAB
  0
TABLE
  2
VIEW
 70
     0
  0
ENDTAB
  0
TABLE
  2
UCS
 70
     0
  0
ENDTAB
  0
TABLE
  2
APPID
 70
     1
  0
APPID
  2
ACAD
 70
     0
  0
ENDTAB
  0
TABLE
  2
DIMSTYLE
 70
     1
  0
DIMSTYLE
  2
OPO-SSTRICH
 70
     0
  3

  4

  5

  6
OBLIQUE
  7
OBLIQUE
 40
1.0
 41
2.0
 42
2.0
 43
0.0
 44
1.0
 45
0.0
 46
1.0
 47
0.0
 48
0.0
140
3.5
141
0.0
142
0.0
143
0.039370078740157
144
1.0
145
0.0
146
0.7114285714285716
147
1.0
 71
     0
 72
     0
 73
     0
 74
     0
 75
     0
 76
     0
 77
     1
 78
     8
170
     0
171
     2
172
     1
173
     1
174
     1
175
     0
176
   256
177
   256
178
   256
  0
ENDTAB
  0
ENDSEC
  0
SECTION
  2
BLOCKS
  0
BLOCK
  8
0
  2
$MODEL_SPACE
 70
     0
 10
0.0
 20
0.0
 30
0.0
  3
$MODEL_SPACE
  1

  0
ENDBLK
  5
1C
  8
0
  0
BLOCK
 67
     1
  8
0
  2
$PAPER_SPACE
 70
     0
 10
0.0
 20
0.0
 30
0.0
  3
$PAPER_SPACE
  1

  0
ENDBLK
  5
19
 67
     1
  8
0
  0
BLOCK
  8
0
  2
_OBLIQUE
 70
     0
 10
0.0
 20
0.0
 30
0.0
  3
_OBLIQUE
  1

  0
LINE
  5
204
  8
0
 62
     0
 10
-0.5
 20
-0.5
 30
0.0
 11
0.5
 21
0.5
 31
0.0
  0
ENDBLK
  5
206
  8
0
  0
BLOCK
  8
0
  2
NULLPUNKT
 70
     0
 10
0.0
 20
0.0
 30
0.0
  3
NULLPUNKT
  1

  0
SOLID
  5
254
  8
5
 10
0.0
 20
0.0
 30
0.0
 11
2.0
 21
0.0
 31
0.0
 12
0.0
 22
-2.0
 32
0.0
 13
0.0
 23
-2.0
 33
0.0
  0
SOLID
  5
255
  8
5
 10
0.0
 20
0.0
 30
0.0
 11
-2.0
 21
0.0
 31
0.0
 12
0.0
 22
2.0
 32
0.0
 13
0.0
 23
2.0
 33
0.0
  0
POLYLINE
  5
256
  8
5
 66
     1
 10
0.0
 20
0.0
 30
0.0
  0
VERTEX
  5
3F4
  8
5
 10
0.0
 20
2.0
 30
0.0
  0
VERTEX
  5
3F5
  8
5
 10
0.0
 20
-2.0
 30
0.0
  0
SEQEND
  5
3F6
  8
5
  0
POLYLINE
  5
257
  8
5
 66
     1
 10
0.0
 20
0.0
 30
0.0
  0
VERTEX
  5
3F7
  8
5
 10
-2.0
 20
0.0
 30
0.0
  0
VERTEX
  5
3F8
  8
5
 10
2.0
 20
0.0
 30
0.0
  0
SEQEND
  5
3F9
  8
5
  0
CIRCLE
  5
258
  8
5
 10
0.0
 20
0.0
 30
0.0
 40
2.0
  0
ENDBLK
  5
25A
  8
0
  0
BLOCK
  8
0
  2
*X2
 70
     1
 10
0.0
 20
0.0
 30
0.0
  3
*X2
  1

  0
LINE
  5
29E
  8
0
 62
     0
 10
643.50094367330553
 20
-424.2302959183811
 30
0.0
 11
645.50094367330587
 21
-422.23029591838059
 31
0.0
  0
LINE
  5
29F
  8
0
 62
     0
 10
651.10414731954825
 20
-416.62709227213833
 30
0.0
 11
652.39379084124107
 21
-415.3374487504455
 31
0.0
  0
LINE
  5
2A0
  8
0
 62
     0
 10
642.08673011093242
 20
-424.2302959183811
 30
0.0
 11
644.0867301109331
 21
-422.23029591838048
 31
0.0
  0
LINE
  5
2A1
  8
0
 62
     0
 10
650.08673011093242
 20
-416.2302959183811
 30
0.0
 11
651.73578754127959
 21
-414.58123848803388
 31
0.0
  0
LINE
  5
2A2
  8
0
 62
     0
 10
640.67251654855932
 20
-424.2302959183811
 30
0.0
 11
642.43833193468595
 21
-422.46448053225458
 31
0.0
  0
LINE
  5
2A3
  8
0
 62
     0
 10
648.67251654855932
 20
-416.2302959183811
 30
0.0
 11
650.67138596998404
 21
-414.23142649695649
 31
0.0
  0
LINE
  5
2A4
  8
0
 62
     0
 10
639.25830298618632
 20
-424.2302959183811
 30
0.0
 11
641.258302986187
 21
-422.23029591838031
 31
0.0
  0
LINE
  5
2A5
  8
0
 62
     0
 10
648.10414731954916
 20
-415.38445158501821
 30
0.0
 11
649.2583029861861
 21
-414.23029591838127
 31
0.0
  0
LINE
  5
2A6
  8
0
 62
     0
 10
637.8440894238131
 20
-424.2302959183811
 30
0.0
 11
639.84408942381401
 21
-422.23029591838031
 31
0.0
  0
LINE
  5
2A7
  8
0
 62
     0
 10
636.60215420081545
 20
-424.05801757900548
 30
0.0
 11
638.42987586144079
 21
-422.23029591838031
 31
0.0
  0
LINE
  5
2A8
  8
0
 62
     0
 10
635.69858677182856
 20
-423.54737144561949
 30
0.0
 11
637.10215478422651
 21
-422.14380343322148
 31
0.0
  0
LINE
  5
2A9
  8
0
 62
     0
 10
635.04157293416324
 20
-422.79017172091181
 30
0.0
 11
636.32234980830924
 21
-421.5093948467657
 31
0.0
  0
LINE
  5
2AA
  8
0
 62
     0
 10
634.65223665316421
 20
-421.76529443953768
 30
0.0
 11
636.10414731954927
 21
-420.31338377315262
 31
0.0
  0
LINE
  5
2AB
  8
0
 62
     0
 10
634.60414731954847
 20
-420.39917021078043
 30
0.0
 11
636.10414731954927
 21
-418.89917021077952
 31
0.0
  0
LINE
  5
2AC
  8
0
 62
     0
 10
638.77302161194848
 20
-416.23029591838019
 30
0.0
 11
639.10414731954916
 21
-415.89917021077957
 31
0.0
  0
LINE
  5
2AD
  8
0
 62
     0
 10
634.60414731954859
 20
-418.98495664840698
 30
0.0
 11
636.10414731954927
 21
-417.48495664840652
 31
0.0
  0
LINE
  5
2AE
  8
0
 62
     0
 10
637.35880804957492
 20
-416.23029591838082
 30
0.0
 11
638.92702565423519
 21
-414.66207831372049
 31
0.0
  0
LINE
  5
2AF
  8
0
 62
     0
 10
634.60414731954882
 20
-417.57074308603381
 30
0.0
 11
637.94459448720045
 21
-414.23029591838213
 31
0.0
  0
LINE
  5
2B0
  8
0
 62
     0
 10
634.60414731954904
 20
-416.15652952366042
 30
0.0
 11
636.53038092482734
 21
-414.23029591838213
 31
0.0
  0
LINE
  5
2B1
  8
0
 62
     0
 10
634.60414731954916
 20
-414.7423159612872
 30
0.0
 11
635.11616736245423
 21
-414.23029591838213
 31
0.0
  0
LINE
  5
2B2
  8
0
 62
     0
 10
644.91515723567863
 20
-424.2302959183811
 30
0.0
 11
646.91515723567886
 21
-422.23029591838082
 31
0.0
  0
LINE
  5
2B3
  8
0
 62
     0
 10
651.10414731954847
 20
-418.04130583451098
 30
0.0
 11
652.60414731955007
 21
-416.54130583450973
 31
0.0
  0
LINE
  5
2B4
  8
0
 62
     0
 10
646.32937079805174
 20
-424.2302959183811
 30
0.0
 11
648.32937079805185
 21
-422.23029591838099
 31
0.0
  0
LINE
  5
2B5
  8
0
 62
     0
 10
651.10414731954893
 20
-419.45551939688391
 30
0.0
 11
652.60414731954995
 21
-417.95551939688289
 31
0.0
  0
LINE
  5
2B6
  8
0
 62
     0
 10
647.74358436042485
 20
-424.2302959183811
 30
0.0
 11
649.75076737226755
 21
-422.2231129065384
 31
0.0
  0
LINE
  5
2B7
  8
0
 62
     0
 10
651.09696430770634
 20
-420.87691597109949
 30
0.0
 11
652.60414731954995
 21
-419.369732959256
 31
0.0
  0
LINE
  5
2B8
  8
0
 62
     0
 10
649.15779792279795
 20
-424.2302959183811
 30
0.0
 11
652.60414731954995
 21
-420.78394652162922
 31
0.0
  0
LINE
  5
2B9
  8
0
 62
     0
 10
650.57201148517095
 20
-424.2302959183811
 30
0.0
 11
652.60414731954984
 21
-422.19816008400232
 31
0.0
  0
LINE
  5
2BA
  8
0
 62
     0
 10
651.10414731954847
 20
-425.11237364637668
 30
0.0
 11
652.60414731954972
 21
-423.61237364637549
 31
0.0
  0
LINE
  5
2BB
  8
0
 62
     0
 10
651.10414731954859
 20
-426.52658720874962
 30
0.0
 11
652.60414731954972
 21
-425.02658720874871
 31
0.0
  0
LINE
  5
2BC
  8
0
 62
     0
 10
651.10414731954904
 20
-427.94080077112238
 30
0.0
 11
652.60414731954961
 21
-426.44080077112193
 31
0.0
  0
LINE
  5
2BD
  8
0
 62
     0
 10
651.10414731954927
 20
-429.35501433349532
 30
0.0
 11
652.6041473195495
 21
-427.85501433349509
 31
0.0
  0
LINE
  5
2BE
  8
0
 62
     0
 10
651.10414731954938
 20
-430.76922789586808
 30
0.0
 11
652.6041473195495
 21
-429.2692278958682
 31
0.0
  0
LINE
  5
2BF
  8
0
 62
     0
 10
651.10414731954984
 20
-432.18344145824102
 30
0.0
 11
652.60414731954927
 21
-430.68344145824142
 31
0.0
  0
LINE
  5
2C0
  8
0
 62
     0
 10
651.10414731955007
 20
-433.59765502061379
 30
0.0
 11
652.60414731954916
 21
-432.09765502061458
 31
0.0
  0
ENDBLK
  5
2C2
  8
0
  0
BLOCK
  8
0
  2
*D3
 70
     1
 10
0.0
 20
0.0
 30
0.0
  3
*D3
  1

  0
LINE
  5
313
  8
1
 10
-17.0
 20
-2.0
 30
0.0
 11
-17.0
 21
-16.656558640690829
 31
0.0
  0
LINE
  5
314
  8
1
 10
-0.0000000000000001
 20
-2.0
 30
0.0
 11
-0.000000000000001
 21
-16.656558640690829
 31
0.0
  0
LINE
  5
315
  8
1
 10
-18.0
 20
-15.656558640690831
 30
0.0
 11
0.9999999999999989
 21
-15.656558640690831
 31
0.0
  0
INSERT
  5
316
  8
1
  2
_OBLIQUE
 10
-17.0
 20
-15.656558640690831
 30
0.0
 41
2.0
 42
2.0
 43
2.0
 50
180.0
  0
INSERT
  5
317
  8
1
  2
_OBLIQUE
 10
-0.000000000000001
 20
-15.656558640690831
 30
0.0
 41
2.0
 42
2.0
 43
2.0
  0
TEXT
  5
318
  8
0
 10
-11.37448840381991
 20
-14.64939629416968
 30
0.0
 40
3.5
  1
17
  7
BESCHLAG
  0
POINT
  5
319
  8
DEFPOINTS
 62
     0
 10
-17.0
 20
0.0
 30
0.0
  0
POINT
  5
31A
  8
DEFPOINTS
 62
     0
 10
0.0
 20
0.0
 30
0.0
  0
POINT
  5
31B
  8
DEFPOINTS
 62
     0
 10
-0.000000000000001
 20
-15.656558640690831
 30
0.0
  0
ENDBLK
  5
2EE
  8
0
  0
BLOCK
  8
0
  2
*D4
 70
     1
 10
0.0
 20
0.0
 30
0.0
  3
*D4
  1

  0
LINE
  5
31C
  8
1
 10
3.5
 20
-10.0
 30
0.0
 11
14.32919484586909
 21
-10.0
 31
0.0
  0
LINE
  5
31D
  8
1
 10
3.5
 20
10.0
 30
0.0
 11
14.32919484586909
 21
9.9999999999999964
 31
0.0
  0
LINE
  5
31E
  8
1
 10
13.32919484586909
 20
-11.0
 30
0.0
 11
13.32919484586909
 21
10.999999999999989
 31
0.0
  0
INSERT
  5
31F
  8
1
  2
_OBLIQUE
 10
13.32919484586909
 20
-10.0
 30
0.0
 41
2.0
 42
2.0
 43
2.0
 50
270.0
  0
INSERT
  5
320
  8
1
  2
_OBLIQUE
 10
13.32919484586909
 20
9.9999999999999964
 30
0.0
 41
2.0
 42
2.0
 43
2.0
 50
90.0
  0
TEXT
  5
321
  8
0
 10
12.26234627833839
 20
-2.6739427012278312
 30
0.0
 40
3.5
  1
20
 50
90.0
  7
BESCHLAG
  0
POINT
  5
322
  8
DEFPOINTS
 62
     0
 10
1.5
 20
-10.0
 30
0.0
  0
POINT
  5
323
  8
DEFPOINTS
 62
     0
 10
1.5
 20
10.0
 30
0.0
  0
POINT
  5
324
  8
DEFPOINTS
 62
     0
 10
13.32919484586909
 20
9.9999999999999964
 30
0.0
  0
ENDBLK
  5
2FA
  8
0
  0
BLOCK
  8
0
  2
*D5
 70
     1
 10
0.0
 20
0.0
 30
0.0
  3
*D5
  1

  0
LINE
  5
325
  8
1
 10
-19.0
 20
0.0000000000000006
 30
0.0
 11
-29.305772683476331
 21
0.0000000000000035
 31
0.0
  0
LINE
  5
326
  8
1
 10
-19.0
 20
15.0
 30
0.0
 11
-29.305772683476331
 21
15.0
 31
0.0
  0
LINE
  5
327
  8
1
 10
-28.305772683476331
 20
-0.9999999999999968
 30
0.0
 11
-28.305772683476331
 21
16.0
 31
0.0
  0
INSERT
  5
328
  8
1
  2
_OBLIQUE
 10
-28.305772683476331
 20
0.0000000000000032
 30
0.0
 41
2.0
 42
2.0
 43
2.0
 50
270.0
  0
INSERT
  5
329
  8
1
  2
_OBLIQUE
 10
-28.305772683476331
 20
15.0
 30
0.0
 41
2.0
 42
2.0
 43
2.0
 50
90.0
  0
TEXT
  5
32A
  8
0
 10
-29.372621251007029
 20
4.612380627557978
 30
0.0
 40
3.5
  1
15
 50
90.0
  7
BESCHLAG
  0
POINT
  5
32B
  8
DEFPOINTS
 62
     0
 10
-17.0
 20
0.0
 30
0.0
  0
POINT
  5
32C
  8
DEFPOINTS
 62
     0
 10
-17.0
 20
15.0
 30
0.0
  0
POINT
  5
32D
  8
DEFPOINTS
 62
     0
 10
-28.305772683476331
 20
15.0
 30
0.0
  0
ENDBLK
  5
306
  8
0
  0
BLOCK
  8
0
  2
*D6
 70
     1
 10
0.0
 20
0.0
 30
0.0
  3
*D6
  1

  0
LINE
  5
32E
  8
1
 10
3.5
 20
10.0
 30
0.0
 11
14.32919484586909
 21
9.9999999999999964
 31
0.0
  0
LINE
  5
32F
  8
1
 10
3.5
 20
15.0
 30
0.0
 11
14.32919484586909
 21
14.999999999999989
 31
0.0
  0
LINE
  5
330
  8
1
 10
13.32919484586909
 20
8.9999999999999964
 30
0.0
 11
13.32919484586909
 21
15.999999999999989
 31
0.0
  0
INSERT
  5
331
  8
1
  2
_OBLIQUE
 10
13.32919484586909
 20
9.9999999999999964
 30
0.0
 41
2.0
 42
2.0
 43
2.0
 50
270.0
  0
INSERT
  5
332
  8
1
  2
_OBLIQUE
 10
13.32919484586909
 20
14.999999999999989
 30
0.0
 41
2.0
 42
2.0
 43
2.0
 50
90.0
  0
TEXT
  5
333
  8
0
 10
12.26950862485954
 20
11.136766712141879
 30
0.0
 40
3.5
  1
5
 50
90.0
  7
BESCHLAG
  0
POINT
  5
334
  8
DEFPOINTS
 62
     0
 10
1.5
 20
10.0
 30
0.0
  0
POINT
  5
335
  8
DEFPOINTS
 62
     0
 10
1.5
 20
15.0
 30
0.0
  0
POINT
  5
336
  8
DEFPOINTS
 62
     0
 10
13.32919484586909
 20
14.999999999999989
 30
0.0
  0
ENDBLK
  5
312
  8
0
  0
ENDSEC
  0
SECTION
  2
ENTITIES
  0
INSERT
  5
25B
  8
5
  2
NULLPUNKT
 10
0.0
 20
0.0
 30
0.0
  0
INSERT
  5
2D6
  8
2
  2
*X2
 10
-651.10414731954972
 20
424.23029591838008
 30
0.0
1001
ACAD
1000
HATCH
1002
{
1070
    16
1000
_U,I
1040
1.0
1040
0.7853981633974483
1070
     0
1002
}
  0
TEXT
  5
2D7
  8
1
 10
-10.686398008643661
 20
19.201813909749831
 30
0.0
 40
2.5
  1
Hebgo 110/610
  0
POLYLINE
  5
2D8
  8
5
 66
     1
 10
0.0
 20
0.0
 30
0.0
  0
VERTEX
  5
3FA
  8
5
 10
-13.0
 20
22.0
 30
0.0
  0
VERTEX
  5
3FB
  8
5
 10
-13.0
 20
15.0
 30
0.0
  0
VERTEX
  5
3FC
  8
5
 10
11.0
 20
15.0
 30
0.0
  0
SEQEND
  5
3FD
  8
5
  0
LINE
  5
2D9
  8
6
  6
STRICHPUNKT
 10
-8.4999999986080184
 20
2.1936398702541728
 30
0.0
 11
-8.4999999986080184
 21
-9.8063601297458263
 31
0.0
  0
DIMENSION
  5
2DA
  8
1
  2
*D3
 10
-0.000000000000001
 20
-15.656558640690831
 30
0.0
 11
-8.5
 21
-12.89939629416968
 31
0.0
 70
     0
 13
-17.0
 23
0.0
 33
0.0
 14
0.0
 24
0.0
 34
0.0
  0
POLYLINE
  5
2DB
  8
5
 66
     1
 10
0.0
 20
0.0
 30
0.0
  0
VERTEX
  5
3FE
  8
5
 10
-17.0
 20
22.0
 30
0.0
  0
VERTEX
  5
3FF
  8
5
 10
-17.0
 20
0.0
 30
0.0
  0
VERTEX
  5
400
  8
5
 10
0.0
 20
0.0
 30
0.0
  0
VERTEX
  5
401
  8
5
 10
0.0
 20
-15.0
 30
0.0
  0
SEQEND
  5
402
  8
5
  0
POLYLINE
  5
2DC
  8
6
 66
     1
 10
0.0
 20
0.0
 30
0.0
 70
     1
  0
VERTEX
  5
403
  8
6
 10
-16.500000000000451
 20
9.7999999999981355
 30
0.0
  0
VERTEX
  5
404
  8
6
 10
-16.500000000001361
 20
2.9999999999988631
 30
0.0
 42
0.4142135623730951
  0
VERTEX
  5
405
  8
6
 10
-13.500000000001361
 20
-0.0000000000011369
 30
0.0
  0
VERTEX
  5
406
  8
6
 10
-0.2000000000011823
 20
-0.0000000000011369
 30
0.0
 42
-0.4142135623730951
  0
VERTEX
  5
407
  8
6
 10
-0.0000000000013642
 20
-0.200000000000955
 30
0.0
  0
VERTEX
  5
408
  8
6
 10
0.0000000000004547
 20
-9.8000000000013188
 30
0.0
 42
0.414213562373068
  0
VERTEX
  5
409
  8
6
 10
0.2000000000002728
 20
-10.00000000000113
 30
0.0
  0
VERTEX
  5
40A
  8
6
 10
0.2099999999995816
 20
-10.00000000000022
 30
0.0
 42
0.4142135623730802
  0
VERTEX
  5
40B
  8
6
 10
1.499999999999545
 20
-8.7100000000002638
 30
0.0
  0
VERTEX
  5
40C
  8
6
 10
1.5000000000004541
 20
7.9999999999979527
 30
0.0
 42
0.4142135623731094
  0
VERTEX
  5
40D
  8
6
 10
-0.4999999999995453
 20
9.9999999999979536
 30
0.0
  0
VERTEX
  5
40E
  8
6
 10
-2.0000000000004539
 20
9.9999999999988631
 30
0.0
 42
0.4142135623732017
  0
VERTEX
  5
40F
  8
6
 10
-3.0000000000004539
 20
8.9999999999988631
 30
0.0
  0
VERTEX
  5
410
  8
6
 10
-3.0000000000004539
 20
8.1999999999986812
 30
0.0
 42
0.4142135623730951
  0
VERTEX
  5
411
  8
6
 10
-2.8000000000006362
 20
7.9999999999988631
 30
0.0
  0
VERTEX
  5
412
  8
6
 10
-0.2000000000011823
 20
7.9999999999988631
 30
0.0
 42
-0.4142135623730951
  0
VERTEX
  5
413
  8
6
 10
-0.0000000000013642
 20
7.799999999999045
 30
0.0
  0
VERTEX
  5
414
  8
6
 10
-0.0000000000004547
 20
3.4999999999988631
 30
0.0
 42
-0.4142135623731149
  0
VERTEX
  5
415
  8
6
 10
-1.5000000000004541
 20
1.9999999999988629
 30
0.0
  0
VERTEX
  5
416
  8
6
 10
-8.0171572872109191
 20
1.999999999999772
 30
0.0
 42
0.1989123680792255
  0
VERTEX
  5
417
  8
6
 10
-8.1585786438286032
 20
1.9414213558563911
 30
0.0
  0
VERTEX
  5
418
  8
6
 10
-8.3585786423705031
 20
1.741421356238561
 30
0.0
 42
-0.4142135623727621
  0
VERTEX
  5
419
  8
6
 10
-8.6414213548455336
 20
1.741421356238561
 30
0.0
  0
VERTEX
  5
41A
  8
6
 10
-8.8414213563023623
 20
1.9414213566185481
 30
0.0
 42
0.1989123666794477
  0
VERTEX
  5
41B
  8
6
 10
-8.9828427121578898
 20
1.999999999999772
 30
0.0
  0
VERTEX
  5
41C
  8
6
 10
-13.500000000000449
 20
1.999999999999772
 30
0.0
 42
-0.4142135623730951
  0
VERTEX
  5
41D
  8
6
 10
-15.000000000000449
 20
3.4999999999997722
 30
0.0
  0
VERTEX
  5
41E
  8
6
 10
-15.000000000000449
 20
7.799999999999045
 30
0.0
 42
-0.4142135623730951
  0
VERTEX
  5
41F
  8
6
 10
-14.80000000000063
 20
7.9999999999988631
 30
0.0
  0
VERTEX
  5
420
  8
6
 10
-12.200000000000269
 20
7.9999999999997717
 30
0.0
 42
0.4142135623730951
  0
VERTEX
  5
421
  8
6
 10
-12.000000000000449
 20
8.1999999999995907
 30
0.0
  0
VERTEX
  5
422
  8
6
 10
-12.000000000000449
 20
8.9999999999979536
 30
0.0
 42
0.4142135623730951
  0
VERTEX
  5
423
  8
6
 10
-13.000000000000449
 20
9.9999999999979536
 30
0.0
  0
VERTEX
  5
424
  8
6
 10
-16.30000000000063
 20
9.9999999999979536
 30
0.0
 42
0.4142135623731331
  0
SEQEND
  5
425
  8
6
  0
POLYLINE
  5
2DD
  8
4
 66
     1
 10
0.0
 20
0.0
 30
0.0
 70
     1
  0
VERTEX
  5
426
  8
4
 10
0.0
 20
-10.0
 30
0.0
  0
VERTEX
  5
427
  8
4
 10
0.0
 20
0.0
 30
0.0
  0
VERTEX
  5
428
  8
4
 10
-16.5
 20
0.0
 30
0.0
  0
VERTEX
  5
429
  8
4
 10
-16.5
 20
10.0
 30
0.0
  0
VERTEX
  5
42A
  8
4
 10
1.5
 20
10.0
 30
0.0
  0
VERTEX
  5
42B
  8
4
 10
1.5
 20
-10.0
 30
0.0
  0
SEQEND
  5
42C
  8
4
  0
POLYLINE
  5
2DE
  8
6
 66
     1
 10
0.0
 20
0.0
 30
0.0
 70
     1
  0
VERTEX
  5
42D
  8
6
 10
-5.7609722376028003
 20
9.6595671519269217
 30
0.0
  0
VERTEX
  5
42E
  8
6
 10
-9.8877591944196865
 20
9.6595671519269217
 30
0.0
 42
0.3542222137672995
  0
VERTEX
  5
42F
  8
6
 10
-10.732709602003521
 20
8.8148498926566372
 30
0.0
  0
VERTEX
  5
430
  8
6
 10
-10.726586781657261
 20
7.30904962353884
 30
0.0
 42
0.343655940181943
  0
VERTEX
  5
431
  8
6
 10
-9.7897938911314668
 20
6.5010592074536362
 30
0.0
  0
VERTEX
  5
432
  8
6
 10
-5.497690562780007
 20
6.5010592074536362
 30
0.0
 42
0.2923726044221553
  0
VERTEX
  5
433
  8
6
 10
-4.7568282343936508
 20
7.4069878497011814
 30
0.0
  0
VERTEX
  5
434
  8
6
 10
-4.7568282343936508
 20
8.5210352141695012
 30
0.0
 42
0.345210202999001
  0
SEQEND
  5
435
  8
6
  0
POLYLINE
  5
2DF
  8
6
 66
     1
 10
0.0
 20
0.0
 30
0.0
 70
     1
  0
VERTEX
  5
436
  8
6
 10
-1.921050385544731
 20
7.0318886768573057
 30
0.0
 42
0.4340228066750199
  0
VERTEX
  5
437
  8
6
 10
-1.9087202697860439
 20
7.4078532796646641
 30
0.0
  0
VERTEX
  5
438
  8
6
 10
-2.9506147181186861
 20
8.0919855809048613
 30
0.0
  0
VERTEX
  5
439
  8
6
 10
-2.9506147181186861
 20
9.6882942949645212
 30
0.0
 42
-0.2926708623625712
  0
VERTEX
  5
43A
  8
6
 10
-2.7533328659792451
 20
9.9964620268945055
 30
0.0
  0
VERTEX
  5
43B
  8
6
 10
-0.6586001156101702
 20
10.00200840259083
 30
0.0
 42
0.4725495945331585
  0
VERTEX
  5
43C
  8
6
 10
-0.3982816003708649
 20
10.32928315728077
 30
0.0
 42
0.1497715981737393
  0
VERTEX
  5
43D
  8
6
 10
-0.5215827579581857
 20
10.896311723737311
 30
0.0
 42
0.1375660736324291
  0
VERTEX
  5
43E
  8
6
 10
-2.1676526118449142
 20
11.87628504093095
 30
0.0
 42
0.3441417900027466
  0
VERTEX
  5
43F
  8
6
 10
-13.26074162946815
 20
13.955479523220561
 30
0.0
 42
1.013427136496432
  0
VERTEX
  5
440
  8
6
 10
-12.65875910953673
 20
12.848567266362799
 30
0.0
 42
-0.2618032337289678
  0
VERTEX
  5
441
  8
6
 10
-4.9404832051864096
 20
11.97808286498957
 30
0.0
 42
-1.48716411242179
  0
VERTEX
  5
442
  8
6
 10
-4.7343126741661763
 20
11.39727742796685
 30
0.0
  0
VERTEX
  5
443
  8
6
 10
-12.115447966996721
 20
11.503377781505939
 30
0.0
 42
0.264033326694127
  0
VERTEX
  5
444
  8
6
 10
-14.01231225010315
 20
10.31013121496744
 30
0.0
 42
0.4546962762195842
  0
VERTEX
  5
445
  8
6
 10
-13.797810282354471
 20
9.9978658215572977
 30
0.0
  0
VERTEX
  5
446
  8
6
 10
-12.27665714392378
 20
9.9950417516797643
 30
0.0
 42
-0.5545890291270417
  0
VERTEX
  5
447
  8
6
 10
-12.01094826626376
 20
9.6624696719119356
 30
0.0
  0
VERTEX
  5
448
  8
6
 10
-12.01094826626376
 20
8.2399575571096193
 30
0.0
 42
-0.3795622521557158
  0
VERTEX
  5
449
  8
6
 10
-12.300244173271031
 20
7.91784714418145
 30
0.0
  0
VERTEX
  5
44A
  8
6
 10
-14.503944026706449
 20
7.3493926750045366
 30
0.0
 42
0.2098868600260434
  0
VERTEX
  5
44B
  8
6
 10
-14.613878304846819
 20
7.2452541770969674
 30
0.0
 42
0.3590346299987293
  0
VERTEX
  5
44C
  8
6
 10
-14.455519417082989
 20
6.4287174558890001
 30
0.0
  0
VERTEX
  5
44D
  8
6
 10
-11.55977369187803
 20
4.8165733431250137
 30
0.0
 42
0.1375040557749069
  0
VERTEX
  5
44E
  8
6
 10
-11.004481976383429
 20
4.6777887387192996
 30
0.0
  0
VERTEX
  5
44F
  8
6
 10
-5.1389844133582301
 20
4.6777887387192996
 30
0.0
 42
0.1555493545182818
  0
VERTEX
  5
450
  8
6
 10
-3.658434897630741
 20
5.1982310722351031
 30
0.0
  0
SEQEND
  5
451
  8
6
  0
DIMENSION
  5
2E0
  8
1
  2
*D4
 10
13.32919484586909
 20
9.9999999999999964
 30
0.0
 11
10.54218938884317
 21
-0.0000000000000005
 31
0.0
 70
     0
 13
1.5
 23
-10.0
 33
0.0
 14
1.5
 24
10.0
 34
0.0
 50
90.0
  0
DIMENSION
  5
2E1
  8
1
  2
*D5
 10
-28.305772683476331
 20
15.0
 30
0.0
 11
-31.092778140502251
 21
7.4999999999999982
 31
0.0
 70
     0
 13
-17.0
 23
0.0
 33
0.0
 14
-17.0
 24
15.0
 34
0.0
 50
90.0
  0
DIMENSION
  5
2E2
  8
1
  2
*D6
 10
13.32919484586909
 20
14.999999999999989
 30
0.0
 11
10.54935173536431
 21
12.5
 31
0.0
 70
     0
 13
1.5
 23
10.0
 33
0.0
 14
1.5
 24
15.0
 34
0.0
 50
90.0
  0
VIEWPORT
  5
22
 67
     1
  8
0
 10
210.0
 20
170.2366863905325
 30
0.0
 40
420.0
 41
340.47337278106511
 68
     1
 69
     1
1001
ACAD
1000
MVIEW
1002
{
1070
    16
1010
0.0
1020
0.0
1030
0.0
1010
0.0
1020
0.0
1030
1.0
1040
0.0
1040
340.47337278106511
1040
210.0
1040
170.2366863905325
1040
50.0
1040
0.0
1040
0.0
1070
     0
1070
   100
1070
     1
1070
     1
1070
     0
1070
     0
1070
     0
1070
     0
1040
0.0
1040
0.0
1040
0.0
1040
5.0
1040
5.0
1040
10.0
1040
10.0
1070
     0
1002
{
1002
}
1002
}
  0
ENDSEC
  0
EOF
