  0
SECTION
  2
HEADER
  9
$ACADVER
  1
AC1009
  9
$INSBASE
 10
0.0
 20
0.0
 30
0.0
  9
$EXTMIN
 10
-19.02007971543355
 20
-12.382506465518871
 30
-0.0000000000112498
  9
$EXTMAX
 10
12.794495167669989
 20
22.590637757199261
 30
0.0000000000002956
  9
$LIMMIN
 10
-150.0
 20
-150.0
  9
$LIMMAX
 10
150.0
 20
150.0
  9
$ORTHOMODE
 70
     0
  9
$REGENMODE
 70
     1
  9
$FILLMODE
 70
     1
  9
$QTEXTMODE
 70
     0
  9
$MIRRTEXT
 70
     0
  9
$DRAGMODE
 70
     2
  9
$LTSCALE
 40
2.0
  9
$OSMODE
 70
   111
  9
$ATTMODE
 70
     1
  9
$TEXTSIZE
 40
3.5
  9
$TRACEWID
 40
1.0
  9
$TEXTSTYLE
  7
BESCHLAG
  9
$CLAYER
  8
0
  9
$CELTYPE
  6
BYLAYER
  9
$CECOLOR
 62
   256
  9
$DIMSCALE
 40
1.0
  9
$DIMASZ
 40
2.0
  9
$DIMEXO
 40
2.0
  9
$DIMDLI
 40
0.0
  9
$DIMRND
 40
0.0
  9
$DIMDLE
 40
1.0
  9
$DIMEXE
 40
1.0
  9
$DIMTP
 40
0.0
  9
$DIMTM
 40
0.0
  9
$DIMTXT
 40
3.5
  9
$DIMCEN
 40
0.0
  9
$DIMTSZ
 40
0.0
  9
$DIMTOL
 70
     0
  9
$DIMLIM
 70
     0
  9
$DIMTIH
 70
     0
  9
$DIMTOH
 70
     0
  9
$DIMSE1
 70
     0
  9
$DIMSE2
 70
     0
  9
$DIMTAD
 70
     1
  9
$DIMZIN
 70
     8
  9
$DIMBLK
  1

  9
$DIMASO
 70
     1
  9
$DIMSHO
 70
     1
  9
$DIMPOST
  1

  9
$DIMAPOST
  1

  9
$DIMALT
 70
     0
  9
$DIMALTD
 70
     2
  9
$DIMALTF
 40
0.039370078740157
  9
$DIMLFAC
 40
1.0
  9
$DIMTOFL
 70
     1
  9
$DIMTVP
 40
0.0
  9
$DIMTIX
 70
     1
  9
$DIMSOXD
 70
     0
  9
$DIMSAH
 70
     1
  9
$DIMBLK1
  1
OBLIQUE
  9
$DIMBLK2
  1
OBLIQUE
  9
$DIMSTYLE
  2
OPO-SSTRICH
  9
$DIMCLRD
 70
   256
  9
$DIMCLRE
 70
   256
  9
$DIMCLRT
 70
   256
  9
$DIMTFAC
 40
0.7114285714285716
  9
$DIMGAP
 40
1.0
  9
$LUNITS
 70
     2
  9
$LUPREC
 70
     1
  9
$SKETCHINC
 40
1.0
  9
$FILLETRAD
 40
0.0
  9
$AUNITS
 70
     0
  9
$AUPREC
 70
     1
  9
$MENU
  1
D:\ACL_CGWG\CGTAB13
  9
$ELEVATION
 40
0.0
  9
$PELEVATION
 40
0.0
  9
$THICKNESS
 40
0.0
  9
$LIMCHECK
 70
     0
  9
$BLIPMODE
 70
     0
  9
$CHAMFERA
 40
1.0
  9
$CHAMFERB
 40
1.0
  9
$SKPOLY
 70
     0
  9
$TDCREATE
 40
2451739.8603162961
  9
$TDUPDATE
 40
2452086.7332184021
  9
$TDINDWG
 40
0.0007602546
  9
$TDUSRTIMER
 40
0.0007602546
  9
$USRTIMER
 70
     1
  9
$ANGBASE
 50
0.0
  9
$ANGDIR
 70
     0
  9
$PDMODE
 70
    35
  9
$PDSIZE
 40
5.0
  9
$PLINEWID
 40
0.0
  9
$COORDS
 70
     1
  9
$SPLFRAME
 70
     0
  9
$SPLINETYPE
 70
     6
  9
$SPLINESEGS
 70
     8
  9
$ATTDIA
 70
     1
  9
$ATTREQ
 70
     1
  9
$HANDLING
 70
-16383
  9
$HANDSEED
  5
45C
  9
$SURFTAB1
 70
    12
  9
$SURFTAB2
 70
    12
  9
$SURFTYPE
 70
     6
  9
$SURFU
 70
    12
  9
$SURFV
 70
    12
  9
$UCSNAME
  2

  9
$UCSORG
 10
0.0
 20
0.0
 30
0.0
  9
$UCSXDIR
 10
1.0
 20
0.0
 30
0.0
  9
$UCSYDIR
 10
0.0
 20
1.0
 30
0.0
  9
$PUCSNAME
  2

  9
$PUCSORG
 10
0.0
 20
0.0
 30
0.0
  9
$PUCSXDIR
 10
1.0
 20
0.0
 30
0.0
  9
$PUCSYDIR
 10
0.0
 20
1.0
 30
0.0
  9
$USERI1
 70
     0
  9
$USERI2
 70
     0
  9
$USERI3
 70
     0
  9
$USERI4
 70
     0
  9
$USERI5
 70
     0
  9
$USERR1
 40
0.0
  9
$USERR2
 40
0.0
  9
$USERR3
 40
0.0
  9
$USERR4
 40
0.0
  9
$USERR5
 40
0.0
  9
$WORLDVIEW
 70
     1
  9
$SHADEDGE
 70
     3
  9
$SHADEDIF
 70
    70
  9
$TILEMODE
 70
     1
  9
$MAXACTVP
 70
    48
  9
$PLIMCHECK
 70
     0
  9
$PEXTMIN
 10
1.0000000000000000E+020
 20
1.0000000000000000E+020
 30
1.0000000000000000E+020
  9
$PEXTMAX
 10
-1.0000000000000000E+020
 20
-1.0000000000000000E+020
 30
-1.0000000000000000E+020
  9
$PLIMMIN
 10
0.0
 20
0.0
  9
$PLIMMAX
 10
420.0
 20
297.0
  9
$UNITMODE
 70
     0
  9
$VISRETAIN
 70
     1
  9
$PLINEGEN
 70
     0
  9
$PSLTSCALE
 70
     1
  0
ENDSEC
  0
SECTION
  2
TABLES
  0
TABLE
  2
VPORT
 70
     3
  0
VPORT
  2
*ACTIVE
 70
     0
 10
0.0
 20
0.0
 11
1.0
 21
1.0
 12
-3.1127922738817779
 22
5.1040656458401941
 13
0.0
 23
0.0
 14
0.5
 24
0.5
 15
10.0
 25
10.0
 16
0.0
 26
0.0
 36
1.0
 17
0.0
 27
0.0
 37
0.0
 40
35.257093972834923
 41
1.6070460704607039
 42
50.0
 43
0.0
 44
0.0
 50
0.0
 51
0.0
 71
     0
 72
   800
 73
     1
 74
     1
 75
     0
 76
     0
 77
     0
 78
     0
  0
ENDTAB
  0
TABLE
  2
LTYPE
 70
     2
  0
LTYPE
  2
CONTINUOUS
 70
     0
  3
_______________________________________________
 72
    65
 73
     2
 40
1.0
 49
1.0
 49
0.0
  0
LTYPE
  2
STRICHPUNKT
 70
     0
  3
__ . __ . __ . __ . __ . __ . __ . __ . __ . __
 72
    65
 73
     4
 40
1.0
 49
0.5
 49
-0.25
 49
0.0
 49
-0.25
  0
ENDTAB
  0
TABLE
  2
LAYER
 70
     7
  0
LAYER
  2
0
 70
     0
 62
    30
  6
CONTINUOUS
  0
LAYER
  2
1
 70
     0
 62
     2
  6
CONTINUOUS
  0
LAYER
  2
2
 70
     0
 62
     9
  6
CONTINUOUS
  0
LAYER
  2
4
 70
     1
 62
     4
  6
CONTINUOUS
  0
LAYER
  2
5
 70
     0
 62
     1
  6
CONTINUOUS
  0
LAYER
  2
6
 70
     0
 62
     3
  6
CONTINUOUS
  0
LAYER
  2
DEFPOINTS
 70
     0
 62
     7
  6
CONTINUOUS
  0
ENDTAB
  0
TABLE
  2
STYLE
 70
     2
  0
STYLE
  2
STANDARD
 70
     0
 40
0.0
 41
1.0
 50
0.0
 71
     0
 42
2.5
  3
txt
  4

  0
STYLE
  2
BESCHLAG
 70
     0
 40
0.0
 41
1.0
 50
0.0
 71
     0
 42
3.5
  3
txt
  4

  0
ENDTAB
  0
TABLE
  2
VIEW
 70
     0
  0
ENDTAB
  0
TABLE
  2
UCS
 70
     0
  0
ENDTAB
  0
TABLE
  2
APPID
 70
     1
  0
APPID
  2
ACAD
 70
     0
  0
ENDTAB
  0
TABLE
  2
DIMSTYLE
 70
     1
  0
DIMSTYLE
  2
OPO-SSTRICH
 70
     0
  3

  4

  5

  6
OBLIQUE
  7
OBLIQUE
 40
1.0
 41
2.0
 42
2.0
 43
0.0
 44
1.0
 45
0.0
 46
1.0
 47
0.0
 48
0.0
140
3.5
141
0.0
142
0.0
143
0.039370078740157
144
1.0
145
0.0
146
0.7114285714285716
147
1.0
 71
     0
 72
     0
 73
     0
 74
     0
 75
     0
 76
     0
 77
     1
 78
     8
170
     0
171
     2
172
     1
173
     1
174
     1
175
     0
176
   256
177
   256
178
   256
  0
ENDTAB
  0
ENDSEC
  0
SECTION
  2
BLOCKS
  0
BLOCK
  8
0
  2
$MODEL_SPACE
 70
     0
 10
0.0
 20
0.0
 30
0.0
  3
$MODEL_SPACE
  1

  0
ENDBLK
  5
1C
  8
0
  0
BLOCK
 67
     1
  8
0
  2
$PAPER_SPACE
 70
     0
 10
0.0
 20
0.0
 30
0.0
  3
$PAPER_SPACE
  1

  0
ENDBLK
  5
19
 67
     1
  8
0
  0
BLOCK
  8
0
  2
_OBLIQUE
 70
     0
 10
0.0
 20
0.0
 30
0.0
  3
_OBLIQUE
  1

  0
LINE
  5
204
  8
0
 62
     0
 10
-0.5
 20
-0.5
 30
0.0
 11
0.5
 21
0.5
 31
0.0
  0
ENDBLK
  5
206
  8
0
  0
BLOCK
  8
0
  2
NULLPUNKT
 70
     0
 10
0.0
 20
0.0
 30
0.0
  3
NULLPUNKT
  1

  0
SOLID
  5
254
  8
5
 10
0.0
 20
0.0
 30
0.0
 11
2.0
 21
0.0
 31
0.0
 12
0.0
 22
-2.0
 32
0.0
 13
0.0
 23
-2.0
 33
0.0
  0
SOLID
  5
255
  8
5
 10
0.0
 20
0.0
 30
0.0
 11
-2.0
 21
0.0
 31
0.0
 12
0.0
 22
2.0
 32
0.0
 13
0.0
 23
2.0
 33
0.0
  0
POLYLINE
  5
256
  8
5
 66
     1
 10
0.0
 20
0.0
 30
0.0
  0
VERTEX
  5
404
  8
5
 10
0.0
 20
2.0
 30
0.0
  0
VERTEX
  5
405
  8
5
 10
0.0
 20
-2.0
 30
0.0
  0
SEQEND
  5
406
  8
5
  0
POLYLINE
  5
257
  8
5
 66
     1
 10
0.0
 20
0.0
 30
0.0
  0
VERTEX
  5
407
  8
5
 10
-2.0
 20
0.0
 30
0.0
  0
VERTEX
  5
408
  8
5
 10
2.0
 20
0.0
 30
0.0
  0
SEQEND
  5
409
  8
5
  0
CIRCLE
  5
258
  8
5
 10
0.0
 20
0.0
 30
0.0
 40
2.0
  0
ENDBLK
  5
25A
  8
0
  0
BLOCK
  8
0
  2
*X2
 70
     1
 10
0.0
 20
0.0
 30
0.0
  3
*X2
  1

  0
LINE
  5
292
  8
0
 62
     0
 10
440.39373303428658
 20
-546.72733350213355
 30
0.0
 11
442.3937330342867
 21
-544.72733350213355
 31
0.0
  0
LINE
  5
293
  8
0
 62
     0
 10
439.00863590252368
 20
-546.69821707152335
 30
0.0
 11
440.97951947191348
 21
-544.72733350213355
 31
0.0
  0
LINE
  5
294
  8
0
 62
     0
 10
437.9521022330016
 20
-546.34053717867243
 30
0.0
 11
439.56530590954048
 21
-544.72733350213355
 31
0.0
  0
LINE
  5
295
  8
0
 62
     0
 10
437.1714655288132
 20
-545.70696032048784
 30
0.0
 11
438.48369096501563
 21
-544.39473488428519
 31
0.0
  0
LINE
  5
296
  8
0
 62
     0
 10
436.6351965508274
 20
-544.82901573610025
 30
0.0
 11
437.95274635090283
 21
-543.51146593602505
 31
0.0
  0
LINE
  5
297
  8
0
 62
     0
 10
436.42559011722449
 20
-543.62440860733022
 30
0.0
 11
437.92559011722437
 21
-542.12440860733034
 31
0.0
  0
LINE
  5
298
  8
0
 62
     0
 10
436.42559011722449
 20
-542.21019504495712
 30
0.0
 11
437.92559011722437
 21
-540.71019504495723
 31
0.0
  0
LINE
  5
299
  8
0
 62
     0
 10
439.908451660048
 20
-538.72733350213355
 30
0.0
 11
440.9254457079611
 21
-537.7103394542205
 31
0.0
  0
LINE
  5
29A
  8
0
 62
     0
 10
436.42559011722449
 20
-540.79598148258412
 30
0.0
 11
437.92559011722437
 21
-539.29598148258412
 31
0.0
  0
LINE
  5
29B
  8
0
 62
     0
 10
438.49423809767501
 20
-538.72733350213355
 30
0.0
 11
440.38332620921472
 21
-536.8382453905939
 31
0.0
  0
LINE
  5
29C
  8
0
 62
     0
 10
436.42559011722449
 20
-539.3817679202109
 30
0.0
 11
439.0800245353019
 21
-536.72733350213343
 31
0.0
  0
LINE
  5
29D
  8
0
 62
     0
 10
436.42559011722449
 20
-537.96755435783791
 30
0.0
 11
437.6658109729288
 21
-536.72733350213343
 31
0.0
  0
LINE
  5
29E
  8
0
 62
     0
 10
441.8079465966598
 20
-546.72733350213355
 30
0.0
 11
443.80794659665969
 21
-544.72733350213355
 31
0.0
  0
LINE
  5
29F
  8
0
 62
     0
 10
449.938160423581
 20
-538.59711967521241
 30
0.0
 11
451.80794659665969
 21
-536.72733350213355
 31
0.0
  0
LINE
  5
2A0
  8
0
 62
     0
 10
443.2221601590328
 20
-546.72733350213355
 30
0.0
 11
445.12387513769778
 21
-544.82561852346862
 31
0.0
  0
LINE
  5
2A1
  8
0
 62
     0
 10
451.2221601590328
 20
-538.72733350213355
 30
0.0
 11
453.19733898049378
 21
-536.75215468067256
 31
0.0
  0
LINE
  5
2A2
  8
0
 62
     0
 10
444.6363737214059
 20
-546.72733350213355
 30
0.0
 11
446.63637372140602
 21
-544.72733350213355
 31
0.0
  0
LINE
  5
2A3
  8
0
 62
     0
 10
452.6363737214059
 20
-538.72733350213355
 30
0.0
 11
454.08639300891002
 21
-537.27731421462954
 31
0.0
  0
LINE
  5
2A4
  8
0
 62
     0
 10
446.05058728377901
 20
-546.72733350213355
 30
0.0
 11
448.05058728377912
 21
-544.72733350213355
 31
0.0
  0
LINE
  5
2A5
  8
0
 62
     0
 10
452.92559011722449
 20
-539.85233066868818
 30
0.0
 11
454.42559011722437
 21
-538.35233066868807
 31
0.0
  0
LINE
  5
2A6
  8
0
 62
     0
 10
447.46480084615212
 20
-546.72733350213355
 30
0.0
 11
449.46480084615217
 21
-544.72733350213355
 31
0.0
  0
LINE
  5
2A7
  8
0
 62
     0
 10
452.92559011722449
 20
-541.26654423106118
 30
0.0
 11
454.42559011722437
 21
-539.76654423106118
 31
0.0
  0
LINE
  5
2A8
  8
0
 62
     0
 10
448.87901440852522
 20
-546.72733350213355
 30
0.0
 11
450.87901440852528
 21
-544.72733350213355
 31
0.0
  0
LINE
  5
2A9
  8
0
 62
     0
 10
452.92559011722449
 20
-542.6807577934344
 30
0.0
 11
454.42559011722437
 21
-541.1807577934344
 31
0.0
  0
LINE
  5
2AA
  8
0
 62
     0
 10
450.29322797089827
 20
-546.72733350213355
 30
0.0
 11
454.42559011722437
 21
-542.59497135580739
 31
0.0
  0
LINE
  5
2AB
  8
0
 62
     0
 10
451.70744153327138
 20
-546.72733350213355
 30
0.0
 11
454.42559011722437
 21
-544.00918491818061
 31
0.0
  0
LINE
  5
2AC
  8
0
 62
     0
 10
453.12165509564448
 20
-546.72733350213355
 30
0.0
 11
454.42559011722437
 21
-545.42339848055371
 31
0.0
  0
ENDBLK
  5
2AE
  8
0
  0
BLOCK
  8
0
  2
*D3
 70
     1
 10
0.0
 20
0.0
 30
0.0
  3
*D3
  1

  0
LINE
  5
2F1
  8
1
 10
-18.0
 20
-2.0
 30
0.0
 11
-18.0
 21
-12.37454139046735
 31
0.0
  0
LINE
  5
2F2
  8
1
 10
-0.0000000000000001
 20
-2.0
 30
0.0
 11
-0.0000000000000008
 21
-12.37454139046735
 31
0.0
  0
LINE
  5
2F3
  8
1
 10
-19.0
 20
-11.37454139046735
 30
0.0
 11
0.9999999999999992
 21
-11.37454139046735
 31
0.0
  0
INSERT
  5
2F4
  8
1
  2
_OBLIQUE
 10
-18.0
 20
-11.37454139046735
 30
0.0
 41
2.0
 42
2.0
 43
2.0
 50
180.0
  0
INSERT
  5
2F5
  8
1
  2
_OBLIQUE
 10
-0.0000000000000007
 20
-11.37454139046735
 30
0.0
 41
2.0
 42
2.0
 43
2.0
  0
TEXT
  5
2F6
  8
0
 10
-11.87806957708049
 20
-10.30769282293666
 30
0.0
 40
3.5
  1
18
  7
BESCHLAG
  0
POINT
  5
2F7
  8
DEFPOINTS
 62
     0
 10
-18.0
 20
0.0
 30
0.0
  0
POINT
  5
2F8
  8
DEFPOINTS
 62
     0
 10
0.0
 20
0.0
 30
0.0
  0
POINT
  5
2F9
  8
DEFPOINTS
 62
     0
 10
-0.0000000000000007
 20
-11.37454139046735
 30
0.0
  0
ENDBLK
  5
2D8
  8
0
  0
BLOCK
  8
0
  2
*D4
 70
     1
 10
0.0
 20
0.0
 30
0.0
  3
*D4
  1

  0
LINE
  5
2FA
  8
1
 10
2.0
 20
-0.0000000000000006
 30
0.0
 11
12.78294472954485
 21
-0.0000000000000036
 31
0.0
  0
LINE
  5
2FB
  8
1
 10
2.0
 20
10.0
 30
0.0
 11
12.78294472954485
 21
9.9999999999999964
 31
0.0
  0
LINE
  5
2FC
  8
1
 10
11.78294472954485
 20
-1.0000000000000031
 30
0.0
 11
11.78294472954485
 21
10.999999999999989
 31
0.0
  0
INSERT
  5
2FD
  8
1
  2
_OBLIQUE
 10
11.78294472954485
 20
-0.0000000000000033
 30
0.0
 41
2.0
 42
2.0
 43
2.0
 50
270.0
  0
INSERT
  5
2FE
  8
1
  2
_OBLIQUE
 10
11.78294472954485
 20
9.9999999999999982
 30
0.0
 41
2.0
 42
2.0
 43
2.0
 50
90.0
  0
TEXT
  5
2FF
  8
0
 10
10.71609616201415
 20
2.1314802182810348
 30
0.0
 40
3.5
  1
10
 50
90.0
  7
BESCHLAG
  0
POINT
  5
300
  8
DEFPOINTS
 62
     0
 10
0.0
 20
0.0
 30
0.0
  0
POINT
  5
301
  8
DEFPOINTS
 62
     0
 10
0.0
 20
10.0
 30
0.0
  0
POINT
  5
302
  8
DEFPOINTS
 62
     0
 10
11.78294472954485
 20
9.9999999999999982
 30
0.0
  0
ENDBLK
  5
2E4
  8
0
  0
BLOCK
  8
0
  2
*D5
 70
     1
 10
0.0
 20
0.0
 30
0.0
  3
*D5
  1

  0
LINE
  5
303
  8
1
 10
2.0
 20
10.0
 30
0.0
 11
12.78294472954485
 21
9.9999999999999964
 31
0.0
  0
LINE
  5
304
  8
1
 10
-12.0
 20
15.0
 30
0.0
 11
12.78294472954485
 21
14.999999999999989
 31
0.0
  0
LINE
  5
305
  8
1
 10
11.78294472954485
 20
8.9999999999999982
 30
0.0
 11
11.78294472954485
 21
15.999999999999989
 31
0.0
  0
INSERT
  5
306
  8
1
  2
_OBLIQUE
 10
11.78294472954485
 20
9.9999999999999982
 30
0.0
 41
2.0
 42
2.0
 43
2.0
 50
270.0
  0
INSERT
  5
307
  8
1
  2
_OBLIQUE
 10
11.78294472954485
 20
14.999999999999989
 30
0.0
 41
2.0
 42
2.0
 43
2.0
 50
90.0
  0
TEXT
  5
308
  8
0
 10
10.72325850853529
 20
11.136766712141871
 30
0.0
 40
3.5
  1
5
 50
90.0
  7
BESCHLAG
  0
POINT
  5
309
  8
DEFPOINTS
 62
     0
 10
0.0
 20
10.0
 30
0.0
  0
POINT
  5
30A
  8
DEFPOINTS
 62
     0
 10
-14.0
 20
15.0
 30
0.0
  0
POINT
  5
30B
  8
DEFPOINTS
 62
     0
 10
11.78294472954485
 20
14.999999999999989
 30
0.0
  0
ENDBLK
  5
2F0
  8
0
  0
ENDSEC
  0
SECTION
  2
ENTITIES
  0
INSERT
  5
25B
  8
5
  2
NULLPUNKT
 10
0.0
 20
0.0
 30
0.0
  0
INSERT
  5
2C1
  8
2
  2
*X2
 10
-454.42559011722449
 20
546.72733350213355
 30
0.0
1001
ACAD
1000
HATCH
1002
{
1070
    16
1000
_U,I
1040
1.0
1040
0.7853981633974483
1070
     0
1002
}
  0
POLYLINE
  5
2C2
  8
6
 66
     1
 10
0.0
 20
0.0
 30
0.0
 70
     1
  0
VERTEX
  5
40A
  8
6
 10
-7.2793465775789619
 20
9.6627762762375369
 30
0.0
  0
VERTEX
  5
40B
  8
6
 10
-11.4061335343963
 20
9.6627762762375369
 30
0.0
 42
0.3542222137672995
  0
VERTEX
  5
40C
  8
6
 10
-12.25108394198014
 20
8.8180590169672541
 30
0.0
  0
VERTEX
  5
40D
  8
6
 10
-12.244961121633869
 20
7.3122587478494552
 30
0.0
 42
0.343655940181943
  0
VERTEX
  5
40E
  8
6
 10
-11.30816823110762
 20
6.5042683317642513
 30
0.0
  0
VERTEX
  5
40F
  8
6
 10
-7.0160649027566251
 20
6.5042683317642513
 30
0.0
 42
0.2923726044221553
  0
VERTEX
  5
410
  8
6
 10
-6.275202574370268
 20
7.4101969740117957
 30
0.0
  0
VERTEX
  5
411
  8
6
 10
-6.275202574370268
 20
8.5242443384802282
 30
0.0
 42
0.345210202999001
  0
SEQEND
  5
412
  8
6
  0
TEXT
  5
2C3
  8
1
 10
-11.33086782183727
 20
19.425907538816769
 30
0.0
 40
2.5
  1
Hebgo 117/610
  0
POLYLINE
  5
2C4
  8
6
 66
     1
 10
0.0
 20
0.0
 30
0.0
 70
     1
  0
VERTEX
  5
413
  8
6
 10
-3.4394247255213481
 20
7.0350978011679208
 30
0.0
 42
0.4340228066750199
  0
VERTEX
  5
414
  8
6
 10
-3.427094609762662
 20
7.4110624039753921
 30
0.0
  0
VERTEX
  5
415
  8
6
 10
-4.4689890580953033
 20
8.0951947052155901
 30
0.0
  0
VERTEX
  5
416
  8
6
 10
-4.4689890580953033
 20
9.6915034192752501
 30
0.0
 42
-0.2926708623625712
  0
VERTEX
  5
417
  8
6
 10
-4.2717072059558632
 20
9.9996711512051206
 30
0.0
  0
VERTEX
  5
418
  8
6
 10
-2.1769744555867869
 20
10.005217526901561
 30
0.0
 42
0.4725495945331585
  0
VERTEX
  5
419
  8
6
 10
-1.9166559403474821
 20
10.33249228159138
 30
0.0
 42
0.1497715981737393
  0
VERTEX
  5
41A
  8
6
 10
-2.0399570979343471
 20
10.89952084804804
 30
0.0
 42
0.1375660736324291
  0
VERTEX
  5
41B
  8
6
 10
-3.6860269518210771
 20
11.87949416524156
 30
0.0
 42
0.3441417900027466
  0
VERTEX
  5
41C
  8
6
 10
-14.779115969444319
 20
13.958688647531281
 30
0.0
 42
1.013427136496432
  0
VERTEX
  5
41D
  8
6
 10
-14.177133449513351
 20
12.85177639067342
 30
0.0
 42
-0.2618032337289678
  0
VERTEX
  5
41E
  8
6
 10
-6.458857545162572
 20
11.98129198930018
 30
0.0
 42
-1.48716411242179
  0
VERTEX
  5
41F
  8
6
 10
-6.2526870141427926
 20
11.400486552277471
 30
0.0
  0
VERTEX
  5
420
  8
6
 10
-13.633822306972879
 20
11.50658690581667
 30
0.0
 42
0.264033326694127
  0
VERTEX
  5
421
  8
6
 10
-15.530686590079309
 20
10.313340339278049
 30
0.0
 42
0.4546962762195842
  0
VERTEX
  5
422
  8
6
 10
-15.31618462233109
 20
10.001074945867909
 30
0.0
  0
VERTEX
  5
423
  8
6
 10
-13.79503148389994
 20
9.9982508759903794
 30
0.0
 42
-0.5545890291270417
  0
VERTEX
  5
424
  8
6
 10
-13.529322606240379
 20
9.6656787962226645
 30
0.0
  0
VERTEX
  5
425
  8
6
 10
-13.529322606240379
 20
8.2431666814202345
 30
0.0
 42
-0.3795622521557158
  0
VERTEX
  5
426
  8
6
 10
-13.81861851324765
 20
7.921056268492066
 30
0.0
  0
VERTEX
  5
427
  8
6
 10
-16.022318366682612
 20
7.3526017993151518
 30
0.0
 42
0.2098868600260434
  0
VERTEX
  5
428
  8
6
 10
-16.132252644823431
 20
7.2484633014075817
 30
0.0
 42
0.3590346299987293
  0
VERTEX
  5
429
  8
6
 10
-15.97389375705961
 20
6.4319265801996153
 30
0.0
  0
VERTEX
  5
42A
  8
6
 10
-13.078148031854649
 20
4.8197824674357426
 30
0.0
 42
0.1375040557749069
  0
VERTEX
  5
42B
  8
6
 10
-12.522856316360039
 20
4.6809978630299147
 30
0.0
  0
VERTEX
  5
42C
  8
6
 10
-6.6573587533343916
 20
4.6809978630299147
 30
0.0
 42
0.1555493545182818
  0
VERTEX
  5
42D
  8
6
 10
-5.1768092376069026
 20
5.2014401965457182
 30
0.0
  0
SEQEND
  5
42E
  8
6
  0
LINE
  5
2C5
  8
6
  6
STRICHPUNKT
 10
-9.0
 20
2.3143245672001731
 30
0.0
 11
-9.0
 21
-4.8417344576058658
 31
0.0
  0
DIMENSION
  5
2C6
  8
1
  2
*D3
 10
-0.0000000000000007
 20
-11.37454139046735
 30
0.0
 11
-9.0
 21
-8.5875359334414352
 31
0.0
 70
     0
 13
-18.0
 23
0.0
 33
0.0
 14
0.0
 24
0.0
 34
0.0
  0
POLYLINE
  5
2C7
  8
5
 66
     1
 10
0.0
 20
0.0
 30
0.0
  0
VERTEX
  5
42F
  8
5
 10
-18.0
 20
22.0
 30
0.0
  0
VERTEX
  5
430
  8
5
 10
-18.0
 20
0.0
 30
0.0
  0
VERTEX
  5
431
  8
5
 10
0.0
 20
0.0
 30
0.0
  0
VERTEX
  5
432
  8
5
 10
0.0
 20
-6.0
 30
0.0
  0
SEQEND
  5
433
  8
5
  0
POLYLINE
  5
2C8
  8
6
 66
     1
 10
0.0
 20
0.0
 30
0.0
 70
     1
  0
VERTEX
  5
434
  8
6
 10
-13.5
 20
8.1999999999998181
 30
0.0
  0
VERTEX
  5
435
  8
6
 10
-13.5
 20
9.0
 30
0.0
 42
0.4142135623730951
  0
VERTEX
  5
436
  8
6
 10
-14.5
 20
10.0
 30
0.0
  0
VERTEX
  5
437
  8
6
 10
-17.800000000000178
 20
10.0
 30
0.0
 42
0.4142135623730951
  0
VERTEX
  5
438
  8
6
 10
-18.0
 20
9.7999999999992724
 30
0.0
  0
VERTEX
  5
439
  8
6
 10
-18.0
 20
3.0
 30
0.0
 42
0.4142135623730951
  0
VERTEX
  5
43A
  8
6
 10
-15.0
 20
0.0
 30
0.0
  0
VERTEX
  5
43B
  8
6
 10
-0.1999999999998181
 20
0.0
 30
0.0
 42
0.4142135623730951
  0
VERTEX
  5
43C
  8
6
 10
0.0
 20
0.1999999999998181
 30
0.0
  0
VERTEX
  5
43D
  8
6
 10
0.0
 20
8.5
 30
0.0
 42
0.4142135623730951
  0
VERTEX
  5
43E
  8
6
 10
-1.5
 20
10.0
 30
0.0
  0
VERTEX
  5
43F
  8
6
 10
-3.5
 20
10.0
 30
0.0
 42
0.4142135623730951
  0
VERTEX
  5
440
  8
6
 10
-4.5
 20
9.0
 30
0.0
  0
VERTEX
  5
441
  8
6
 10
-4.5
 20
8.1999999999998181
 30
0.0
 42
0.4142135623730951
  0
VERTEX
  5
442
  8
6
 10
-4.300000000000181
 20
8.0
 30
0.0
  0
VERTEX
  5
443
  8
6
 10
-1.6999999999998181
 20
8.0
 30
0.0
 42
-0.4142135623730951
  0
VERTEX
  5
444
  8
6
 10
-1.5
 20
7.7999999999992724
 30
0.0
  0
VERTEX
  5
445
  8
6
 10
-1.5
 20
3.5
 30
0.0
 42
-0.4142135623730951
  0
VERTEX
  5
446
  8
6
 10
-3.0
 20
2.0
 30
0.0
  0
VERTEX
  5
447
  8
6
 10
-8.5171572886029026
 20
2.0
 30
0.0
 42
0.1989123680792255
  0
VERTEX
  5
448
  8
6
 10
-8.6585786452205866
 20
1.941421355856618
 30
0.0
  0
VERTEX
  5
449
  8
6
 10
-8.8585786437624847
 20
1.7414213562387879
 30
0.0
 42
-0.4142135623727621
  0
VERTEX
  5
44A
  8
6
 10
-9.1414213562375153
 20
1.7414213562387879
 30
0.0
  0
VERTEX
  5
44B
  8
6
 10
-9.3414213576943421
 20
1.941421356618775
 30
0.0
 42
0.1989123666794477
  0
VERTEX
  5
44C
  8
6
 10
-9.4828427135507791
 20
2.0
 30
0.0
  0
VERTEX
  5
44D
  8
6
 10
-15.0
 20
2.0
 30
0.0
 42
-0.4142135623730951
  0
VERTEX
  5
44E
  8
6
 10
-16.5
 20
3.5
 30
0.0
  0
VERTEX
  5
44F
  8
6
 10
-16.5
 20
7.7999999999992724
 30
0.0
 42
-0.4142135623730951
  0
VERTEX
  5
450
  8
6
 10
-16.300000000000178
 20
8.0
 30
0.0
  0
VERTEX
  5
451
  8
6
 10
-13.699999999999809
 20
8.0
 30
0.0
 42
0.4142135623730951
  0
SEQEND
  5
452
  8
6
  0
POLYLINE
  5
2C9
  8
4
 66
     1
 10
0.0
 20
0.0
 30
0.0
 70
     1
  0
VERTEX
  5
453
  8
4
 10
-18.0
 20
0.0
 30
0.0
  0
VERTEX
  5
454
  8
4
 10
-18.0
 20
10.0
 30
0.0
  0
VERTEX
  5
455
  8
4
 10
0.0
 20
10.0
 30
0.0
  0
VERTEX
  5
456
  8
4
 10
0.0
 20
0.0
 30
0.0
  0
SEQEND
  5
457
  8
4
  0
POLYLINE
  5
2CA
  8
5
 66
     1
 10
0.0
 20
0.0
 30
0.0
  0
VERTEX
  5
458
  8
5
 10
-14.0
 20
22.0
 30
0.0
  0
VERTEX
  5
459
  8
5
 10
-14.0
 20
15.0
 30
0.0
  0
VERTEX
  5
45A
  8
5
 10
11.0
 20
15.0
 30
0.0
  0
SEQEND
  5
45B
  8
5
  0
DIMENSION
  5
2CB
  8
1
  2
*D4
 10
11.78294472954485
 20
9.9999999999999982
 30
0.0
 11
8.9959392725189282
 21
4.9999999999999991
 31
0.0
 70
     0
 13
0.0
 23
0.0
 33
0.0
 14
0.0
 24
10.0
 34
0.0
 50
90.0
  0
DIMENSION
  5
2CC
  8
1
  2
*D5
 10
11.78294472954485
 20
14.999999999999989
 30
0.0
 11
9.0031016190400734
 21
12.499999999999989
 31
0.0
 70
     0
 13
0.0
 23
10.0
 33
0.0
 14
-14.0
 24
15.0
 34
0.0
 50
90.0
  0
VIEWPORT
  5
22
 67
     1
  8
0
 10
210.0
 20
170.2366863905325
 30
0.0
 40
420.0
 41
340.47337278106511
 68
     1
 69
     1
1001
ACAD
1000
MVIEW
1002
{
1070
    16
1010
0.0
1020
0.0
1030
0.0
1010
0.0
1020
0.0
1030
1.0
1040
0.0
1040
340.47337278106511
1040
210.0
1040
170.2366863905325
1040
50.0
1040
0.0
1040
0.0
1070
     0
1070
   100
1070
     1
1070
     1
1070
     0
1070
     0
1070
     0
1070
     0
1040
0.0
1040
0.0
1040
0.0
1040
5.0
1040
5.0
1040
10.0
1040
10.0
1070
     0
1002
{
1002
}
1002
}
  0
ENDSEC
  0
EOF
