  0
SECTION
  2
HEADER
  9
$ACADVER
  1
AC1009
  9
$INSBASE
 10
0.0
 20
0.0
 30
0.0
  9
$EXTMIN
 10
-31.150817034243119
 20
-14.23644933877096
 30
-0.0000000000112498
  9
$EXTMAX
 10
14.4195562047181
 20
19.935608457233339
 30
0.0000000000002956
  9
$LIMMIN
 10
-150.0
 20
-150.0
  9
$LIMMAX
 10
150.0
 20
150.0
  9
$ORTHOMODE
 70
     0
  9
$REGENMODE
 70
     1
  9
$FILLMODE
 70
     1
  9
$QTEXTMODE
 70
     0
  9
$MIRRTEXT
 70
     0
  9
$DRAGMODE
 70
     2
  9
$LTSCALE
 40
2.0
  9
$OSMODE
 70
   111
  9
$ATTMODE
 70
     1
  9
$TEXTSIZE
 40
3.5
  9
$TRACEWID
 40
1.0
  9
$TEXTSTYLE
  7
BESCHLAG
  9
$CLAYER
  8
0
  9
$CELTYPE
  6
BYLAYER
  9
$CECOLOR
 62
   256
  9
$DIMSCALE
 40
1.0
  9
$DIMASZ
 40
2.0
  9
$DIMEXO
 40
2.0
  9
$DIMDLI
 40
0.0
  9
$DIMRND
 40
0.0
  9
$DIMDLE
 40
1.0
  9
$DIMEXE
 40
1.0
  9
$DIMTP
 40
0.0
  9
$DIMTM
 40
0.0
  9
$DIMTXT
 40
3.5
  9
$DIMCEN
 40
0.0
  9
$DIMTSZ
 40
0.0
  9
$DIMTOL
 70
     0
  9
$DIMLIM
 70
     0
  9
$DIMTIH
 70
     0
  9
$DIMTOH
 70
     0
  9
$DIMSE1
 70
     0
  9
$DIMSE2
 70
     0
  9
$DIMTAD
 70
     1
  9
$DIMZIN
 70
     8
  9
$DIMBLK
  1

  9
$DIMASO
 70
     1
  9
$DIMSHO
 70
     1
  9
$DIMPOST
  1

  9
$DIMAPOST
  1

  9
$DIMALT
 70
     0
  9
$DIMALTD
 70
     2
  9
$DIMALTF
 40
0.039370078740157
  9
$DIMLFAC
 40
1.0
  9
$DIMTOFL
 70
     1
  9
$DIMTVP
 40
0.0
  9
$DIMTIX
 70
     1
  9
$DIMSOXD
 70
     0
  9
$DIMSAH
 70
     1
  9
$DIMBLK1
  1
OBLIQUE
  9
$DIMBLK2
  1
OBLIQUE
  9
$DIMSTYLE
  2
OPO-SSTRICH
  9
$DIMCLRD
 70
   256
  9
$DIMCLRE
 70
   256
  9
$DIMCLRT
 70
   256
  9
$DIMTFAC
 40
0.7114285714285716
  9
$DIMGAP
 40
1.0
  9
$LUNITS
 70
     2
  9
$LUPREC
 70
     1
  9
$SKETCHINC
 40
1.0
  9
$FILLETRAD
 40
0.0
  9
$AUNITS
 70
     0
  9
$AUPREC
 70
     1
  9
$MENU
  1
D:\ACL_CGWG\CGTAB13
  9
$ELEVATION
 40
0.0
  9
$PELEVATION
 40
0.0
  9
$THICKNESS
 40
0.0
  9
$LIMCHECK
 70
     0
  9
$BLIPMODE
 70
     0
  9
$CHAMFERA
 40
1.0
  9
$CHAMFERB
 40
1.0
  9
$SKPOLY
 70
     0
  9
$TDCREATE
 40
2451739.8592442479
  9
$TDUPDATE
 40
2452086.7345250351
  9
$TDINDWG
 40
0.0009718171
  9
$TDUSRTIMER
 40
0.0009718171
  9
$USRTIMER
 70
     1
  9
$ANGBASE
 50
0.0
  9
$ANGDIR
 70
     0
  9
$PDMODE
 70
    35
  9
$PDSIZE
 40
5.0
  9
$PLINEWID
 40
0.0
  9
$COORDS
 70
     1
  9
$SPLFRAME
 70
     0
  9
$SPLINETYPE
 70
     6
  9
$SPLINESEGS
 70
     8
  9
$ATTDIA
 70
     1
  9
$ATTREQ
 70
     1
  9
$HANDLING
 70
-16383
  9
$HANDSEED
  5
461
  9
$SURFTAB1
 70
    12
  9
$SURFTAB2
 70
    12
  9
$SURFTYPE
 70
     6
  9
$SURFU
 70
    12
  9
$SURFV
 70
    12
  9
$UCSNAME
  2

  9
$UCSORG
 10
0.0
 20
0.0
 30
0.0
  9
$UCSXDIR
 10
1.0
 20
0.0
 30
0.0
  9
$UCSYDIR
 10
0.0
 20
1.0
 30
0.0
  9
$PUCSNAME
  2

  9
$PUCSORG
 10
0.0
 20
0.0
 30
0.0
  9
$PUCSXDIR
 10
1.0
 20
0.0
 30
0.0
  9
$PUCSYDIR
 10
0.0
 20
1.0
 30
0.0
  9
$USERI1
 70
     0
  9
$USERI2
 70
     0
  9
$USERI3
 70
     0
  9
$USERI4
 70
     0
  9
$USERI5
 70
     0
  9
$USERR1
 40
0.0
  9
$USERR2
 40
0.0
  9
$USERR3
 40
0.0
  9
$USERR4
 40
0.0
  9
$USERR5
 40
0.0
  9
$WORLDVIEW
 70
     1
  9
$SHADEDGE
 70
     3
  9
$SHADEDIF
 70
    70
  9
$TILEMODE
 70
     1
  9
$MAXACTVP
 70
    48
  9
$PLIMCHECK
 70
     0
  9
$PEXTMIN
 10
1.0000000000000000E+020
 20
1.0000000000000000E+020
 30
1.0000000000000000E+020
  9
$PEXTMAX
 10
-1.0000000000000000E+020
 20
-1.0000000000000000E+020
 30
-1.0000000000000000E+020
  9
$PLIMMIN
 10
0.0
 20
0.0
  9
$PLIMMAX
 10
420.0
 20
297.0
  9
$UNITMODE
 70
     0
  9
$VISRETAIN
 70
     1
  9
$PLINEGEN
 70
     0
  9
$PSLTSCALE
 70
     1
  0
ENDSEC
  0
SECTION
  2
TABLES
  0
TABLE
  2
VPORT
 70
     2
  0
VPORT
  2
*ACTIVE
 70
     0
 10
0.0
 20
0.0
 11
1.0
 21
1.0
 12
-8.3656304147625065
 22
2.849579559231187
 13
0.0
 23
0.0
 14
0.5
 24
0.5
 15
10.0
 25
10.0
 16
0.0
 26
0.0
 36
1.0
 17
0.0
 27
0.0
 37
0.0
 40
34.449503461465781
 41
1.6070460704607039
 42
50.0
 43
0.0
 44
0.0
 50
0.0
 51
0.0
 71
     0
 72
   800
 73
     1
 74
     1
 75
     0
 76
     0
 77
     0
 78
     0
  0
ENDTAB
  0
TABLE
  2
LTYPE
 70
     2
  0
LTYPE
  2
CONTINUOUS
 70
     0
  3
_______________________________________________
 72
    65
 73
     2
 40
1.0
 49
1.0
 49
0.0
  0
LTYPE
  2
STRICHPUNKT
 70
     0
  3
__ . __ . __ . __ . __ . __ . __ . __ . __ . __
 72
    65
 73
     4
 40
1.0
 49
0.5
 49
-0.25
 49
0.0
 49
-0.25
  0
ENDTAB
  0
TABLE
  2
LAYER
 70
     7
  0
LAYER
  2
0
 70
     0
 62
    30
  6
CONTINUOUS
  0
LAYER
  2
1
 70
     0
 62
     2
  6
CONTINUOUS
  0
LAYER
  2
2
 70
     0
 62
     9
  6
CONTINUOUS
  0
LAYER
  2
4
 70
     1
 62
     4
  6
CONTINUOUS
  0
LAYER
  2
5
 70
     0
 62
     1
  6
CONTINUOUS
  0
LAYER
  2
6
 70
     0
 62
     3
  6
CONTINUOUS
  0
LAYER
  2
DEFPOINTS
 70
     0
 62
     7
  6
CONTINUOUS
  0
ENDTAB
  0
TABLE
  2
STYLE
 70
     2
  0
STYLE
  2
STANDARD
 70
     0
 40
0.0
 41
1.0
 50
0.0
 71
     0
 42
2.5
  3
txt
  4

  0
STYLE
  2
BESCHLAG
 70
     0
 40
0.0
 41
1.0
 50
0.0
 71
     0
 42
3.5
  3
txt
  4

  0
ENDTAB
  0
TABLE
  2
VIEW
 70
     0
  0
ENDTAB
  0
TABLE
  2
UCS
 70
     0
  0
ENDTAB
  0
TABLE
  2
APPID
 70
     1
  0
APPID
  2
ACAD
 70
     0
  0
ENDTAB
  0
TABLE
  2
DIMSTYLE
 70
     1
  0
DIMSTYLE
  2
OPO-SSTRICH
 70
     0
  3

  4

  5

  6
OBLIQUE
  7
OBLIQUE
 40
1.0
 41
2.0
 42
2.0
 43
0.0
 44
1.0
 45
0.0
 46
1.0
 47
0.0
 48
0.0
140
3.5
141
0.0
142
0.0
143
0.039370078740157
144
1.0
145
0.0
146
0.7114285714285716
147
1.0
 71
     0
 72
     0
 73
     0
 74
     0
 75
     0
 76
     0
 77
     1
 78
     8
170
     0
171
     2
172
     1
173
     1
174
     1
175
     0
176
   256
177
   256
178
   256
  0
ENDTAB
  0
ENDSEC
  0
SECTION
  2
BLOCKS
  0
BLOCK
  8
0
  2
$MODEL_SPACE
 70
     0
 10
0.0
 20
0.0
 30
0.0
  3
$MODEL_SPACE
  1

  0
ENDBLK
  5
1C
  8
0
  0
BLOCK
 67
     1
  8
0
  2
$PAPER_SPACE
 70
     0
 10
0.0
 20
0.0
 30
0.0
  3
$PAPER_SPACE
  1

  0
ENDBLK
  5
19
 67
     1
  8
0
  0
BLOCK
  8
0
  2
_OBLIQUE
 70
     0
 10
0.0
 20
0.0
 30
0.0
  3
_OBLIQUE
  1

  0
LINE
  5
204
  8
0
 62
     0
 10
-0.5
 20
-0.5
 30
0.0
 11
0.5
 21
0.5
 31
0.0
  0
ENDBLK
  5
206
  8
0
  0
BLOCK
  8
0
  2
NULLPUNKT
 70
     0
 10
0.0
 20
0.0
 30
0.0
  3
NULLPUNKT
  1

  0
SOLID
  5
254
  8
5
 10
0.0
 20
0.0
 30
0.0
 11
2.0
 21
0.0
 31
0.0
 12
0.0
 22
-2.0
 32
0.0
 13
0.0
 23
-2.0
 33
0.0
  0
SOLID
  5
255
  8
5
 10
0.0
 20
0.0
 30
0.0
 11
-2.0
 21
0.0
 31
0.0
 12
0.0
 22
2.0
 32
0.0
 13
0.0
 23
2.0
 33
0.0
  0
POLYLINE
  5
256
  8
5
 66
     1
 10
0.0
 20
0.0
 30
0.0
  0
VERTEX
  5
410
  8
5
 10
0.0
 20
2.0
 30
0.0
  0
VERTEX
  5
411
  8
5
 10
0.0
 20
-2.0
 30
0.0
  0
SEQEND
  5
412
  8
5
  0
POLYLINE
  5
257
  8
5
 66
     1
 10
0.0
 20
0.0
 30
0.0
  0
VERTEX
  5
413
  8
5
 10
-2.0
 20
0.0
 30
0.0
  0
VERTEX
  5
414
  8
5
 10
2.0
 20
0.0
 30
0.0
  0
SEQEND
  5
415
  8
5
  0
CIRCLE
  5
258
  8
5
 10
0.0
 20
0.0
 30
0.0
 40
2.0
  0
ENDBLK
  5
25A
  8
0
  0
BLOCK
  8
0
  2
*X2
 70
     1
 10
0.0
 20
0.0
 30
0.0
  3
*X2
  1

  0
LINE
  5
2A8
  8
0
 62
     0
 10
362.97717456527562
 20
-554.39493657576713
 30
0.0
 11
364.6771745652764
 21
-552.69493657576641
 31
0.0
  0
LINE
  5
2A9
  8
0
 62
     0
 10
366.76541824855877
 20
-550.60669289248403
 30
0.0
 11
368.01178388108741
 21
-549.36032725995528
 31
0.0
  0
LINE
  5
2AA
  8
0
 62
     0
 10
362.21541824855927
 20
-553.74247933011043
 30
0.0
 11
363.2629610029033
 21
-552.69493657576641
 31
0.0
  0
LINE
  5
2AB
  8
0
 62
     0
 10
365.78319182313169
 20
-550.17470575553796
 30
0.0
 11
367.19894620776279
 21
-548.75895137090686
 31
0.0
  0
LINE
  5
2AC
  8
0
 62
     0
 10
364.7855043527664
 20
-549.75817966353009
 30
0.0
 11
365.82866133632263
 21
-548.71502267997403
 31
0.0
  0
LINE
  5
2AD
  8
0
 62
     0
 10
364.39138812764872
 20
-554.39493657576713
 30
0.0
 11
366.09138812764951
 21
-552.69493657576641
 31
0.0
  0
LINE
  5
2AE
  8
0
 62
     0
 10
366.76541824855877
 20
-552.02090645485714
 30
0.0
 11
368.26541824855877
 21
-550.52090645485714
 31
0.0
  0
LINE
  5
2AF
  8
0
 62
     0
 10
365.80560169002177
 20
-554.39493657576713
 30
0.0
 11
368.26541824855877
 21
-551.93512001723013
 31
0.0
  0
LINE
  5
2B0
  8
0
 62
     0
 10
366.76541824855877
 20
-554.84933357960324
 30
0.0
 11
368.26541824855877
 21
-553.34933357960324
 31
0.0
  0
LINE
  5
2B1
  8
0
 62
     0
 10
366.76541824855877
 20
-556.26354714197635
 30
0.0
 11
368.26541824855877
 21
-554.76354714197635
 31
0.0
  0
LINE
  5
2B2
  8
0
 62
     0
 10
366.76541824855877
 20
-557.67776070434945
 30
0.0
 11
368.26541824855877
 21
-556.17776070434945
 31
0.0
  0
LINE
  5
2B3
  8
0
 62
     0
 10
367.65757755047809
 20
-558.19981496480329
 30
0.0
 11
368.07029663759499
 21
-557.7870958776864
 31
0.0
  0
ENDBLK
  5
2B5
  8
0
  0
BLOCK
  8
0
  2
*X3
 70
     1
 10
0.0
 20
0.0
 30
0.0
  3
*X3
  1

  0
LINE
  5
2B7
  8
0
 62
     0
 10
353.6150506884245
 20
-553.85756551600662
 30
0.0
 11
354.83026052913033
 21
-552.64235567530079
 31
0.0
  0
LINE
  5
2B8
  8
0
 62
     0
 10
353.26541824855872
 20
-552.7929843934993
 30
0.0
 11
354.76541824855872
 21
-551.29298439349918
 31
0.0
  0
LINE
  5
2B9
  8
0
 62
     0
 10
355.88369688652
 20
-550.17470575553796
 30
0.0
 11
356.63620471285179
 21
-549.42219792920628
 31
0.0
  0
LINE
  5
2BA
  8
0
 62
     0
 10
353.26541824855872
 20
-551.37877083112608
 30
0.0
 11
355.88312846846748
 21
-548.76106061121754
 31
0.0
  0
LINE
  5
2BB
  8
0
 62
     0
 10
353.26541824855872
 20
-549.96455726875308
 30
0.0
 11
354.53503894154539
 21
-548.69493657576641
 31
0.0
  0
LINE
  5
2BC
  8
0
 62
     0
 10
354.51324263700673
 20
-554.37358712979744
 30
0.0
 11
356.19189319103788
 21
-552.69493657576641
 31
0.0
  0
LINE
  5
2BD
  8
0
 62
     0
 10
355.9061067534102
 20
-554.39493657576713
 30
0.0
 11
357.60610675341098
 21
-552.69493657576641
 31
0.0
  0
LINE
  5
2BE
  8
0
 62
     0
 10
357.32032031578331
 20
-554.39493657576713
 30
0.0
 11
359.02032031578409
 21
-552.69493657576641
 31
0.0
  0
LINE
  5
2BF
  8
0
 62
     0
 10
358.73453387815641
 20
-554.39493657576713
 30
0.0
 11
359.3154182485593
 21
-553.81405220536431
 31
0.0
  0
ENDBLK
  5
2C1
  8
0
  0
BLOCK
  8
0
  2
*D4
 70
     1
 10
0.0
 20
0.0
 30
0.0
  3
*D4
  1

  0
LINE
  5
326
  8
1
 10
3.5
 20
5.9999999999999991
 30
0.0
 11
14.40872265795042
 21
5.9999999999999947
 31
0.0
  0
LINE
  5
327
  8
1
 10
3.5
 20
12.0
 30
0.0
 11
14.40872265795042
 21
11.999999999999989
 31
0.0
  0
LINE
  5
328
  8
1
 10
13.40872265795042
 20
4.9999999999999956
 30
0.0
 11
13.40872265795042
 21
12.999999999999989
 31
0.0
  0
INSERT
  5
329
  8
1
  2
_OBLIQUE
 10
13.40872265795042
 20
5.9999999999999956
 30
0.0
 41
2.0
 42
2.0
 43
2.0
 50
270.0
  0
INSERT
  5
32A
  8
1
  2
_OBLIQUE
 10
13.40872265795042
 20
11.999999999999989
 30
0.0
 41
2.0
 42
2.0
 43
2.0
 50
90.0
  0
TEXT
  5
32B
  8
0
 10
12.34187409041972
 20
7.6606412005457019
 30
0.0
 40
3.5
  1
6
 50
90.0
  7
BESCHLAG
  0
POINT
  5
32C
  8
DEFPOINTS
 62
     0
 10
1.5
 20
6.0
 30
0.0
  0
POINT
  5
32D
  8
DEFPOINTS
 62
     0
 10
1.5
 20
12.0
 30
0.0
  0
POINT
  5
32E
  8
DEFPOINTS
 62
     0
 10
13.40872265795042
 20
11.999999999999989
 30
0.0
  0
ENDBLK
  5
2F5
  8
0
  0
BLOCK
  8
0
  2
*D5
 70
     1
 10
0.0
 20
0.0
 30
0.0
  3
*D5
  1

  0
LINE
  5
32F
  8
1
 10
3.5
 20
-4.0
 30
0.0
 11
14.40872265795041
 21
-4.0000000000000027
 31
0.0
  0
LINE
  5
330
  8
1
 10
3.5
 20
5.9999999999999991
 30
0.0
 11
14.40872265795042
 21
5.9999999999999947
 31
0.0
  0
LINE
  5
331
  8
1
 10
13.40872265795041
 20
-5.0000000000000018
 30
0.0
 11
13.40872265795042
 21
6.9999999999999956
 31
0.0
  0
INSERT
  5
332
  8
1
  2
_OBLIQUE
 10
13.40872265795041
 20
-4.0000000000000018
 30
0.0
 41
2.0
 42
2.0
 43
2.0
 50
270.0
  0
INSERT
  5
333
  8
1
  2
_OBLIQUE
 10
13.40872265795042
 20
5.9999999999999956
 30
0.0
 41
2.0
 42
2.0
 43
2.0
 50
90.0
  0
TEXT
  5
334
  8
0
 10
12.34187409041972
 20
-1.868519781718964
 30
0.0
 40
3.5
  1
10
 50
90.0
  7
BESCHLAG
  0
POINT
  5
335
  8
DEFPOINTS
 62
     0
 10
1.5
 20
-4.0
 30
0.0
  0
POINT
  5
336
  8
DEFPOINTS
 62
     0
 10
1.5
 20
6.0
 30
0.0
  0
POINT
  5
337
  8
DEFPOINTS
 62
     0
 10
13.40872265795042
 20
5.9999999999999956
 30
0.0
  0
ENDBLK
  5
301
  8
0
  0
BLOCK
  8
0
  2
*D6
 70
     1
 10
0.0
 20
0.0
 30
0.0
  3
*D6
  1

  0
LINE
  5
338
  8
1
 10
-16.0
 20
0.0000000000000006
 30
0.0
 11
-26.649281272064851
 21
0.0000000000000036
 31
0.0
  0
LINE
  5
339
  8
1
 10
-15.999999999999989
 20
6.0
 30
0.0
 11
-26.649281272064851
 21
6.0000000000000027
 31
0.0
  0
LINE
  5
33A
  8
1
 10
-25.649281272064851
 20
-0.9999999999999968
 30
0.0
 11
-25.649281272064851
 21
7.0000000000000018
 31
0.0
  0
INSERT
  5
33B
  8
1
  2
_OBLIQUE
 10
-25.649281272064851
 20
0.0000000000000033
 30
0.0
 41
2.0
 42
2.0
 43
2.0
 50
270.0
  0
INSERT
  5
33C
  8
1
  2
_OBLIQUE
 10
-25.649281272064851
 20
6.0000000000000018
 30
0.0
 41
2.0
 42
2.0
 43
2.0
 50
90.0
  0
TEXT
  5
33D
  8
0
 10
-26.716129839595549
 20
1.660641200545701
 30
0.0
 40
3.5
  1
6
 50
90.0
  7
BESCHLAG
  0
POINT
  5
33E
  8
DEFPOINTS
 62
     0
 10
-14.0
 20
0.0
 30
0.0
  0
POINT
  5
33F
  8
DEFPOINTS
 62
     0
 10
-14.0
 20
6.0
 30
0.0
  0
POINT
  5
340
  8
DEFPOINTS
 62
     0
 10
-25.649281272064851
 20
6.0000000000000018
 30
0.0
  0
ENDBLK
  5
30D
  8
0
  0
BLOCK
  8
0
  2
*D7
 70
     1
 10
0.0
 20
0.0
 30
0.0
  3
*D7
  1

  0
LINE
  5
341
  8
1
 10
-15.999999999999989
 20
6.0
 30
0.0
 11
-26.649281272064851
 21
6.0000000000000027
 31
0.0
  0
LINE
  5
342
  8
1
 10
-16.0
 20
12.0
 30
0.0
 11
-26.649281272064851
 21
12.0
 31
0.0
  0
LINE
  5
343
  8
1
 10
-25.649281272064851
 20
5.0000000000000018
 30
0.0
 11
-25.649281272064851
 21
13.0
 31
0.0
  0
INSERT
  5
344
  8
1
  2
_OBLIQUE
 10
-25.649281272064851
 20
6.0000000000000018
 30
0.0
 41
2.0
 42
2.0
 43
2.0
 50
270.0
  0
INSERT
  5
345
  8
1
  2
_OBLIQUE
 10
-25.649281272064851
 20
12.0
 30
0.0
 41
2.0
 42
2.0
 43
2.0
 50
90.0
  0
TEXT
  5
346
  8
0
 10
-26.716129839595549
 20
7.6606412005457001
 30
0.0
 40
3.5
  1
6
 50
90.0
  7
BESCHLAG
  0
POINT
  5
347
  8
DEFPOINTS
 62
     0
 10
-14.0
 20
6.0
 30
0.0
  0
POINT
  5
348
  8
DEFPOINTS
 62
     0
 10
-14.0
 20
12.0
 30
0.0
  0
POINT
  5
349
  8
DEFPOINTS
 62
     0
 10
-25.649281272064851
 20
12.0
 30
0.0
  0
ENDBLK
  5
319
  8
0
  0
BLOCK
  8
0
  2
*D8
 70
     1
 10
0.0
 20
0.0
 30
0.0
  3
*D8
  1

  0
LINE
  5
34A
  8
1
 10
-14.0
 20
-2.0
 30
0.0
 11
-14.0
 21
-14.23533025777396
 31
0.0
  0
LINE
  5
34B
  8
1
 10
-0.0000000000000001
 20
-2.0
 30
0.0
 11
-0.0000000000000009
 21
-14.23533025777396
 31
0.0
  0
LINE
  5
34C
  8
1
 10
-15.0
 20
-13.23533025777396
 30
0.0
 11
0.9999999999999992
 21
-13.23533025777396
 31
0.0
  0
INSERT
  5
34D
  8
1
  2
_OBLIQUE
 10
-14.0
 20
-13.23533025777396
 30
0.0
 41
2.0
 42
2.0
 43
2.0
 50
180.0
  0
INSERT
  5
34E
  8
1
  2
_OBLIQUE
 10
-0.0000000000000008
 20
-13.23533025777396
 30
0.0
 41
2.0
 42
2.0
 43
2.0
  0
TEXT
  5
34F
  8
0
 10
-9.8673260572987722
 20
-12.22816791125282
 30
0.0
 40
3.5
  1
14
  7
BESCHLAG
  0
POINT
  5
350
  8
DEFPOINTS
 62
     0
 10
-14.0
 20
0.0
 30
0.0
  0
POINT
  5
351
  8
DEFPOINTS
 62
     0
 10
0.0
 20
0.0
 30
0.0
  0
POINT
  5
352
  8
DEFPOINTS
 62
     0
 10
-0.0000000000000008
 20
-13.23533025777396
 30
0.0
  0
ENDBLK
  5
325
  8
0
  0
ENDSEC
  0
SECTION
  2
ENTITIES
  0
INSERT
  5
25B
  8
5
  2
NULLPUNKT
 10
0.0
 20
0.0
 30
0.0
  0
INSERT
  5
2D9
  8
2
  2
*X3
 10
-366.76541824855872
 20
554.39493657576713
 30
0.0
1001
ACAD
1000
HATCH
1002
{
1070
    16
1000
_U,I
1040
1.0
1040
0.7853981633974483
1070
     0
1002
}
  0
INSERT
  5
2DA
  8
2
  2
*X2
 10
-366.76541824855872
 20
554.39493657576713
 30
0.0
1001
ACAD
1000
HATCH
1002
{
1070
    16
1000
_U,I
1040
1.0
1040
0.7853981633974483
1070
     0
1002
}
  0
LINE
  5
2DB
  8
6
 10
-7.4499999999993634
 20
1.700000000000272
 30
0.0
 11
-7.4499999999993634
 21
0.0
 31
0.0
  0
LINE
  5
2DC
  8
6
 10
-4.5499999999994989
 20
1.700000000000272
 30
0.0
 11
-4.5499999999994989
 21
0.0
 31
0.0
  0
DIMENSION
  5
2DD
  8
1
  2
*D4
 10
13.40872265795042
 20
11.999999999999989
 30
0.0
 11
10.62171720092449
 21
9.0
 31
0.0
 70
     0
 13
1.5
 23
6.0
 33
0.0
 14
1.5
 24
12.0
 34
0.0
 50
90.0
  0
DIMENSION
  5
2DE
  8
1
  2
*D5
 10
13.40872265795042
 20
5.9999999999999956
 30
0.0
 11
10.62171720092449
 21
0.9999999999999991
 31
0.0
 70
     0
 13
1.5
 23
-4.0
 33
0.0
 14
1.5
 24
6.0
 34
0.0
 50
90.0
  0
TEXT
  5
2DF
  8
1
 10
-19.034884974992561
 20
16.755579805028439
 30
0.0
 40
2.5
  1
Hebgo 120/523
  0
POLYLINE
  5
2E0
  8
5
 66
     1
 10
0.0
 20
0.0
 30
0.0
  0
VERTEX
  5
416
  8
5
 10
-19.0
 20
6.0
 30
0.0
  0
VERTEX
  5
417
  8
5
 10
-14.0
 20
6.0
 30
0.0
  0
VERTEX
  5
418
  8
5
 10
-14.0
 20
0.0
 30
0.0
  0
VERTEX
  5
419
  8
5
 10
0.0
 20
0.0
 30
0.0
  0
VERTEX
  5
41A
  8
5
 10
0.0
 20
-5.0
 30
0.0
  0
SEQEND
  5
41B
  8
5
  0
POLYLINE
  5
2E1
  8
6
 66
     1
 10
0.0
 20
0.0
 30
0.0
 70
     1
  0
VERTEX
  5
41C
  8
6
 10
-10.0
 20
4.3500000000003629
 30
0.0
  0
VERTEX
  5
41D
  8
6
 10
-10.0
 20
4.4100000000007631
 30
0.0
 42
0.4142135623730951
  0
VERTEX
  5
41E
  8
6
 10
-11.28999999999996
 20
5.7000000000007267
 30
0.0
  0
VERTEX
  5
41F
  8
6
 10
-13.299999999999271
 20
5.7000000000007267
 30
0.0
 42
0.4142135623730951
  0
VERTEX
  5
420
  8
6
 10
-13.5
 20
5.5
 30
0.0
  0
VERTEX
  5
421
  8
6
 10
-13.5
 20
1.5
 30
0.0
 42
0.4142135623730951
  0
VERTEX
  5
422
  8
6
 10
-12.0
 20
0.0
 30
0.0
  0
VERTEX
  5
423
  8
6
 10
-0.1999999999998181
 20
0.0
 30
0.0
 42
-0.4142135623730951
  0
VERTEX
  5
424
  8
6
 10
0.0
 20
-0.1999999999998181
 30
0.0
  0
VERTEX
  5
425
  8
6
 10
0.0
 20
-3.799999999999272
 30
0.0
 42
0.4142135623730951
  0
VERTEX
  5
426
  8
6
 10
0.2000000000007276
 20
-4.0
 30
0.0
  0
VERTEX
  5
427
  8
6
 10
0.2100000000000364
 20
-4.0
 30
0.0
 42
0.4142135623730951
  0
VERTEX
  5
428
  8
6
 10
1.5
 20
-2.709999999999126
 30
0.0
  0
VERTEX
  5
429
  8
6
 10
1.5
 20
4.2000000000007267
 30
0.0
 42
0.4142135623730951
  0
VERTEX
  5
42A
  8
6
 10
0.0
 20
5.7000000000007267
 30
0.0
  0
VERTEX
  5
42B
  8
6
 10
-0.7100000000000364
 20
5.7000000000007267
 30
0.0
 42
0.4142135623730951
  0
VERTEX
  5
42C
  8
6
 10
-2.0
 20
4.4100000000007631
 30
0.0
  0
VERTEX
  5
42D
  8
6
 10
-2.0
 20
4.3500000000003629
 30
0.0
 42
0.4142135623731992
  0
VERTEX
  5
42E
  8
6
 10
-1.8499999999994541
 20
4.2000000000007267
 30
0.0
  0
VERTEX
  5
42F
  8
6
 10
-0.1999999999998181
 20
4.2000000000007267
 30
0.0
 42
-0.4142135623730953
  0
VERTEX
  5
430
  8
6
 10
0.0
 20
4.0
 30
0.0
  0
VERTEX
  5
431
  8
6
 10
0.0
 20
1.900000000000545
 30
0.0
 42
-0.4142135623730951
  0
VERTEX
  5
432
  8
6
 10
-0.1999999999998181
 20
1.7000000000007269
 30
0.0
  0
VERTEX
  5
433
  8
6
 10
-11.799999999999271
 20
1.7000000000007269
 30
0.0
 42
-0.4142135623730951
  0
VERTEX
  5
434
  8
6
 10
-12.0
 20
1.900000000000545
 30
0.0
  0
VERTEX
  5
435
  8
6
 10
-12.0
 20
4.0
 30
0.0
 42
-0.4142135623730951
  0
VERTEX
  5
436
  8
6
 10
-11.799999999999271
 20
4.2000000000007267
 30
0.0
  0
VERTEX
  5
437
  8
6
 10
-10.149999999999631
 20
4.2000000000007267
 30
0.0
 42
0.414213562373069
  0
SEQEND
  5
438
  8
6
  0
POLYLINE
  5
2E2
  8
4
 66
     1
 10
0.0
 20
0.0
 30
0.0
 70
     1
  0
VERTEX
  5
439
  8
4
 10
-13.5
 20
5.7000000000007267
 30
0.0
  0
VERTEX
  5
43A
  8
4
 10
-13.5
 20
0.0
 30
0.0
  0
VERTEX
  5
43B
  8
4
 10
0.0
 20
0.0
 30
0.0
  0
VERTEX
  5
43C
  8
4
 10
0.0
 20
-4.0
 30
0.0
  0
VERTEX
  5
43D
  8
4
 10
1.5
 20
-4.0
 30
0.0
  0
VERTEX
  5
43E
  8
4
 10
1.5
 20
5.7000000000007267
 30
0.0
  0
SEQEND
  5
43F
  8
4
  0
POLYLINE
  5
2E3
  8
6
 66
     1
 10
0.0
 20
0.0
 30
0.0
 70
     1
  0
VERTEX
  5
440
  8
6
 10
-6.4105562931222257
 20
7.0760254513588734
 30
0.0
 42
0.1151090427327019
  0
VERTEX
  5
441
  8
6
 10
-7.8194179085462556
 20
11.29565220659333
 30
0.0
 42
-1.0986106770849109
  0
VERTEX
  5
442
  8
6
 10
-7.3473977470575838
 20
11.703446380878169
 30
0.0
 42
-0.1772318424917894
  0
VERTEX
  5
443
  8
6
 10
-5.5894437068764091
 20
7.0760254513588734
 30
0.0
 42
0.469312775289317
  0
VERTEX
  5
444
  8
6
 10
-5.0652302972375756
 20
6.6821750371868802
 30
0.0
  0
VERTEX
  5
445
  8
6
 10
-3.1420851623302042
 20
7.3104360939728386
 30
0.0
 42
-0.4609243574565404
  0
VERTEX
  5
446
  8
6
 10
-2.172892022792893
 20
6.4236227854889867
 30
0.0
  0
VERTEX
  5
447
  8
6
 10
-2.172892022792893
 20
4.2202308202290624
 30
0.0
  0
VERTEX
  5
448
  8
6
 10
-0.1064899999992122
 20
4.2202308202290624
 30
0.0
  0
VERTEX
  5
449
  8
6
 10
-0.4185997435552054
 20
1.7000000000007269
 30
0.0
  0
VERTEX
  5
44A
  8
6
 10
-2.3734129927356662
 20
1.7000000000007269
 30
0.0
 42
-0.1137152786227346
  0
VERTEX
  5
44B
  8
6
 10
-4.259121338490786
 20
2.4986528231954699
 30
0.0
 42
0.2201216762673514
  0
VERTEX
  5
44C
  8
6
 10
-5.9999999999995453
 20
3.3047915779925461
 30
0.0
 42
0.2201216762673514
  0
VERTEX
  5
44D
  8
6
 10
-7.7408786615078489
 20
2.4986528231954699
 30
0.0
 42
-0.1137152786227346
  0
VERTEX
  5
44E
  8
6
 10
-9.6265870072629696
 20
1.7000000000007269
 30
0.0
  0
VERTEX
  5
44F
  8
6
 10
-11.58140025644343
 20
1.7000000000007269
 30
0.0
  0
VERTEX
  5
450
  8
6
 10
-11.89350999999942
 20
4.2202308202290624
 30
0.0
  0
VERTEX
  5
451
  8
6
 10
-9.8271079772057401
 20
4.2202308202290624
 30
0.0
  0
VERTEX
  5
452
  8
6
 10
-9.8271079772057401
 20
6.4236227854889867
 30
0.0
 42
-0.4609243574565404
  0
VERTEX
  5
453
  8
6
 10
-8.8579148376684316
 20
7.3104360939728386
 30
0.0
  0
VERTEX
  5
454
  8
6
 10
-6.9347697027610593
 20
6.6821750371868802
 30
0.0
 42
0.469312775289317
  0
SEQEND
  5
455
  8
6
  0
POLYLINE
  5
2E4
  8
6
 66
     1
 10
0.0
 20
0.0
 30
0.0
 70
     1
  0
VERTEX
  5
456
  8
6
 10
-5.9999999999995453
 20
5.9546188017138766
 30
0.0
 42
0.1317069861016926
  0
VERTEX
  5
457
  8
6
 10
-3.30210493749837
 20
6.5789188827434373
 30
0.0
 42
-0.6181545803503951
  0
VERTEX
  5
458
  8
6
 10
-2.9854877332331848
 20
6.468133450752247
 30
0.0
  0
VERTEX
  5
459
  8
6
 10
-3.1174115747116948
 20
4.2946285710618213
 30
0.0
 42
-0.418763463566822
  0
VERTEX
  5
45A
  8
6
 10
-3.697876487406119
 20
4.1996696211258486
 30
0.0
 42
0.0747720975605334
  0
VERTEX
  5
45B
  8
6
 10
-5.9999999999995453
 20
4.5791368521936411
 30
0.0
 42
0.0747720975605334
  0
VERTEX
  5
45C
  8
6
 10
-8.3021235125925141
 20
4.1996696211258486
 30
0.0
 42
-0.418763463566822
  0
VERTEX
  5
45D
  8
6
 10
-8.88258842528694
 20
4.2946285710618213
 30
0.0
  0
VERTEX
  5
45E
  8
6
 10
-9.0145122667654505
 20
6.468133450752247
 30
0.0
 42
-0.6181545803503951
  0
VERTEX
  5
45F
  8
6
 10
-8.6978950625002653
 20
6.5789188827434373
 30
0.0
 42
0.1317069861016926
  0
SEQEND
  5
460
  8
6
  0
DIMENSION
  5
2E5
  8
1
  2
*D6
 10
-25.649281272064851
 20
6.0000000000000018
 30
0.0
 11
-28.436286729090771
 21
2.9999999999999991
 31
0.0
 70
     0
 13
-14.0
 23
0.0
 33
0.0
 14
-14.0
 24
6.0
 34
0.0
 50
90.0
  0
DIMENSION
  5
2E6
  8
1
  2
*D7
 10
-25.649281272064851
 20
12.0
 30
0.0
 11
-28.436286729090781
 21
8.9999999999999982
 31
0.0
 70
     0
 13
-14.0
 23
6.0
 33
0.0
 14
-14.0
 24
12.0
 34
0.0
 50
90.0
  0
LINE
  5
2E7
  8
6
  6
STRICHPUNKT
 10
-5.9999999999995453
 20
2.2107971577788699
 30
0.0
 11
-5.9999999999995453
 21
-6.3283380173036221
 31
0.0
  0
DIMENSION
  5
2E8
  8
1
  2
*D8
 10
-0.0000000000000008
 20
-13.23533025777396
 30
0.0
 11
-7.0
 21
-10.47816791125282
 31
0.0
 70
     0
 13
-14.0
 23
0.0
 33
0.0
 14
0.0
 24
0.0
 34
0.0
  0
LINE
  5
2E9
  8
5
 10
-19.0
 20
12.0
 30
0.0
 11
6.0
 21
12.0
 31
0.0
  0
VIEWPORT
  5
22
 67
     1
  8
0
 10
210.0
 20
170.2366863905325
 30
0.0
 40
420.0
 41
340.47337278106511
 68
     1
 69
     1
1001
ACAD
1000
MVIEW
1002
{
1070
    16
1010
0.0
1020
0.0
1030
0.0
1010
0.0
1020
0.0
1030
1.0
1040
0.0
1040
340.47337278106511
1040
210.0
1040
170.2366863905325
1040
50.0
1040
0.0
1040
0.0
1070
     0
1070
   100
1070
     1
1070
     1
1070
     0
1070
     0
1070
     0
1070
     0
1040
0.0
1040
0.0
1040
0.0
1040
5.0
1040
5.0
1040
10.0
1040
10.0
1070
     0
1002
{
1002
}
1002
}
  0
ENDSEC
  0
EOF
