  0
SECTION
  2
HEADER
  9
$ACADVER
  1
AC1009
  9
$INSBASE
 10
0.0
 20
0.0
 30
0.0
  9
$EXTMIN
 10
-22.261362146008331
 20
-36.52531618192301
 30
0.0
  9
$EXTMAX
 10
36.283107204993101
 20
2.0
 30
0.0
  9
$LIMMIN
 10
-150.0
 20
-150.0
  9
$LIMMAX
 10
150.0
 20
150.0
  9
$ORTHOMODE
 70
     0
  9
$REGENMODE
 70
     1
  9
$FILLMODE
 70
     1
  9
$QTEXTMODE
 70
     0
  9
$MIRRTEXT
 70
     0
  9
$DRAGMODE
 70
     2
  9
$LTSCALE
 40
3.0
  9
$OSMODE
 70
   111
  9
$ATTMODE
 70
     1
  9
$TEXTSIZE
 40
3.5
  9
$TRACEWID
 40
1.0
  9
$TEXTSTYLE
  7
BESCHLAG
  9
$CLAYER
  8
0
  9
$CELTYPE
  6
BYLAYER
  9
$CECOLOR
 62
   256
  9
$DIMSCALE
 40
1.0
  9
$DIMASZ
 40
2.0
  9
$DIMEXO
 40
2.0
  9
$DIMDLI
 40
0.0
  9
$DIMRND
 40
0.0
  9
$DIMDLE
 40
1.0
  9
$DIMEXE
 40
1.0
  9
$DIMTP
 40
0.0
  9
$DIMTM
 40
0.0
  9
$DIMTXT
 40
3.5
  9
$DIMCEN
 40
0.0
  9
$DIMTSZ
 40
0.0
  9
$DIMTOL
 70
     0
  9
$DIMLIM
 70
     0
  9
$DIMTIH
 70
     0
  9
$DIMTOH
 70
     0
  9
$DIMSE1
 70
     0
  9
$DIMSE2
 70
     0
  9
$DIMTAD
 70
     1
  9
$DIMZIN
 70
     8
  9
$DIMBLK
  1

  9
$DIMASO
 70
     1
  9
$DIMSHO
 70
     1
  9
$DIMPOST
  1

  9
$DIMAPOST
  1

  9
$DIMALT
 70
     0
  9
$DIMALTD
 70
     2
  9
$DIMALTF
 40
0.039370078740157
  9
$DIMLFAC
 40
1.0
  9
$DIMTOFL
 70
     1
  9
$DIMTVP
 40
0.0
  9
$DIMTIX
 70
     1
  9
$DIMSOXD
 70
     0
  9
$DIMSAH
 70
     1
  9
$DIMBLK1
  1
OBLIQUE
  9
$DIMBLK2
  1
OBLIQUE
  9
$DIMSTYLE
  2
OPO-SSTRICH
  9
$DIMCLRD
 70
   256
  9
$DIMCLRE
 70
   256
  9
$DIMCLRT
 70
   256
  9
$DIMTFAC
 40
0.7114285714285716
  9
$DIMGAP
 40
1.0
  9
$LUNITS
 70
     2
  9
$LUPREC
 70
     1
  9
$SKETCHINC
 40
1.0
  9
$FILLETRAD
 40
0.0
  9
$AUNITS
 70
     0
  9
$AUPREC
 70
     1
  9
$MENU
  1
D:\ACL_CGWG\CGTAB13
  9
$ELEVATION
 40
0.0
  9
$PELEVATION
 40
0.0
  9
$THICKNESS
 40
0.0
  9
$LIMCHECK
 70
     0
  9
$BLIPMODE
 70
     0
  9
$CHAMFERA
 40
1.0
  9
$CHAMFERB
 40
1.0
  9
$SKPOLY
 70
     0
  9
$TDCREATE
 40
2451739.9029143052
  9
$TDUPDATE
 40
2452087.638454421
  9
$TDINDWG
 40
0.0072923495
  9
$TDUSRTIMER
 40
0.0072923495
  9
$USRTIMER
 70
     1
  9
$ANGBASE
 50
0.0
  9
$ANGDIR
 70
     0
  9
$PDMODE
 70
    35
  9
$PDSIZE
 40
5.0
  9
$PLINEWID
 40
0.0
  9
$COORDS
 70
     1
  9
$SPLFRAME
 70
     0
  9
$SPLINETYPE
 70
     6
  9
$SPLINESEGS
 70
     8
  9
$ATTDIA
 70
     1
  9
$ATTREQ
 70
     1
  9
$HANDLING
 70
-16383
  9
$HANDSEED
  5
54D
  9
$SURFTAB1
 70
    12
  9
$SURFTAB2
 70
    12
  9
$SURFTYPE
 70
     6
  9
$SURFU
 70
    12
  9
$SURFV
 70
    12
  9
$UCSNAME
  2

  9
$UCSORG
 10
0.0
 20
0.0
 30
0.0
  9
$UCSXDIR
 10
1.0
 20
0.0
 30
0.0
  9
$UCSYDIR
 10
0.0
 20
1.0
 30
0.0
  9
$PUCSNAME
  2

  9
$PUCSORG
 10
0.0
 20
0.0
 30
0.0
  9
$PUCSXDIR
 10
1.0
 20
0.0
 30
0.0
  9
$PUCSYDIR
 10
0.0
 20
1.0
 30
0.0
  9
$USERI1
 70
     0
  9
$USERI2
 70
     0
  9
$USERI3
 70
     0
  9
$USERI4
 70
     0
  9
$USERI5
 70
     0
  9
$USERR1
 40
0.0
  9
$USERR2
 40
0.0
  9
$USERR3
 40
0.0
  9
$USERR4
 40
0.0
  9
$USERR5
 40
0.0
  9
$WORLDVIEW
 70
     1
  9
$SHADEDGE
 70
     3
  9
$SHADEDIF
 70
    70
  9
$TILEMODE
 70
     1
  9
$MAXACTVP
 70
    48
  9
$PLIMCHECK
 70
     0
  9
$PEXTMIN
 10
1.0000000000000000E+020
 20
1.0000000000000000E+020
 30
1.0000000000000000E+020
  9
$PEXTMAX
 10
-1.0000000000000000E+020
 20
-1.0000000000000000E+020
 30
-1.0000000000000000E+020
  9
$PLIMMIN
 10
0.0
 20
0.0
  9
$PLIMMAX
 10
420.0
 20
297.0
  9
$UNITMODE
 70
     0
  9
$VISRETAIN
 70
     1
  9
$PLINEGEN
 70
     0
  9
$PSLTSCALE
 70
     1
  0
ENDSEC
  0
SECTION
  2
TABLES
  0
TABLE
  2
VPORT
 70
     2
  0
VPORT
  2
*ACTIVE
 70
     0
 10
0.0
 20
0.0
 11
1.0
 21
1.0
 12
7.015228978143174
 22
-17.25768975128614
 13
0.0
 23
0.0
 14
0.5
 24
0.5
 15
10.0
 25
10.0
 16
0.0
 26
0.0
 36
1.0
 17
0.0
 27
0.0
 37
0.0
 40
38.858810349013069
 41
1.6070460704607039
 42
50.0
 43
0.0
 44
0.0
 50
0.0
 51
0.0
 71
     0
 72
   800
 73
     1
 74
     1
 75
     0
 76
     0
 77
     0
 78
     0
  0
ENDTAB
  0
TABLE
  2
LTYPE
 70
     2
  0
LTYPE
  2
CONTINUOUS
 70
     0
  3
_______________________________________________
 72
    65
 73
     2
 40
1.0
 49
1.0
 49
0.0
  0
LTYPE
  2
STRICHPUNKT
 70
     0
  3
__ . __ . __ . __ . __ . __ . __ . __ . __ . __
 72
    65
 73
     4
 40
1.0
 49
0.5
 49
-0.25
 49
0.0
 49
-0.25
  0
ENDTAB
  0
TABLE
  2
LAYER
 70
     7
  0
LAYER
  2
0
 70
     0
 62
    30
  6
CONTINUOUS
  0
LAYER
  2
1
 70
     0
 62
     2
  6
CONTINUOUS
  0
LAYER
  2
2
 70
     0
 62
     9
  6
CONTINUOUS
  0
LAYER
  2
4
 70
     1
 62
     4
  6
CONTINUOUS
  0
LAYER
  2
5
 70
     0
 62
     1
  6
CONTINUOUS
  0
LAYER
  2
6
 70
     0
 62
     3
  6
CONTINUOUS
  0
LAYER
  2
DEFPOINTS
 70
     0
 62
     7
  6
CONTINUOUS
  0
ENDTAB
  0
TABLE
  2
STYLE
 70
     2
  0
STYLE
  2
STANDARD
 70
     0
 40
0.0
 41
1.0
 50
0.0
 71
     0
 42
2.5
  3
txt
  4

  0
STYLE
  2
BESCHLAG
 70
     0
 40
0.0
 41
1.0
 50
0.0
 71
     0
 42
3.5
  3
txt
  4

  0
ENDTAB
  0
TABLE
  2
VIEW
 70
     0
  0
ENDTAB
  0
TABLE
  2
UCS
 70
     0
  0
ENDTAB
  0
TABLE
  2
APPID
 70
     1
  0
APPID
  2
ACAD
 70
     0
  0
ENDTAB
  0
TABLE
  2
DIMSTYLE
 70
     1
  0
DIMSTYLE
  2
OPO-SSTRICH
 70
     0
  3

  4

  5

  6
OBLIQUE
  7
OBLIQUE
 40
1.0
 41
2.0
 42
2.0
 43
0.0
 44
1.0
 45
0.0
 46
1.0
 47
0.0
 48
0.0
140
3.5
141
0.0
142
0.0
143
0.039370078740157
144
1.0
145
0.0
146
0.7114285714285716
147
1.0
 71
     0
 72
     0
 73
     0
 74
     0
 75
     0
 76
     0
 77
     1
 78
     8
170
     0
171
     2
172
     1
173
     1
174
     1
175
     0
176
   256
177
   256
178
   256
  0
ENDTAB
  0
ENDSEC
  0
SECTION
  2
BLOCKS
  0
BLOCK
  8
0
  2
$MODEL_SPACE
 70
     0
 10
0.0
 20
0.0
 30
0.0
  3
$MODEL_SPACE
  1

  0
ENDBLK
  5
1C
  8
0
  0
BLOCK
 67
     1
  8
0
  2
$PAPER_SPACE
 70
     0
 10
0.0
 20
0.0
 30
0.0
  3
$PAPER_SPACE
  1

  0
ENDBLK
  5
19
 67
     1
  8
0
  0
BLOCK
  8
0
  2
_OBLIQUE
 70
     0
 10
0.0
 20
0.0
 30
0.0
  3
_OBLIQUE
  1

  0
LINE
  5
204
  8
0
 62
     0
 10
-0.5
 20
-0.5
 30
0.0
 11
0.5
 21
0.5
 31
0.0
  0
ENDBLK
  5
206
  8
0
  0
BLOCK
  8
0
  2
NULLPUNKT
 70
     0
 10
0.0
 20
0.0
 30
0.0
  3
NULLPUNKT
  1

  0
SOLID
  5
254
  8
5
 10
0.0
 20
0.0
 30
0.0
 11
2.0
 21
0.0
 31
0.0
 12
0.0
 22
-2.0
 32
0.0
 13
0.0
 23
-2.0
 33
0.0
  0
SOLID
  5
255
  8
5
 10
0.0
 20
0.0
 30
0.0
 11
-2.0
 21
0.0
 31
0.0
 12
0.0
 22
2.0
 32
0.0
 13
0.0
 23
2.0
 33
0.0
  0
POLYLINE
  5
256
  8
5
 66
     1
 10
0.0
 20
0.0
 30
0.0
  0
VERTEX
  5
4AD
  8
5
 10
0.0
 20
2.0
 30
0.0
  0
VERTEX
  5
4AE
  8
5
 10
0.0
 20
-2.0
 30
0.0
  0
SEQEND
  5
4AF
  8
5
  0
POLYLINE
  5
257
  8
5
 66
     1
 10
0.0
 20
0.0
 30
0.0
  0
VERTEX
  5
4B0
  8
5
 10
-2.0
 20
0.0
 30
0.0
  0
VERTEX
  5
4B1
  8
5
 10
2.0
 20
0.0
 30
0.0
  0
SEQEND
  5
4B2
  8
5
  0
CIRCLE
  5
258
  8
5
 10
0.0
 20
0.0
 30
0.0
 40
2.0
  0
ENDBLK
  5
25A
  8
0
  0
BLOCK
  8
0
  2
*X2
 70
     1
 10
0.0
 20
0.0
 30
0.0
  3
*X2
  1

  0
LINE
  5
26C
  8
0
 62
     0
 10
1368.620358936877
 20
88.757084989226044
 30
0.0
 11
1371.947819048064
 21
92.084545100412953
 31
0.0
  0
LINE
  5
26D
  8
0
 62
     0
 10
1367.2211428432099
 20
88.772082457932825
 30
0.0
 11
1369.0211428432101
 21
90.572082457932993
 31
0.0
  0
LINE
  5
26E
  8
0
 62
     0
 10
1370.1478190480641
 20
91.698758662786076
 30
0.0
 11
1371.947819048064
 21
93.498758662786074
 31
0.0
  0
LINE
  5
26F
  8
0
 62
     0
 10
1365.806929280837
 20
88.772082457932825
 30
0.0
 11
1367.606929280837
 21
90.572082457932993
 31
0.0
  0
LINE
  5
270
  8
0
 62
     0
 10
1370.1478190480641
 20
93.112972225159155
 30
0.0
 11
1371.947819048064
 21
94.912972225159166
 31
0.0
  0
LINE
  5
271
  8
0
 62
     0
 10
1364.3927157184639
 20
88.772082457932825
 30
0.0
 11
1366.7478190480631
 21
91.127185787531985
 31
0.0
  0
LINE
  5
272
  8
0
 62
     0
 10
1370.1478190480641
 20
94.527185787532247
 30
0.0
 11
1371.7666913957639
 21
96.146058135232835
 31
0.0
  0
LINE
  5
273
  8
0
 62
     0
 10
1362.580720463704
 20
88.374300765545456
 30
0.0
 11
1364.278502156091
 21
90.072082457932979
 31
0.0
  0
LINE
  5
274
  8
0
 62
     0
 10
1369.7900659589691
 20
95.583646260810895
 30
0.0
 11
1370.778502156091
 21
96.572082457932993
 31
0.0
  0
LINE
  5
275
  8
0
 62
     0
 10
1365.547819048063
 20
91.341399349905217
 30
0.0
 11
1366.7478190480631
 21
92.541399349905078
 31
0.0
  0
LINE
  5
276
  8
0
 62
     0
 10
1362.031053820891
 20
89.238847685105625
 30
0.0
 11
1362.8642885937179
 21
90.072082457932979
 31
0.0
  0
LINE
  5
277
  8
0
 62
     0
 10
1365.547819048063
 20
92.755612912278295
 30
0.0
 11
1366.7478190480631
 21
93.955612912278184
 31
0.0
  0
LINE
  5
278
  8
0
 62
     0
 10
1365.543450056362
 20
94.165457482949932
 30
0.0
 11
1366.7478190480631
 21
95.369826474651276
 31
0.0
  0
LINE
  5
279
  8
0
 62
     0
 10
1366.950075031345
 20
95.572082457932993
 30
0.0
 11
1367.19647246369
 21
95.81847989027824
 31
0.0
  0
LINE
  5
27A
  8
0
 62
     0
 10
1364.950987328066
 20
94.987208317026941
 30
0.0
 11
1366.525591869829
 21
96.561812858790432
 31
0.0
  0
LINE
  5
27B
  8
0
 62
     0
 10
1363.621647906599
 20
95.072082457932979
 30
0.0
 11
1365.121647906599
 21
96.572082457932993
 31
0.0
  0
LINE
  5
27C
  8
0
 62
     0
 10
1362.2074343442259
 20
95.072082457932979
 30
0.0
 11
1363.7074343442259
 21
96.572082457932993
 31
0.0
  0
LINE
  5
27D
  8
0
 62
     0
 10
1362.1205199149581
 20
96.399381591038363
 30
0.0
 11
1362.2932207818531
 21
96.572082457932993
 31
0.0
  0
LINE
  5
27E
  8
0
 62
     0
 10
1362.0771408708749
 20
80.799653360851124
 30
0.0
 11
1362.3867294769991
 21
81.109241966975219
 31
0.0
  0
LINE
  5
27F
  8
0
 62
     0
 10
1369.388596029765
 20
88.111108519741649
 30
0.0
 11
1371.947819048064
 21
90.670331538039861
 31
0.0
  0
LINE
  5
280
  8
0
 62
     0
 10
1362.4017223416131
 20
79.710021269216028
 30
0.0
 11
1363.7732776964019
 21
81.081576624004924
 31
0.0
  0
LINE
  5
281
  8
0
 62
     0
 10
1369.4478190480629
 20
86.756117975666726
 30
0.0
 11
1371.947819048064
 21
89.256117975666768
 31
0.0
  0
LINE
  5
282
  8
0
 62
     0
 10
1362.0629080703829
 20
77.956993435613242
 30
0.0
 11
1362.219884274494
 21
78.113969639724147
 31
0.0
  0
LINE
  5
283
  8
0
 62
     0
 10
1369.4478190480629
 20
85.341904413293619
 30
0.0
 11
1371.947819048064
 21
87.841904413293676
 31
0.0
  0
LINE
  5
284
  8
0
 62
     0
 10
1363.2982978137809
 20
79.192383179010946
 30
0.0
 11
1364.877997092703
 21
80.772082457932825
 31
0.0
  0
LINE
  5
285
  8
0
 62
     0
 10
1362.0922106550761
 20
76.572082457932993
 30
0.0
 11
1365.4399005288651
 21
79.919772331721603
 31
0.0
  0
LINE
  5
286
  8
0
 62
     0
 10
1369.4478190480629
 20
83.927690850920413
 30
0.0
 11
1371.947819048064
 21
86.427690850920584
 31
0.0
  0
LINE
  5
287
  8
0
 62
     0
 10
1363.506424217449
 20
76.572082457932993
 30
0.0
 11
1365.95753861907
 21
79.023196859553593
 31
0.0
  0
LINE
  5
288
  8
0
 62
     0
 10
1369.4478190480629
 20
82.513477288547321
 30
0.0
 11
1371.947819048064
 21
85.013477288547477
 31
0.0
  0
LINE
  5
289
  8
0
 62
     0
 10
1364.9206377798221
 20
76.572082457932993
 30
0.0
 11
1366.621998981961
 21
78.273443660071322
 31
0.0
  0
LINE
  5
28A
  8
0
 62
     0
 10
1369.4478190480629
 20
81.099263726174215
 30
0.0
 11
1371.947819048064
 21
83.599263726174385
 31
0.0
  0
LINE
  5
28B
  8
0
 62
     0
 10
1366.334851342195
 20
76.572082457932993
 30
0.0
 11
1367.834851342195
 21
78.072082457932964
 31
0.0
  0
LINE
  5
28C
  8
0
 62
     0
 10
1369.4478190480629
 20
79.685050163801137
 30
0.0
 11
1371.947819048064
 21
82.185050163801293
 31
0.0
  0
LINE
  5
28D
  8
0
 62
     0
 10
1367.7490649045681
 20
76.572082457932993
 30
0.0
 11
1371.947819048064
 21
80.770836601428201
 31
0.0
  0
LINE
  5
28E
  8
0
 62
     0
 10
1369.4602196916489
 20
76.869023682640758
 30
0.0
 11
1371.650877823356
 21
79.059681814347215
 31
0.0
  0
ENDBLK
  5
290
  8
0
  0
BLOCK
  8
0
  2
*D3
 70
     1
 10
0.0
 20
0.0
 30
0.0
  3
*D3
  1

  0
LINE
  5
344
  8
1
 10
8.0
 20
-24.0
 30
0.0
 11
23.097213416194101
 21
-24.0
 31
0.0
  0
LINE
  5
345
  8
1
 10
11.999999999999771
 20
-4.0
 30
0.0
 11
23.097213416194109
 21
-4.0000000000000027
 31
0.0
  0
LINE
  5
346
  8
1
 10
22.097213416194101
 20
-25.0
 30
0.0
 11
22.097213416194109
 21
-3.0000000000000031
 31
0.0
  0
INSERT
  5
347
  8
1
  2
_OBLIQUE
 10
22.097213416194101
 20
-24.0
 30
0.0
 41
2.0
 42
2.0
 43
2.0
 50
270.0
  0
INSERT
  5
348
  8
1
  2
_OBLIQUE
 10
22.097213416194109
 20
-4.0000000000000027
 30
0.0
 41
2.0
 42
2.0
 43
2.0
 50
90.0
  0
TEXT
  5
349
  8
0
 10
21.03036484866341
 20
-16.67394270122783
 30
0.0
 40
3.5
  1
20
 50
90.0
  7
BESCHLAG
  0
POINT
  5
34A
  8
DEFPOINTS
 62
     0
 10
6.0
 20
-24.0
 30
0.0
  0
POINT
  5
34B
  8
DEFPOINTS
 62
     0
 10
9.9999999999997726
 20
-4.0
 30
0.0
  0
POINT
  5
34C
  8
DEFPOINTS
 62
     0
 10
22.097213416194109
 20
-4.0000000000000027
 30
0.0
  0
ENDBLK
  5
31C
  8
0
  0
BLOCK
  8
0
  2
*D4
 70
     1
 10
0.0
 20
0.0
 30
0.0
  3
*D4
  1

  0
LINE
  5
34D
  8
1
 10
-0.0000000000002275
 20
-26.00000000000022
 30
0.0
 11
-0.0000000000002281
 21
-36.52531618192301
 31
0.0
  0
LINE
  5
34E
  8
1
 10
10.0
 20
-22.0
 30
0.0
 11
9.9999999999999982
 21
-36.52531618192301
 31
0.0
  0
LINE
  5
34F
  8
1
 10
-1.000000000000228
 20
-35.52531618192301
 30
0.0
 11
10.999999999999989
 21
-35.52531618192301
 31
0.0
  0
INSERT
  5
350
  8
1
  2
_OBLIQUE
 10
-0.0000000000002281
 20
-35.52531618192301
 30
0.0
 41
2.0
 42
2.0
 43
2.0
 50
180.0
  0
INSERT
  5
351
  8
1
  2
_OBLIQUE
 10
9.9999999999999982
 20
-35.52531618192301
 30
0.0
 41
2.0
 42
2.0
 43
2.0
  0
TEXT
  5
352
  8
0
 10
2.131480218280922
 20
-34.458467614392319
 30
0.0
 40
3.5
  1
10
  7
BESCHLAG
  0
POINT
  5
353
  8
DEFPOINTS
 62
     0
 10
-0.0000000000002274
 20
-24.000000000000231
 30
0.0
  0
POINT
  5
354
  8
DEFPOINTS
 62
     0
 10
10.0
 20
-20.0
 30
0.0
  0
POINT
  5
355
  8
DEFPOINTS
 62
     0
 10
9.9999999999999982
 20
-35.52531618192301
 30
0.0
  0
ENDBLK
  5
328
  8
0
  0
BLOCK
  8
0
  2
*D5
 70
     1
 10
0.0
 20
0.0
 30
0.0
  3
*D5
  1

  0
LINE
  5
356
  8
1
 10
11.999999999999771
 20
-4.0
 30
0.0
 11
23.097213416194109
 21
-4.0000000000000027
 31
0.0
  0
LINE
  5
357
  8
1
 10
11.999999999999771
 20
-0.0000000000000006
 30
0.0
 11
23.097213416194109
 21
-0.0000000000000037
 31
0.0
  0
LINE
  5
358
  8
1
 10
22.097213416194109
 20
-4.0000000000000027
 30
0.0
 11
22.097213416194109
 21
-6.0000000000000027
 31
0.0
  0
LINE
  5
359
  8
1
 10
22.097213416194109
 20
-0.0000000000000034
 30
0.0
 11
22.097213416194109
 21
1.999999999999996
 31
0.0
  0
LINE
  5
35A
  8
1
 10
22.097213416194109
 20
-4.0000000000000027
 30
0.0
 11
22.097213416194109
 21
-0.0000000000000034
 31
0.0
  0
INSERT
  5
35B
  8
1
  2
_OBLIQUE
 10
22.097213416194109
 20
-4.0000000000000027
 30
0.0
 41
2.0
 42
2.0
 43
2.0
 50
90.0
  0
INSERT
  5
35C
  8
1
  2
_OBLIQUE
 10
22.097213416194109
 20
-0.0000000000000034
 30
0.0
 41
2.0
 42
2.0
 43
2.0
 50
270.0
  0
TEXT
  5
35D
  8
0
 10
21.097213416194101
 20
-3.2725102319236008
 30
0.0
 40
3.5
  1
4
 50
90.0
  7
BESCHLAG
  0
POINT
  5
35E
  8
DEFPOINTS
 62
     0
 10
9.9999999999997726
 20
-4.0
 30
0.0
  0
POINT
  5
35F
  8
DEFPOINTS
 62
     0
 10
9.9999999999997726
 20
0.0
 30
0.0
  0
POINT
  5
360
  8
DEFPOINTS
 62
     0
 10
22.097213416194109
 20
-0.0000000000000034
 30
0.0
  0
ENDBLK
  5
336
  8
0
  0
BLOCK
  8
0
  2
*D6
 70
     1
 10
0.0
 20
0.0
 30
0.0
  3
*D6
  1

  0
LINE
  5
36B
  8
1
 10
-2.0
 20
0.0000000000000006
 30
0.0
 11
-17.768183428409419
 21
0.000000000000005
 31
0.0
  0
LINE
  5
36C
  8
1
 10
-11.770320803187129
 20
-16.0
 30
0.0
 11
-17.768183428409419
 21
-16.0
 31
0.0
  0
LINE
  5
36D
  8
1
 10
-16.768183428409419
 20
1.000000000000004
 30
0.0
 11
-16.768183428409429
 21
-17.0
 31
0.0
  0
INSERT
  5
36E
  8
1
  2
_OBLIQUE
 10
-16.768183428409419
 20
0.0000000000000048
 30
0.0
 41
2.0
 42
2.0
 43
2.0
 50
90.0
  0
INSERT
  5
36F
  8
1
  2
_OBLIQUE
 10
-16.768183428409429
 20
-16.0
 30
0.0
 41
2.0
 42
2.0
 43
2.0
 50
270.0
  0
TEXT
  5
370
  8
0
 10
-17.83503199594012
 20
-10.87329467939972
 30
0.0
 40
3.5
  1
16
 50
90.0
  7
BESCHLAG
  0
POINT
  5
371
  8
DEFPOINTS
 62
     0
 10
0.0
 20
0.0
 30
0.0
  0
POINT
  5
372
  8
DEFPOINTS
 62
     0
 10
-9.7703208031871327
 20
-16.0
 30
0.0
  0
POINT
  5
373
  8
DEFPOINTS
 62
     0
 10
-16.768183428409429
 20
-16.0
 30
0.0
  0
ENDBLK
  5
343
  8
0
  0
ENDSEC
  0
SECTION
  2
ENTITIES
  0
INSERT
  5
25B
  8
5
  2
NULLPUNKT
 10
0.0
 20
0.0
 30
0.0
  0
POLYLINE
  5
2ED
  8
6
 66
     1
 10
0.0
 20
0.0
 30
0.0
  0
VERTEX
  5
4B3
  8
6
 10
2.7710176984103319
 20
-13.6761664421864
 30
0.0
  0
VERTEX
  5
4B4
  8
6
 10
3.4763804217084271
 20
-13.00000000000022
 30
0.0
  0
VERTEX
  5
4B5
  8
6
 10
3.6763804217084721
 20
-13.00000000000022
 30
0.0
  0
VERTEX
  5
4B6
  8
6
 10
3.6763804217084721
 20
-18.800000000000178
 30
0.0
  0
VERTEX
  5
4B7
  8
6
 10
3.4763804217084271
 20
-18.800000000000178
 30
0.0
  0
VERTEX
  5
4B8
  8
6
 10
2.7710176984103319
 20
-18.025068117014591
 30
0.0
 42
0.142709741532141
  0
SEQEND
  5
4B9
  8
6
  0
POLYLINE
  5
2EE
  8
6
 66
     1
 10
0.0
 20
0.0
 30
0.0
 70
     1
  0
VERTEX
  5
4BA
  8
6
 10
3.7263804217084271
 20
-12.42738226925519
 30
0.0
  0
VERTEX
  5
4BB
  8
6
 10
2.5059520906845592
 20
-12.0
 30
0.0
  0
VERTEX
  5
4BC
  8
6
 10
1.8972764410307259
 20
-13.00639303703746
 30
0.0
  0
VERTEX
  5
4BD
  8
6
 10
-0.0000000000002274
 20
-13.00639303703746
 30
0.0
  0
VERTEX
  5
4BE
  8
6
 10
-0.0000000000002274
 20
-18.593606962962891
 30
0.0
  0
VERTEX
  5
4BF
  8
6
 10
1.8972764410307259
 20
-18.593606962962891
 30
0.0
  0
VERTEX
  5
4C0
  8
6
 10
2.5059520906845592
 20
-19.60000000000036
 30
0.0
  0
VERTEX
  5
4C1
  8
6
 10
3.7263804217084271
 20
-19.17261773074517
 30
0.0
  0
VERTEX
  5
4C2
  8
6
 10
3.7263804217084271
 20
-15.80000000000018
 30
0.0
  0
SEQEND
  5
4C3
  8
6
  0
INSERT
  5
2EF
  8
2
  2
*X2
 10
-1361.9478190480629
 20
-100.57208245793289
 30
0.0
1001
ACAD
1000
HATCH
1002
{
1070
    16
1000
_U,I
1040
1.0
1040
0.7853981633974483
1070
     0
1002
}
  0
DIMENSION
  5
2F0
  8
1
  2
*D3
 10
22.097213416194109
 20
-4.0000000000000027
 30
0.0
 11
19.310207959168181
 21
-14.0
 31
0.0
 70
     0
 13
6.0
 23
-24.0
 33
0.0
 14
9.9999999999997726
 24
-4.0
 34
0.0
 50
90.0
  0
POLYLINE
  5
2F1
  8
5
 66
     1
 10
0.0
 20
0.0
 30
0.0
  0
VERTEX
  5
4C4
  8
5
 10
-11.180073512979099
 20
-1.0
 30
0.0
  0
VERTEX
  5
4C5
  8
5
 10
0.0
 20
-1.0
 30
0.0
  0
VERTEX
  5
4C6
  8
5
 10
0.0
 20
-30.791826921120901
 30
0.0
  0
SEQEND
  5
4C7
  8
5
  0
POINT
  5
2F2
  8
5
 10
-0.0000000000002274
 20
-15.80000000000018
 30
0.0
  0
POINT
  5
2F3
  8
5
 10
-0.0000000000002274
 20
-15.80000000000018
 30
0.0
  0
POLYLINE
  5
2F4
  8
4
 66
     1
 10
0.0
 20
0.0
 30
0.0
 70
     1
  0
VERTEX
  5
4C8
  8
4
 10
-0.0000000000002274
 20
-24.0
 30
0.0
  0
VERTEX
  5
4C9
  8
4
 10
-0.0000000000002274
 20
-4.0
 30
0.0
  0
VERTEX
  5
4CA
  8
4
 10
9.9999999999997726
 20
-4.0
 30
0.0
  0
VERTEX
  5
4CB
  8
4
 10
9.9999999999997726
 20
-20.0
 30
0.0
 42
-0.4142135623730951
  0
VERTEX
  5
4CC
  8
4
 10
5.9999999999997717
 20
-24.0
 30
0.0
  0
SEQEND
  5
4CD
  8
4
  0
POLYLINE
  5
2F5
  8
6
 66
     1
 10
0.0
 20
0.0
 30
0.0
 70
     1
  0
VERTEX
  5
4CE
  8
6
 10
0.0
 20
-24.0
 30
0.0
  0
VERTEX
  5
4CF
  8
6
 10
6.0
 20
-24.0
 30
0.0
 42
0.4142135623730951
  0
VERTEX
  5
4D0
  8
6
 10
10.0
 20
-20.0
 30
0.0
  0
VERTEX
  5
4D1
  8
6
 10
10.0
 20
-5.0
 30
0.0
 42
0.4142135623730951
  0
VERTEX
  5
4D2
  8
6
 10
9.0
 20
-4.0
 30
0.0
  0
VERTEX
  5
4D3
  8
6
 10
8.5499999999999545
 20
-4.0
 30
0.0
 42
0.4142135623730951
  0
VERTEX
  5
4D4
  8
6
 10
7.75
 20
-4.800000000000181
 30
0.0
  0
VERTEX
  5
4D5
  8
6
 10
7.75
 20
-4.8500000000001364
 30
0.0
 42
0.4142135623730951
  0
VERTEX
  5
4D6
  8
6
 10
7.9000000000000901
 20
-5.0
 30
0.0
  0
VERTEX
  5
4D7
  8
6
 10
8.2000000000000455
 20
-5.0
 30
0.0
  0
VERTEX
  5
4D8
  8
6
 10
8.2000000000000455
 20
-9.7000000000000455
 30
0.0
 42
-0.4142135623730951
  0
VERTEX
  5
4D9
  8
6
 10
7.9000000000000901
 20
-10.0
 30
0.0
  0
VERTEX
  5
4DA
  8
6
 10
5.0999999999999091
 20
-10.0
 30
0.0
 42
-0.4142135623730951
  0
VERTEX
  5
4DB
  8
6
 10
4.7999999999999536
 20
-9.7000000000000455
 30
0.0
  0
VERTEX
  5
4DC
  8
6
 10
4.7999999999999536
 20
-5.0
 30
0.0
  0
VERTEX
  5
4DD
  8
6
 10
5.0999999999999091
 20
-5.0
 30
0.0
 42
0.4142135623730951
  0
VERTEX
  5
4DE
  8
6
 10
5.25
 20
-4.8500000000001364
 30
0.0
  0
VERTEX
  5
4DF
  8
6
 10
5.25
 20
-4.800000000000181
 30
0.0
 42
0.4142135623730951
  0
VERTEX
  5
4E0
  8
6
 10
4.4500000000000446
 20
-4.0
 30
0.0
  0
VERTEX
  5
4E1
  8
6
 10
0.0
 20
-4.0
 30
0.0
  0
VERTEX
  5
4E2
  8
6
 10
0.375
 20
-4.375
 30
0.0
  0
VERTEX
  5
4E3
  8
6
 10
0.0
 20
-4.75
 30
0.0
  0
VERTEX
  5
4E4
  8
6
 10
0.375
 20
-5.125
 30
0.0
  0
VERTEX
  5
4E5
  8
6
 10
0.0
 20
-5.5
 30
0.0
  0
VERTEX
  5
4E6
  8
6
 10
2.5999999999999091
 20
-5.5
 30
0.0
 42
-0.4142135623730951
  0
VERTEX
  5
4E7
  8
6
 10
3.5999999999999091
 20
-6.5
 30
0.0
  0
VERTEX
  5
4E8
  8
6
 10
3.5999999999999091
 20
-9.5
 30
0.0
 42
-0.4142135623730951
  0
VERTEX
  5
4E9
  8
6
 10
2.5999999999999091
 20
-10.5
 30
0.0
  0
VERTEX
  5
4EA
  8
6
 10
0.0
 20
-10.5
 30
0.0
  0
VERTEX
  5
4EB
  8
6
 10
0.375
 20
-10.875
 30
0.0
  0
VERTEX
  5
4EC
  8
6
 10
0.0
 20
-11.25
 30
0.0
  0
VERTEX
  5
4ED
  8
6
 10
0.375
 20
-11.625
 30
0.0
  0
VERTEX
  5
4EE
  8
6
 10
0.0
 20
-12.0
 30
0.0
  0
VERTEX
  5
4EF
  8
6
 10
1.5999999999999091
 20
-12.5
 30
0.0
  0
VERTEX
  5
4F0
  8
6
 10
2.0041451884326298
 20
-11.80000000000018
 30
0.0
  0
VERTEX
  5
4F1
  8
6
 10
6.5
 20
-11.80000000000018
 30
0.0
 42
-0.4142135623730951
  0
VERTEX
  5
4F2
  8
6
 10
7.5
 20
-12.80000000000018
 30
0.0
  0
VERTEX
  5
4F3
  8
6
 10
7.5
 20
-15.377806625873511
 30
0.0
  0
VERTEX
  5
4F4
  8
6
 10
7.922193374126663
 20
-15.80000000000018
 30
0.0
  0
VERTEX
  5
4F5
  8
6
 10
7.5
 20
-16.222193374126611
 30
0.0
  0
VERTEX
  5
4F6
  8
6
 10
7.5
 20
-21.0
 30
0.0
 42
-0.4142135623730951
  0
VERTEX
  5
4F7
  8
6
 10
6.0
 20
-22.5
 30
0.0
  0
VERTEX
  5
4F8
  8
6
 10
5.4248711305963289
 20
-22.5
 30
0.0
 42
-0.2679491924311212
  0
VERTEX
  5
4F9
  8
6
 10
4.125833024919757
 20
-21.75
 30
0.0
  0
VERTEX
  5
4FA
  8
6
 10
3.0
 20
-19.800000000000178
 30
0.0
  0
VERTEX
  5
4FB
  8
6
 10
2.0041451884326298
 20
-19.800000000000178
 30
0.0
  0
VERTEX
  5
4FC
  8
6
 10
1.5999999999999091
 20
-19.100000000000129
 30
0.0
  0
VERTEX
  5
4FD
  8
6
 10
0.0
 20
-19.600000000000129
 30
0.0
  0
VERTEX
  5
4FE
  8
6
 10
0.375
 20
-20.100000000000129
 30
0.0
  0
VERTEX
  5
4FF
  8
6
 10
0.0
 20
-20.600000000000129
 30
0.0
  0
VERTEX
  5
500
  8
6
 10
1.366842557242989
 20
-21.3891469183643
 30
0.0
 42
-0.7083504224473592
  0
VERTEX
  5
501
  8
6
 10
1.192926142933856
 20
-22.31633700540101
 30
0.0
  0
VERTEX
  5
502
  8
6
 10
0.0
 20
-22.5
 30
0.0
  0
VERTEX
  5
503
  8
6
 10
0.375
 20
-22.875
 30
0.0
  0
VERTEX
  5
504
  8
6
 10
0.0
 20
-23.25
 30
0.0
  0
VERTEX
  5
505
  8
6
 10
0.375
 20
-23.625
 30
0.0
  0
SEQEND
  5
506
  8
6
  0
DIMENSION
  5
2F6
  8
1
  2
*D4
 10
9.9999999999999982
 20
-35.52531618192301
 30
0.0
 11
4.9999999999998854
 21
-32.73831072489709
 31
0.0
 70
     0
 13
-0.0000000000002274
 23
-24.000000000000231
 33
0.0
 14
10.0
 24
-20.0
 34
0.0
  0
TEXT
  5
2F9
  8
1
 10
12.39668203469977
 20
-29.190980259897739
 30
0.0
 40
2.4999999499999999
  1
Hebgo 124/526
  0
DIMENSION
  5
300
  8
1
  2
*D5
 10
22.097213416194109
 20
-0.0000000000000034
 30
0.0
 11
19.347213416194101
 21
-1.9999999999999989
 31
0.0
 70
     0
 13
9.9999999999997726
 23
-4.0
 33
0.0
 14
9.9999999999997726
 24
0.0
 34
0.0
 50
90.0
  0
LINE
  5
301
  8
5
 10
15.343300208186291
 20
0.0
 30
0.0
 11
-6.6232785350455279
 21
0.0
 31
0.0
  0
LINE
  5
302
  8
6
  6
STRICHPUNKT
 10
4.2973804217085672
 20
-15.80000000000018
 30
0.0
 11
-14.968619578291509
 21
-15.80000000000018
 31
0.0
  0
DIMENSION
  5
303
  8
1
  2
*D6
 10
-16.768183428409429
 20
-16.0
 30
0.0
 11
-19.555188885435339
 21
-8.0
 31
0.0
 70
     0
 13
0.0
 23
0.0
 33
0.0
 14
-9.7703208031871327
 24
-16.0
 34
0.0
 50
90.0
  0
POLYLINE
  5
305
  8
6
 66
     1
 10
0.0
 20
0.0
 30
0.0
  0
VERTEX
  5
507
  8
6
 10
1.066181442511833
 20
-16.648737203898801
 30
0.0
 42
0.0698020145797582
  0
VERTEX
  5
508
  8
6
 10
-0.0000000000002274
 20
-16.375775050047931
 30
0.0
 42
-3.2234280385613259
  0
SEQEND
  5
509
  8
6
  0
POLYLINE
  5
306
  8
6
 66
     1
 10
0.0
 20
0.0
 30
0.0
  0
VERTEX
  5
50A
  8
6
 10
2.4179959360326388
 20
-17.637228201438852
 30
0.0
  0
VERTEX
  5
50B
  8
6
 10
2.0455060114923072
 20
-17.228000000000179
 30
0.0
 42
0.0337004454472373
  0
VERTEX
  5
50C
  8
6
 10
1.6086291171804981
 20
-16.922078023043468
 30
0.0
 42
-3.2234280385613259
  0
SEQEND
  5
50D
  8
6
  0
POLYLINE
  5
307
  8
6
 66
     1
 10
0.0
 20
0.0
 30
0.0
  0
VERTEX
  5
50E
  8
6
 10
-0.0000000000002274
 20
-15.22865434181454
 30
0.0
 42
0.0716230936514669
  0
VERTEX
  5
50F
  8
6
 10
1.066181442511833
 20
-14.95836788441596
 30
0.0
  0
SEQEND
  5
510
  8
6
  0
POLYLINE
  5
308
  8
6
 66
     1
 10
0.0
 20
0.0
 30
0.0
  0
VERTEX
  5
511
  8
6
 10
1.6086291171804981
 20
-14.68268415172099
 30
0.0
 42
0.0347698152739638
  0
VERTEX
  5
512
  8
6
 10
2.045330286211537
 20
-14.371816296422249
 30
0.0
  0
VERTEX
  5
513
  8
6
 10
2.4179959360326388
 20
-14.01457597418579
 30
0.0
  0
SEQEND
  5
514
  8
6
  0
POINT
  5
309
  8
5
 10
6.5
 20
-4.0
 30
0.0
  0
POLYLINE
  5
30E
  8
6
 66
     1
 10
0.0
 20
0.0
 30
0.0
 70
     1
  0
VERTEX
  5
515
  8
6
 10
6.5
 20
-1.360805036456554
 30
0.0
 42
0.0810140654945016
  0
VERTEX
  5
516
  8
6
 10
7.8469322393375469
 20
-1.1720160158791939
 30
0.0
 42
-0.7148582707051018
  0
VERTEX
  5
517
  8
6
 10
8.8418247721785974
 20
-2.6822264046517139
 30
0.0
 42
-0.166214732608571
  0
VERTEX
  5
518
  8
6
 10
6.5
 20
-3.592054806214378
 30
0.0
 42
-0.1662147326085706
  0
VERTEX
  5
519
  8
6
 10
4.1581752278211752
 20
-2.6822264046517139
 30
0.0
 42
-0.7148582707051018
  0
VERTEX
  5
51A
  8
6
 10
5.1530677606622239
 20
-1.1720160158791939
 30
0.0
 42
0.0810140654945016
  0
SEQEND
  5
51B
  8
6
  0
POLYLINE
  5
30F
  8
6
 66
     1
 10
0.0
 20
0.0
 30
0.0
 70
     1
  0
VERTEX
  5
51C
  8
6
 10
6.5
 20
-0.0000000000001137
 30
0.0
 42
-0.3755155665862612
  0
VERTEX
  5
51D
  8
6
 10
7.1103344852067494
 20
-0.6833808256807288
 30
0.0
  0
VERTEX
  5
51E
  8
6
 10
8.0250370333033061
 20
-0.5031387337070328
 30
0.0
  0
VERTEX
  5
51F
  8
6
 10
8.7075412914084591
 20
-0.5991683850987785
 30
0.0
  0
VERTEX
  5
520
  8
6
 10
9.0880521922822481
 20
-0.0889645131006773
 30
0.0
 42
-0.849985669627559
  0
VERTEX
  5
521
  8
6
 10
9.7944923816703522
 20
-0.6396019164743622
 30
0.0
  0
VERTEX
  5
522
  8
6
 10
9.4760053607094505
 20
-1.0501483169001631
 30
0.0
 42
0.3552812814794005
  0
VERTEX
  5
523
  8
6
 10
9.490502392929784
 20
-1.285255640309628
 30
0.0
 42
-0.3793838421575348
  0
VERTEX
  5
524
  8
6
 10
9.3900454732333856
 20
-3.29305239861253
 30
0.0
 42
0.0092762723599261
  0
VERTEX
  5
525
  8
6
 10
7.519478340547038
 20
-4.52627510556374
 30
0.0
 42
0.305541356778279
  0
VERTEX
  5
526
  8
6
 10
7.3728663181220782
 20
-4.743605293581254
 30
0.0
  0
VERTEX
  5
527
  8
6
 10
7.3728663181220782
 20
-5.3248373214784124
 30
0.0
 42
0.7440894012573249
  0
VERTEX
  5
528
  8
6
 10
7.4739780261613751
 20
-5.35516249876025
 30
0.0
  0
VERTEX
  5
529
  8
6
 10
7.9586780713625549
 20
-5.0143235060321549
 30
0.0
 42
-0.6074999965019705
  0
VERTEX
  5
52A
  8
6
 10
8.0705372714089663
 20
-5.0724114599671557
 30
0.0
  0
VERTEX
  5
52B
  8
6
 10
8.0705372714089663
 20
-5.5656357604997311
 30
0.0
  0
VERTEX
  5
52C
  8
6
 10
7.3374771592841617
 20
-6.2378432627418761
 30
0.0
  0
VERTEX
  5
52D
  8
6
 10
7.3374771592841617
 20
-7.1815282794328823
 30
0.0
 42
0.7726510115360289
  0
VERTEX
  5
52E
  8
6
 10
7.4537557150654257
 20
-7.2118533992141911
 30
0.0
  0
VERTEX
  5
52F
  8
6
 10
7.954258791907705
 20
-6.8631142054761076
 30
0.0
 42
-0.6322467702262857
  0
VERTEX
  5
530
  8
6
 10
8.0604261158609916
 20
-6.9237645025394841
 30
0.0
  0
VERTEX
  5
531
  8
6
 10
8.0604261158609916
 20
-7.407164187313696
 30
0.0
  0
VERTEX
  5
532
  8
6
 10
6.8673076253658101
 20
-8.6302784826706311
 30
0.0
 42
-0.1809757128983446
  0
VERTEX
  5
533
  8
6
 10
6.7813626125082456
 20
-8.6707120140459892
 30
0.0
  0
VERTEX
  5
534
  8
6
 10
6.5
 20
-8.6707120140459892
 30
0.0
  0
VERTEX
  5
535
  8
6
 10
6.2186373874915262
 20
-8.6707120140459892
 30
0.0
 42
-0.1809757128983446
  0
VERTEX
  5
536
  8
6
 10
6.132692374634189
 20
-8.6302784826706311
 30
0.0
  0
VERTEX
  5
537
  8
6
 10
4.9395738841387811
 20
-7.407164187313696
 30
0.0
  0
VERTEX
  5
538
  8
6
 10
4.9395738841387811
 20
-6.9237645025394841
 30
0.0
 42
-0.6322467702262857
  0
VERTEX
  5
539
  8
6
 10
5.0457412080920667
 20
-6.8631142054761076
 30
0.0
  0
VERTEX
  5
53A
  8
6
 10
5.5462442849343461
 20
-7.2118533992141911
 30
0.0
 42
0.7726510115360289
  0
VERTEX
  5
53B
  8
6
 10
5.6625228407156101
 20
-7.1815282794328823
 30
0.0
  0
VERTEX
  5
53C
  8
6
 10
5.6625228407156101
 20
-6.2378432627418761
 30
0.0
  0
VERTEX
  5
53D
  8
6
 10
4.9294627285908064
 20
-5.5656357604997311
 30
0.0
  0
VERTEX
  5
53E
  8
6
 10
4.9294627285908064
 20
-5.0724114599671557
 30
0.0
 42
-0.6074999965019705
  0
VERTEX
  5
53F
  8
6
 10
5.041321928637216
 20
-5.0143235060321549
 30
0.0
  0
VERTEX
  5
540
  8
6
 10
5.526021973838624
 20
-5.35516249876025
 30
0.0
 42
0.7440894012573249
  0
VERTEX
  5
541
  8
6
 10
5.6271336818776936
 20
-5.3248373214784124
 30
0.0
  0
VERTEX
  5
542
  8
6
 10
5.6271336818776936
 20
-4.743605293581254
 30
0.0
 42
0.305541356778279
  0
VERTEX
  5
543
  8
6
 10
5.4805216594527328
 20
-4.52627510556374
 30
0.0
 42
0.0251510633838079
  0
VERTEX
  5
544
  8
6
 10
3.6099545267663871
 20
-3.29305239861253
 30
0.0
 42
-0.3793838421575348
  0
VERTEX
  5
545
  8
6
 10
3.5094976070699881
 20
-1.285255640309628
 30
0.0
 42
0.3552812814794005
  0
VERTEX
  5
546
  8
6
 10
3.5239946392903221
 20
-1.0501483169001631
 30
0.0
  0
VERTEX
  5
547
  8
6
 10
3.20550761832942
 20
-0.6396019164743622
 30
0.0
 42
-0.849985669627559
  0
VERTEX
  5
548
  8
6
 10
3.911947807717524
 20
-0.0889645131006773
 30
0.0
  0
VERTEX
  5
549
  8
6
 10
4.2924587085913108
 20
-0.5991683850987785
 30
0.0
  0
VERTEX
  5
54A
  8
6
 10
4.9749629666964656
 20
-0.5031387337070328
 30
0.0
  0
VERTEX
  5
54B
  8
6
 10
5.8896655147930232
 20
-0.6833808256807288
 30
0.0
 42
-0.3755155665862808
  0
SEQEND
  5
54C
  8
6
  0
VIEWPORT
  5
22
 67
     1
  8
0
 10
210.0
 20
170.2366863905325
 30
0.0
 40
420.0
 41
340.47337278106511
 68
     1
 69
     1
1001
ACAD
1000
MVIEW
1002
{
1070
    16
1010
0.0
1020
0.0
1030
0.0
1010
0.0
1020
0.0
1030
1.0
1040
0.0
1040
340.47337278106511
1040
210.0
1040
170.2366863905325
1040
50.0
1040
0.0
1040
0.0
1070
     0
1070
   100
1070
     1
1070
     1
1070
     0
1070
     0
1070
     0
1070
     0
1040
0.0
1040
0.0
1040
0.0
1040
5.0
1040
5.0
1040
10.0
1040
10.0
1070
     0
1002
{
1002
}
1002
}
  0
ENDSEC
  0
EOF
