  0
SECTION
  2
HEADER
  9
$ACADVER
  1
AC1009
  9
$INSBASE
 10
0.0
 20
0.0
 30
0.0
  9
$EXTMIN
 10
-34.452450913156952
 20
-20.00000000000022
 30
0.0
  9
$EXTMAX
 10
14.96861957829173
 20
32.927612595343071
 30
0.0
  9
$LIMMIN
 10
-150.0
 20
-150.0
  9
$LIMMAX
 10
150.0
 20
150.0
  9
$ORTHOMODE
 70
     0
  9
$REGENMODE
 70
     1
  9
$FILLMODE
 70
     1
  9
$QTEXTMODE
 70
     0
  9
$MIRRTEXT
 70
     0
  9
$DRAGMODE
 70
     2
  9
$LTSCALE
 40
3.0
  9
$OSMODE
 70
   111
  9
$ATTMODE
 70
     1
  9
$TEXTSIZE
 40
3.5
  9
$TRACEWID
 40
1.0
  9
$TEXTSTYLE
  7
BESCHLAG
  9
$CLAYER
  8
0
  9
$CELTYPE
  6
BYLAYER
  9
$CECOLOR
 62
   256
  9
$DIMSCALE
 40
1.0
  9
$DIMASZ
 40
2.0
  9
$DIMEXO
 40
2.0
  9
$DIMDLI
 40
0.0
  9
$DIMRND
 40
0.0
  9
$DIMDLE
 40
1.0
  9
$DIMEXE
 40
1.0
  9
$DIMTP
 40
0.0
  9
$DIMTM
 40
0.0
  9
$DIMTXT
 40
3.5
  9
$DIMCEN
 40
0.0
  9
$DIMTSZ
 40
0.0
  9
$DIMTOL
 70
     0
  9
$DIMLIM
 70
     0
  9
$DIMTIH
 70
     0
  9
$DIMTOH
 70
     0
  9
$DIMSE1
 70
     0
  9
$DIMSE2
 70
     0
  9
$DIMTAD
 70
     1
  9
$DIMZIN
 70
     8
  9
$DIMBLK
  1

  9
$DIMASO
 70
     1
  9
$DIMSHO
 70
     1
  9
$DIMPOST
  1

  9
$DIMAPOST
  1

  9
$DIMALT
 70
     0
  9
$DIMALTD
 70
     2
  9
$DIMALTF
 40
0.039370078740157
  9
$DIMLFAC
 40
1.0
  9
$DIMTOFL
 70
     1
  9
$DIMTVP
 40
0.0
  9
$DIMTIX
 70
     1
  9
$DIMSOXD
 70
     0
  9
$DIMSAH
 70
     1
  9
$DIMBLK1
  1
OBLIQUE
  9
$DIMBLK2
  1
OBLIQUE
  9
$DIMSTYLE
  2
OPO-SSTRICH
  9
$DIMCLRD
 70
   256
  9
$DIMCLRE
 70
   256
  9
$DIMCLRT
 70
   256
  9
$DIMTFAC
 40
0.7114285714285716
  9
$DIMGAP
 40
1.0
  9
$LUNITS
 70
     2
  9
$LUPREC
 70
     1
  9
$SKETCHINC
 40
1.0
  9
$FILLETRAD
 40
0.0
  9
$AUNITS
 70
     0
  9
$AUPREC
 70
     1
  9
$MENU
  1
D:\ACL_CGWG\CGTAB13
  9
$ELEVATION
 40
0.0
  9
$PELEVATION
 40
0.0
  9
$THICKNESS
 40
0.0
  9
$LIMCHECK
 70
     0
  9
$BLIPMODE
 70
     0
  9
$CHAMFERA
 40
1.0
  9
$CHAMFERB
 40
1.0
  9
$SKPOLY
 70
     0
  9
$TDCREATE
 40
2451739.9034431009
  9
$TDUPDATE
 40
2452087.6401061108
  9
$TDINDWG
 40
0.003137662
  9
$TDUSRTIMER
 40
0.003137662
  9
$USRTIMER
 70
     1
  9
$ANGBASE
 50
0.0
  9
$ANGDIR
 70
     0
  9
$PDMODE
 70
    35
  9
$PDSIZE
 40
5.0
  9
$PLINEWID
 40
0.0
  9
$COORDS
 70
     1
  9
$SPLFRAME
 70
     0
  9
$SPLINETYPE
 70
     6
  9
$SPLINESEGS
 70
     8
  9
$ATTDIA
 70
     1
  9
$ATTREQ
 70
     1
  9
$HANDLING
 70
-16383
  9
$HANDSEED
  5
5F7
  9
$SURFTAB1
 70
    12
  9
$SURFTAB2
 70
    12
  9
$SURFTYPE
 70
     6
  9
$SURFU
 70
    12
  9
$SURFV
 70
    12
  9
$UCSNAME
  2

  9
$UCSORG
 10
0.0
 20
0.0
 30
0.0
  9
$UCSXDIR
 10
1.0
 20
0.0
 30
0.0
  9
$UCSYDIR
 10
0.0
 20
1.0
 30
0.0
  9
$PUCSNAME
  2

  9
$PUCSORG
 10
0.0
 20
0.0
 30
0.0
  9
$PUCSXDIR
 10
1.0
 20
0.0
 30
0.0
  9
$PUCSYDIR
 10
0.0
 20
1.0
 30
0.0
  9
$USERI1
 70
     0
  9
$USERI2
 70
     0
  9
$USERI3
 70
     0
  9
$USERI4
 70
     0
  9
$USERI5
 70
     0
  9
$USERR1
 40
0.0
  9
$USERR2
 40
0.0
  9
$USERR3
 40
0.0
  9
$USERR4
 40
0.0
  9
$USERR5
 40
0.0
  9
$WORLDVIEW
 70
     1
  9
$SHADEDGE
 70
     3
  9
$SHADEDIF
 70
    70
  9
$TILEMODE
 70
     1
  9
$MAXACTVP
 70
    48
  9
$PLIMCHECK
 70
     0
  9
$PEXTMIN
 10
1.0000000000000000E+020
 20
1.0000000000000000E+020
 30
1.0000000000000000E+020
  9
$PEXTMAX
 10
-1.0000000000000000E+020
 20
-1.0000000000000000E+020
 30
-1.0000000000000000E+020
  9
$PLIMMIN
 10
0.0
 20
0.0
  9
$PLIMMAX
 10
420.0
 20
297.0
  9
$UNITMODE
 70
     0
  9
$VISRETAIN
 70
     1
  9
$PLINEGEN
 70
     0
  9
$PSLTSCALE
 70
     1
  0
ENDSEC
  0
SECTION
  2
TABLES
  0
TABLE
  2
VPORT
 70
     2
  0
VPORT
  2
*ACTIVE
 70
     0
 10
0.0
 20
0.0
 11
1.0
 21
1.0
 12
-9.7503655237964022
 22
6.4659125712536847
 13
0.0
 23
0.0
 14
0.5
 24
0.5
 15
10.0
 25
10.0
 16
0.0
 26
0.0
 36
1.0
 17
0.0
 27
0.0
 37
0.0
 40
53.380126866602211
 41
1.6070460704607039
 42
50.0
 43
0.0
 44
0.0
 50
0.0
 51
0.0
 71
     0
 72
   800
 73
     1
 74
     1
 75
     0
 76
     0
 77
     0
 78
     0
  0
ENDTAB
  0
TABLE
  2
LTYPE
 70
     2
  0
LTYPE
  2
CONTINUOUS
 70
     0
  3
_______________________________________________
 72
    65
 73
     2
 40
1.0
 49
1.0
 49
0.0
  0
LTYPE
  2
STRICHPUNKT
 70
     0
  3
__ . __ . __ . __ . __ . __ . __ . __ . __ . __
 72
    65
 73
     4
 40
1.0
 49
0.5
 49
-0.25
 49
0.0
 49
-0.25
  0
ENDTAB
  0
TABLE
  2
LAYER
 70
     7
  0
LAYER
  2
0
 70
     0
 62
    30
  6
CONTINUOUS
  0
LAYER
  2
1
 70
     0
 62
     2
  6
CONTINUOUS
  0
LAYER
  2
2
 70
     0
 62
     9
  6
CONTINUOUS
  0
LAYER
  2
4
 70
     1
 62
     4
  6
CONTINUOUS
  0
LAYER
  2
5
 70
     0
 62
     1
  6
CONTINUOUS
  0
LAYER
  2
6
 70
     0
 62
     3
  6
CONTINUOUS
  0
LAYER
  2
DEFPOINTS
 70
     0
 62
     7
  6
CONTINUOUS
  0
ENDTAB
  0
TABLE
  2
STYLE
 70
     2
  0
STYLE
  2
STANDARD
 70
     0
 40
0.0
 41
1.0
 50
0.0
 71
     0
 42
2.5
  3
txt
  4

  0
STYLE
  2
BESCHLAG
 70
     0
 40
0.0
 41
1.0
 50
0.0
 71
     0
 42
3.5
  3
txt
  4

  0
ENDTAB
  0
TABLE
  2
VIEW
 70
     0
  0
ENDTAB
  0
TABLE
  2
UCS
 70
     0
  0
ENDTAB
  0
TABLE
  2
APPID
 70
     1
  0
APPID
  2
ACAD
 70
     0
  0
ENDTAB
  0
TABLE
  2
DIMSTYLE
 70
     1
  0
DIMSTYLE
  2
OPO-SSTRICH
 70
     0
  3

  4

  5

  6
OBLIQUE
  7
OBLIQUE
 40
1.0
 41
2.0
 42
2.0
 43
0.0
 44
1.0
 45
0.0
 46
1.0
 47
0.0
 48
0.0
140
3.5
141
0.0
142
0.0
143
0.039370078740157
144
1.0
145
0.0
146
0.7114285714285716
147
1.0
 71
     0
 72
     0
 73
     0
 74
     0
 75
     0
 76
     0
 77
     1
 78
     8
170
     0
171
     2
172
     1
173
     1
174
     1
175
     0
176
   256
177
   256
178
   256
  0
ENDTAB
  0
ENDSEC
  0
SECTION
  2
BLOCKS
  0
BLOCK
  8
0
  2
$MODEL_SPACE
 70
     0
 10
0.0
 20
0.0
 30
0.0
  3
$MODEL_SPACE
  1

  0
ENDBLK
  5
1C
  8
0
  0
BLOCK
 67
     1
  8
0
  2
$PAPER_SPACE
 70
     0
 10
0.0
 20
0.0
 30
0.0
  3
$PAPER_SPACE
  1

  0
ENDBLK
  5
19
 67
     1
  8
0
  0
BLOCK
  8
0
  2
_OBLIQUE
 70
     0
 10
0.0
 20
0.0
 30
0.0
  3
_OBLIQUE
  1

  0
LINE
  5
204
  8
0
 62
     0
 10
-0.5
 20
-0.5
 30
0.0
 11
0.5
 21
0.5
 31
0.0
  0
ENDBLK
  5
206
  8
0
  0
BLOCK
  8
0
  2
NULLPUNKT
 70
     0
 10
0.0
 20
0.0
 30
0.0
  3
NULLPUNKT
  1

  0
SOLID
  5
254
  8
5
 10
0.0
 20
0.0
 30
0.0
 11
2.0
 21
0.0
 31
0.0
 12
0.0
 22
-2.0
 32
0.0
 13
0.0
 23
-2.0
 33
0.0
  0
SOLID
  5
255
  8
5
 10
0.0
 20
0.0
 30
0.0
 11
-2.0
 21
0.0
 31
0.0
 12
0.0
 22
2.0
 32
0.0
 13
0.0
 23
2.0
 33
0.0
  0
POLYLINE
  5
256
  8
5
 66
     1
 10
0.0
 20
0.0
 30
0.0
  0
VERTEX
  5
563
  8
5
 10
0.0
 20
2.0
 30
0.0
  0
VERTEX
  5
564
  8
5
 10
0.0
 20
-2.0
 30
0.0
  0
SEQEND
  5
565
  8
5
  0
POLYLINE
  5
257
  8
5
 66
     1
 10
0.0
 20
0.0
 30
0.0
  0
VERTEX
  5
566
  8
5
 10
-2.0
 20
0.0
 30
0.0
  0
VERTEX
  5
567
  8
5
 10
2.0
 20
0.0
 30
0.0
  0
SEQEND
  5
568
  8
5
  0
CIRCLE
  5
258
  8
5
 10
0.0
 20
0.0
 30
0.0
 40
2.0
  0
ENDBLK
  5
25A
  8
0
  0
BLOCK
  8
0
  2
*X2
 70
     1
 10
0.0
 20
0.0
 30
0.0
  3
*X2
  1

  0
LINE
  5
26C
  8
0
 62
     0
 10
1271.0346875943701
 20
19.45568489418088
 30
0.0
 11
1273.795772667376
 21
22.21676996718795
 31
0.0
  0
LINE
  5
26D
  8
0
 62
     0
 10
1271.0346875943701
 20
20.869898456553969
 30
0.0
 11
1273.5346875943701
 21
23.369898456553809
 31
0.0
  0
LINE
  5
26E
  8
0
 62
     0
 10
1279.4056508877541
 20
29.240861749938858
 30
0.0
 11
1280.9209970836059
 21
30.75620794579056
 31
0.0
  0
LINE
  5
26F
  8
0
 62
     0
 10
1271.0346875943701
 20
22.284112018927061
 30
0.0
 11
1273.5346875943701
 21
24.784112018926901
 31
0.0
  0
LINE
  5
270
  8
0
 62
     0
 10
1278.6411442742401
 20
29.89056869879709
 30
0.0
 11
1280.0244216114379
 21
31.273846035995689
 31
0.0
  0
LINE
  5
271
  8
0
 62
     0
 10
1271.0346875943701
 20
23.698325581300161
 30
0.0
 11
1273.169712466055
 21
25.833350452985421
 31
0.0
  0
LINE
  5
272
  8
0
 62
     0
 10
1279.6983231856459
 20
32.361961172576763
 30
0.0
 11
1280.8558091531179
 21
33.519447140048648
 31
0.0
  0
LINE
  5
273
  8
0
 62
     0
 10
1277.739028055292
 20
30.4026660422223
 30
0.0
 11
1279.468612183603
 21
32.132250170534022
 31
0.0
  0
LINE
  5
274
  8
0
 62
     0
 10
1271.0346875943701
 20
25.11253914367326
 30
0.0
 11
1273.5346875943701
 21
27.612539143673089
 31
0.0
  0
LINE
  5
275
  8
0
 62
     0
 10
1277.2213899650869
 20
31.299241514390371
 30
0.0
 11
1280.012717149493
 21
34.090568698797142
 31
0.0
  0
LINE
  5
276
  8
0
 62
     0
 10
1271.0346875943701
 20
26.526752706046349
 30
0.0
 11
1273.5346875943701
 21
29.026752706046189
 31
0.0
  0
LINE
  5
277
  8
0
 62
     0
 10
1276.66480511441
 20
32.156870226086198
 30
0.0
 11
1278.5985035871211
 21
34.090568698797142
 31
0.0
  0
LINE
  5
278
  8
0
 62
     0
 10
1271.0346875943701
 20
27.940966268419452
 30
0.0
 11
1273.5346875943701
 21
30.440966268419281
 31
0.0
  0
LINE
  5
279
  8
0
 62
     0
 10
1275.682526727546
 20
32.588805401595621
 30
0.0
 11
1277.184290024747
 21
34.090568698797142
 31
0.0
  0
LINE
  5
27A
  8
0
 62
     0
 10
1271.0346875943701
 20
29.35517983079254
 30
0.0
 11
1275.7700764623739
 21
34.090568698797142
 31
0.0
  0
LINE
  5
27B
  8
0
 62
     0
 10
1271.1055740583331
 20
30.840279857128529
 30
0.0
 11
1274.2849764360381
 21
34.019682234834171
 31
0.0
  0
LINE
  5
27C
  8
0
 62
     0
 10
1271.0346875943701
 20
18.041471331807781
 30
0.0
 11
1272.840001905553
 21
19.846785642991119
 31
0.0
  0
LINE
  5
27D
  8
0
 62
     0
 10
1273.0784706501761
 20
20.085254387614022
 30
0.0
 11
1274.883784961359
 21
21.89056869879709
 31
0.0
  0
LINE
  5
27E
  8
0
 62
     0
 10
1271.0346875943701
 20
16.627257769434681
 30
0.0
 11
1272.8346875943689
 21
18.427257769434739
 31
0.0
  0
LINE
  5
27F
  8
0
 62
     0
 10
1274.4979985237319
 20
20.090568698797139
 30
0.0
 11
1276.2979985237321
 21
21.89056869879709
 31
0.0
  0
LINE
  5
280
  8
0
 62
     0
 10
1271.0346875943701
 20
15.213044207061589
 30
0.0
 11
1272.8346875943689
 21
17.01304420706165
 31
0.0
  0
LINE
  5
281
  8
0
 62
     0
 10
1275.912212086105
 20
20.090568698797139
 30
0.0
 11
1277.712212086105
 21
21.89056869879709
 31
0.0
  0
LINE
  5
282
  8
0
 62
     0
 10
1271.488659066154
 20
14.252802116473131
 30
0.0
 11
1272.8346875943689
 21
15.59883064468856
 31
0.0
  0
LINE
  5
283
  8
0
 62
     0
 10
1276.234687594369
 20
18.998830644688621
 30
0.0
 11
1279.733154683214
 21
22.497297733533181
 31
0.0
  0
LINE
  5
284
  8
0
 62
     0
 10
1272.809583256148
 20
14.15951274409383
 30
0.0
 11
1273.2157435490731
 21
14.565673037018509
 31
0.0
  0
LINE
  5
285
  8
0
 62
     0
 10
1279.240639210851
 20
20.590568698797139
 30
0.0
 11
1280.8106507307371
 21
22.16058021868243
 31
0.0
  0
LINE
  5
286
  8
0
 62
     0
 10
1276.234687594369
 20
17.584617082315528
 30
0.0
 11
1277.43468759437
 21
18.784617082315339
 31
0.0
  0
LINE
  5
287
  8
0
 62
     0
 10
1276.234687594369
 20
16.170403519942429
 30
0.0
 11
1277.43468759437
 21
17.37040351994224
 31
0.0
  0
LINE
  5
288
  8
0
 62
     0
 10
1280.6548527732241
 20
20.590568698797139
 30
0.0
 11
1280.844770183797
 21
20.780486109369718
 31
0.0
  0
LINE
  5
289
  8
0
 62
     0
 10
1275.9215600570849
 20
14.443062420284299
 30
0.0
 11
1277.568810149987
 21
16.090312513186831
 31
0.0
  0
LINE
  5
28A
  8
0
 62
     0
 10
1276.983279897971
 20
14.09056869879714
 30
0.0
 11
1278.483279897971
 21
15.59056869879714
 31
0.0
  0
LINE
  5
28B
  8
0
 62
     0
 10
1278.3974934603441
 20
14.09056869879714
 30
0.0
 11
1279.8974934603441
 21
15.59056869879714
 31
0.0
  0
LINE
  5
28C
  8
0
 62
     0
 10
1279.811707022717
 20
14.09056869879714
 30
0.0
 11
1280.798197308543
 21
15.07705898462353
 31
0.0
  0
ENDBLK
  5
28E
  8
0
  0
BLOCK
  8
0
  2
*D3
 70
     1
 10
0.0
 20
0.0
 30
0.0
  3
*D3
  1

  0
LINE
  5
4C7
  8
1
 10
-7.9999999999999991
 20
20.0
 30
0.0
 11
-20.293229985535611
 21
20.0
 31
0.0
  0
LINE
  5
4C8
  8
1
 10
-11.99999999999954
 20
0.0000000000000006
 30
0.0
 11
-20.293229985535611
 21
0.0000000000000029
 31
0.0
  0
LINE
  5
4C9
  8
1
 10
-19.293229985535611
 20
21.0
 30
0.0
 11
-19.293229985535611
 21
-0.9999999999999971
 31
0.0
  0
INSERT
  5
4CA
  8
1
  2
_OBLIQUE
 10
-19.293229985535611
 20
20.0
 30
0.0
 41
2.0
 42
2.0
 43
2.0
 50
90.0
  0
INSERT
  5
4CB
  8
1
  2
_OBLIQUE
 10
-19.293229985535611
 20
0.0000000000000026
 30
0.0
 41
2.0
 42
2.0
 43
2.0
 50
270.0
  0
TEXT
  5
4CC
  8
0
 10
-20.360078553066302
 20
7.326057298772171
 30
0.0
 40
3.5
  1
20
 50
90.0
  7
BESCHLAG
  0
POINT
  5
4CD
  8
DEFPOINTS
 62
     0
 10
-6.0
 20
20.0
 30
0.0
  0
POINT
  5
4CE
  8
DEFPOINTS
 62
     0
 10
-9.9999999999995453
 20
0.0
 30
0.0
  0
POINT
  5
4CF
  8
DEFPOINTS
 62
     0
 10
-19.293229985535611
 20
0.0000000000000026
 30
0.0
  0
ENDBLK
  5
360
  8
0
  0
BLOCK
  8
0
  2
*D4
 70
     1
 10
0.0
 20
0.0
 30
0.0
  3
*D4
  1

  0
LINE
  5
3BE
  8
1
 10
0.0000000000004549
 20
22.00000000000022
 30
0.0
 11
0.0000000000004553
 21
28.434433877744169
 31
0.0
  0
LINE
  5
3BF
  8
1
 10
-10.0
 20
18.0
 30
0.0
 11
-10.0
 21
28.434433877744169
 31
0.0
  0
LINE
  5
3C0
  8
1
 10
1.000000000000455
 20
27.434433877744169
 30
0.0
 11
-11.0
 21
27.434433877744169
 31
0.0
  0
INSERT
  5
3C1
  8
1
  2
_OBLIQUE
 10
0.0000000000004552
 20
27.434433877744169
 30
0.0
 41
2.0
 42
2.0
 43
2.0
  0
INSERT
  5
3C2
  8
1
  2
_OBLIQUE
 10
-10.0
 20
27.434433877744169
 30
0.0
 41
2.0
 42
2.0
 43
2.0
 50
180.0
  0
TEXT
  5
3C3
  8
0
 10
-7.868519781718736
 20
28.50128244527486
 30
0.0
 40
3.5
  1
10
  7
BESCHLAG
  0
POINT
  5
3C4
  8
DEFPOINTS
 62
     0
 10
0.0000000000004547
 20
20.00000000000022
 30
0.0
  0
POINT
  5
3C5
  8
DEFPOINTS
 62
     0
 10
-10.0
 20
16.0
 30
0.0
  0
POINT
  5
3C6
  8
DEFPOINTS
 62
     0
 10
-10.0
 20
27.434433877744169
 30
0.0
  0
ENDBLK
  5
36C
  8
0
  0
BLOCK
  8
0
  2
*D5
 70
     1
 10
0.0
 20
0.0
 30
0.0
  3
*D5
  1

  0
LINE
  5
4D9
  8
1
 10
-11.99999999999954
 20
0.0000000000000006
 30
0.0
 11
-20.293229985535611
 21
0.0000000000000029
 31
0.0
  0
LINE
  5
4DA
  8
1
 10
-12.979872184731439
 20
-19.00000000000022
 30
0.0
 11
-20.293229985535611
 21
-19.00000000000022
 31
0.0
  0
LINE
  5
4DB
  8
1
 10
-19.293229985535611
 20
1.000000000000002
 30
0.0
 11
-19.293229985535611
 21
-20.00000000000022
 31
0.0
  0
INSERT
  5
4DC
  8
1
  2
_OBLIQUE
 10
-19.293229985535611
 20
0.0000000000000026
 30
0.0
 41
2.0
 42
2.0
 43
2.0
 50
90.0
  0
INSERT
  5
4DD
  8
1
  2
_OBLIQUE
 10
-19.293229985535611
 20
-19.00000000000022
 30
0.0
 41
2.0
 42
2.0
 43
2.0
 50
270.0
  0
TEXT
  5
4DE
  8
0
 10
-20.360078553066302
 20
-12.3780695770806
 30
0.0
 40
3.5
  1
19
 50
90.0
  7
BESCHLAG
  0
POINT
  5
4DF
  8
DEFPOINTS
 62
     0
 10
-9.9999999999995453
 20
0.0
 30
0.0
  0
POINT
  5
4E0
  8
DEFPOINTS
 62
     0
 10
-10.979872184731439
 20
-19.00000000000022
 30
0.0
  0
POINT
  5
4E1
  8
DEFPOINTS
 62
     0
 10
-19.293229985535611
 20
-19.00000000000022
 30
0.0
  0
ENDBLK
  5
384
  8
0
  0
ENDSEC
  0
SECTION
  2
ENTITIES
  0
INSERT
  5
25B
  8
5
  2
NULLPUNKT
 10
0.0
 20
0.0
 30
0.0
  0
INSERT
  5
326
  8
2
  2
*X2
 10
-1281.034687594369
 20
-14.09056869879714
 30
0.0
1001
ACAD
1000
HATCH
1002
{
1070
    16
1000
_U,I
1040
1.0
1040
0.7853981633974483
1070
     0
1002
}
  0
POLYLINE
  5
327
  8
5
 66
     1
 10
0.0
 20
0.0
 30
0.0
  0
VERTEX
  5
569
  8
5
 10
0.0
 20
-6.611492371542055
 30
0.0
  0
VERTEX
  5
56A
  8
5
 10
0.0
 20
26.791826921120901
 30
0.0
  0
SEQEND
  5
56B
  8
5
  0
DIMENSION
  5
328
  8
1
  2
*D3
 10
-19.293229985535611
 20
0.0000000000000026
 30
0.0
 11
-22.080235442561531
 21
10.0
 31
0.0
 70
     0
 13
-6.0
 23
20.0
 33
0.0
 14
-9.9999999999995453
 24
0.0
 34
0.0
 50
270.0
  0
DIMENSION
  5
329
  8
1
  2
*D4
 10
-10.0
 20
27.434433877744169
 30
0.0
 11
-4.9999999999997717
 21
30.221439334770089
 31
0.0
 70
     0
 13
0.0000000000004547
 23
20.00000000000022
 33
0.0
 14
-10.0
 24
16.0
 34
0.0
 50
180.0
  0
POLYLINE
  5
32A
  8
4
 66
     1
 10
0.0
 20
0.0
 30
0.0
 70
     1
  0
VERTEX
  5
56C
  8
4
 10
0.0000000000004547
 20
20.0
 30
0.0
  0
VERTEX
  5
56D
  8
4
 10
0.0000000000004547
 20
0.0
 30
0.0
  0
VERTEX
  5
56E
  8
4
 10
-9.9999999999995453
 20
0.0
 30
0.0
  0
VERTEX
  5
56F
  8
4
 10
-9.9999999999995453
 20
16.0
 30
0.0
 42
-0.4142135623730951
  0
VERTEX
  5
570
  8
4
 10
-5.9999999999995453
 20
20.0
 30
0.0
  0
SEQEND
  5
571
  8
4
  0
POLYLINE
  5
32B
  8
6
 66
     1
 10
0.0
 20
0.0
 30
0.0
 70
     1
  0
VERTEX
  5
572
  8
6
 10
0.0
 20
20.0
 30
0.0
  0
VERTEX
  5
573
  8
6
 10
-6.0
 20
20.0
 30
0.0
 42
0.4142135623730951
  0
VERTEX
  5
574
  8
6
 10
-10.0
 20
16.0
 30
0.0
  0
VERTEX
  5
575
  8
6
 10
-10.0
 20
1.0
 30
0.0
 42
0.4142135623730951
  0
VERTEX
  5
576
  8
6
 10
-9.0
 20
0.0
 30
0.0
  0
VERTEX
  5
577
  8
6
 10
-8.5499999999997272
 20
0.0
 30
0.0
 42
0.4142135623730951
  0
VERTEX
  5
578
  8
6
 10
-7.75
 20
0.7999999999999546
 30
0.0
  0
VERTEX
  5
579
  8
6
 10
-7.75
 20
0.8500000000001364
 30
0.0
 42
0.4142135623730951
  0
VERTEX
  5
57A
  8
6
 10
-7.9000000000000901
 20
1.0
 30
0.0
  0
VERTEX
  5
57B
  8
6
 10
-8.1999999999998181
 20
1.0
 30
0.0
  0
VERTEX
  5
57C
  8
6
 10
-8.1999999999998181
 20
5.7000000000000446
 30
0.0
 42
-0.4142135623730951
  0
VERTEX
  5
57D
  8
6
 10
-7.9000000000000901
 20
6.0
 30
0.0
  0
VERTEX
  5
57E
  8
6
 10
-5.0999999999999091
 20
6.0
 30
0.0
 42
-0.4142135623730951
  0
VERTEX
  5
57F
  8
6
 10
-4.7999999999997272
 20
5.7000000000000446
 30
0.0
  0
VERTEX
  5
580
  8
6
 10
-4.7999999999997272
 20
1.0
 30
0.0
  0
VERTEX
  5
581
  8
6
 10
-5.0999999999999091
 20
1.0
 30
0.0
 42
0.4142135623730951
  0
VERTEX
  5
582
  8
6
 10
-5.25
 20
0.8500000000001364
 30
0.0
  0
VERTEX
  5
583
  8
6
 10
-5.25
 20
0.7999999999999546
 30
0.0
 42
0.4142135623730951
  0
VERTEX
  5
584
  8
6
 10
-4.4499999999998181
 20
0.0
 30
0.0
  0
VERTEX
  5
585
  8
6
 10
0.0
 20
0.0
 30
0.0
  0
VERTEX
  5
586
  8
6
 10
-0.375
 20
0.375
 30
0.0
  0
VERTEX
  5
587
  8
6
 10
0.0
 20
0.75
 30
0.0
  0
VERTEX
  5
588
  8
6
 10
-0.375
 20
1.125
 30
0.0
  0
VERTEX
  5
589
  8
6
 10
0.0
 20
1.5
 30
0.0
  0
VERTEX
  5
58A
  8
6
 10
-2.5999999999999091
 20
1.5
 30
0.0
 42
-0.4142135623730951
  0
VERTEX
  5
58B
  8
6
 10
-3.5999999999999091
 20
2.5
 30
0.0
  0
VERTEX
  5
58C
  8
6
 10
-3.5999999999999091
 20
5.5
 30
0.0
 42
-0.4142135623730951
  0
VERTEX
  5
58D
  8
6
 10
-2.5999999999999091
 20
6.5
 30
0.0
  0
VERTEX
  5
58E
  8
6
 10
0.0
 20
6.5
 30
0.0
  0
VERTEX
  5
58F
  8
6
 10
-0.375
 20
6.875
 30
0.0
  0
VERTEX
  5
590
  8
6
 10
0.0
 20
7.25
 30
0.0
  0
VERTEX
  5
591
  8
6
 10
-0.375
 20
7.625
 30
0.0
  0
VERTEX
  5
592
  8
6
 10
0.0
 20
8.0
 30
0.0
  0
VERTEX
  5
593
  8
6
 10
-1.5999999999999091
 20
8.5
 30
0.0
  0
VERTEX
  5
594
  8
6
 10
-2.0041451884326298
 20
7.7999999999999536
 30
0.0
  0
VERTEX
  5
595
  8
6
 10
-6.5
 20
7.7999999999999536
 30
0.0
 42
-0.4142135623730951
  0
VERTEX
  5
596
  8
6
 10
-7.5
 20
8.7999999999999545
 30
0.0
  0
VERTEX
  5
597
  8
6
 10
-7.5
 20
11.377806625873291
 30
0.0
  0
VERTEX
  5
598
  8
6
 10
-7.9221933741264356
 20
11.799999999999949
 30
0.0
  0
VERTEX
  5
599
  8
6
 10
-7.5
 20
12.22219337412661
 30
0.0
  0
VERTEX
  5
59A
  8
6
 10
-7.5
 20
17.0
 30
0.0
 42
-0.4142135623730951
  0
VERTEX
  5
59B
  8
6
 10
-6.0
 20
18.5
 30
0.0
  0
VERTEX
  5
59C
  8
6
 10
-5.4248711305963289
 20
18.5
 30
0.0
 42
-0.2679491924311212
  0
VERTEX
  5
59D
  8
6
 10
-4.125833024919757
 20
17.75
 30
0.0
  0
VERTEX
  5
59E
  8
6
 10
-3.0
 20
15.799999999999949
 30
0.0
  0
VERTEX
  5
59F
  8
6
 10
-2.0041451884326298
 20
15.799999999999949
 30
0.0
  0
VERTEX
  5
5A0
  8
6
 10
-1.5999999999999091
 20
15.0999999999999
 30
0.0
  0
VERTEX
  5
5A1
  8
6
 10
0.0
 20
15.5999999999999
 30
0.0
  0
VERTEX
  5
5A2
  8
6
 10
-0.375
 20
16.099999999999898
 30
0.0
  0
VERTEX
  5
5A3
  8
6
 10
0.0
 20
16.599999999999909
 30
0.0
  0
VERTEX
  5
5A4
  8
6
 10
-1.366842557242762
 20
17.389146918364069
 30
0.0
 42
-0.7083504224473592
  0
VERTEX
  5
5A5
  8
6
 10
-1.1929261429336291
 20
18.31633700540101
 30
0.0
  0
VERTEX
  5
5A6
  8
6
 10
0.0
 20
18.5
 30
0.0
  0
VERTEX
  5
5A7
  8
6
 10
-0.375
 20
18.875
 30
0.0
  0
VERTEX
  5
5A8
  8
6
 10
0.0
 20
19.25
 30
0.0
  0
VERTEX
  5
5A9
  8
6
 10
-0.375
 20
19.625
 30
0.0
  0
SEQEND
  5
5AA
  8
6
  0
POINT
  5
32C
  8
5
 10
-6.5
 20
0.0
 30
0.0
  0
POINT
  5
32D
  8
5
 10
-6.5
 20
0.0
 30
0.0
  0
LINE
  5
32E
  8
6
  6
STRICHPUNKT
 10
-4.2973804217083389
 20
11.799999999999949
 30
0.0
 11
14.96861957829173
 21
11.799999999999949
 31
0.0
  0
POLYLINE
  5
32F
  8
6
 66
     1
 10
0.0
 20
0.0
 30
0.0
  0
VERTEX
  5
5AB
  8
6
 10
-1.0661814425116061
 20
12.64873720389857
 30
0.0
 42
0.0698020145797582
  0
VERTEX
  5
5AC
  8
6
 10
0.0000000000004547
 20
12.3757750500477
 30
0.0
 42
-3.2234280385613259
  0
SEQEND
  5
5AD
  8
6
  0
POLYLINE
  5
330
  8
6
 66
     1
 10
0.0
 20
0.0
 30
0.0
  0
VERTEX
  5
5AE
  8
6
 10
-2.417995936032411
 20
13.63722820143863
 30
0.0
  0
VERTEX
  5
5AF
  8
6
 10
-2.0455060114920789
 20
13.22799999999995
 30
0.0
 42
0.0337004454472373
  0
VERTEX
  5
5B0
  8
6
 10
-1.6086291171802709
 20
12.922078023043239
 30
0.0
 42
-3.2234280385613259
  0
SEQEND
  5
5B1
  8
6
  0
POLYLINE
  5
331
  8
6
 66
     1
 10
0.0
 20
0.0
 30
0.0
  0
VERTEX
  5
5B2
  8
6
 10
0.0000000000004547
 20
11.228654341814311
 30
0.0
 42
0.0716230936514669
  0
VERTEX
  5
5B3
  8
6
 10
-1.0661814425116061
 20
10.958367884415731
 30
0.0
  0
SEQEND
  5
5B4
  8
6
  0
POLYLINE
  5
332
  8
6
 66
     1
 10
0.0
 20
0.0
 30
0.0
  0
VERTEX
  5
5B5
  8
6
 10
-2.7710176984101049
 20
9.6761664421861724
 30
0.0
  0
VERTEX
  5
5B6
  8
6
 10
-3.4763804217081988
 20
9.0
 30
0.0
  0
VERTEX
  5
5B7
  8
6
 10
-3.6763804217082452
 20
9.0
 30
0.0
  0
VERTEX
  5
5B8
  8
6
 10
-3.6763804217082452
 20
14.799999999999949
 30
0.0
  0
VERTEX
  5
5B9
  8
6
 10
-3.4763804217081988
 20
14.799999999999949
 30
0.0
  0
VERTEX
  5
5BA
  8
6
 10
-2.7710176984101049
 20
14.025068117014371
 30
0.0
 42
0.142709741532141
  0
SEQEND
  5
5BB
  8
6
  0
POLYLINE
  5
333
  8
6
 66
     1
 10
0.0
 20
0.0
 30
0.0
  0
VERTEX
  5
5BC
  8
6
 10
-1.6086291171802709
 20
10.68268415172076
 30
0.0
 42
0.0347698152739638
  0
VERTEX
  5
5BD
  8
6
 10
-2.0453302862113101
 20
10.37181629642202
 30
0.0
  0
VERTEX
  5
5BE
  8
6
 10
-2.417995936032411
 20
10.01457597418556
 30
0.0
  0
SEQEND
  5
5BF
  8
6
  0
POLYLINE
  5
334
  8
6
 66
     1
 10
0.0
 20
0.0
 30
0.0
 70
     1
  0
VERTEX
  5
5C0
  8
6
 10
-3.7263804217081988
 20
8.4273822692549611
 30
0.0
  0
VERTEX
  5
5C1
  8
6
 10
-2.5059520906843309
 20
7.9999999999997717
 30
0.0
  0
VERTEX
  5
5C2
  8
6
 10
-1.8972764410304981
 20
9.0063930370372418
 30
0.0
  0
VERTEX
  5
5C3
  8
6
 10
0.0000000000004547
 20
9.0063930370372418
 30
0.0
  0
VERTEX
  5
5C4
  8
6
 10
0.0000000000004547
 20
14.59360696296266
 30
0.0
  0
VERTEX
  5
5C5
  8
6
 10
-1.8972764410304981
 20
14.59360696296266
 30
0.0
  0
VERTEX
  5
5C6
  8
6
 10
-2.5059520906843309
 20
15.600000000000129
 30
0.0
  0
VERTEX
  5
5C7
  8
6
 10
-3.7263804217081988
 20
15.172617730744941
 30
0.0
  0
VERTEX
  5
5C8
  8
6
 10
-3.7263804217081988
 20
11.799999999999949
 30
0.0
  0
SEQEND
  5
5C9
  8
6
  0
POINT
  5
335
  8
5
 10
0.0000000000004547
 20
11.799999999999949
 30
0.0
  0
POINT
  5
336
  8
5
 10
0.0000000000004547
 20
11.799999999999949
 30
0.0
  0
TEXT
  5
337
  8
1
 10
-34.452450913156952
 20
22.617470027399118
 30
0.0
 40
2.4999999499999999
  1
Hebgo 124/757
  0
POLYLINE
  5
339
  8
6
 66
     1
 10
0.0
 20
0.0
 30
0.0
  0
VERTEX
  5
5CA
  8
6
 10
-5.1708099136797037
 20
-18.773066383679861
 30
0.0
 42
-0.0180664712111431
  0
VERTEX
  5
5CB
  8
6
 10
-7.1932730853159219
 20
1.4633024457443751
 30
0.0
 42
0.1324695894867593
  0
VERTEX
  5
5CC
  8
6
 10
-7.5549542246001229
 20
3.629705934920139
 30
0.0
 42
-0.5867084866790316
  0
VERTEX
  5
5CD
  8
6
 10
-6.5
 20
5.5174032127520141
 30
0.0
 42
-0.5867084866791127
  0
VERTEX
  5
5CE
  8
6
 10
-5.4450457753998762
 20
3.6297059349199108
 30
0.0
 42
0.132607238862008
  0
VERTEX
  5
5CF
  8
6
 10
-5.8065030423415456
 20
1.461031223654345
 30
0.0
 42
0.0613697108295767
  0
VERTEX
  5
5D0
  8
6
 10
-2.830809913679786
 20
-18.773066383679861
 30
0.0
  0
SEQEND
  5
5D1
  8
6
  0
POLYLINE
  5
33A
  8
6
 66
     1
 10
0.0
 20
0.0
 30
0.0
  0
VERTEX
  5
5D2
  8
6
 10
-4.6508099136797219
 20
-18.773066383679861
 30
0.0
 42
-0.0291558466228751
  0
VERTEX
  5
5D3
  8
6
 10
-6.9133075576160081
 20
1.4494331061639509
 30
0.0
 42
0.1327522819770013
  0
VERTEX
  5
5D4
  8
6
 10
-7.308069156699502
 20
3.7630160462574622
 30
0.0
 42
-0.5922717439205512
  0
VERTEX
  5
5D5
  8
6
 10
-6.5
 20
5.2374032127520422
 30
0.0
 42
-0.5922717439206635
  0
VERTEX
  5
5D6
  8
6
 10
-5.6919308433004971
 20
3.763016046257234
 30
0.0
 42
0.1328113523651923
  0
VERTEX
  5
5D7
  8
6
 10
-6.0865932993503966
 20
1.4483934843813131
 30
0.0
 42
0.0506083937020611
  0
VERTEX
  5
5D8
  8
6
 10
-3.3508099136797682
 20
-18.773066383679861
 30
0.0
  0
SEQEND
  5
5D9
  8
6
  0
POLYLINE
  5
33B
  8
6
 66
     1
 10
0.0
 20
0.0
 30
0.0
  0
VERTEX
  5
5DA
  8
6
 10
-4.239471295640441
 20
-18.773066383679861
 30
0.0
 42
-0.0337916250904843
  0
VERTEX
  5
5DB
  8
6
 10
-6.6333310487984809
 20
1.4360757050067141
 30
0.0
 42
0.1331579098238507
  0
VERTEX
  5
5DC
  8
6
 10
-7.0627018816508089
 20
3.8994155208258681
 30
0.0
 42
-0.600780471392009
  0
VERTEX
  5
5DD
  8
6
 10
-6.5
 20
4.9574032127520686
 30
0.0
 42
-0.600780471392009
  0
VERTEX
  5
5DE
  8
6
 10
-5.9372981183489619
 20
3.8994155208258681
 30
0.0
 42
0.1331579098238511
  0
VERTEX
  5
5DF
  8
6
 10
-6.3666689512012899
 20
1.436075705006487
 30
0.0
 42
0.0451936090438102
  0
VERTEX
  5
5E0
  8
6
 10
-3.7687283340310378
 20
-18.773066383679861
 30
0.0
  0
SEQEND
  5
5E1
  8
6
  0
DIMENSION
  5
33C
  8
1
  2
*D5
 10
-19.293229985535611
 20
-19.00000000000022
 30
0.0
 11
-22.080235442561531
 21
-9.5000000000001137
 31
0.0
 70
     0
 13
-9.9999999999995453
 23
0.0
 33
0.0
 14
-10.979872184731439
 24
-19.00000000000022
 34
0.0
 50
90.0
  0
POLYLINE
  5
33D
  8
6
 66
     1
 10
0.0
 20
0.0
 30
0.0
 70
     1
  0
VERTEX
  5
5E2
  8
6
 10
-7.3453969203983434
 20
1.2269336163201381
 30
0.0
  0
VERTEX
  5
5E3
  8
6
 10
-7.6547210809380877
 20
1.2269336163201381
 30
0.0
 42
-0.4142135623730951
  0
VERTEX
  5
5E4
  8
6
 10
-8.0705210809383061
 20
1.6427336163203561
 30
0.0
  0
VERTEX
  5
5E5
  8
6
 10
-8.0705210809383061
 20
5.5842000000000089
 30
0.0
 42
-0.4142135623730951
  0
VERTEX
  5
5E6
  8
6
 10
-7.6547210809380877
 20
6.0
 30
0.0
  0
VERTEX
  5
5E7
  8
6
 10
-5.3452789190616841
 20
6.0
 30
0.0
 42
-0.4142135623730951
  0
VERTEX
  5
5E8
  8
6
 10
-4.929478919061693
 20
5.5842000000000089
 30
0.0
  0
VERTEX
  5
5E9
  8
6
 10
-4.929478919061693
 20
1.6427336163203561
 30
0.0
 42
-0.4142135623730951
  0
VERTEX
  5
5EA
  8
6
 10
-5.3452789190616841
 20
1.2269336163201381
 30
0.0
  0
VERTEX
  5
5EB
  8
6
 10
-5.6546030796014293
 20
1.2269336163201381
 30
0.0
  0
VERTEX
  5
5EC
  8
6
 10
-5.6546030796014293
 20
1.6427336163203561
 30
0.0
  0
VERTEX
  5
5ED
  8
6
 10
-5.45867891906164
 20
1.6427336163203561
 30
0.0
 42
0.4142135623730945
  0
VERTEX
  5
5EE
  8
6
 10
-5.3452789190616841
 20
1.7561336163203121
 30
0.0
  0
VERTEX
  5
5EF
  8
6
 10
-5.3452789190616841
 20
5.470800000000053
 30
0.0
 42
0.4142135623730948
  0
VERTEX
  5
5F0
  8
6
 10
-5.45867891906164
 20
5.5842000000000089
 30
0.0
  0
VERTEX
  5
5F1
  8
6
 10
-7.5413210809381317
 20
5.5842000000000089
 30
0.0
 42
0.4142135623730951
  0
VERTEX
  5
5F2
  8
6
 10
-7.654721080938315
 20
5.470800000000053
 30
0.0
  0
VERTEX
  5
5F3
  8
6
 10
-7.6547210809380877
 20
1.7561336163203121
 30
0.0
 42
0.4142135623730955
  0
VERTEX
  5
5F4
  8
6
 10
-7.5413210809381317
 20
1.6427336163203561
 30
0.0
  0
VERTEX
  5
5F5
  8
6
 10
-7.3453969203983434
 20
1.6427336163203561
 30
0.0
  0
SEQEND
  5
5F6
  8
6
  0
CIRCLE
  5
33E
  8
6
 10
-6.5
 20
4.2787699097189034
 30
0.0
 40
0.5425533030331441
  0
LINE
  5
352
  8
5
 10
3.2205722728149331
 20
-19.000000000000451
 30
0.0
 11
-11.1574055793344
 21
-19.000000000000451
 31
0.0
  0
LINE
  5
353
  8
5
 10
-10.33612518987888
 20
-19.00000000000022
 30
0.0
 11
-0.1264075890283038
 21
-19.00000000000022
 31
0.0
  0
LINE
  5
354
  8
5
 10
3.2205722728149331
 20
-19.000000000000451
 30
0.0
 11
-11.1574055793344
 21
-19.000000000000451
 31
0.0
  0
VIEWPORT
  5
22
 67
     1
  8
0
 10
210.0
 20
170.2366863905325
 30
0.0
 40
420.0
 41
340.47337278106511
 68
     1
 69
     1
1001
ACAD
1000
MVIEW
1002
{
1070
    16
1010
0.0
1020
0.0
1030
0.0
1010
0.0
1020
0.0
1030
1.0
1040
0.0
1040
340.47337278106511
1040
210.0
1040
170.2366863905325
1040
50.0
1040
0.0
1040
0.0
1070
     0
1070
   100
1070
     1
1070
     1
1070
     0
1070
     0
1070
     0
1070
     0
1040
0.0
1040
0.0
1040
0.0
1040
5.0
1040
5.0
1040
10.0
1040
10.0
1070
     0
1002
{
1002
}
1002
}
  0
ENDSEC
  0
EOF
