  0
SECTION
  2
HEADER
  9
$ACADVER
  1
AC1009
  9
$INSBASE
 10
0.0
 20
0.0
 30
0.0
  9
$EXTMIN
 10
-20.004271611110539
 20
-12.222289180176171
 30
-0.0000000000112498
  9
$EXTMAX
 10
12.886047902151629
 20
20.347595762400481
 30
0.0000000000002956
  9
$LIMMIN
 10
-150.0
 20
-150.0
  9
$LIMMAX
 10
150.0
 20
150.0
  9
$ORTHOMODE
 70
     0
  9
$REGENMODE
 70
     1
  9
$FILLMODE
 70
     1
  9
$QTEXTMODE
 70
     0
  9
$MIRRTEXT
 70
     0
  9
$DRAGMODE
 70
     2
  9
$LTSCALE
 40
2.0
  9
$OSMODE
 70
   111
  9
$ATTMODE
 70
     1
  9
$TEXTSIZE
 40
3.5
  9
$TRACEWID
 40
1.0
  9
$TEXTSTYLE
  7
BESCHLAG
  9
$CLAYER
  8
0
  9
$CELTYPE
  6
BYLAYER
  9
$CECOLOR
 62
   256
  9
$DIMSCALE
 40
1.0
  9
$DIMASZ
 40
2.0
  9
$DIMEXO
 40
2.0
  9
$DIMDLI
 40
0.0
  9
$DIMRND
 40
0.0
  9
$DIMDLE
 40
1.0
  9
$DIMEXE
 40
1.0
  9
$DIMTP
 40
0.0
  9
$DIMTM
 40
0.0
  9
$DIMTXT
 40
3.5
  9
$DIMCEN
 40
0.0
  9
$DIMTSZ
 40
0.0
  9
$DIMTOL
 70
     0
  9
$DIMLIM
 70
     0
  9
$DIMTIH
 70
     0
  9
$DIMTOH
 70
     0
  9
$DIMSE1
 70
     0
  9
$DIMSE2
 70
     0
  9
$DIMTAD
 70
     1
  9
$DIMZIN
 70
     8
  9
$DIMBLK
  1

  9
$DIMASO
 70
     1
  9
$DIMSHO
 70
     1
  9
$DIMPOST
  1

  9
$DIMAPOST
  1

  9
$DIMALT
 70
     0
  9
$DIMALTD
 70
     2
  9
$DIMALTF
 40
0.039370078740157
  9
$DIMLFAC
 40
1.0
  9
$DIMTOFL
 70
     1
  9
$DIMTVP
 40
0.0
  9
$DIMTIX
 70
     1
  9
$DIMSOXD
 70
     0
  9
$DIMSAH
 70
     1
  9
$DIMBLK1
  1
OBLIQUE
  9
$DIMBLK2
  1
OBLIQUE
  9
$DIMSTYLE
  2
OPO-SSTRICH
  9
$DIMCLRD
 70
   256
  9
$DIMCLRE
 70
   256
  9
$DIMCLRT
 70
   256
  9
$DIMTFAC
 40
0.7114285714285716
  9
$DIMGAP
 40
1.0
  9
$LUNITS
 70
     2
  9
$LUPREC
 70
     1
  9
$SKETCHINC
 40
1.0
  9
$FILLETRAD
 40
0.0
  9
$AUNITS
 70
     0
  9
$AUPREC
 70
     1
  9
$MENU
  1
D:\ACL_CGWG\CGTAB13
  9
$ELEVATION
 40
0.0
  9
$PELEVATION
 40
0.0
  9
$THICKNESS
 40
0.0
  9
$LIMCHECK
 70
     0
  9
$BLIPMODE
 70
     0
  9
$CHAMFERA
 40
1.0
  9
$CHAMFERB
 40
1.0
  9
$SKPOLY
 70
     0
  9
$TDCREATE
 40
2451739.858853796
  9
$TDUPDATE
 40
2452086.7374210991
  9
$TDINDWG
 40
0.0007661227
  9
$TDUSRTIMER
 40
0.0007661227
  9
$USRTIMER
 70
     1
  9
$ANGBASE
 50
0.0
  9
$ANGDIR
 70
     0
  9
$PDMODE
 70
    35
  9
$PDSIZE
 40
5.0
  9
$PLINEWID
 40
0.0
  9
$COORDS
 70
     1
  9
$SPLFRAME
 70
     0
  9
$SPLINETYPE
 70
     6
  9
$SPLINESEGS
 70
     8
  9
$ATTDIA
 70
     1
  9
$ATTREQ
 70
     1
  9
$HANDLING
 70
-16383
  9
$HANDSEED
  5
412
  9
$SURFTAB1
 70
    12
  9
$SURFTAB2
 70
    12
  9
$SURFTYPE
 70
     6
  9
$SURFU
 70
    12
  9
$SURFV
 70
    12
  9
$UCSNAME
  2

  9
$UCSORG
 10
0.0
 20
0.0
 30
0.0
  9
$UCSXDIR
 10
1.0
 20
0.0
 30
0.0
  9
$UCSYDIR
 10
0.0
 20
1.0
 30
0.0
  9
$PUCSNAME
  2

  9
$PUCSORG
 10
0.0
 20
0.0
 30
0.0
  9
$PUCSXDIR
 10
1.0
 20
0.0
 30
0.0
  9
$PUCSYDIR
 10
0.0
 20
1.0
 30
0.0
  9
$USERI1
 70
     0
  9
$USERI2
 70
     0
  9
$USERI3
 70
     0
  9
$USERI4
 70
     0
  9
$USERI5
 70
     0
  9
$USERR1
 40
0.0
  9
$USERR2
 40
0.0
  9
$USERR3
 40
0.0
  9
$USERR4
 40
0.0
  9
$USERR5
 40
0.0
  9
$WORLDVIEW
 70
     1
  9
$SHADEDGE
 70
     3
  9
$SHADEDIF
 70
    70
  9
$TILEMODE
 70
     1
  9
$MAXACTVP
 70
    48
  9
$PLIMCHECK
 70
     0
  9
$PEXTMIN
 10
1.0000000000000000E+020
 20
1.0000000000000000E+020
 30
1.0000000000000000E+020
  9
$PEXTMAX
 10
-1.0000000000000000E+020
 20
-1.0000000000000000E+020
 30
-1.0000000000000000E+020
  9
$PLIMMIN
 10
0.0
 20
0.0
  9
$PLIMMAX
 10
420.0
 20
297.0
  9
$UNITMODE
 70
     0
  9
$VISRETAIN
 70
     1
  9
$PLINEGEN
 70
     0
  9
$PSLTSCALE
 70
     1
  0
ENDSEC
  0
SECTION
  2
TABLES
  0
TABLE
  2
VPORT
 70
     2
  0
VPORT
  2
*ACTIVE
 70
     0
 10
0.0
 20
0.0
 11
1.0
 21
1.0
 12
-3.5591118544794531
 22
4.0626532911121549
 13
0.0
 23
0.0
 14
0.5
 24
0.5
 15
10.0
 25
10.0
 16
0.0
 26
0.0
 36
1.0
 17
0.0
 27
0.0
 37
0.0
 40
32.83432243872749
 41
1.6070460704607039
 42
50.0
 43
0.0
 44
0.0
 50
0.0
 51
0.0
 71
     0
 72
   800
 73
     1
 74
     1
 75
     0
 76
     0
 77
     0
 78
     0
  0
ENDTAB
  0
TABLE
  2
LTYPE
 70
     2
  0
LTYPE
  2
CONTINUOUS
 70
     0
  3
_______________________________________________
 72
    65
 73
     2
 40
1.0
 49
1.0
 49
0.0
  0
LTYPE
  2
STRICHPUNKT
 70
     0
  3
__ . __ . __ . __ . __ . __ . __ . __ . __ . __
 72
    65
 73
     4
 40
1.0
 49
0.5
 49
-0.25
 49
0.0
 49
-0.25
  0
ENDTAB
  0
TABLE
  2
LAYER
 70
     7
  0
LAYER
  2
0
 70
     0
 62
    30
  6
CONTINUOUS
  0
LAYER
  2
1
 70
     0
 62
     2
  6
CONTINUOUS
  0
LAYER
  2
2
 70
     0
 62
     9
  6
CONTINUOUS
  0
LAYER
  2
4
 70
     1
 62
     4
  6
CONTINUOUS
  0
LAYER
  2
5
 70
     0
 62
     1
  6
CONTINUOUS
  0
LAYER
  2
6
 70
     0
 62
     3
  6
CONTINUOUS
  0
LAYER
  2
DEFPOINTS
 70
     0
 62
     7
  6
CONTINUOUS
  0
ENDTAB
  0
TABLE
  2
STYLE
 70
     2
  0
STYLE
  2
STANDARD
 70
     0
 40
0.0
 41
1.0
 50
0.0
 71
     0
 42
2.5
  3
txt
  4

  0
STYLE
  2
BESCHLAG
 70
     0
 40
0.0
 41
1.0
 50
0.0
 71
     0
 42
3.5
  3
txt
  4

  0
ENDTAB
  0
TABLE
  2
VIEW
 70
     0
  0
ENDTAB
  0
TABLE
  2
UCS
 70
     0
  0
ENDTAB
  0
TABLE
  2
APPID
 70
     1
  0
APPID
  2
ACAD
 70
     0
  0
ENDTAB
  0
TABLE
  2
DIMSTYLE
 70
     1
  0
DIMSTYLE
  2
OPO-SSTRICH
 70
     0
  3

  4

  5

  6
OBLIQUE
  7
OBLIQUE
 40
1.0
 41
2.0
 42
2.0
 43
0.0
 44
1.0
 45
0.0
 46
1.0
 47
0.0
 48
0.0
140
3.5
141
0.0
142
0.0
143
0.039370078740157
144
1.0
145
0.0
146
0.7114285714285716
147
1.0
 71
     0
 72
     0
 73
     0
 74
     0
 75
     0
 76
     0
 77
     1
 78
     8
170
     0
171
     2
172
     1
173
     1
174
     1
175
     0
176
   256
177
   256
178
   256
  0
ENDTAB
  0
ENDSEC
  0
SECTION
  2
BLOCKS
  0
BLOCK
  8
0
  2
$MODEL_SPACE
 70
     0
 10
0.0
 20
0.0
 30
0.0
  3
$MODEL_SPACE
  1

  0
ENDBLK
  5
1C
  8
0
  0
BLOCK
 67
     1
  8
0
  2
$PAPER_SPACE
 70
     0
 10
0.0
 20
0.0
 30
0.0
  3
$PAPER_SPACE
  1

  0
ENDBLK
  5
19
 67
     1
  8
0
  0
BLOCK
  8
0
  2
_OBLIQUE
 70
     0
 10
0.0
 20
0.0
 30
0.0
  3
_OBLIQUE
  1

  0
LINE
  5
204
  8
0
 62
     0
 10
-0.5
 20
-0.5
 30
0.0
 11
0.5
 21
0.5
 31
0.0
  0
ENDBLK
  5
206
  8
0
  0
BLOCK
  8
0
  2
NULLPUNKT
 70
     0
 10
0.0
 20
0.0
 30
0.0
  3
NULLPUNKT
  1

  0
SOLID
  5
254
  8
5
 10
0.0
 20
0.0
 30
0.0
 11
2.0
 21
0.0
 31
0.0
 12
0.0
 22
-2.0
 32
0.0
 13
0.0
 23
-2.0
 33
0.0
  0
SOLID
  5
255
  8
5
 10
0.0
 20
0.0
 30
0.0
 11
-2.0
 21
0.0
 31
0.0
 12
0.0
 22
2.0
 32
0.0
 13
0.0
 23
2.0
 33
0.0
  0
POLYLINE
  5
256
  8
5
 66
     1
 10
0.0
 20
0.0
 30
0.0
  0
VERTEX
  5
3C7
  8
5
 10
0.0
 20
2.0
 30
0.0
  0
VERTEX
  5
3C8
  8
5
 10
0.0
 20
-2.0
 30
0.0
  0
SEQEND
  5
3C9
  8
5
  0
POLYLINE
  5
257
  8
5
 66
     1
 10
0.0
 20
0.0
 30
0.0
  0
VERTEX
  5
3CA
  8
5
 10
-2.0
 20
0.0
 30
0.0
  0
VERTEX
  5
3CB
  8
5
 10
2.0
 20
0.0
 30
0.0
  0
SEQEND
  5
3CC
  8
5
  0
CIRCLE
  5
258
  8
5
 10
0.0
 20
0.0
 30
0.0
 40
2.0
  0
ENDBLK
  5
25A
  8
0
  0
BLOCK
  8
0
  2
*X2
 70
     1
 10
0.0
 20
0.0
 30
0.0
  3
*X2
  1

  0
LINE
  5
290
  8
0
 62
     0
 10
256.33539381985321
 20
-512.54429327201456
 30
0.0
 11
257.60575420365939
 21
-511.27393288820838
 31
0.0
  0
LINE
  5
291
  8
0
 62
     0
 10
255.88972379071211
 20
-511.57574973878258
 30
0.0
 11
257.3862642442005
 21
-510.07920928529421
 31
0.0
  0
LINE
  5
292
  8
0
 62
     0
 10
258.69154064128628
 20
-508.77393288820849
 30
0.0
 11
259.31739647514831
 21
-508.14807705434629
 31
0.0
  0
LINE
  5
293
  8
0
 62
     0
 10
255.88626424420039
 20
-510.16499572292111
 30
0.0
 11
258.65164965043601
 21
-507.3996103166856
 31
0.0
  0
LINE
  5
294
  8
0
 62
     0
 10
255.88626424420039
 20
-508.750782160548
 30
0.0
 11
257.36311351654012
 21
-507.27393288820838
 31
0.0
  0
LINE
  5
295
  8
0
 62
     0
 10
257.32137208741278
 20
-512.97252856682815
 30
0.0
 11
259.01996776603249
 21
-511.27393288820832
 31
0.0
  0
LINE
  5
296
  8
0
 62
     0
 10
258.73418132840482
 20
-512.97393288820922
 30
0.0
 11
260.43418132840549
 21
-511.27393288820832
 31
0.0
  0
LINE
  5
297
  8
0
 62
     0
 10
260.14839489077792
 20
-512.97393288820922
 30
0.0
 11
261.84839489077859
 21
-511.27393288820832
 31
0.0
  0
LINE
  5
298
  8
0
 62
     0
 10
261.56260845315097
 20
-512.97393288820922
 30
0.0
 11
261.93626424420052
 21
-512.60027709715973
 31
0.0
  0
ENDBLK
  5
29A
  8
0
  0
BLOCK
  8
0
  2
*X3
 70
     1
 10
0.0
 20
0.0
 30
0.0
  3
*X3
  1

  0
LINE
  5
29C
  8
0
 62
     0
 10
264.83626424420049
 20
-512.52870422190585
 30
0.0
 11
266.09103557789803
 21
-511.27393288820838
 31
0.0
  0
LINE
  5
29D
  8
0
 62
     0
 10
268.59103557789803
 20
-508.77393288820849
 30
0.0
 11
269.97196209040368
 21
-507.39300637570273
 31
0.0
  0
LINE
  5
29E
  8
0
 62
     0
 10
267.38626424420039
 20
-508.56449065953279
 30
0.0
 11
268.67682189498771
 21
-507.27393300874559
 31
0.0
  0
LINE
  5
29F
  8
0
 62
     0
 10
265.80524914027029
 20
-512.97393288820922
 30
0.0
 11
267.50524914027108
 21
-511.27393288820838
 31
0.0
  0
LINE
  5
2A0
  8
0
 62
     0
 10
269.38626424420039
 20
-509.39291778427901
 30
0.0
 11
270.71025874970201
 21
-508.06892327877739
 31
0.0
  0
LINE
  5
2A1
  8
0
 62
     0
 10
267.2194627026434
 20
-512.97393288820922
 30
0.0
 11
268.91946270264413
 21
-511.27393288820838
 31
0.0
  0
LINE
  5
2A2
  8
0
 62
     0
 10
269.38626424420039
 20
-510.80713134665211
 30
0.0
 11
270.88626424420039
 21
-509.30713134665223
 31
0.0
  0
LINE
  5
2A3
  8
0
 62
     0
 10
268.6336762650165
 20
-512.97393288820922
 30
0.0
 11
270.88626424420039
 21
-510.72134490902522
 31
0.0
  0
LINE
  5
2A4
  8
0
 62
     0
 10
270.04788982738961
 20
-512.97393288820922
 30
0.0
 11
270.88626424420039
 21
-512.13555847139844
 31
0.0
  0
ENDBLK
  5
2A6
  8
0
  0
BLOCK
  8
0
  2
*D4
 70
     1
 10
0.0
 20
0.0
 30
0.0
  3
*D4
  1

  0
LINE
  5
2EF
  8
1
 10
2.117829240946548
 20
5.9999999999999991
 30
0.0
 11
12.865977399657821
 21
5.9999999999999956
 31
0.0
  0
LINE
  5
2F0
  8
1
 10
2.117829240946548
 20
12.0
 30
0.0
 11
12.865977399657821
 21
11.999999999999989
 31
0.0
  0
LINE
  5
2F1
  8
1
 10
11.865977399657821
 20
4.9999999999999956
 30
0.0
 11
11.865977399657821
 21
12.999999999999989
 31
0.0
  0
INSERT
  5
2F2
  8
1
  2
_OBLIQUE
 10
11.865977399657821
 20
5.9999999999999956
 30
0.0
 41
2.0
 42
2.0
 43
2.0
 50
270.0
  0
INSERT
  5
2F3
  8
1
  2
_OBLIQUE
 10
11.865977399657821
 20
11.999999999999989
 30
0.0
 41
2.0
 42
2.0
 43
2.0
 50
90.0
  0
TEXT
  5
2F4
  8
0
 10
10.799128832127121
 20
7.6606412005457019
 30
0.0
 40
3.5
  1
6
 50
90.0
  7
BESCHLAG
  0
POINT
  5
2F5
  8
DEFPOINTS
 62
     0
 10
0.1178292409465484
 20
6.0
 30
0.0
  0
POINT
  5
2F6
  8
DEFPOINTS
 62
     0
 10
0.1178292409465484
 20
12.0
 30
0.0
  0
POINT
  5
2F7
  8
DEFPOINTS
 62
     0
 10
11.865977399657821
 20
11.999999999999989
 30
0.0
  0
ENDBLK
  5
2D6
  8
0
  0
BLOCK
  8
0
  2
*D5
 70
     1
 10
0.0
 20
0.0
 30
0.0
  3
*D5
  1

  0
LINE
  5
2F8
  8
1
 10
2.117829240946548
 20
-0.0000000000000006
 30
0.0
 11
12.865977399657821
 21
-0.0000000000000036
 31
0.0
  0
LINE
  5
2F9
  8
1
 10
2.117829240946548
 20
5.9999999999999991
 30
0.0
 11
12.865977399657821
 21
5.9999999999999956
 31
0.0
  0
LINE
  5
2FA
  8
1
 10
11.865977399657821
 20
-1.0000000000000031
 30
0.0
 11
11.865977399657821
 21
6.9999999999999956
 31
0.0
  0
INSERT
  5
2FB
  8
1
  2
_OBLIQUE
 10
11.865977399657821
 20
-0.0000000000000033
 30
0.0
 41
2.0
 42
2.0
 43
2.0
 50
270.0
  0
INSERT
  5
2FC
  8
1
  2
_OBLIQUE
 10
11.865977399657821
 20
5.9999999999999956
 30
0.0
 41
2.0
 42
2.0
 43
2.0
 50
90.0
  0
TEXT
  5
2FD
  8
0
 10
10.799128832127121
 20
1.6606412005457001
 30
0.0
 40
3.5
  1
6
 50
90.0
  7
BESCHLAG
  0
POINT
  5
2FE
  8
DEFPOINTS
 62
     0
 10
0.1178292409465484
 20
0.0
 30
0.0
  0
POINT
  5
2FF
  8
DEFPOINTS
 62
     0
 10
0.1178292409465484
 20
6.0
 30
0.0
  0
POINT
  5
300
  8
DEFPOINTS
 62
     0
 10
11.865977399657821
 20
5.9999999999999956
 30
0.0
  0
ENDBLK
  5
2E2
  8
0
  0
BLOCK
  8
0
  2
*D6
 70
     1
 10
0.0
 20
0.0
 30
0.0
  3
*D6
  1

  0
LINE
  5
301
  8
1
 10
-14.99999999999954
 20
-2.0
 30
0.0
 11
-14.99999999999954
 21
-12.213104332216741
 31
0.0
  0
LINE
  5
302
  8
1
 10
-0.0000000000000001
 20
-2.0
 30
0.0
 11
-0.0000000000000007
 21
-12.213104332216741
 31
0.0
  0
LINE
  5
303
  8
1
 10
-15.99999999999954
 20
-11.213104332216741
 30
0.0
 11
0.9999999999999992
 21
-11.213104332216741
 31
0.0
  0
INSERT
  5
304
  8
1
  2
_OBLIQUE
 10
-14.99999999999954
 20
-11.213104332216741
 30
0.0
 41
2.0
 42
2.0
 43
2.0
 50
180.0
  0
INSERT
  5
305
  8
1
  2
_OBLIQUE
 10
-0.0000000000000007
 20
-11.213104332216741
 30
0.0
 41
2.0
 42
2.0
 43
2.0
  0
TEXT
  5
306
  8
0
 10
-10.38761937244179
 20
-10.146255764686041
 30
0.0
 40
3.5
  1
15
  7
BESCHLAG
  0
POINT
  5
307
  8
DEFPOINTS
 62
     0
 10
-14.99999999999954
 20
0.0
 30
0.0
  0
POINT
  5
308
  8
DEFPOINTS
 62
     0
 10
0.0
 20
0.0
 30
0.0
  0
POINT
  5
309
  8
DEFPOINTS
 62
     0
 10
-0.0000000000000007
 20
-11.213104332216741
 30
0.0
  0
ENDBLK
  5
2EE
  8
0
  0
ENDSEC
  0
SECTION
  2
ENTITIES
  0
INSERT
  5
25B
  8
5
  2
NULLPUNKT
 10
0.0
 20
0.0
 30
0.0
  0
LINE
  5
2BC
  8
6
 10
-6.0499999999994989
 20
1.700000000000272
 30
0.0
 11
-6.0499999999994989
 21
0.0
 31
0.0
  0
LINE
  5
2BD
  8
6
 10
-8.9499999999995907
 20
1.700000000000272
 30
0.0
 11
-8.9499999999995907
 21
0.0
 31
0.0
  0
INSERT
  5
2BE
  8
2
  2
*X2
 10
-270.88626424419988
 20
512.97393288820922
 30
0.0
1001
ACAD
1000
HATCH
1002
{
1070
    16
1000
_U,I
1040
1.0
1040
0.7853981633974483
1070
     0
1002
}
  0
INSERT
  5
2BF
  8
2
  2
*X3
 10
-270.88626424419988
 20
512.97393288820922
 30
0.0
1001
ACAD
1000
HATCH
1002
{
1070
    16
1000
_U,I
1040
1.0
1040
0.7853981633974483
1070
     0
1002
}
  0
DIMENSION
  5
2C0
  8
1
  2
*D4
 10
11.865977399657821
 20
11.999999999999989
 30
0.0
 11
9.0789719426318989
 21
9.0
 31
0.0
 70
     0
 13
0.1178292409465484
 23
6.0
 33
0.0
 14
0.1178292409465484
 24
12.0
 34
0.0
 50
90.0
  0
DIMENSION
  5
2C1
  8
1
  2
*D5
 10
11.865977399657821
 20
5.9999999999999956
 30
0.0
 11
9.0789719426318989
 21
2.9999999999999978
 31
0.0
 70
     0
 13
0.1178292409465484
 23
0.0
 33
0.0
 14
0.1178292409465484
 24
6.0
 34
0.0
 50
90.0
  0
TEXT
  5
2C2
  8
1
 10
-18.954643933271189
 20
17.176746310838318
 30
0.0
 40
2.5
  1
Hebgo 125/523
  0
LINE
  5
2C3
  8
5
 10
-19.999999999999542
 20
12.0
 30
0.0
 11
5.0
 21
12.0
 31
0.0
  0
LINE
  5
2C4
  8
6
  6
STRICHPUNKT
 10
-7.4999999999995453
 20
1.947026752870215
 30
0.0
 11
-7.4999999999995453
 21
-4.4515049593298954
 31
0.0
  0
POLYLINE
  5
2C5
  8
6
 66
     1
 10
0.0
 20
0.0
 30
0.0
 70
     1
  0
VERTEX
  5
3CD
  8
6
 10
-7.4999999999995453
 20
5.954618801714104
 30
0.0
 42
0.1317069861016926
  0
VERTEX
  5
3CE
  8
6
 10
-4.8021049374988252
 20
6.5789188827436638
 30
0.0
 42
-0.6181545803503951
  0
VERTEX
  5
3CF
  8
6
 10
-4.48548773323364
 20
6.468133450752247
 30
0.0
  0
VERTEX
  5
3D0
  8
6
 10
-4.6174115747121496
 20
4.2946285710620478
 30
0.0
 42
-0.418763463566822
  0
VERTEX
  5
3D1
  8
6
 10
-5.1978764874065737
 20
4.199669621126076
 30
0.0
 42
0.0747720975605334
  0
VERTEX
  5
3D2
  8
6
 10
-7.4999999999995453
 20
4.5791368521938693
 30
0.0
 42
0.0747720975605334
  0
VERTEX
  5
3D3
  8
6
 10
-9.8021235125929707
 20
4.199669621126076
 30
0.0
 42
-0.418763463566822
  0
VERTEX
  5
3D4
  8
6
 10
-10.382588425287389
 20
4.2946285710620478
 30
0.0
  0
VERTEX
  5
3D5
  8
6
 10
-10.5145122667659
 20
6.468133450752247
 30
0.0
 42
-0.6181545803503951
  0
VERTEX
  5
3D6
  8
6
 10
-10.19789506250072
 20
6.5789188827436638
 30
0.0
 42
0.1317069861016926
  0
SEQEND
  5
3D7
  8
6
  0
POLYLINE
  5
2C6
  8
5
 66
     1
 10
0.0
 20
0.0
 30
0.0
  0
VERTEX
  5
3D8
  8
5
 10
-19.999999999999542
 20
6.0
 30
0.0
  0
VERTEX
  5
3D9
  8
5
 10
-14.99999999999954
 20
6.0
 30
0.0
  0
VERTEX
  5
3DA
  8
5
 10
-14.99999999999954
 20
0.0
 30
0.0
  0
VERTEX
  5
3DB
  8
5
 10
0.0
 20
0.0
 30
0.0
  0
VERTEX
  5
3DC
  8
5
 10
0.0
 20
-5.0
 30
0.0
  0
SEQEND
  5
3DD
  8
5
  0
POLYLINE
  5
2C7
  8
6
 66
     1
 10
0.0
 20
0.0
 30
0.0
 70
     1
  0
VERTEX
  5
3DE
  8
6
 10
-11.49999999999954
 20
4.3500000000003629
 30
0.0
  0
VERTEX
  5
3DF
  8
6
 10
-11.49999999999954
 20
4.4100000000007631
 30
0.0
 42
0.4142135623730951
  0
VERTEX
  5
3E0
  8
6
 10
-12.789999999999511
 20
5.7000000000007267
 30
0.0
  0
VERTEX
  5
3E1
  8
6
 10
-14.799999999998811
 20
5.7000000000007267
 30
0.0
 42
0.4142135623730951
  0
VERTEX
  5
3E2
  8
6
 10
-14.99999999999954
 20
5.5
 30
0.0
  0
VERTEX
  5
3E3
  8
6
 10
-14.99999999999954
 20
1.5
 30
0.0
 42
0.4142135623730951
  0
VERTEX
  5
3E4
  8
6
 10
-13.49999999999954
 20
0.0
 30
0.0
  0
VERTEX
  5
3E5
  8
6
 10
-0.2999999999997271
 20
0.0
 30
0.0
 42
0.4142135623730951
  0
VERTEX
  5
3E6
  8
6
 10
0.0
 20
0.3000000000001819
 30
0.0
  0
VERTEX
  5
3E7
  8
6
 10
0.0
 20
4.2000000000007267
 30
0.0
 42
0.4142135623730951
  0
VERTEX
  5
3E8
  8
6
 10
-1.5
 20
5.7000000000007267
 30
0.0
  0
VERTEX
  5
3E9
  8
6
 10
-2.2100000000000359
 20
5.7000000000007267
 30
0.0
 42
0.4142135623730951
  0
VERTEX
  5
3EA
  8
6
 10
-3.5
 20
4.4100000000007631
 30
0.0
  0
VERTEX
  5
3EB
  8
6
 10
-3.5
 20
4.3500000000003629
 30
0.0
 42
0.4142135623731992
  0
VERTEX
  5
3EC
  8
6
 10
-3.3499999999994539
 20
4.2000000000007267
 30
0.0
  0
VERTEX
  5
3ED
  8
6
 10
-1.6999999999998181
 20
4.2000000000007267
 30
0.0
 42
-0.4142135623730953
  0
VERTEX
  5
3EE
  8
6
 10
-1.5
 20
4.0
 30
0.0
  0
VERTEX
  5
3EF
  8
6
 10
-1.5
 20
1.900000000000545
 30
0.0
 42
-0.4142135623730951
  0
VERTEX
  5
3F0
  8
6
 10
-1.6999999999998181
 20
1.7000000000007269
 30
0.0
  0
VERTEX
  5
3F1
  8
6
 10
-13.299999999998811
 20
1.7000000000007269
 30
0.0
 42
-0.4142135623730951
  0
VERTEX
  5
3F2
  8
6
 10
-13.49999999999954
 20
1.900000000000545
 30
0.0
  0
VERTEX
  5
3F3
  8
6
 10
-13.49999999999954
 20
4.0
 30
0.0
 42
-0.4142135623730951
  0
VERTEX
  5
3F4
  8
6
 10
-13.299999999998811
 20
4.2000000000007267
 30
0.0
  0
VERTEX
  5
3F5
  8
6
 10
-11.64999999999918
 20
4.2000000000007267
 30
0.0
 42
0.414213562373069
  0
SEQEND
  5
3F6
  8
6
  0
POLYLINE
  5
2C8
  8
4
 66
     1
 10
0.0
 20
0.0
 30
0.0
 70
     1
  0
VERTEX
  5
3F7
  8
4
 10
-14.99999999999954
 20
0.0
 30
0.0
  0
VERTEX
  5
3F8
  8
4
 10
-14.99999999999954
 20
5.7000000000007267
 30
0.0
  0
VERTEX
  5
3F9
  8
4
 10
0.0
 20
5.7000000000007267
 30
0.0
  0
VERTEX
  5
3FA
  8
4
 10
0.0
 20
0.0
 30
0.0
  0
SEQEND
  5
3FB
  8
4
  0
DIMENSION
  5
2C9
  8
1
  2
*D6
 10
-0.0000000000000007
 20
-11.213104332216741
 30
0.0
 11
-7.4999999999997717
 21
-8.4260988751908243
 31
0.0
 70
     0
 13
-14.99999999999954
 23
0.0
 33
0.0
 14
0.0
 24
0.0
 34
0.0
  0
POLYLINE
  5
2CA
  8
6
 66
     1
 10
0.0
 20
0.0
 30
0.0
 70
     1
  0
VERTEX
  5
3FC
  8
6
 10
-7.9105562931226814
 20
7.0760254513590999
 30
0.0
 42
0.1151090427327019
  0
VERTEX
  5
3FD
  8
6
 10
-9.3194179085467113
 20
11.29565220659355
 30
0.0
 42
-1.0986106770849109
  0
VERTEX
  5
3FE
  8
6
 10
-8.8473977470580394
 20
11.703446380878169
 30
0.0
 42
-0.1772318424917894
  0
VERTEX
  5
3FF
  8
6
 10
-7.089443706876863
 20
7.0760254513590999
 30
0.0
 42
0.469312775289317
  0
VERTEX
  5
400
  8
6
 10
-6.5652302972380312
 20
6.6821750371871067
 30
0.0
  0
VERTEX
  5
401
  8
6
 10
-4.642085162330658
 20
7.3104360939730659
 30
0.0
 42
-0.4609243574565404
  0
VERTEX
  5
402
  8
6
 10
-3.6728920227933481
 20
6.4236227854892141
 30
0.0
  0
VERTEX
  5
403
  8
6
 10
-3.6728920227933481
 20
4.2202308202290624
 30
0.0
  0
VERTEX
  5
404
  8
6
 10
-1.606489999999666
 20
4.2202308202290624
 30
0.0
  0
VERTEX
  5
405
  8
6
 10
-1.9185997435556601
 20
1.7000000000007269
 30
0.0
  0
VERTEX
  5
406
  8
6
 10
-3.8734129927361201
 20
1.7000000000007269
 30
0.0
 42
-0.1137152786227346
  0
VERTEX
  5
407
  8
6
 10
-5.7591213384912399
 20
2.4986528231956981
 30
0.0
 42
0.2201216762673514
  0
VERTEX
  5
408
  8
6
 10
-7.4999999999995453
 20
3.3047915779925461
 30
0.0
 42
0.2201216762673514
  0
VERTEX
  5
409
  8
6
 10
-9.2408786615083045
 20
2.4986528231956981
 30
0.0
 42
-0.1137152786227346
  0
VERTEX
  5
40A
  8
6
 10
-11.126587007263421
 20
1.7000000000007269
 30
0.0
  0
VERTEX
  5
40B
  8
6
 10
-13.08140025644388
 20
1.7000000000007269
 30
0.0
  0
VERTEX
  5
40C
  8
6
 10
-13.393509999999869
 20
4.2202308202290624
 30
0.0
  0
VERTEX
  5
40D
  8
6
 10
-11.32710797720619
 20
4.2202308202290624
 30
0.0
  0
VERTEX
  5
40E
  8
6
 10
-11.32710797720619
 20
6.4236227854892141
 30
0.0
 42
-0.4609243574565404
  0
VERTEX
  5
40F
  8
6
 10
-10.357914837668879
 20
7.3104360939730659
 30
0.0
  0
VERTEX
  5
410
  8
6
 10
-8.4347697027615141
 20
6.6821750371871067
 30
0.0
 42
0.469312775289317
  0
SEQEND
  5
411
  8
6
  0
VIEWPORT
  5
22
 67
     1
  8
0
 10
210.0
 20
170.2366863905325
 30
0.0
 40
420.0
 41
340.47337278106511
 68
     1
 69
     1
1001
ACAD
1000
MVIEW
1002
{
1070
    16
1010
0.0
1020
0.0
1030
0.0
1010
0.0
1020
0.0
1030
1.0
1040
0.0
1040
340.47337278106511
1040
210.0
1040
170.2366863905325
1040
50.0
1040
0.0
1040
0.0
1070
     0
1070
   100
1070
     1
1070
     1
1070
     0
1070
     0
1070
     0
1070
     0
1040
0.0
1040
0.0
1040
0.0
1040
5.0
1040
5.0
1040
10.0
1040
10.0
1070
     0
1002
{
1002
}
1002
}
  0
ENDSEC
  0
EOF
