  0
SECTION
  2
HEADER
  9
$ACADVER
  1
AC1009
  9
$INSBASE
 10
0.0
 20
0.0
 30
0.0
  9
$EXTMIN
 10
-23.002623665382309
 20
-10.620116326748519
 30
-0.0000000000112498
  9
$EXTMAX
 10
12.15362602629898
 20
35.179138748416669
 30
0.0000000000002956
  9
$LIMMIN
 10
-150.0
 20
-150.0
  9
$LIMMAX
 10
150.0
 20
150.0
  9
$ORTHOMODE
 70
     0
  9
$REGENMODE
 70
     1
  9
$FILLMODE
 70
     1
  9
$QTEXTMODE
 70
     0
  9
$MIRRTEXT
 70
     0
  9
$DRAGMODE
 70
     2
  9
$LTSCALE
 40
3.0
  9
$OSMODE
 70
   111
  9
$ATTMODE
 70
     1
  9
$TEXTSIZE
 40
3.5
  9
$TRACEWID
 40
1.0
  9
$TEXTSTYLE
  7
BESCHLAG
  9
$CLAYER
  8
0
  9
$CELTYPE
  6
BYLAYER
  9
$CECOLOR
 62
   256
  9
$DIMSCALE
 40
1.0
  9
$DIMASZ
 40
2.0
  9
$DIMEXO
 40
2.0
  9
$DIMDLI
 40
0.0
  9
$DIMRND
 40
0.0
  9
$DIMDLE
 40
1.0
  9
$DIMEXE
 40
1.0
  9
$DIMTP
 40
0.0
  9
$DIMTM
 40
0.0
  9
$DIMTXT
 40
3.5
  9
$DIMCEN
 40
0.0
  9
$DIMTSZ
 40
0.0
  9
$DIMTOL
 70
     0
  9
$DIMLIM
 70
     0
  9
$DIMTIH
 70
     0
  9
$DIMTOH
 70
     0
  9
$DIMSE1
 70
     0
  9
$DIMSE2
 70
     0
  9
$DIMTAD
 70
     1
  9
$DIMZIN
 70
     8
  9
$DIMBLK
  1

  9
$DIMASO
 70
     1
  9
$DIMSHO
 70
     1
  9
$DIMPOST
  1

  9
$DIMAPOST
  1

  9
$DIMALT
 70
     0
  9
$DIMALTD
 70
     2
  9
$DIMALTF
 40
0.039370078740157
  9
$DIMLFAC
 40
1.0
  9
$DIMTOFL
 70
     1
  9
$DIMTVP
 40
0.0
  9
$DIMTIX
 70
     1
  9
$DIMSOXD
 70
     0
  9
$DIMSAH
 70
     1
  9
$DIMBLK1
  1
OBLIQUE
  9
$DIMBLK2
  1
OBLIQUE
  9
$DIMSTYLE
  2
OPO-SSTRICH
  9
$DIMCLRD
 70
   256
  9
$DIMCLRE
 70
   256
  9
$DIMCLRT
 70
   256
  9
$DIMTFAC
 40
0.7114285714285716
  9
$DIMGAP
 40
1.0
  9
$LUNITS
 70
     2
  9
$LUPREC
 70
     1
  9
$SKETCHINC
 40
1.0
  9
$FILLETRAD
 40
0.0
  9
$AUNITS
 70
     0
  9
$AUPREC
 70
     1
  9
$MENU
  1
D:\ACL_CGWG\CGTAB13
  9
$ELEVATION
 40
0.0
  9
$PELEVATION
 40
0.0
  9
$THICKNESS
 40
0.0
  9
$LIMCHECK
 70
     0
  9
$BLIPMODE
 70
     0
  9
$CHAMFERA
 40
1.0
  9
$CHAMFERB
 40
1.0
  9
$SKPOLY
 70
     0
  9
$TDCREATE
 40
2451739.8645873028
  9
$TDUPDATE
 40
2452087.6044979631
  9
$TDINDWG
 40
0.0007677199
  9
$TDUSRTIMER
 40
0.0007677199
  9
$USRTIMER
 70
     1
  9
$ANGBASE
 50
0.0
  9
$ANGDIR
 70
     0
  9
$PDMODE
 70
    35
  9
$PDSIZE
 40
5.0
  9
$PLINEWID
 40
0.0
  9
$COORDS
 70
     1
  9
$SPLFRAME
 70
     0
  9
$SPLINETYPE
 70
     6
  9
$SPLINESEGS
 70
     8
  9
$ATTDIA
 70
     1
  9
$ATTREQ
 70
     1
  9
$HANDLING
 70
-16383
  9
$HANDSEED
  5
413
  9
$SURFTAB1
 70
    12
  9
$SURFTAB2
 70
    12
  9
$SURFTYPE
 70
     6
  9
$SURFU
 70
    12
  9
$SURFV
 70
    12
  9
$UCSNAME
  2

  9
$UCSORG
 10
0.0
 20
0.0
 30
0.0
  9
$UCSXDIR
 10
1.0
 20
0.0
 30
0.0
  9
$UCSYDIR
 10
0.0
 20
1.0
 30
0.0
  9
$PUCSNAME
  2

  9
$PUCSORG
 10
0.0
 20
0.0
 30
0.0
  9
$PUCSXDIR
 10
1.0
 20
0.0
 30
0.0
  9
$PUCSYDIR
 10
0.0
 20
1.0
 30
0.0
  9
$USERI1
 70
     0
  9
$USERI2
 70
     0
  9
$USERI3
 70
     0
  9
$USERI4
 70
     0
  9
$USERI5
 70
     0
  9
$USERR1
 40
0.0
  9
$USERR2
 40
0.0
  9
$USERR3
 40
0.0
  9
$USERR4
 40
0.0
  9
$USERR5
 40
0.0
  9
$WORLDVIEW
 70
     1
  9
$SHADEDGE
 70
     3
  9
$SHADEDIF
 70
    70
  9
$TILEMODE
 70
     1
  9
$MAXACTVP
 70
    48
  9
$PLIMCHECK
 70
     0
  9
$PEXTMIN
 10
1.0000000000000000E+020
 20
1.0000000000000000E+020
 30
1.0000000000000000E+020
  9
$PEXTMAX
 10
-1.0000000000000000E+020
 20
-1.0000000000000000E+020
 30
-1.0000000000000000E+020
  9
$PLIMMIN
 10
0.0
 20
0.0
  9
$PLIMMAX
 10
420.0
 20
297.0
  9
$UNITMODE
 70
     0
  9
$VISRETAIN
 70
     1
  9
$PLINEGEN
 70
     0
  9
$PSLTSCALE
 70
     1
  0
ENDSEC
  0
SECTION
  2
TABLES
  0
TABLE
  2
VPORT
 70
     2
  0
VPORT
  2
*ACTIVE
 70
     0
 10
0.0
 20
0.0
 11
1.0
 21
1.0
 12
-5.4244988195416681
 22
12.27951121083407
 13
0.0
 23
0.0
 14
0.5
 24
0.5
 15
10.0
 25
10.0
 16
0.0
 26
0.0
 36
1.0
 17
0.0
 27
0.0
 37
0.0
 40
46.171102883623917
 41
1.6070460704607039
 42
50.0
 43
0.0
 44
0.0
 50
0.0
 51
0.0
 71
     0
 72
   800
 73
     1
 74
     1
 75
     0
 76
     0
 77
     0
 78
     0
  0
ENDTAB
  0
TABLE
  2
LTYPE
 70
     2
  0
LTYPE
  2
CONTINUOUS
 70
     0
  3
_______________________________________________
 72
    65
 73
     2
 40
1.0
 49
1.0
 49
0.0
  0
LTYPE
  2
STRICHPUNKT
 70
     0
  3
__ . __ . __ . __ . __ . __ . __ . __ . __ . __
 72
    65
 73
     4
 40
1.0
 49
0.5
 49
-0.25
 49
0.0
 49
-0.25
  0
ENDTAB
  0
TABLE
  2
LAYER
 70
     7
  0
LAYER
  2
0
 70
     0
 62
    30
  6
CONTINUOUS
  0
LAYER
  2
1
 70
     0
 62
     2
  6
CONTINUOUS
  0
LAYER
  2
2
 70
     0
 62
     9
  6
CONTINUOUS
  0
LAYER
  2
4
 70
     1
 62
     4
  6
CONTINUOUS
  0
LAYER
  2
5
 70
     0
 62
     1
  6
CONTINUOUS
  0
LAYER
  2
6
 70
     0
 62
     3
  6
CONTINUOUS
  0
LAYER
  2
DEFPOINTS
 70
     0
 62
     7
  6
CONTINUOUS
  0
ENDTAB
  0
TABLE
  2
STYLE
 70
     2
  0
STYLE
  2
STANDARD
 70
     0
 40
0.0
 41
1.0
 50
0.0
 71
     0
 42
2.5
  3
txt
  4

  0
STYLE
  2
BESCHLAG
 70
     0
 40
0.0
 41
1.0
 50
0.0
 71
     0
 42
3.5
  3
txt
  4

  0
ENDTAB
  0
TABLE
  2
VIEW
 70
     0
  0
ENDTAB
  0
TABLE
  2
UCS
 70
     0
  0
ENDTAB
  0
TABLE
  2
APPID
 70
     1
  0
APPID
  2
ACAD
 70
     0
  0
ENDTAB
  0
TABLE
  2
DIMSTYLE
 70
     1
  0
DIMSTYLE
  2
OPO-SSTRICH
 70
     0
  3

  4

  5

  6
OBLIQUE
  7
OBLIQUE
 40
1.0
 41
2.0
 42
2.0
 43
0.0
 44
1.0
 45
0.0
 46
1.0
 47
0.0
 48
0.0
140
3.5
141
0.0
142
0.0
143
0.039370078740157
144
1.0
145
0.0
146
0.7114285714285716
147
1.0
 71
     0
 72
     0
 73
     0
 74
     0
 75
     0
 76
     0
 77
     1
 78
     8
170
     0
171
     2
172
     1
173
     1
174
     1
175
     0
176
   256
177
   256
178
   256
  0
ENDTAB
  0
ENDSEC
  0
SECTION
  2
BLOCKS
  0
BLOCK
  8
0
  2
$MODEL_SPACE
 70
     0
 10
0.0
 20
0.0
 30
0.0
  3
$MODEL_SPACE
  1

  0
ENDBLK
  5
1C
  8
0
  0
BLOCK
 67
     1
  8
0
  2
$PAPER_SPACE
 70
     0
 10
0.0
 20
0.0
 30
0.0
  3
$PAPER_SPACE
  1

  0
ENDBLK
  5
19
 67
     1
  8
0
  0
BLOCK
  8
0
  2
_OBLIQUE
 70
     0
 10
0.0
 20
0.0
 30
0.0
  3
_OBLIQUE
  1

  0
LINE
  5
204
  8
0
 62
     0
 10
-0.5
 20
-0.5
 30
0.0
 11
0.5
 21
0.5
 31
0.0
  0
ENDBLK
  5
206
  8
0
  0
BLOCK
  8
0
  2
NULLPUNKT
 70
     0
 10
0.0
 20
0.0
 30
0.0
  3
NULLPUNKT
  1

  0
SOLID
  5
254
  8
5
 10
0.0
 20
0.0
 30
0.0
 11
2.0
 21
0.0
 31
0.0
 12
0.0
 22
-2.0
 32
0.0
 13
0.0
 23
-2.0
 33
0.0
  0
SOLID
  5
255
  8
5
 10
0.0
 20
0.0
 30
0.0
 11
-2.0
 21
0.0
 31
0.0
 12
0.0
 22
2.0
 32
0.0
 13
0.0
 23
2.0
 33
0.0
  0
POLYLINE
  5
256
  8
5
 66
     1
 10
0.0
 20
0.0
 30
0.0
  0
VERTEX
  5
3C4
  8
5
 10
0.0
 20
2.0
 30
0.0
  0
VERTEX
  5
3C5
  8
5
 10
0.0
 20
-2.0
 30
0.0
  0
SEQEND
  5
3C6
  8
5
  0
POLYLINE
  5
257
  8
5
 66
     1
 10
0.0
 20
0.0
 30
0.0
  0
VERTEX
  5
3C7
  8
5
 10
-2.0
 20
0.0
 30
0.0
  0
VERTEX
  5
3C8
  8
5
 10
2.0
 20
0.0
 30
0.0
  0
SEQEND
  5
3C9
  8
5
  0
CIRCLE
  5
258
  8
5
 10
0.0
 20
0.0
 30
0.0
 40
2.0
  0
ENDBLK
  5
25A
  8
0
  0
BLOCK
  8
0
  2
*X2
 70
     1
 10
0.0
 20
0.0
 30
0.0
  3
*X2
  1

  0
LINE
  5
290
  8
0
 62
     0
 10
575.48969243004865
 20
209.6608706145127
 30
0.0
 11
577.14334817761699
 21
211.3145263620813
 31
0.0
  0
LINE
  5
291
  8
0
 62
     0
 10
574.07547886767554
 20
209.6608706145127
 30
0.0
 11
575.77547886767616
 21
211.3608706145134
 31
0.0
  0
LINE
  5
292
  8
0
 62
     0
 10
572.66126530530244
 20
209.6608706145127
 30
0.0
 11
574.36126530530305
 21
211.3608706145134
 31
0.0
  0
LINE
  5
293
  8
0
 62
     0
 10
571.24705174292933
 20
209.6608706145127
 30
0.0
 11
572.94705174292994
 21
211.3608706145134
 31
0.0
  0
LINE
  5
294
  8
0
 62
     0
 10
571.23316465249911
 20
211.06119708645571
 30
0.0
 11
571.53283818055695
 21
211.3608706145134
 31
0.0
  0
LINE
  5
295
  8
0
 62
     0
 10
573.83430065593984
 20
206.59126527803079
 30
0.0
 11
574.40390599242176
 21
207.1608706145127
 31
0.0
  0
LINE
  5
296
  8
0
 62
     0
 10
575.78316465249895
 20
208.5401292745901
 30
0.0
 11
577.28316465249895
 21
210.0401292745901
 31
0.0
  0
LINE
  5
297
  8
0
 62
     0
 10
574.46857225946815
 20
205.8113233191861
 30
0.0
 11
577.28316465249895
 21
208.62591571221699
 31
0.0
  0
LINE
  5
298
  8
0
 62
     0
 10
575.73524068549693
 20
205.6637781828417
 30
0.0
 11
577.28316465249895
 21
207.21170214984389
 31
0.0
  0
ENDBLK
  5
29A
  8
0
  0
BLOCK
  8
0
  2
*X3
 70
     1
 10
0.0
 20
0.0
 30
0.0
  3
*X3
  1

  0
LINE
  5
29C
  8
0
 62
     0
 10
563.00441105581001
 20
205.6608706145127
 30
0.0
 11
564.5044110558099
 21
207.1608706145127
 31
0.0
  0
LINE
  5
29D
  8
0
 62
     0
 10
567.00441105581001
 20
209.6608706145127
 30
0.0
 11
568.33316465249891
 21
210.98962421120169
 31
0.0
  0
LINE
  5
29E
  8
0
 62
     0
 10
562.28316465249895
 20
206.35383777357481
 30
0.0
 11
563.78316465249907
 21
207.85383777357481
 31
0.0
  0
LINE
  5
29F
  8
0
 62
     0
 10
565.59019749343679
 20
209.6608706145127
 30
0.0
 11
567.29019749343763
 21
211.3608706145134
 31
0.0
  0
LINE
  5
2A0
  8
0
 62
     0
 10
562.28316465249895
 20
207.768051335948
 30
0.0
 11
563.78316465249907
 21
209.26805133594789
 31
0.0
  0
LINE
  5
2A1
  8
0
 62
     0
 10
564.1759839310638
 20
209.6608706145127
 30
0.0
 11
565.87598393106452
 21
211.3608706145134
 31
0.0
  0
LINE
  5
2A2
  8
0
 62
     0
 10
562.28316465249895
 20
209.18226489832111
 30
0.0
 11
564.46177036869153
 21
211.3608706145134
 31
0.0
  0
LINE
  5
2A3
  8
0
 62
     0
 10
564.42153218651208
 20
205.6637781828417
 30
0.0
 11
565.78251968917425
 21
207.02476568550389
 31
0.0
  0
ENDBLK
  5
2A5
  8
0
  0
BLOCK
  8
0
  2
*D4
 70
     1
 10
0.0
 20
0.0
 30
0.0
  3
*D4
  1

  0
LINE
  5
2EC
  8
1
 10
2.0
 20
12.0
 30
0.0
 11
12.15240935896645
 21
11.999999999999989
 31
0.0
  0
LINE
  5
2ED
  8
1
 10
2.0
 20
-0.0000000000000006
 30
0.0
 11
12.15240935896645
 21
-0.0000000000000034
 31
0.0
  0
LINE
  5
2EE
  8
1
 10
11.15240935896645
 20
12.999999999999989
 30
0.0
 11
11.15240935896645
 21
-1.0000000000000031
 31
0.0
  0
INSERT
  5
2EF
  8
1
  2
_OBLIQUE
 10
11.15240935896645
 20
11.999999999999989
 30
0.0
 41
2.0
 42
2.0
 43
2.0
 50
90.0
  0
INSERT
  5
2F0
  8
1
  2
_OBLIQUE
 10
11.15240935896645
 20
-0.0000000000000032
 30
0.0
 41
2.0
 42
2.0
 43
2.0
 50
270.0
  0
TEXT
  5
2F1
  8
0
 10
10.145247012445299
 20
3.1434174624829452
 30
0.0
 40
3.5
  1
12
 50
90.0
  7
BESCHLAG
  0
POINT
  5
2F2
  8
DEFPOINTS
 62
     0
 10
0.0
 20
12.0
 30
0.0
  0
POINT
  5
2F3
  8
DEFPOINTS
 62
     0
 10
0.0
 20
0.0
 30
0.0
  0
POINT
  5
2F4
  8
DEFPOINTS
 62
     0
 10
11.15240935896645
 20
-0.0000000000000032
 30
0.0
  0
ENDBLK
  5
2D3
  8
0
  0
BLOCK
  8
0
  2
*D5
 70
     1
 10
0.0
 20
0.0
 30
0.0
  3
*D5
  1

  0
LINE
  5
2F5
  8
1
 10
-18.0
 20
14.0
 30
0.0
 11
-18.0
 21
24.06206832810528
 31
0.0
  0
LINE
  5
2F6
  8
1
 10
0.0000000000000001
 20
14.0
 30
0.0
 11
0.0000000000000007
 21
24.06206832810528
 31
0.0
  0
LINE
  5
2F7
  8
1
 10
-19.0
 20
23.06206832810528
 30
0.0
 11
1.0
 21
23.06206832810528
 31
0.0
  0
INSERT
  5
2F8
  8
1
  2
_OBLIQUE
 10
-18.0
 20
23.06206832810528
 30
0.0
 41
2.0
 42
2.0
 43
2.0
 50
180.0
  0
INSERT
  5
2F9
  8
1
  2
_OBLIQUE
 10
0.0000000000000007
 20
23.06206832810528
 30
0.0
 41
2.0
 42
2.0
 43
2.0
  0
TEXT
  5
2FA
  8
0
 10
-11.87806957708049
 20
24.128916895635971
 30
0.0
 40
3.5
  1
18
  7
BESCHLAG
  0
POINT
  5
2FB
  8
DEFPOINTS
 62
     0
 10
-18.0
 20
12.0
 30
0.0
  0
POINT
  5
2FC
  8
DEFPOINTS
 62
     0
 10
0.0
 20
12.0
 30
0.0
  0
POINT
  5
2FD
  8
DEFPOINTS
 62
     0
 10
0.0000000000000007
 20
23.06206832810528
 30
0.0
  0
ENDBLK
  5
2DF
  8
0
  0
BLOCK
  8
0
  2
*D6
 70
     1
 10
0.0
 20
0.0
 30
0.0
  3
*D6
  1

  0
LINE
  5
2FE
  8
1
 10
2.0
 20
-0.0000000000000006
 30
0.0
 11
12.15240935896645
 21
-0.0000000000000034
 31
0.0
  0
LINE
  5
2FF
  8
1
 10
-7.0
 20
-7.0
 30
0.0
 11
12.15240935896645
 21
-7.0000000000000053
 31
0.0
  0
LINE
  5
300
  8
1
 10
11.15240935896645
 20
0.9999999999999968
 30
0.0
 11
11.15240935896645
 21
-8.0000000000000053
 31
0.0
  0
INSERT
  5
301
  8
1
  2
_OBLIQUE
 10
11.15240935896645
 20
-0.0000000000000032
 30
0.0
 41
2.0
 42
2.0
 43
2.0
 50
90.0
  0
INSERT
  5
302
  8
1
  2
_OBLIQUE
 10
11.15240935896645
 20
-7.0000000000000053
 30
0.0
 41
2.0
 42
2.0
 43
2.0
 50
270.0
  0
TEXT
  5
303
  8
0
 10
10.15240935896645
 20
-4.86442701227831
 30
0.0
 40
3.5
  1
7
 50
90.0
  7
BESCHLAG
  0
POINT
  5
304
  8
DEFPOINTS
 62
     0
 10
0.0
 20
0.0
 30
0.0
  0
POINT
  5
305
  8
DEFPOINTS
 62
     0
 10
-9.0
 20
-7.0
 30
0.0
  0
POINT
  5
306
  8
DEFPOINTS
 62
     0
 10
11.15240935896645
 20
-7.0000000000000053
 30
0.0
  0
ENDBLK
  5
2EB
  8
0
  0
ENDSEC
  0
SECTION
  2
ENTITIES
  0
INSERT
  5
25B
  8
5
  2
NULLPUNKT
 10
0.0
 20
0.0
 30
0.0
  0
INSERT
  5
2BA
  8
2
  2
*X3
 10
-578.78316465249895
 20
-199.3608706145134
 30
0.0
1001
ACAD
1000
HATCH
1002
{
1070
    16
1000
_U,I
1040
1.0
1040
0.7853981633974483
1070
     0
1002
}
  0
INSERT
  5
2BB
  8
2
  2
*X2
 10
-578.78316465249895
 20
-199.3608706145134
 30
0.0
1001
ACAD
1000
HATCH
1002
{
1070
    16
1000
_U,I
1040
1.0
1040
0.7853981633974483
1070
     0
1002
}
  0
LINE
  5
2BC
  8
6
 10
-7.5499999999999536
 20
10.299999999999271
 30
0.0
 11
-7.5499999999999536
 21
12.0
 31
0.0
  0
LINE
  5
2BD
  8
6
 10
-10.45000000000004
 20
10.299999999999271
 30
0.0
 11
-10.45000000000004
 21
12.0
 31
0.0
  0
TEXT
  5
2BE
  8
1
 10
-22.86397312984877
 20
32.0
 30
0.0
 40
2.5
  1
Hebgo 125/655
  0
DIMENSION
  5
2BF
  8
1
  2
*D4
 10
11.15240935896645
 20
-0.0000000000000032
 30
0.0
 11
8.3952470124453065
 21
5.9999999999999991
 31
0.0
 70
     0
 13
0.0
 23
12.0
 33
0.0
 14
0.0
 24
0.0
 34
0.0
 50
90.0
  0
POLYLINE
  5
2C0
  8
5
 66
     1
 10
0.0
 20
0.0
 30
0.0
  0
VERTEX
  5
3CA
  8
5
 10
-23.0
 20
0.0
 30
0.0
  0
VERTEX
  5
3CB
  8
5
 10
-18.0
 20
0.0
 30
0.0
  0
VERTEX
  5
3CC
  8
5
 10
-18.0
 20
12.0
 30
0.0
  0
VERTEX
  5
3CD
  8
5
 10
0.0
 20
12.0
 30
0.0
  0
VERTEX
  5
3CE
  8
5
 10
0.0
 20
0.0
 30
0.0
  0
VERTEX
  5
3CF
  8
5
 10
5.0
 20
0.0
 30
0.0
  0
SEQEND
  5
3D0
  8
5
  0
POLYLINE
  5
2C1
  8
6
 66
     1
 10
0.0
 20
0.0
 30
0.0
 70
     1
  0
VERTEX
  5
3D1
  8
6
 10
-13.0
 20
7.6499999999996362
 30
0.0
  0
VERTEX
  5
3D2
  8
6
 10
-13.0
 20
7.589999999999236
 30
0.0
 42
-0.4142135623730951
  0
VERTEX
  5
3D3
  8
6
 10
-14.28999999999996
 20
6.2999999999992724
 30
0.0
  0
VERTEX
  5
3D4
  8
6
 10
-16.299999999999269
 20
6.2999999999992724
 30
0.0
 42
-0.4142135623730951
  0
VERTEX
  5
3D5
  8
6
 10
-16.5
 20
6.5
 30
0.0
  0
VERTEX
  5
3D6
  8
6
 10
-16.5
 20
10.5
 30
0.0
 42
-0.4142135623730951
  0
VERTEX
  5
3D7
  8
6
 10
-15.0
 20
12.0
 30
0.0
  0
VERTEX
  5
3D8
  8
6
 10
-1.7999999999999541
 20
12.0
 30
0.0
 42
-0.4142135623730951
  0
VERTEX
  5
3D9
  8
6
 10
-1.5
 20
11.70000000000004
 30
0.0
  0
VERTEX
  5
3DA
  8
6
 10
-1.5
 20
7.7999999999992724
 30
0.0
 42
-0.4142135623730951
  0
VERTEX
  5
3DB
  8
6
 10
-3.0
 20
6.2999999999992724
 30
0.0
  0
VERTEX
  5
3DC
  8
6
 10
-3.7100000000000359
 20
6.2999999999992724
 30
0.0
 42
-0.4142135623730951
  0
VERTEX
  5
3DD
  8
6
 10
-5.0
 20
7.589999999999236
 30
0.0
  0
VERTEX
  5
3DE
  8
6
 10
-5.0
 20
7.6499999999996362
 30
0.0
 42
-0.4142135623731992
  0
VERTEX
  5
3DF
  8
6
 10
-4.8499999999994543
 20
7.7999999999992724
 30
0.0
  0
VERTEX
  5
3E0
  8
6
 10
-3.1999999999998181
 20
7.7999999999992724
 30
0.0
 42
0.4142135623730953
  0
VERTEX
  5
3E1
  8
6
 10
-3.0
 20
8.0
 30
0.0
  0
VERTEX
  5
3E2
  8
6
 10
-3.0
 20
10.099999999999451
 30
0.0
 42
0.4142135623730951
  0
VERTEX
  5
3E3
  8
6
 10
-3.1999999999998181
 20
10.299999999999271
 30
0.0
  0
VERTEX
  5
3E4
  8
6
 10
-14.799999999999271
 20
10.299999999999271
 30
0.0
 42
0.4142135623730951
  0
VERTEX
  5
3E5
  8
6
 10
-15.0
 20
10.099999999999451
 30
0.0
  0
VERTEX
  5
3E6
  8
6
 10
-15.0
 20
8.0
 30
0.0
 42
0.4142135623730951
  0
VERTEX
  5
3E7
  8
6
 10
-14.799999999999271
 20
7.7999999999992724
 30
0.0
  0
VERTEX
  5
3E8
  8
6
 10
-13.149999999999631
 20
7.7999999999992724
 30
0.0
 42
-0.414213562373069
  0
SEQEND
  5
3E9
  8
6
  0
POLYLINE
  5
2C2
  8
4
 66
     1
 10
0.0
 20
0.0
 30
0.0
 70
     1
  0
VERTEX
  5
3EA
  8
4
 10
-16.5
 20
12.0
 30
0.0
  0
VERTEX
  5
3EB
  8
4
 10
-16.5
 20
6.2999999999992724
 30
0.0
  0
VERTEX
  5
3EC
  8
4
 10
-1.5
 20
6.2999999999992724
 30
0.0
  0
VERTEX
  5
3ED
  8
4
 10
-1.5
 20
12.0
 30
0.0
  0
SEQEND
  5
3EE
  8
4
  0
LINE
  5
2C3
  8
6
  6
STRICHPUNKT
 10
-9.0
 20
10.05297324713001
 30
0.0
 11
-9.0
 21
22.052973247130009
 31
0.0
  0
DIMENSION
  5
2C4
  8
1
  2
*D5
 10
0.0000000000000007
 20
23.06206832810528
 30
0.0
 11
-9.0
 21
25.8490737851312
 31
0.0
 70
     0
 13
-18.0
 23
12.0
 33
0.0
 14
0.0
 24
12.0
 34
0.0
  0
ARC
  5
2C5
  8
5
 10
-9.0
 20
-36.0
 30
0.0
 40
29.0
 50
61.134272584992956
 51
118.8657274150068
  0
POLYLINE
  5
2C6
  8
6
 66
     1
 10
0.0
 20
0.0
 30
0.0
 70
     1
  0
VERTEX
  5
3EF
  8
6
 10
-9.0
 20
6.419843200770174
 30
0.0
 42
0.4148245151492964
  0
VERTEX
  5
3F0
  8
6
 10
-7.1548574944677048
 20
7.9159719859032966
 30
0.0
 42
-0.023961616245273
  0
VERTEX
  5
3F1
  8
6
 10
-6.4524516055171262
 20
9.6239219692190545
 30
0.0
 42
-0.2595541293777334
  0
VERTEX
  5
3F2
  8
6
 10
-5.6768928880883323
 20
10.129981353164331
 30
0.0
  0
VERTEX
  5
3F3
  8
6
 10
-4.3496713408037522
 20
10.129981353164331
 30
0.0
 42
-0.2766012465240006
  0
VERTEX
  5
3F4
  8
6
 10
-3.9925753851382519
 20
9.8581829377487793
 30
0.0
  0
VERTEX
  5
3F5
  8
6
 10
-3.1916417106849622
 20
8.3403593354114491
 30
0.0
 42
-0.5893662835735856
  0
VERTEX
  5
3F6
  8
6
 10
-3.4576987224397722
 20
7.7999999999992724
 30
0.0
  0
VERTEX
  5
3F7
  8
6
 10
-5.0140572785007862
 20
7.7999999999992724
 30
0.0
  0
VERTEX
  5
3F8
  8
6
 10
-5.0140572785007862
 20
6.3029075683282372
 30
0.0
  0
VERTEX
  5
3F9
  8
6
 10
-2.4936082205979342
 20
6.3029075683282372
 30
0.0
 42
-0.4783195535187631
  0
VERTEX
  5
3FA
  8
6
 10
-2.4816536540115521
 20
5.1010169689575369
 30
0.0
 42
0.2328580761339193
  0
VERTEX
  5
3FB
  8
6
 10
-4.4024001402685817
 20
2.8870072516972409
 30
0.0
 42
0.2936838936389149
  0
VERTEX
  5
3FC
  8
6
 10
0.3767641458803155
 20
-7.0270689342557944
 30
0.0
 42
-0.8360335669262724
  0
VERTEX
  5
3FD
  8
6
 10
-0.4866952502025015
 20
-8.2865449521452774
 30
0.0
 42
-0.0894071526759449
  0
VERTEX
  5
3FE
  8
6
 10
-2.9639366311953381
 20
-6.129604754133652
 30
0.0
 42
-0.1224218983430022
  0
VERTEX
  5
3FF
  8
6
 10
-6.954217921462714
 20
1.6025311191820031
 30
0.0
 42
0.2751171797060064
  0
VERTEX
  5
400
  8
6
 10
-9.0
 20
3.069574561601939
 30
0.0
 42
0.3236191202246514
  0
VERTEX
  5
401
  8
6
 10
-11.40242221159769
 20
1.519042237315716
 30
0.0
 42
0.2462625048576344
  0
VERTEX
  5
402
  8
6
 10
-9.1978342818476904
 20
-4.7996790719339506
 30
0.0
 42
0.1729650862063477
  0
VERTEX
  5
403
  8
6
 10
-5.6320434141748592
 20
-5.6649873650078462
 30
0.0
 42
-0.9255605384498403
  0
VERTEX
  5
404
  8
6
 10
-5.7618684193662366
 20
-7.0316776811930586
 30
0.0
 42
-0.2768392642950237
  0
VERTEX
  5
405
  8
6
 10
-12.00997439301204
 20
-4.0789989416689423
 30
0.0
 42
-0.1265296816104085
  0
VERTEX
  5
406
  8
6
 10
-13.792392517086
 20
2.832086729407592
 30
0.0
 42
0.3049994004035177
  0
VERTEX
  5
407
  8
6
 10
-15.518346345988441
 20
5.1010169689575369
 30
0.0
 42
-0.4783195535187631
  0
VERTEX
  5
408
  8
6
 10
-15.506391779402289
 20
6.3029075683282372
 30
0.0
  0
VERTEX
  5
409
  8
6
 10
-12.98594272149921
 20
6.3029075683282372
 30
0.0
  0
VERTEX
  5
40A
  8
6
 10
-12.98594272149921
 20
7.7999999999992724
 30
0.0
  0
VERTEX
  5
40B
  8
6
 10
-14.542301277560449
 20
7.7999999999992724
 30
0.0
 42
-0.5893662835735856
  0
VERTEX
  5
40C
  8
6
 10
-14.80835828931526
 20
8.3403593354114491
 30
0.0
  0
VERTEX
  5
40D
  8
6
 10
-14.00742461486197
 20
9.8581829377487793
 30
0.0
 42
-0.2766012465240006
  0
VERTEX
  5
40E
  8
6
 10
-13.650328659196241
 20
10.129981353164331
 30
0.0
  0
VERTEX
  5
40F
  8
6
 10
-12.323107111911661
 20
10.129981353164331
 30
0.0
 42
-0.2595541293777334
  0
VERTEX
  5
410
  8
6
 10
-11.54754839448287
 20
9.6239219692190545
 30
0.0
 42
-0.023961616245273
  0
VERTEX
  5
411
  8
6
 10
-10.845142505532291
 20
7.9159719859032966
 30
0.0
 42
0.4148245151492964
  0
SEQEND
  5
412
  8
6
  0
DIMENSION
  5
2C7
  8
1
  2
*D6
 10
11.15240935896645
 20
-7.0000000000000053
 30
0.0
 11
8.4024093589664535
 21
-3.5000000000000022
 31
0.0
 70
     0
 13
0.0
 23
0.0
 33
0.0
 14
-9.0
 24
-7.0
 34
0.0
 50
90.0
  0
VIEWPORT
  5
22
 67
     1
  8
0
 10
210.0
 20
170.2366863905325
 30
0.0
 40
420.0
 41
340.47337278106511
 68
     1
 69
     1
1001
ACAD
1000
MVIEW
1002
{
1070
    16
1010
0.0
1020
0.0
1030
0.0
1010
0.0
1020
0.0
1030
1.0
1040
0.0
1040
340.47337278106511
1040
210.0
1040
170.2366863905325
1040
50.0
1040
0.0
1040
0.0
1070
     0
1070
   100
1070
     1
1070
     1
1070
     0
1070
     0
1070
     0
1070
     0
1040
0.0
1040
0.0
1040
0.0
1040
5.0
1040
5.0
1040
10.0
1040
10.0
1070
     0
1002
{
1002
}
1002
}
  0
ENDSEC
  0
EOF
