  0
SECTION
  2
HEADER
  9
$ACADVER
  1
AC1009
  9
$INSBASE
 10
0.0
 20
0.0
 30
0.0
  9
$EXTMIN
 10
-15.0
 20
-12.756698928935741
 30
0.0
  9
$EXTMAX
 10
15.93666241918652
 20
17.3441175230349
 30
0.0
  9
$LIMMIN
 10
-150.0
 20
-150.0
  9
$LIMMAX
 10
150.0
 20
150.0
  9
$ORTHOMODE
 70
     0
  9
$REGENMODE
 70
     1
  9
$FILLMODE
 70
     1
  9
$QTEXTMODE
 70
     0
  9
$MIRRTEXT
 70
     0
  9
$DRAGMODE
 70
     2
  9
$LTSCALE
 40
3.0
  9
$OSMODE
 70
   111
  9
$ATTMODE
 70
     1
  9
$TEXTSIZE
 40
3.5
  9
$TRACEWID
 40
1.0
  9
$TEXTSTYLE
  7
BESCHLAG
  9
$CLAYER
  8
0
  9
$CELTYPE
  6
BYLAYER
  9
$CECOLOR
 62
   256
  9
$DIMSCALE
 40
1.0
  9
$DIMASZ
 40
2.0
  9
$DIMEXO
 40
2.0
  9
$DIMDLI
 40
0.0
  9
$DIMRND
 40
0.0
  9
$DIMDLE
 40
1.0
  9
$DIMEXE
 40
1.0
  9
$DIMTP
 40
0.0
  9
$DIMTM
 40
0.0
  9
$DIMTXT
 40
3.5
  9
$DIMCEN
 40
0.0
  9
$DIMTSZ
 40
0.0
  9
$DIMTOL
 70
     0
  9
$DIMLIM
 70
     0
  9
$DIMTIH
 70
     0
  9
$DIMTOH
 70
     0
  9
$DIMSE1
 70
     0
  9
$DIMSE2
 70
     0
  9
$DIMTAD
 70
     1
  9
$DIMZIN
 70
     8
  9
$DIMBLK
  1

  9
$DIMASO
 70
     1
  9
$DIMSHO
 70
     1
  9
$DIMPOST
  1

  9
$DIMAPOST
  1

  9
$DIMALT
 70
     0
  9
$DIMALTD
 70
     2
  9
$DIMALTF
 40
0.039370078740157
  9
$DIMLFAC
 40
1.0
  9
$DIMTOFL
 70
     1
  9
$DIMTVP
 40
0.0
  9
$DIMTIX
 70
     1
  9
$DIMSOXD
 70
     0
  9
$DIMSAH
 70
     1
  9
$DIMBLK1
  1
OBLIQUE
  9
$DIMBLK2
  1
OBLIQUE
  9
$DIMSTYLE
  2
OPO-SSTRICH
  9
$DIMCLRD
 70
   256
  9
$DIMCLRE
 70
   256
  9
$DIMCLRT
 70
   256
  9
$DIMTFAC
 40
0.7114285714285716
  9
$DIMGAP
 40
1.0
  9
$LUNITS
 70
     2
  9
$LUPREC
 70
     1
  9
$SKETCHINC
 40
1.0
  9
$FILLETRAD
 40
0.0
  9
$AUNITS
 70
     0
  9
$AUPREC
 70
     1
  9
$MENU
  1
D:\ACL_CGWG\CGTAB13
  9
$ELEVATION
 40
0.0
  9
$PELEVATION
 40
0.0
  9
$THICKNESS
 40
0.0
  9
$LIMCHECK
 70
     0
  9
$BLIPMODE
 70
     0
  9
$CHAMFERA
 40
1.0
  9
$CHAMFERB
 40
1.0
  9
$SKPOLY
 70
     0
  9
$TDCREATE
 40
2451739.8570699422
  9
$TDUPDATE
 40
2452086.739435914
  9
$TDINDWG
 40
0.0009207407
  9
$TDUSRTIMER
 40
0.0009205671
  9
$USRTIMER
 70
     1
  9
$ANGBASE
 50
0.0
  9
$ANGDIR
 70
     0
  9
$PDMODE
 70
    35
  9
$PDSIZE
 40
5.0
  9
$PLINEWID
 40
0.0
  9
$COORDS
 70
     1
  9
$SPLFRAME
 70
     0
  9
$SPLINETYPE
 70
     6
  9
$SPLINESEGS
 70
     8
  9
$ATTDIA
 70
     1
  9
$ATTREQ
 70
     1
  9
$HANDLING
 70
-16383
  9
$HANDSEED
  5
460
  9
$SURFTAB1
 70
    12
  9
$SURFTAB2
 70
    12
  9
$SURFTYPE
 70
     6
  9
$SURFU
 70
    12
  9
$SURFV
 70
    12
  9
$UCSNAME
  2

  9
$UCSORG
 10
0.0
 20
0.0
 30
0.0
  9
$UCSXDIR
 10
1.0
 20
0.0
 30
0.0
  9
$UCSYDIR
 10
0.0
 20
1.0
 30
0.0
  9
$PUCSNAME
  2

  9
$PUCSORG
 10
0.0
 20
0.0
 30
0.0
  9
$PUCSXDIR
 10
1.0
 20
0.0
 30
0.0
  9
$PUCSYDIR
 10
0.0
 20
1.0
 30
0.0
  9
$USERI1
 70
     0
  9
$USERI2
 70
     0
  9
$USERI3
 70
     0
  9
$USERI4
 70
     0
  9
$USERI5
 70
     0
  9
$USERR1
 40
0.0
  9
$USERR2
 40
0.0
  9
$USERR3
 40
0.0
  9
$USERR4
 40
0.0
  9
$USERR5
 40
0.0
  9
$WORLDVIEW
 70
     1
  9
$SHADEDGE
 70
     3
  9
$SHADEDIF
 70
    70
  9
$TILEMODE
 70
     1
  9
$MAXACTVP
 70
    48
  9
$PLIMCHECK
 70
     0
  9
$PEXTMIN
 10
1.0000000000000000E+020
 20
1.0000000000000000E+020
 30
1.0000000000000000E+020
  9
$PEXTMAX
 10
-1.0000000000000000E+020
 20
-1.0000000000000000E+020
 30
-1.0000000000000000E+020
  9
$PLIMMIN
 10
0.0
 20
0.0
  9
$PLIMMAX
 10
420.0
 20
297.0
  9
$UNITMODE
 70
     0
  9
$VISRETAIN
 70
     1
  9
$PLINEGEN
 70
     0
  9
$PSLTSCALE
 70
     1
  0
ENDSEC
  0
SECTION
  2
TABLES
  0
TABLE
  2
VPORT
 70
     3
  0
VPORT
  2
*ACTIVE
 70
     0
 10
0.0
 20
0.0
 11
1.0
 21
1.0
 12
0.4692084627100677
 22
2.8230683033846669
 13
0.0
 23
0.0
 14
0.5
 24
0.5
 15
10.0
 25
10.0
 16
0.0
 26
0.0
 36
1.0
 17
0.0
 27
0.0
 37
0.0
 40
31.473060647103441
 41
1.6070460704607039
 42
50.0
 43
0.0
 44
0.0
 50
0.0
 51
0.0
 71
     0
 72
   800
 73
     1
 74
     1
 75
     0
 76
     0
 77
     0
 78
     0
  0
ENDTAB
  0
TABLE
  2
LTYPE
 70
     2
  0
LTYPE
  2
CONTINUOUS
 70
     0
  3
_______________________________________________
 72
    65
 73
     2
 40
1.0
 49
1.0
 49
0.0
  0
LTYPE
  2
STRICHPUNKT
 70
     0
  3
__ . __ . __ . __ . __ . __ . __ . __ . __ . __
 72
    65
 73
     4
 40
1.0
 49
0.5
 49
-0.25
 49
0.0
 49
-0.25
  0
ENDTAB
  0
TABLE
  2
LAYER
 70
     7
  0
LAYER
  2
0
 70
     0
 62
    30
  6
CONTINUOUS
  0
LAYER
  2
1
 70
     0
 62
     2
  6
CONTINUOUS
  0
LAYER
  2
2
 70
     0
 62
     9
  6
CONTINUOUS
  0
LAYER
  2
4
 70
     1
 62
     4
  6
CONTINUOUS
  0
LAYER
  2
5
 70
     0
 62
     1
  6
CONTINUOUS
  0
LAYER
  2
6
 70
     0
 62
     3
  6
CONTINUOUS
  0
LAYER
  2
DEFPOINTS
 70
     0
 62
     7
  6
CONTINUOUS
  0
ENDTAB
  0
TABLE
  2
STYLE
 70
     2
  0
STYLE
  2
STANDARD
 70
     0
 40
0.0
 41
1.0
 50
0.0
 71
     0
 42
2.5
  3
txt
  4

  0
STYLE
  2
BESCHLAG
 70
     0
 40
0.0
 41
1.0
 50
0.0
 71
     0
 42
3.5
  3
txt
  4

  0
ENDTAB
  0
TABLE
  2
VIEW
 70
     0
  0
ENDTAB
  0
TABLE
  2
UCS
 70
     0
  0
ENDTAB
  0
TABLE
  2
APPID
 70
     1
  0
APPID
  2
ACAD
 70
     0
  0
ENDTAB
  0
TABLE
  2
DIMSTYLE
 70
     1
  0
DIMSTYLE
  2
OPO-SSTRICH
 70
     0
  3

  4

  5

  6
OBLIQUE
  7
OBLIQUE
 40
1.0
 41
2.0
 42
2.0
 43
0.0
 44
1.0
 45
0.0
 46
1.0
 47
0.0
 48
0.0
140
3.5
141
0.0
142
0.0
143
0.039370078740157
144
1.0
145
0.0
146
0.7114285714285716
147
1.0
 71
     0
 72
     0
 73
     0
 74
     0
 75
     0
 76
     0
 77
     1
 78
     8
170
     0
171
     2
172
     1
173
     1
174
     1
175
     0
176
   256
177
   256
178
   256
  0
ENDTAB
  0
ENDSEC
  0
SECTION
  2
BLOCKS
  0
BLOCK
  8
0
  2
$MODEL_SPACE
 70
     0
 10
0.0
 20
0.0
 30
0.0
  3
$MODEL_SPACE
  1

  0
ENDBLK
  5
1C
  8
0
  0
BLOCK
 67
     1
  8
0
  2
$PAPER_SPACE
 70
     0
 10
0.0
 20
0.0
 30
0.0
  3
$PAPER_SPACE
  1

  0
ENDBLK
  5
19
 67
     1
  8
0
  0
BLOCK
  8
0
  2
_OBLIQUE
 70
     0
 10
0.0
 20
0.0
 30
0.0
  3
_OBLIQUE
  1

  0
LINE
  5
204
  8
0
 62
     0
 10
-0.5
 20
-0.5
 30
0.0
 11
0.5
 21
0.5
 31
0.0
  0
ENDBLK
  5
206
  8
0
  0
BLOCK
  8
0
  2
NULLPUNKT
 70
     0
 10
0.0
 20
0.0
 30
0.0
  3
NULLPUNKT
  1

  0
SOLID
  5
254
  8
5
 10
0.0
 20
0.0
 30
0.0
 11
2.0
 21
0.0
 31
0.0
 12
0.0
 22
-2.0
 32
0.0
 13
0.0
 23
-2.0
 33
0.0
  0
SOLID
  5
255
  8
5
 10
0.0
 20
0.0
 30
0.0
 11
-2.0
 21
0.0
 31
0.0
 12
0.0
 22
2.0
 32
0.0
 13
0.0
 23
2.0
 33
0.0
  0
POLYLINE
  5
256
  8
5
 66
     1
 10
0.0
 20
0.0
 30
0.0
  0
VERTEX
  5
408
  8
5
 10
0.0
 20
2.0
 30
0.0
  0
VERTEX
  5
409
  8
5
 10
0.0
 20
-2.0
 30
0.0
  0
SEQEND
  5
40A
  8
5
  0
POLYLINE
  5
257
  8
5
 66
     1
 10
0.0
 20
0.0
 30
0.0
  0
VERTEX
  5
40B
  8
5
 10
-2.0
 20
0.0
 30
0.0
  0
VERTEX
  5
40C
  8
5
 10
2.0
 20
0.0
 30
0.0
  0
SEQEND
  5
40D
  8
5
  0
CIRCLE
  5
258
  8
5
 10
0.0
 20
0.0
 30
0.0
 40
2.0
  0
ENDBLK
  5
25A
  8
0
  0
BLOCK
  8
0
  2
*X2
 70
     1
 10
0.0
 20
0.0
 30
0.0
  3
*X2
  1

  0
LINE
  5
286
  8
0
 62
     0
 10
264.40905747797069
 20
-470.5295041169428
 30
0.0
 11
265.36265022309522
 21
-469.57591137181828
 31
0.0
  0
LINE
  5
287
  8
0
 62
     0
 10
268.4590574779707
 20
-466.47950411694279
 30
0.0
 11
269.36110890755953
 21
-465.57745268735408
 31
0.0
  0
LINE
  5
288
  8
0
 62
     0
 10
267.4590574779707
 20
-466.06529055456957
 30
0.0
 11
268.24843666072189
 21
-465.27591137181861
 31
0.0
  0
LINE
  5
289
  8
0
 62
     0
 10
265.21248027692673
 20
-471.14029488035987
 30
0.0
 11
266.77686378546832
 21
-469.57591137181828
 31
0.0
  0
LINE
  5
28A
  8
0
 62
     0
 10
268.4590574779707
 20
-467.8937176793159
 30
0.0
 11
269.91941904158949
 21
-466.43335611569711
 31
0.0
  0
LINE
  5
28B
  8
0
 62
     0
 10
266.58741012923389
 20
-471.17957859042582
 30
0.0
 11
268.22894918096182
 21
-469.53803953869789
 31
0.0
  0
LINE
  5
28C
  8
0
 62
     0
 10
268.42118564485031
 20
-469.3458030748094
 30
0.0
 11
269.9590574779707
 21
-467.807931241689
 31
0.0
  0
LINE
  5
28D
  8
0
 62
     0
 10
267.96233998154111
 20
-471.21886230049182
 30
0.0
 11
269.9590574779707
 21
-469.22214480406211
 31
0.0
  0
LINE
  5
28E
  8
0
 62
     0
 10
269.33726983384821
 20
-471.2581460105576
 30
0.0
 11
269.9590574779707
 21
-470.63635836643522
 31
0.0
  0
ENDBLK
  5
290
  8
0
  0
BLOCK
  8
0
  2
*X3
 70
     1
 10
0.0
 20
0.0
 30
0.0
  3
*X3
  1

  0
LINE
  5
292
  8
0
 62
     0
 10
256.12143153531281
 20
-470.3318486853621
 30
0.0
 11
257.4590574779707
 21
-468.9942227427041
 31
0.0
  0
LINE
  5
293
  8
0
 62
     0
 10
255.95905747797079
 20
-469.0800091803311
 30
0.0
 11
257.4590574779707
 21
-467.5800091803311
 31
0.0
  0
LINE
  5
294
  8
0
 62
     0
 10
258.14542474560909
 20
-466.89364191269271
 30
0.0
 11
258.4590574779707
 21
-466.5800091803311
 31
0.0
  0
LINE
  5
295
  8
0
 62
     0
 10
255.95905747797079
 20
-467.665795617958
 30
0.0
 11
258.30886206755622
 21
-465.31599102837248
 31
0.0
  0
LINE
  5
296
  8
0
 62
     0
 10
255.95905747797079
 20
-466.25158205558489
 30
0.0
 11
256.9347281617371
 21
-465.27591137181861
 31
0.0
  0
LINE
  5
297
  8
0
 62
     0
 10
256.81925549693091
 20
-471.04823828611711
 30
0.0
 11
258.28922498802348
 21
-469.57826879502448
 31
0.0
  0
LINE
  5
298
  8
0
 62
     0
 10
258.06599416465059
 20
-471.21571318077048
 30
0.0
 11
259.70579597360279
 21
-469.57591137181828
 31
0.0
  0
LINE
  5
299
  8
0
 62
     0
 10
259.52180224356408
 20
-471.17411866422998
 30
0.0
 11
261.1200095359759
 21
-469.57591137181828
 31
0.0
  0
LINE
  5
29A
  8
0
 62
     0
 10
260.97761032247769
 20
-471.13252414768959
 30
0.0
 11
261.50905747797071
 21
-470.60107699219668
 31
0.0
  0
ENDBLK
  5
29C
  8
0
  0
BLOCK
  8
0
  2
*D4
 70
     1
 10
0.0
 20
0.0
 30
0.0
  3
*D4
  1

  0
LINE
  5
2F3
  8
1
 10
-14.0
 20
-2.0
 30
0.0
 11
-14.0
 21
-12.756698928935741
 31
0.0
  0
LINE
  5
2F4
  8
1
 10
-0.0000000000000001
 20
-2.0
 30
0.0
 11
-0.0000000000000008
 21
-12.756698928935741
 31
0.0
  0
LINE
  5
2F5
  8
1
 10
-15.0
 20
-11.756698928935741
 30
0.0
 11
0.9999999999999992
 21
-11.756698928935741
 31
0.0
  0
INSERT
  5
2F6
  8
1
  2
_OBLIQUE
 10
-14.0
 20
-11.756698928935741
 30
0.0
 41
2.0
 42
2.0
 43
2.0
 50
180.0
  0
INSERT
  5
2F7
  8
1
  2
_OBLIQUE
 10
-0.0000000000000007
 20
-11.756698928935741
 30
0.0
 41
2.0
 42
2.0
 43
2.0
  0
TEXT
  5
2F8
  8
0
 10
-9.8673260572987722
 20
-10.749536582414599
 30
0.0
 40
3.5
  1
14
  7
BESCHLAG
  0
POINT
  5
2F9
  8
DEFPOINTS
 62
     0
 10
-14.0
 20
0.0
 30
0.0
  0
POINT
  5
2FA
  8
DEFPOINTS
 62
     0
 10
0.0
 20
0.0
 30
0.0
  0
POINT
  5
2FB
  8
DEFPOINTS
 62
     0
 10
-0.0000000000000007
 20
-11.756698928935741
 30
0.0
  0
ENDBLK
  5
2D8
  8
0
  0
BLOCK
  8
0
  2
*D5
 70
     1
 10
0.0
 20
0.0
 30
0.0
  3
*D5
  1

  0
LINE
  5
2FC
  8
1
 10
2.0
 20
-0.0000000000000006
 30
0.0
 11
14.02389335299403
 21
-0.000000000000004
 31
0.0
  0
LINE
  5
2FD
  8
1
 10
2.0
 20
6.0
 30
0.0
 11
14.02389335299403
 21
5.9999999999999947
 31
0.0
  0
LINE
  5
2FE
  8
1
 10
13.02389335299403
 20
-1.0000000000000031
 30
0.0
 11
13.02389335299403
 21
6.9999999999999956
 31
0.0
  0
INSERT
  5
2FF
  8
1
  2
_OBLIQUE
 10
13.02389335299403
 20
-0.0000000000000037
 30
0.0
 41
2.0
 42
2.0
 43
2.0
 50
270.0
  0
INSERT
  5
300
  8
1
  2
_OBLIQUE
 10
13.02389335299403
 20
5.9999999999999956
 30
0.0
 41
2.0
 42
2.0
 43
2.0
 50
90.0
  0
TEXT
  5
301
  8
0
 10
11.95704478546334
 20
1.6606412005457001
 30
0.0
 40
3.5
  1
6
 50
90.0
  7
BESCHLAG
  0
POINT
  5
302
  8
DEFPOINTS
 62
     0
 10
0.0
 20
0.0
 30
0.0
  0
POINT
  5
303
  8
DEFPOINTS
 62
     0
 10
0.0
 20
6.0
 30
0.0
  0
POINT
  5
304
  8
DEFPOINTS
 62
     0
 10
13.02389335299403
 20
5.9999999999999956
 30
0.0
  0
ENDBLK
  5
2E4
  8
0
  0
BLOCK
  8
0
  2
*D6
 70
     1
 10
0.0
 20
0.0
 30
0.0
  3
*D6
  1

  0
LINE
  5
305
  8
1
 10
2.0
 20
6.0
 30
0.0
 11
14.02389335299403
 21
5.9999999999999947
 31
0.0
  0
LINE
  5
306
  8
1
 10
-8.0
 20
9.0
 30
0.0
 11
14.02389335299403
 21
8.9999999999999911
 31
0.0
  0
LINE
  5
307
  8
1
 10
13.02389335299403
 20
5.9999999999999956
 30
0.0
 11
13.02389335299403
 21
3.999999999999996
 31
0.0
  0
LINE
  5
308
  8
1
 10
13.02389335299403
 20
8.9999999999999911
 30
0.0
 11
13.02389335299403
 21
10.999999999999989
 31
0.0
  0
LINE
  5
309
  8
1
 10
13.02389335299403
 20
5.9999999999999956
 30
0.0
 11
13.02389335299403
 21
8.9999999999999911
 31
0.0
  0
INSERT
  5
30A
  8
1
  2
_OBLIQUE
 10
13.02389335299403
 20
5.9999999999999956
 30
0.0
 41
2.0
 42
2.0
 43
2.0
 50
90.0
  0
INSERT
  5
30B
  8
1
  2
_OBLIQUE
 10
13.02389335299403
 20
8.9999999999999911
 30
0.0
 41
2.0
 42
2.0
 43
2.0
 50
270.0
  0
TEXT
  5
30C
  8
0
 10
11.954657336622949
 20
6.1487039563437902
 30
0.0
 40
3.5
  1
3
 50
90.0
  7
BESCHLAG
  0
POINT
  5
30D
  8
DEFPOINTS
 62
     0
 10
0.0
 20
6.0
 30
0.0
  0
POINT
  5
30E
  8
DEFPOINTS
 62
     0
 10
-10.0
 20
9.0
 30
0.0
  0
POINT
  5
30F
  8
DEFPOINTS
 62
     0
 10
13.02389335299403
 20
8.9999999999999911
 30
0.0
  0
ENDBLK
  5
2F2
  8
0
  0
ENDSEC
  0
SECTION
  2
ENTITIES
  0
INSERT
  5
25B
  8
5
  2
NULLPUNKT
 10
0.0
 20
0.0
 30
0.0
  0
INSERT
  5
2BE
  8
2
  2
*X3
 10
-269.95905747797082
 20
471.27591137181849
 30
0.0
1001
ACAD
1000
HATCH
1002
{
1070
    16
1000
_U,I
1040
1.0
1040
0.7853981633974483
1070
     0
1002
}
  0
INSERT
  5
2BF
  8
2
  2
*X2
 10
-269.95905747797082
 20
471.27591137181849
 30
0.0
1001
ACAD
1000
HATCH
1002
{
1070
    16
1000
_U,I
1040
1.0
1040
0.7853981633974483
1070
     0
1002
}
  0
LINE
  5
2C0
  8
6
 10
-8.4500000000000455
 20
1.700000000000272
 30
0.0
 11
-8.4500000000000455
 21
0.1585714285715767
 31
0.0
  0
LINE
  5
2C1
  8
6
 10
-5.550000000000181
 20
1.700000000000272
 30
0.0
 11
-5.550000000000181
 21
0.1585714285715767
 31
0.0
  0
TEXT
  5
2C2
  8
1
 10
-7.9497632288353079
 20
14.18245313012903
 30
0.0
 40
2.5
  1
Hebgo 128/520
  0
POLYLINE
  5
2C3
  8
4
 66
     1
 10
0.0
 20
0.0
 30
0.0
 70
     1
  0
VERTEX
  5
40E
  8
4
 10
-14.0
 20
6.0
 30
0.0
  0
VERTEX
  5
40F
  8
4
 10
-14.0
 20
0.0
 30
0.0
  0
VERTEX
  5
410
  8
4
 10
0.0
 20
0.0
 30
0.0
  0
VERTEX
  5
411
  8
4
 10
0.0
 20
4.5
 30
0.0
 42
0.4142135623730951
  0
VERTEX
  5
412
  8
4
 10
-1.5
 20
6.0
 30
0.0
  0
SEQEND
  5
413
  8
4
  0
POLYLINE
  5
2C4
  8
6
 66
     1
 10
0.0
 20
0.0
 30
0.0
 70
     1
  0
VERTEX
  5
414
  8
6
 10
-7.0
 20
0.2000000000002728
 30
0.0
  0
VERTEX
  5
415
  8
6
 10
-0.102855977389936
 20
0.0029387422114269
 30
0.0
 42
0.42260462630934
  0
VERTEX
  5
416
  8
6
 10
0.0
 20
0.1028979508573684
 30
0.0
  0
VERTEX
  5
417
  8
6
 10
0.0
 20
4.5
 30
0.0
 42
0.4142135623730951
  0
VERTEX
  5
418
  8
6
 10
-1.5
 20
6.0
 30
0.0
  0
VERTEX
  5
419
  8
6
 10
-2.200000000000272
 20
6.0
 30
0.0
 42
0.4142135623730951
  0
VERTEX
  5
41A
  8
6
 10
-2.5
 20
5.700000000000272
 30
0.0
  0
VERTEX
  5
41B
  8
6
 10
-2.5
 20
4.3245362404709331
 30
0.0
 42
0.6493282691940441
  0
VERTEX
  5
41C
  8
6
 10
-2.3331035268379301
 20
4.2502068258463623
 30
0.0
  0
VERTEX
  5
41D
  8
6
 10
-1.5
 20
5.0
 30
0.0
  0
VERTEX
  5
41E
  8
6
 10
-1.5
 20
2.1000000000003629
 30
0.0
 42
-0.4142135623730951
  0
VERTEX
  5
41F
  8
6
 10
-1.9000000000000901
 20
1.700000000000272
 30
0.0
  0
VERTEX
  5
420
  8
6
 10
-12.099999999999911
 20
1.700000000000272
 30
0.0
 42
-0.4142135623730951
  0
VERTEX
  5
421
  8
6
 10
-12.5
 20
2.1000000000003629
 30
0.0
  0
VERTEX
  5
422
  8
6
 10
-12.5
 20
5.0
 30
0.0
  0
VERTEX
  5
423
  8
6
 10
-11.66689647316206
 20
4.2502068258463623
 30
0.0
 42
0.6493282691940441
  0
VERTEX
  5
424
  8
6
 10
-11.5
 20
4.3245362404709331
 30
0.0
  0
VERTEX
  5
425
  8
6
 10
-11.5
 20
5.700000000000272
 30
0.0
 42
0.4142135623730951
  0
VERTEX
  5
426
  8
6
 10
-11.79999999999972
 20
6.0
 30
0.0
  0
VERTEX
  5
427
  8
6
 10
-13.900000000000089
 20
6.0
 30
0.0
 42
0.4142135623730951
  0
VERTEX
  5
428
  8
6
 10
-14.0
 20
5.9000000000000901
 30
0.0
  0
VERTEX
  5
429
  8
6
 10
-14.0
 20
1.64636721371562
 30
0.0
 42
0.42260462630934
  0
VERTEX
  5
42A
  8
6
 10
-12.35430436176193
 20
0.0470198753782825
 30
0.0
  0
SEQEND
  5
42B
  8
6
  0
POLYLINE
  5
2C5
  8
6
 66
     1
 10
0.0
 20
0.0
 30
0.0
 70
     1
  0
VERTEX
  5
42C
  8
6
 10
-6.9999999999995453
 20
9.0
 30
0.0
 42
-0.2980932138127738
  0
VERTEX
  5
42D
  8
6
 10
-5.7756399999998393
 20
7.9492577808687201
 30
0.0
  0
VERTEX
  5
42E
  8
6
 10
-3.6331588721632211
 20
7.9133367313604586
 30
0.0
 42
-0.4158738464929489
  0
VERTEX
  5
42F
  8
6
 10
-2.513440065510621
 20
5.8004407448997881
 30
0.0
  0
VERTEX
  5
430
  8
6
 10
-3.344529266365043
 20
4.608949912913431
 30
0.0
 42
0.9647680298900043
  0
VERTEX
  5
431
  8
6
 10
-2.8073150891191281
 20
3.8356367005239909
 30
0.0
  0
VERTEX
  5
432
  8
6
 10
-2.25063154965801
 20
4.2959768769737821
 30
0.0
 42
-0.8268679352160262
  0
VERTEX
  5
433
  8
6
 10
-1.508383646963011
 20
3.9867925316830219
 30
0.0
  0
VERTEX
  5
434
  8
6
 10
-1.940960436420027
 20
1.868511822218351
 30
0.0
 42
-0.2464814616015845
  0
VERTEX
  5
435
  8
6
 10
-2.240745448877532
 20
1.6994795409450481
 30
0.0
 42
-0.0150420667643324
  0
VERTEX
  5
436
  8
6
 10
-2.522672668242194
 20
1.6994795409450481
 30
0.0
 42
-0.2063969197888626
  0
VERTEX
  5
437
  8
6
 10
-2.8911076395406781
 20
1.8716547591934609
 30
0.0
  0
VERTEX
  5
438
  8
6
 10
-3.3240276295327931
 20
2.2023588450574598
 30
0.0
 42
0.0984306399189399
  0
VERTEX
  5
439
  8
6
 10
-3.9721670883350271
 20
2.52033949673796
 30
0.0
  0
VERTEX
  5
43A
  8
6
 10
-6.9999999999995453
 20
2.52033949673796
 30
0.0
  0
VERTEX
  5
43B
  8
6
 10
-10.027832911664509
 20
2.52033949673796
 30
0.0
 42
0.0984306399189399
  0
VERTEX
  5
43C
  8
6
 10
-10.67597237046675
 20
2.2023588450574598
 30
0.0
  0
VERTEX
  5
43D
  8
6
 10
-11.10889236045886
 20
1.8716547591934609
 30
0.0
 42
-0.2063969197888626
  0
VERTEX
  5
43E
  8
6
 10
-11.477327331756889
 20
1.6994795409450481
 30
0.0
 42
-0.0150420667643324
  0
VERTEX
  5
43F
  8
6
 10
-11.759254551122011
 20
1.6994795409450481
 30
0.0
 42
-0.2464814616015845
  0
VERTEX
  5
440
  8
6
 10
-12.05903956357951
 20
1.868511822218351
 30
0.0
  0
VERTEX
  5
441
  8
6
 10
-12.47307247448907
 20
3.9049826476402809
 30
0.0
 42
-0.8428517067280497
  0
VERTEX
  5
442
  8
6
 10
-11.79690587168624
 20
4.3387439705270481
 30
0.0
  0
VERTEX
  5
443
  8
6
 10
-11.218705639577809
 20
3.8463368727916531
 30
0.0
 42
0.9846311026449575
  0
VERTEX
  5
444
  8
6
 10
-10.6554707336345
 20
4.608949912913431
 30
0.0
  0
VERTEX
  5
445
  8
6
 10
-11.48655993448892
 20
5.8004407448997881
 30
0.0
 42
-0.4158738464929489
  0
VERTEX
  5
446
  8
6
 10
-10.36684112783632
 20
7.9133367313604586
 30
0.0
  0
VERTEX
  5
447
  8
6
 10
-8.2243599999997041
 20
7.9492577808687201
 30
0.0
 42
-0.2980932138127738
  0
SEQEND
  5
448
  8
6
  0
POLYLINE
  5
2C6
  8
6
 66
     1
 10
0.0
 20
0.0
 30
0.0
  0
VERTEX
  5
449
  8
6
 10
-6.995235834538561
 20
6.7260562661554104
 30
0.0
 42
0.0523662851020724
  0
VERTEX
  5
44A
  8
6
 10
-3.9894502139109131
 20
7.138194332162584
 30
0.0
 42
-0.1698680870516715
  0
VERTEX
  5
44B
  8
6
 10
-3.3907955988997851
 20
7.1515046616646032
 30
0.0
 42
-0.3581952709156561
  0
VERTEX
  5
44C
  8
6
 10
-3.1951826942772641
 20
6.1704820347245004
 30
0.0
  0
VERTEX
  5
44D
  8
6
 10
-4.2086221078338886
 20
4.661386320948167
 30
0.0
 42
-0.162990172482064
  0
VERTEX
  5
44E
  8
6
 10
-5.3827571239085037
 20
4.087523180828156
 30
0.0
 42
-0.0297520103796801
  0
VERTEX
  5
44F
  8
6
 10
-6.9999999999995453
 20
3.995959039505578
 30
0.0
 42
-0.0297520103796801
  0
VERTEX
  5
450
  8
6
 10
-8.6132846670020626
 20
4.1414619448323711
 30
0.0
 42
-0.162990172482064
  0
VERTEX
  5
451
  8
6
 10
-9.7676074608452836
 20
4.7542023688097279
 30
0.0
  0
VERTEX
  5
452
  8
6
 10
-10.73010255475719
 20
6.7489256744211161
 30
0.0
 42
-0.5496470159714418
  0
VERTEX
  5
453
  8
6
 10
-10.514741131499701
 20
7.3368888395325476
 30
0.0
 42
-0.0587952726232103
  0
VERTEX
  5
454
  8
6
 10
-9.9190825325395053
 20
7.2371989170169391
 30
0.0
 42
0.0523662851020724
  0
VERTEX
  5
455
  8
6
 10
-6.9287310828763111
 20
6.7249458641988431
 30
0.0
  0
SEQEND
  5
456
  8
6
  0
LINE
  5
2C7
  8
6
  6
STRICHPUNKT
 10
-7.0
 20
1.9470267528704419
 30
0.0
 11
-7.0
 21
-5.523207309787721
 31
0.0
  0
DIMENSION
  5
2C8
  8
1
  2
*D4
 10
-0.0000000000000007
 20
-11.756698928935741
 30
0.0
 11
-7.0
 21
-8.9995365824146027
 31
0.0
 70
     0
 13
-14.0
 23
0.0
 33
0.0
 14
0.0
 24
0.0
 34
0.0
  0
DIMENSION
  5
2C9
  8
1
  2
*D5
 10
13.02389335299403
 20
5.9999999999999956
 30
0.0
 11
10.23688789596811
 21
2.9999999999999978
 31
0.0
 70
     0
 13
0.0
 23
0.0
 33
0.0
 14
0.0
 24
6.0
 34
0.0
 50
90.0
  0
POLYLINE
  5
2CA
  8
5
 66
     1
 10
0.0
 20
0.0
 30
0.0
  0
VERTEX
  5
457
  8
5
 10
-14.0
 20
16.0
 30
0.0
  0
VERTEX
  5
458
  8
5
 10
-14.0
 20
0.0
 30
0.0
  0
VERTEX
  5
459
  8
5
 10
0.0
 20
0.0
 30
0.0
  0
VERTEX
  5
45A
  8
5
 10
0.0
 20
-4.9999999999997717
 30
0.0
  0
SEQEND
  5
45B
  8
5
  0
POLYLINE
  5
2CB
  8
5
 66
     1
 10
0.0
 20
0.0
 30
0.0
  0
VERTEX
  5
45C
  8
5
 10
-10.0
 20
16.0
 30
0.0
  0
VERTEX
  5
45D
  8
5
 10
-10.0
 20
9.0
 30
0.0
  0
VERTEX
  5
45E
  8
5
 10
5.0
 20
9.0
 30
0.0
  0
SEQEND
  5
45F
  8
5
  0
DIMENSION
  5
2CC
  8
1
  2
*D6
 10
13.02389335299403
 20
8.9999999999999911
 30
0.0
 11
10.235694171547919
 21
7.4999999999999973
 31
0.0
 70
     0
 13
0.0
 23
6.0
 33
0.0
 14
-10.0
 24
9.0
 34
0.0
 50
90.0
  0
VIEWPORT
  5
22
 67
     1
  8
0
 10
210.0
 20
170.2366863905325
 30
0.0
 40
420.0
 41
340.47337278106511
 68
     1
 69
     1
1001
ACAD
1000
MVIEW
1002
{
1070
    16
1010
0.0
1020
0.0
1030
0.0
1010
0.0
1020
0.0
1030
1.0
1040
0.0
1040
340.47337278106511
1040
210.0
1040
170.2366863905325
1040
50.0
1040
0.0
1040
0.0
1070
     0
1070
   100
1070
     1
1070
     1
1070
     0
1070
     0
1070
     0
1070
     0
1040
0.0
1040
0.0
1040
0.0
1040
5.0
1040
5.0
1040
10.0
1040
10.0
1070
     0
1002
{
1002
}
1002
}
  0
ENDSEC
  0
EOF
