  0
SECTION
  2
HEADER
  9
$ACADVER
  1
AC1009
  9
$INSBASE
 10
0.0
 20
0.0
 30
0.0
  9
$EXTMIN
 10
-6.0424796026694594
 20
-20.004271611110539
 30
-0.0000000000000058
  9
$EXTMAX
 10
19.454956601205019
 20
10.482788622010039
 30
0.0000000000000104
  9
$LIMMIN
 10
-150.0
 20
-150.0
  9
$LIMMAX
 10
150.0
 20
150.0
  9
$ORTHOMODE
 70
     0
  9
$REGENMODE
 70
     1
  9
$FILLMODE
 70
     1
  9
$QTEXTMODE
 70
     0
  9
$MIRRTEXT
 70
     0
  9
$DRAGMODE
 70
     2
  9
$LTSCALE
 40
1.0
  9
$OSMODE
 70
   111
  9
$ATTMODE
 70
     1
  9
$TEXTSIZE
 40
3.5
  9
$TRACEWID
 40
1.0
  9
$TEXTSTYLE
  7
BESCHLAG
  9
$CLAYER
  8
0
  9
$CELTYPE
  6
BYLAYER
  9
$CECOLOR
 62
   256
  9
$DIMSCALE
 40
1.0
  9
$DIMASZ
 40
2.0
  9
$DIMEXO
 40
2.0
  9
$DIMDLI
 40
0.0
  9
$DIMRND
 40
0.0
  9
$DIMDLE
 40
1.0
  9
$DIMEXE
 40
1.0
  9
$DIMTP
 40
0.0
  9
$DIMTM
 40
0.0
  9
$DIMTXT
 40
3.5
  9
$DIMCEN
 40
0.0
  9
$DIMTSZ
 40
0.0
  9
$DIMTOL
 70
     0
  9
$DIMLIM
 70
     0
  9
$DIMTIH
 70
     0
  9
$DIMTOH
 70
     0
  9
$DIMSE1
 70
     0
  9
$DIMSE2
 70
     0
  9
$DIMTAD
 70
     1
  9
$DIMZIN
 70
     8
  9
$DIMBLK
  1

  9
$DIMASO
 70
     1
  9
$DIMSHO
 70
     1
  9
$DIMPOST
  1

  9
$DIMAPOST
  1

  9
$DIMALT
 70
     0
  9
$DIMALTD
 70
     2
  9
$DIMALTF
 40
0.039370078740157
  9
$DIMLFAC
 40
1.0
  9
$DIMTOFL
 70
     1
  9
$DIMTVP
 40
0.0
  9
$DIMTIX
 70
     1
  9
$DIMSOXD
 70
     0
  9
$DIMSAH
 70
     1
  9
$DIMBLK1
  1
OBLIQUE
  9
$DIMBLK2
  1
OBLIQUE
  9
$DIMSTYLE
  2
OPO-SSTRICH
  9
$DIMCLRD
 70
   256
  9
$DIMCLRE
 70
   256
  9
$DIMCLRT
 70
   256
  9
$DIMTFAC
 40
0.7114285714285716
  9
$DIMGAP
 40
1.0
  9
$LUNITS
 70
     2
  9
$LUPREC
 70
     1
  9
$SKETCHINC
 40
1.0
  9
$FILLETRAD
 40
0.0
  9
$AUNITS
 70
     0
  9
$AUPREC
 70
     1
  9
$MENU
  1
D:\ACL_CGWG\CGTAB13
  9
$ELEVATION
 40
0.0
  9
$PELEVATION
 40
0.0
  9
$THICKNESS
 40
0.0
  9
$LIMCHECK
 70
     0
  9
$BLIPMODE
 70
     0
  9
$CHAMFERA
 40
1.0
  9
$CHAMFERB
 40
1.0
  9
$SKPOLY
 70
     0
  9
$TDCREATE
 40
2451739.8486347911
  9
$TDUPDATE
 40
2452086.740334664
  9
$TDINDWG
 40
0.0019105787
  9
$TDUSRTIMER
 40
0.0019105787
  9
$USRTIMER
 70
     1
  9
$ANGBASE
 50
0.0
  9
$ANGDIR
 70
     0
  9
$PDMODE
 70
    35
  9
$PDSIZE
 40
5.0
  9
$PLINEWID
 40
0.0
  9
$COORDS
 70
     1
  9
$SPLFRAME
 70
     0
  9
$SPLINETYPE
 70
     6
  9
$SPLINESEGS
 70
     8
  9
$ATTDIA
 70
     1
  9
$ATTREQ
 70
     1
  9
$HANDLING
 70
-16383
  9
$HANDSEED
  5
478
  9
$SURFTAB1
 70
    12
  9
$SURFTAB2
 70
    12
  9
$SURFTYPE
 70
     6
  9
$SURFU
 70
    12
  9
$SURFV
 70
    12
  9
$UCSNAME
  2

  9
$UCSORG
 10
0.0
 20
0.0
 30
0.0
  9
$UCSXDIR
 10
1.0
 20
0.0
 30
0.0
  9
$UCSYDIR
 10
0.0
 20
1.0
 30
0.0
  9
$PUCSNAME
  2

  9
$PUCSORG
 10
0.0
 20
0.0
 30
0.0
  9
$PUCSXDIR
 10
1.0
 20
0.0
 30
0.0
  9
$PUCSYDIR
 10
0.0
 20
1.0
 30
0.0
  9
$USERI1
 70
     0
  9
$USERI2
 70
     0
  9
$USERI3
 70
     0
  9
$USERI4
 70
     0
  9
$USERI5
 70
     0
  9
$USERR1
 40
0.0
  9
$USERR2
 40
0.0
  9
$USERR3
 40
0.0
  9
$USERR4
 40
0.0
  9
$USERR5
 40
0.0
  9
$WORLDVIEW
 70
     1
  9
$SHADEDGE
 70
     3
  9
$SHADEDIF
 70
    70
  9
$TILEMODE
 70
     1
  9
$MAXACTVP
 70
    48
  9
$PLIMCHECK
 70
     0
  9
$PEXTMIN
 10
1.0000000000000000E+020
 20
1.0000000000000000E+020
 30
1.0000000000000000E+020
  9
$PEXTMAX
 10
-1.0000000000000000E+020
 20
-1.0000000000000000E+020
 30
-1.0000000000000000E+020
  9
$PLIMMIN
 10
0.0
 20
0.0
  9
$PLIMMAX
 10
420.0
 20
297.0
  9
$UNITMODE
 70
     0
  9
$VISRETAIN
 70
     1
  9
$PLINEGEN
 70
     0
  9
$PSLTSCALE
 70
     1
  0
ENDSEC
  0
SECTION
  2
TABLES
  0
TABLE
  2
VPORT
 70
     3
  0
VPORT
  2
*ACTIVE
 70
     0
 10
0.0
 20
0.0
 11
1.0
 21
1.0
 12
6.7062384992677808
 22
-4.7607414945502446
 13
0.0
 23
0.0
 14
0.5
 24
0.5
 15
10.0
 25
10.0
 16
0.0
 26
0.0
 36
1.0
 17
0.0
 27
0.0
 37
0.0
 40
30.73458710916757
 41
1.6070460704607039
 42
50.0
 43
0.0
 44
0.0
 50
0.0
 51
0.0
 71
     0
 72
   800
 73
     1
 74
     1
 75
     0
 76
     0
 77
     0
 78
     0
  0
ENDTAB
  0
TABLE
  2
LTYPE
 70
     1
  0
LTYPE
  2
CONTINUOUS
 70
     0
  3
_______________________________________________
 72
    65
 73
     2
 40
1.0
 49
1.0
 49
0.0
  0
ENDTAB
  0
TABLE
  2
LAYER
 70
     7
  0
LAYER
  2
0
 70
     0
 62
    30
  6
CONTINUOUS
  0
LAYER
  2
1
 70
     0
 62
     2
  6
CONTINUOUS
  0
LAYER
  2
2
 70
     0
 62
     9
  6
CONTINUOUS
  0
LAYER
  2
4
 70
     1
 62
     4
  6
CONTINUOUS
  0
LAYER
  2
5
 70
     0
 62
     1
  6
CONTINUOUS
  0
LAYER
  2
6
 70
     0
 62
     3
  6
CONTINUOUS
  0
LAYER
  2
DEFPOINTS
 70
     0
 62
     7
  6
CONTINUOUS
  0
ENDTAB
  0
TABLE
  2
STYLE
 70
     2
  0
STYLE
  2
STANDARD
 70
     0
 40
0.0
 41
1.0
 50
0.0
 71
     0
 42
2.5
  3
txt
  4

  0
STYLE
  2
BESCHLAG
 70
     0
 40
0.0
 41
1.0
 50
0.0
 71
     0
 42
3.5
  3
txt
  4

  0
ENDTAB
  0
TABLE
  2
VIEW
 70
     0
  0
ENDTAB
  0
TABLE
  2
UCS
 70
     0
  0
ENDTAB
  0
TABLE
  2
APPID
 70
     1
  0
APPID
  2
ACAD
 70
     0
  0
ENDTAB
  0
TABLE
  2
DIMSTYLE
 70
     1
  0
DIMSTYLE
  2
OPO-SSTRICH
 70
     0
  3

  4

  5

  6
OBLIQUE
  7
OBLIQUE
 40
1.0
 41
2.0
 42
2.0
 43
0.0
 44
1.0
 45
0.0
 46
1.0
 47
0.0
 48
0.0
140
3.5
141
0.0
142
0.0
143
0.039370078740157
144
1.0
145
0.0
146
0.7114285714285716
147
1.0
 71
     0
 72
     0
 73
     0
 74
     0
 75
     0
 76
     0
 77
     1
 78
     8
170
     0
171
     2
172
     1
173
     1
174
     1
175
     0
176
   256
177
   256
178
   256
  0
ENDTAB
  0
ENDSEC
  0
SECTION
  2
BLOCKS
  0
BLOCK
  8
0
  2
$MODEL_SPACE
 70
     0
 10
0.0
 20
0.0
 30
0.0
  3
$MODEL_SPACE
  1

  0
ENDBLK
  5
1C
  8
0
  0
BLOCK
 67
     1
  8
0
  2
$PAPER_SPACE
 70
     0
 10
0.0
 20
0.0
 30
0.0
  3
$PAPER_SPACE
  1

  0
ENDBLK
  5
19
 67
     1
  8
0
  0
BLOCK
  8
0
  2
_OBLIQUE
 70
     0
 10
0.0
 20
0.0
 30
0.0
  3
_OBLIQUE
  1

  0
LINE
  5
204
  8
0
 62
     0
 10
-0.5
 20
-0.5
 30
0.0
 11
0.5
 21
0.5
 31
0.0
  0
ENDBLK
  5
206
  8
0
  0
BLOCK
  8
0
  2
NULLPUNKT
 70
     0
 10
0.0
 20
0.0
 30
0.0
  3
NULLPUNKT
  1

  0
SOLID
  5
254
  8
5
 10
0.0
 20
0.0
 30
0.0
 11
2.0
 21
0.0
 31
0.0
 12
0.0
 22
-2.0
 32
0.0
 13
0.0
 23
-2.0
 33
0.0
  0
SOLID
  5
255
  8
5
 10
0.0
 20
0.0
 30
0.0
 11
-2.0
 21
0.0
 31
0.0
 12
0.0
 22
2.0
 32
0.0
 13
0.0
 23
2.0
 33
0.0
  0
POLYLINE
  5
256
  8
5
 66
     1
 10
0.0
 20
0.0
 30
0.0
  0
VERTEX
  5
3FD
  8
5
 10
0.0
 20
2.0
 30
0.0
  0
VERTEX
  5
3FE
  8
5
 10
0.0
 20
-2.0
 30
0.0
  0
SEQEND
  5
3FF
  8
5
  0
POLYLINE
  5
257
  8
5
 66
     1
 10
0.0
 20
0.0
 30
0.0
  0
VERTEX
  5
400
  8
5
 10
-2.0
 20
0.0
 30
0.0
  0
VERTEX
  5
401
  8
5
 10
2.0
 20
0.0
 30
0.0
  0
SEQEND
  5
402
  8
5
  0
CIRCLE
  5
258
  8
5
 10
0.0
 20
0.0
 30
0.0
 40
2.0
  0
ENDBLK
  5
25A
  8
0
  0
BLOCK
  8
0
  2
*X2
 70
     1
 10
0.0
 20
0.0
 30
0.0
  3
*X2
  1

  0
LINE
  5
294
  8
0
 62
     0
 10
162.1556011903254
 20
-421.9146000697628
 30
0.0
 11
162.95560119032561
 21
-421.11460006976262
 31
0.0
  0
LINE
  5
295
  8
0
 62
     0
 10
166.117265239311
 20
-417.9529360207772
 30
0.0
 11
167.09075286162829
 21
-416.97944839845991
 31
0.0
  0
LINE
  5
296
  8
0
 62
     0
 10
162.1556011903254
 20
-420.50038650738958
 30
0.0
 11
162.95560119032561
 21
-419.7003865073894
 31
0.0
  0
LINE
  5
297
  8
0
 62
     0
 10
162.1556011903254
 20
-419.08617294501647
 30
0.0
 11
162.95560119032561
 21
-418.2861729450164
 31
0.0
  0
LINE
  5
298
  8
0
 62
     0
 10
163.29377755855441
 20
-417.9479965767876
 30
0.0
 11
163.4006617463358
 21
-417.84111238900618
 31
0.0
  0
LINE
  5
299
  8
0
 62
     0
 10
162.1556011903254
 20
-417.67195938264348
 30
0.0
 11
162.83962858916709
 21
-416.98793198380167
 31
0.0
  0
LINE
  5
29A
  8
0
 62
     0
 10
162.1556011903254
 20
-423.32881363213579
 30
0.0
 11
162.95560119032561
 21
-422.52881363213561
 31
0.0
  0
LINE
  5
29B
  8
0
 62
     0
 10
166.3556011903257
 20
-419.12881363213558
 30
0.0
 11
167.22488067460739
 21
-418.25953414785391
 31
0.0
  0
LINE
  5
29C
  8
0
 62
     0
 10
162.94569236405721
 20
-423.9529360207772
 30
0.0
 11
163.94569236405709
 21
-422.9529360207772
 31
0.0
  0
LINE
  5
29D
  8
0
 62
     0
 10
166.3556011903257
 20
-420.54302719450862
 30
0.0
 11
167.1556011903254
 21
-419.7430271945089
 31
0.0
  0
LINE
  5
29E
  8
0
 62
     0
 10
164.35990592643029
 20
-423.9529360207772
 30
0.0
 11
165.35990592643029
 21
-422.9529360207772
 31
0.0
  0
LINE
  5
29F
  8
0
 62
     0
 10
166.3556011903257
 20
-421.95724075688179
 30
0.0
 11
167.1556011903254
 21
-421.157240756882
 31
0.0
  0
LINE
  5
2A0
  8
0
 62
     0
 10
165.77411948880339
 20
-423.9529360207772
 30
0.0
 11
167.1556011903254
 21
-422.57145431925511
 31
0.0
  0
ENDBLK
  5
2A2
  8
0
  0
BLOCK
  8
0
  2
*D3
 70
     1
 10
0.0
 20
0.0
 30
0.0
  3
*D3
  1

  0
LINE
  5
2E2
  8
1
 10
2.1232050807570881
 20
-7.0
 30
0.0
 11
13.12320508075708
 21
-7.0000000000000027
 31
0.0
  0
LINE
  5
2E3
  8
1
 10
2.1232050807570881
 20
-0.0000000000000006
 30
0.0
 11
13.12320508075708
 21
-0.0000000000000037
 31
0.0
  0
LINE
  5
2E4
  8
1
 10
12.12320508075708
 20
-8.0000000000000036
 30
0.0
 11
12.12320508075708
 21
0.9999999999999966
 31
0.0
  0
INSERT
  5
2E5
  8
1
  2
_OBLIQUE
 10
12.12320508075708
 20
-7.0000000000000027
 30
0.0
 41
2.0
 42
2.0
 43
2.0
 50
270.0
  0
INSERT
  5
2E6
  8
1
  2
_OBLIQUE
 10
12.12320508075708
 20
-0.0000000000000034
 30
0.0
 41
2.0
 42
2.0
 43
2.0
 50
90.0
  0
TEXT
  5
2E7
  8
0
 10
11.12320508075708
 20
-4.8644270122783091
 30
0.0
 40
3.5
  1
7
 50
90.0
  7
BESCHLAG
  0
POINT
  5
2E8
  8
DEFPOINTS
 62
     0
 10
0.1232050807570886
 20
-7.0
 30
0.0
  0
POINT
  5
2E9
  8
DEFPOINTS
 62
     0
 10
0.1232050807570886
 20
0.0
 30
0.0
  0
POINT
  5
2EA
  8
DEFPOINTS
 62
     0
 10
12.12320508075708
 20
-0.0000000000000034
 30
0.0
  0
ENDBLK
  5
2C7
  8
0
  0
BLOCK
  8
0
  2
*D4
 70
     1
 10
0.0
 20
0.0
 30
0.0
  3
*D4
  1

  0
LINE
  5
2EB
  8
1
 10
2.0
 20
-0.0000000000000006
 30
0.0
 11
13.12320508075708
 21
-0.0000000000000037
 31
0.0
  0
LINE
  5
2EC
  8
1
 10
2.0
 20
3.9999999999999991
 30
0.0
 11
13.12320508075708
 21
3.999999999999996
 31
0.0
  0
LINE
  5
2ED
  8
1
 10
12.12320508075708
 20
-0.0000000000000034
 30
0.0
 11
12.12320508075708
 21
-2.0000000000000031
 31
0.0
  0
LINE
  5
2EE
  8
1
 10
12.12320508075708
 20
3.999999999999996
 30
0.0
 11
12.12320508075709
 21
5.9999999999999956
 31
0.0
  0
LINE
  5
2EF
  8
1
 10
12.12320508075708
 20
-0.0000000000000034
 30
0.0
 11
12.12320508075708
 21
3.999999999999996
 31
0.0
  0
INSERT
  5
2F0
  8
1
  2
_OBLIQUE
 10
12.12320508075708
 20
-0.0000000000000034
 30
0.0
 41
2.0
 42
2.0
 43
2.0
 50
90.0
  0
INSERT
  5
2F1
  8
1
  2
_OBLIQUE
 10
12.12320508075708
 20
3.999999999999996
 30
0.0
 41
2.0
 42
2.0
 43
2.0
 50
270.0
  0
TEXT
  5
2F2
  8
0
 10
11.12320508075708
 20
0.7274897680763968
 30
0.0
 40
3.5
  1
4
 50
90.0
  7
BESCHLAG
  0
POINT
  5
2F3
  8
DEFPOINTS
 62
     0
 10
0.0
 20
0.0
 30
0.0
  0
POINT
  5
2F4
  8
DEFPOINTS
 62
     0
 10
0.0
 20
4.0
 30
0.0
  0
POINT
  5
2F5
  8
DEFPOINTS
 62
     0
 10
12.12320508075708
 20
3.999999999999996
 30
0.0
  0
ENDBLK
  5
2D5
  8
0
  0
BLOCK
  8
0
  2
*D5
 70
     1
 10
0.0
 20
0.0
 30
0.0
  3
*D5
  1

  0
LINE
  5
2F6
  8
1
 10
-0.0000000000000001
 20
-9.0
 30
0.0
 11
-0.0000000000000008
 21
-20.0
 31
0.0
  0
LINE
  5
2F7
  8
1
 10
-5.0
 20
-9.0
 30
0.0
 11
-5.0
 21
-20.0
 31
0.0
  0
LINE
  5
2F8
  8
1
 10
0.9999999999999992
 20
-19.0
 30
0.0
 11
-6.0
 21
-19.0
 31
0.0
  0
INSERT
  5
2F9
  8
1
  2
_OBLIQUE
 10
-0.0000000000000007
 20
-19.0
 30
0.0
 41
2.0
 42
2.0
 43
2.0
  0
INSERT
  5
2FA
  8
1
  2
_OBLIQUE
 10
-5.0
 20
-19.0
 30
0.0
 41
2.0
 42
2.0
 43
2.0
 50
180.0
  0
TEXT
  5
2FB
  8
0
 10
-3.8632332878581179
 20
-17.940313778990451
 30
0.0
 40
3.5
  1
5
  7
BESCHLAG
  0
POINT
  5
2FC
  8
DEFPOINTS
 62
     0
 10
0.0
 20
-7.0
 30
0.0
  0
POINT
  5
2FD
  8
DEFPOINTS
 62
     0
 10
-5.0
 20
-7.0
 30
0.0
  0
POINT
  5
2FE
  8
DEFPOINTS
 62
     0
 10
-5.0
 20
-19.0
 30
0.0
  0
ENDBLK
  5
2E1
  8
0
  0
ENDSEC
  0
SECTION
  2
ENTITIES
  0
INSERT
  5
25B
  8
5
  2
NULLPUNKT
 10
0.0
 20
0.0
 30
0.0
  0
INSERT
  5
2B2
  8
2
  2
*X2
 10
-167.15560119032531
 20
416.95293602077709
 30
0.0
1001
ACAD
1000
HATCH
1002
{
1070
    16
1000
_U,I
1040
1.0
1040
0.7853981633974483
1070
     0
1002
}
  0
DIMENSION
  5
2B3
  8
1
  2
*D3
 10
12.12320508075708
 20
-0.0000000000000034
 30
0.0
 11
9.3732050807570886
 21
-3.5000000000000009
 31
0.0
 70
     0
 13
0.1232050807570886
 23
-7.0
 33
0.0
 14
0.1232050807570886
 24
0.0
 34
0.0
 50
90.0
  0
DIMENSION
  5
2B4
  8
1
  2
*D4
 10
12.12320508075708
 20
3.999999999999996
 30
0.0
 11
9.3732050807570886
 21
1.999999999999998
 31
0.0
 70
     0
 13
0.0
 23
0.0
 33
0.0
 14
0.0
 24
4.0
 34
0.0
 50
90.0
  0
POLYLINE
  5
2B5
  8
4
 66
     1
 10
0.0
 20
0.0
 30
0.0
 70
     1
  0
VERTEX
  5
403
  8
4
 10
-5.0
 20
0.0
 30
0.0
  0
VERTEX
  5
404
  8
4
 10
-5.0
 20
-7.0
 30
0.0
  0
VERTEX
  5
405
  8
4
 10
0.0
 20
-7.0
 30
0.0
  0
VERTEX
  5
406
  8
4
 10
0.0
 20
0.0
 30
0.0
  0
SEQEND
  5
407
  8
4
  0
POLYLINE
  5
2B6
  8
6
 66
     1
 10
0.0
 20
0.0
 30
0.0
 70
     1
  0
VERTEX
  5
408
  8
6
 10
-2.5
 20
4.0
 30
0.0
 42
-0.3755155665862612
  0
VERTEX
  5
409
  8
6
 10
-1.88966551479325
 20
3.316619174319384
 30
0.0
  0
VERTEX
  5
40A
  8
6
 10
-0.9749629666962391
 20
3.4968612662929668
 30
0.0
  0
VERTEX
  5
40B
  8
6
 10
-0.2924587085913117
 20
3.4008316149012212
 30
0.0
  0
VERTEX
  5
40C
  8
6
 10
0.0880521922822482
 20
3.9110354868994359
 30
0.0
 42
-0.849985669627559
  0
VERTEX
  5
40D
  8
6
 10
0.7944923816708071
 20
3.3603980835257512
 30
0.0
  0
VERTEX
  5
40E
  8
6
 10
0.476005360709678
 20
2.9498516830999502
 30
0.0
 42
0.3552812814794005
  0
VERTEX
  5
40F
  8
6
 10
0.4905023929300114
 20
2.7147443596903709
 30
0.0
 42
-0.3793838421575348
  0
VERTEX
  5
410
  8
6
 10
0.3900454732338403
 20
0.7069476013874692
 30
0.0
 42
0.0092762723599261
  0
VERTEX
  5
411
  8
6
 10
-1.4805216594527331
 20
-0.5262751055636273
 30
0.0
 42
0.305541356778279
  0
VERTEX
  5
412
  8
6
 10
-1.627133681877694
 20
-0.7436052935812541
 30
0.0
  0
VERTEX
  5
413
  8
6
 10
-1.627133681877694
 20
-1.3248373214784119
 30
0.0
 42
0.7440894012573249
  0
VERTEX
  5
414
  8
6
 10
-1.526021973838396
 20
-1.35516249876025
 30
0.0
  0
VERTEX
  5
415
  8
6
 10
-1.041321928637444
 20
-1.0143235060321549
 30
0.0
 42
-0.6074999965019705
  0
VERTEX
  5
416
  8
6
 10
-0.9294627285908063
 20
-1.0724114599671559
 30
0.0
  0
VERTEX
  5
417
  8
6
 10
-0.9294627285908063
 20
-1.5656357604996169
 30
0.0
  0
VERTEX
  5
418
  8
6
 10
-1.6625228407156101
 20
-2.2378432627415341
 30
0.0
  0
VERTEX
  5
419
  8
6
 10
-1.6625228407156101
 20
-3.1815282794329951
 30
0.0
 42
0.7726510115360289
  0
VERTEX
  5
41A
  8
6
 10
-1.5462442849343461
 20
-3.2118533992143048
 30
0.0
  0
VERTEX
  5
41B
  8
6
 10
-1.04574120809184
 20
-2.8631142054762222
 30
0.0
 42
-0.6322467702262857
  0
VERTEX
  5
41C
  8
6
 10
-0.9395738841385536
 20
-2.9237645025393699
 30
0.0
  0
VERTEX
  5
41D
  8
6
 10
-0.9395738841385536
 20
-3.407164187313696
 30
0.0
  0
VERTEX
  5
41E
  8
6
 10
-2.132692374634189
 20
-4.630278482670632
 30
0.0
 42
-0.1809757128983446
  0
VERTEX
  5
41F
  8
6
 10
-2.2186373874915262
 20
-4.6707120140459892
 30
0.0
  0
VERTEX
  5
420
  8
6
 10
-2.5
 20
-4.6707120140459892
 30
0.0
  0
VERTEX
  5
421
  8
6
 10
-2.7813626125084729
 20
-4.6707120140459892
 30
0.0
 42
-0.1809757128983446
  0
VERTEX
  5
422
  8
6
 10
-2.8673076253658101
 20
-4.630278482670632
 30
0.0
  0
VERTEX
  5
423
  8
6
 10
-4.0604261158609907
 20
-3.407164187313696
 30
0.0
  0
VERTEX
  5
424
  8
6
 10
-4.0604261158609907
 20
-2.9237645025393699
 30
0.0
 42
-0.6322467702262857
  0
VERTEX
  5
425
  8
6
 10
-3.954258791907705
 20
-2.8631142054762222
 30
0.0
  0
VERTEX
  5
426
  8
6
 10
-3.453755715065653
 20
-3.2118533992143048
 30
0.0
 42
0.7726510115360289
  0
VERTEX
  5
427
  8
6
 10
-3.337477159284389
 20
-3.1815282794329951
 30
0.0
  0
VERTEX
  5
428
  8
6
 10
-3.337477159284389
 20
-2.2378432627415341
 30
0.0
  0
VERTEX
  5
429
  8
6
 10
-4.070537271408738
 20
-1.5656357604996169
 30
0.0
  0
VERTEX
  5
42A
  8
6
 10
-4.070537271408738
 20
-1.0724114599671559
 30
0.0
 42
-0.6074999965019705
  0
VERTEX
  5
42B
  8
6
 10
-3.9586780713625549
 20
-1.0143235060321549
 30
0.0
  0
VERTEX
  5
42C
  8
6
 10
-3.4739780261611481
 20
-1.35516249876025
 30
0.0
 42
0.7440894012573249
  0
VERTEX
  5
42D
  8
6
 10
-3.3728663181218499
 20
-1.3248373214784119
 30
0.0
  0
VERTEX
  5
42E
  8
6
 10
-3.3728663181218499
 20
-0.7436052935812541
 30
0.0
 42
0.305541356778279
  0
VERTEX
  5
42F
  8
6
 10
-3.5194783405468111
 20
-0.5262751055636273
 30
0.0
 42
0.0251510633838079
  0
VERTEX
  5
430
  8
6
 10
-5.3900454732333847
 20
0.7069476013874692
 30
0.0
 42
-0.3793838421575348
  0
VERTEX
  5
431
  8
6
 10
-5.4905023929295558
 20
2.7147443596903709
 30
0.0
 42
0.3552812814794005
  0
VERTEX
  5
432
  8
6
 10
-5.476005360709677
 20
2.9498516830999502
 30
0.0
  0
VERTEX
  5
433
  8
6
 10
-5.7944923816703522
 20
3.3603980835257512
 30
0.0
 42
-0.849985669627559
  0
VERTEX
  5
434
  8
6
 10
-5.0880521922822481
 20
3.9110354868994359
 30
0.0
  0
VERTEX
  5
435
  8
6
 10
-4.7075412914082326
 20
3.4008316149012212
 30
0.0
  0
VERTEX
  5
436
  8
6
 10
-4.0250370333033061
 20
3.4968612662929668
 30
0.0
  0
VERTEX
  5
437
  8
6
 10
-3.1103344852067489
 20
3.316619174319384
 30
0.0
 42
-0.3755155665862808
  0
SEQEND
  5
438
  8
6
  0
POLYLINE
  5
2B7
  8
6
 66
     1
 10
0.0
 20
0.0
 30
0.0
 70
     1
  0
VERTEX
  5
439
  8
6
 10
-4.1999999999998181
 20
-1.0
 30
0.0
  0
VERTEX
  5
43A
  8
6
 10
-4.1999999999998181
 20
-5.7000000000000446
 30
0.0
 42
0.4142135623730951
  0
VERTEX
  5
43B
  8
6
 10
-3.8999999999996362
 20
-6.0
 30
0.0
  0
VERTEX
  5
43C
  8
6
 10
-2.5
 20
-6.0
 30
0.0
  0
VERTEX
  5
43D
  8
6
 10
-1.0999999999999091
 20
-6.0
 30
0.0
 42
0.4142135623730951
  0
VERTEX
  5
43E
  8
6
 10
-0.7999999999997272
 20
-5.7000000000000446
 30
0.0
  0
VERTEX
  5
43F
  8
6
 10
-0.7999999999997272
 20
-1.0
 30
0.0
  0
VERTEX
  5
440
  8
6
 10
-1.0999999999999091
 20
-1.0
 30
0.0
 42
-0.4142135623730951
  0
VERTEX
  5
441
  8
6
 10
-1.25
 20
-0.8500000000000227
 30
0.0
  0
VERTEX
  5
442
  8
6
 10
-1.25
 20
-0.8000000000000682
 30
0.0
 42
-0.4142135623730951
  0
VERTEX
  5
443
  8
6
 10
-0.4499999999998181
 20
0.0
 30
0.0
  0
VERTEX
  5
444
  8
6
 10
-0.1499999999996362
 20
0.0
 30
0.0
 42
-0.4142135623730951
  0
VERTEX
  5
445
  8
6
 10
0.0
 20
-0.1499999999999773
 30
0.0
  0
VERTEX
  5
446
  8
6
 10
0.0
 20
-1.1866025403784299
 30
0.0
  0
VERTEX
  5
447
  8
6
 10
0.0799038105678847
 20
-1.325000000000045
 30
0.0
 42
-0.2679491924310219
  0
VERTEX
  5
448
  8
6
 10
0.0799038105678847
 20
-1.4750000000000221
 30
0.0
  0
VERTEX
  5
449
  8
6
 10
0.0
 20
-1.6133974596216369
 30
0.0
  0
VERTEX
  5
44A
  8
6
 10
0.0
 20
-1.6866025403784299
 30
0.0
  0
VERTEX
  5
44B
  8
6
 10
0.0799038105678847
 20
-1.825000000000045
 30
0.0
 42
-0.2679491924310219
  0
VERTEX
  5
44C
  8
6
 10
0.0799038105678847
 20
-1.9750000000000221
 30
0.0
  0
VERTEX
  5
44D
  8
6
 10
0.0
 20
-2.1133974596216372
 30
0.0
  0
VERTEX
  5
44E
  8
6
 10
0.0
 20
-2.1866025403784302
 30
0.0
  0
VERTEX
  5
44F
  8
6
 10
0.0799038105678847
 20
-2.325000000000045
 30
0.0
 42
-0.2679491924310219
  0
VERTEX
  5
450
  8
6
 10
0.0799038105678847
 20
-2.4750000000000218
 30
0.0
  0
VERTEX
  5
451
  8
6
 10
0.0
 20
-2.6133974596216372
 30
0.0
  0
VERTEX
  5
452
  8
6
 10
0.0
 20
-6.5
 30
0.0
 42
-0.4142135623730951
  0
VERTEX
  5
453
  8
6
 10
-0.5
 20
-7.0
 30
0.0
  0
VERTEX
  5
454
  8
6
 10
-2.5
 20
-7.0
 30
0.0
  0
VERTEX
  5
455
  8
6
 10
-4.5
 20
-7.0
 30
0.0
 42
-0.4142135623730951
  0
VERTEX
  5
456
  8
6
 10
-5.0
 20
-6.5
 30
0.0
  0
VERTEX
  5
457
  8
6
 10
-5.0
 20
-2.6133974596216372
 30
0.0
  0
VERTEX
  5
458
  8
6
 10
-5.079903810567429
 20
-2.4750000000000218
 30
0.0
 42
-0.2679491924310219
  0
VERTEX
  5
459
  8
6
 10
-5.079903810567429
 20
-2.325000000000045
 30
0.0
  0
VERTEX
  5
45A
  8
6
 10
-5.0
 20
-2.1866025403784302
 30
0.0
  0
VERTEX
  5
45B
  8
6
 10
-5.0
 20
-2.1133974596216372
 30
0.0
  0
VERTEX
  5
45C
  8
6
 10
-5.079903810567429
 20
-1.9750000000000221
 30
0.0
 42
-0.2679491924310219
  0
VERTEX
  5
45D
  8
6
 10
-5.079903810567429
 20
-1.825000000000045
 30
0.0
  0
VERTEX
  5
45E
  8
6
 10
-5.0
 20
-1.6866025403784299
 30
0.0
  0
VERTEX
  5
45F
  8
6
 10
-5.0
 20
-1.6133974596216369
 30
0.0
  0
VERTEX
  5
460
  8
6
 10
-5.079903810567429
 20
-1.4750000000000221
 30
0.0
 42
-0.2679491924310219
  0
VERTEX
  5
461
  8
6
 10
-5.079903810567429
 20
-1.325000000000045
 30
0.0
  0
VERTEX
  5
462
  8
6
 10
-5.0
 20
-1.1866025403784299
 30
0.0
  0
VERTEX
  5
463
  8
6
 10
-5.0
 20
-0.1499999999999773
 30
0.0
 42
-0.4142135623730951
  0
VERTEX
  5
464
  8
6
 10
-4.8499999999999091
 20
0.0
 30
0.0
  0
VERTEX
  5
465
  8
6
 10
-4.5499999999997272
 20
0.0
 30
0.0
 42
-0.4142135623730951
  0
VERTEX
  5
466
  8
6
 10
-3.75
 20
-0.8000000000000682
 30
0.0
  0
VERTEX
  5
467
  8
6
 10
-3.75
 20
-0.8500000000000227
 30
0.0
 42
-0.4142135623730951
  0
VERTEX
  5
468
  8
6
 10
-3.8999999999996362
 20
-1.0
 30
0.0
  0
SEQEND
  5
469
  8
6
  0
POLYLINE
  5
2B8
  8
5
 66
     1
 10
0.0
 20
0.0
 30
0.0
  0
VERTEX
  5
46A
  8
5
 10
-6.0
 20
0.0
 30
0.0
  0
VERTEX
  5
46B
  8
5
 10
-5.0
 20
0.0
 30
0.0
  0
VERTEX
  5
46C
  8
5
 10
-5.0
 20
-7.0
 30
0.0
  0
VERTEX
  5
46D
  8
5
 10
0.0
 20
-7.0
 30
0.0
  0
VERTEX
  5
46E
  8
5
 10
0.0
 20
0.0
 30
0.0
  0
VERTEX
  5
46F
  8
5
 10
1.0
 20
0.0
 30
0.0
  0
SEQEND
  5
470
  8
5
  0
DIMENSION
  5
2B9
  8
1
  2
*D5
 10
-5.0
 20
-19.0
 30
0.0
 11
-2.5
 21
-16.220156889495222
 31
0.0
 70
     0
 13
0.0
 23
-7.0
 33
0.0
 14
-5.0
 24
-7.0
 34
0.0
 50
180.0
  0
POLYLINE
  5
2BA
  8
6
 66
     1
 10
0.0
 20
0.0
 30
0.0
 70
     1
  0
VERTEX
  5
471
  8
6
 10
-2.5
 20
2.639194963543559
 30
0.0
 42
0.0810140654945016
  0
VERTEX
  5
472
  8
6
 10
-1.153067760661997
 20
2.8279839841209191
 30
0.0
 42
-0.7148582707051018
  0
VERTEX
  5
473
  8
6
 10
-0.1581752278211752
 20
1.317773595348398
 30
0.0
 42
-0.166214732608571
  0
VERTEX
  5
474
  8
6
 10
-2.5
 20
0.4079451937857357
 30
0.0
 42
-0.1662147326085706
  0
VERTEX
  5
475
  8
6
 10
-4.84182477217837
 20
1.317773595348398
 30
0.0
 42
-0.7148582707051018
  0
VERTEX
  5
476
  8
6
 10
-3.8469322393375469
 20
2.8279839841209191
 30
0.0
 42
0.0810140654945016
  0
SEQEND
  5
477
  8
6
  0
LINE
  5
2BB
  8
5
 10
-5.0
 20
4.0
 30
0.0
 11
0.0
 21
4.0
 31
0.0
  0
TEXT
  5
304
  8
1
 10
-2.043154237361704
 20
7.3201647674734431
 30
0.0
 40
2.5
  1
Hebgo 131/526
 41
0.9
  7
BESCHLAG
  0
VIEWPORT
  5
22
 67
     1
  8
0
 10
210.0
 20
170.2366863905325
 30
0.0
 40
420.0
 41
340.47337278106511
 68
     1
 69
     1
1001
ACAD
1000
MVIEW
1002
{
1070
    16
1010
0.0
1020
0.0
1030
0.0
1010
0.0
1020
0.0
1030
1.0
1040
0.0
1040
340.47337278106511
1040
210.0
1040
170.2366863905325
1040
50.0
1040
0.0
1040
0.0
1070
     0
1070
   100
1070
     1
1070
     1
1070
     0
1070
     0
1070
     0
1070
     0
1040
0.0
1040
0.0
1040
0.0
1040
5.0
1040
5.0
1040
10.0
1040
10.0
1070
     0
1002
{
1002
}
1002
}
  0
ENDSEC
  0
EOF
