  0
SECTION
  2
HEADER
  9
$ACADVER
  1
AC1009
  9
$INSBASE
 10
0.0
 20
0.0
 30
0.0
  9
$EXTMIN
 10
-6.0195914190489921
 20
-7.003783314725978
 30
-0.0000000000000058
  9
$EXTMAX
 10
17.257690973647069
 20
28.221130927816478
 30
0.0000000000000104
  9
$LIMMIN
 10
-150.0
 20
-150.0
  9
$LIMMAX
 10
150.0
 20
150.0
  9
$ORTHOMODE
 70
     0
  9
$REGENMODE
 70
     1
  9
$FILLMODE
 70
     1
  9
$QTEXTMODE
 70
     0
  9
$MIRRTEXT
 70
     0
  9
$DRAGMODE
 70
     2
  9
$LTSCALE
 40
1.0
  9
$OSMODE
 70
   111
  9
$ATTMODE
 70
     1
  9
$TEXTSIZE
 40
3.5
  9
$TRACEWID
 40
1.0
  9
$TEXTSTYLE
  7
BESCHLAG
  9
$CLAYER
  8
0
  9
$CELTYPE
  6
BYLAYER
  9
$CECOLOR
 62
   256
  9
$DIMSCALE
 40
1.0
  9
$DIMASZ
 40
2.0
  9
$DIMEXO
 40
2.0
  9
$DIMDLI
 40
0.0
  9
$DIMRND
 40
0.0
  9
$DIMDLE
 40
1.0
  9
$DIMEXE
 40
1.0
  9
$DIMTP
 40
0.0
  9
$DIMTM
 40
0.0
  9
$DIMTXT
 40
3.5
  9
$DIMCEN
 40
0.0
  9
$DIMTSZ
 40
0.0
  9
$DIMTOL
 70
     0
  9
$DIMLIM
 70
     0
  9
$DIMTIH
 70
     0
  9
$DIMTOH
 70
     0
  9
$DIMSE1
 70
     0
  9
$DIMSE2
 70
     0
  9
$DIMTAD
 70
     1
  9
$DIMZIN
 70
     8
  9
$DIMBLK
  1

  9
$DIMASO
 70
     1
  9
$DIMSHO
 70
     1
  9
$DIMPOST
  1

  9
$DIMAPOST
  1

  9
$DIMALT
 70
     0
  9
$DIMALTD
 70
     2
  9
$DIMALTF
 40
0.039370078740157
  9
$DIMLFAC
 40
1.0
  9
$DIMTOFL
 70
     1
  9
$DIMTVP
 40
0.0
  9
$DIMTIX
 70
     1
  9
$DIMSOXD
 70
     0
  9
$DIMSAH
 70
     1
  9
$DIMBLK1
  1
OBLIQUE
  9
$DIMBLK2
  1
OBLIQUE
  9
$DIMSTYLE
  2
OPO-SSTRICH
  9
$DIMCLRD
 70
   256
  9
$DIMCLRE
 70
   256
  9
$DIMCLRT
 70
   256
  9
$DIMTFAC
 40
0.7114285714285716
  9
$DIMGAP
 40
1.0
  9
$LUNITS
 70
     2
  9
$LUPREC
 70
     1
  9
$SKETCHINC
 40
1.0
  9
$FILLETRAD
 40
0.0
  9
$AUNITS
 70
     0
  9
$AUPREC
 70
     1
  9
$MENU
  1
D:\ACL_CGWG\CGTAB13
  9
$ELEVATION
 40
0.0
  9
$PELEVATION
 40
0.0
  9
$THICKNESS
 40
0.0
  9
$LIMCHECK
 70
     0
  9
$BLIPMODE
 70
     0
  9
$CHAMFERA
 40
1.0
  9
$CHAMFERB
 40
1.0
  9
$SKPOLY
 70
     0
  9
$TDCREATE
 40
2451739.8518626969
  9
$TDUPDATE
 40
2452086.742168426
  9
$TDINDWG
 40
0.0013156713
  9
$TDUSRTIMER
 40
0.0013156713
  9
$USRTIMER
 70
     1
  9
$ANGBASE
 50
0.0
  9
$ANGDIR
 70
     0
  9
$PDMODE
 70
    35
  9
$PDSIZE
 40
5.0
  9
$PLINEWID
 40
0.0
  9
$COORDS
 70
     1
  9
$SPLFRAME
 70
     0
  9
$SPLINETYPE
 70
     6
  9
$SPLINESEGS
 70
     8
  9
$ATTDIA
 70
     1
  9
$ATTREQ
 70
     1
  9
$HANDLING
 70
-16383
  9
$HANDSEED
  5
464
  9
$SURFTAB1
 70
    12
  9
$SURFTAB2
 70
    12
  9
$SURFTYPE
 70
     6
  9
$SURFU
 70
    12
  9
$SURFV
 70
    12
  9
$UCSNAME
  2

  9
$UCSORG
 10
0.0
 20
0.0
 30
0.0
  9
$UCSXDIR
 10
1.0
 20
0.0
 30
0.0
  9
$UCSYDIR
 10
0.0
 20
1.0
 30
0.0
  9
$PUCSNAME
  2

  9
$PUCSORG
 10
0.0
 20
0.0
 30
0.0
  9
$PUCSXDIR
 10
1.0
 20
0.0
 30
0.0
  9
$PUCSYDIR
 10
0.0
 20
1.0
 30
0.0
  9
$USERI1
 70
     0
  9
$USERI2
 70
     0
  9
$USERI3
 70
     0
  9
$USERI4
 70
     0
  9
$USERI5
 70
     0
  9
$USERR1
 40
0.0
  9
$USERR2
 40
0.0
  9
$USERR3
 40
0.0
  9
$USERR4
 40
0.0
  9
$USERR5
 40
0.0
  9
$WORLDVIEW
 70
     1
  9
$SHADEDGE
 70
     3
  9
$SHADEDIF
 70
    70
  9
$TILEMODE
 70
     1
  9
$MAXACTVP
 70
    48
  9
$PLIMCHECK
 70
     0
  9
$PEXTMIN
 10
1.0000000000000000E+020
 20
1.0000000000000000E+020
 30
1.0000000000000000E+020
  9
$PEXTMAX
 10
-1.0000000000000000E+020
 20
-1.0000000000000000E+020
 30
-1.0000000000000000E+020
  9
$PLIMMIN
 10
0.0
 20
0.0
  9
$PLIMMAX
 10
420.0
 20
297.0
  9
$UNITMODE
 70
     0
  9
$VISRETAIN
 70
     1
  9
$PLINEGEN
 70
     0
  9
$PSLTSCALE
 70
     1
  0
ENDSEC
  0
SECTION
  2
TABLES
  0
TABLE
  2
VPORT
 70
     2
  0
VPORT
  2
*ACTIVE
 70
     0
 10
0.0
 20
0.0
 11
1.0
 21
1.0
 12
5.6190497772990389
 22
10.60867380654525
 13
0.0
 23
0.0
 14
0.5
 24
0.5
 15
10.0
 25
10.0
 16
0.0
 26
0.0
 36
1.0
 17
0.0
 27
0.0
 37
0.0
 40
35.510908133550927
 41
1.6070460704607039
 42
50.0
 43
0.0
 44
0.0
 50
0.0
 51
0.0
 71
     0
 72
   800
 73
     1
 74
     1
 75
     0
 76
     0
 77
     0
 78
     0
  0
ENDTAB
  0
TABLE
  2
LTYPE
 70
     1
  0
LTYPE
  2
CONTINUOUS
 70
     0
  3
_______________________________________________
 72
    65
 73
     2
 40
1.0
 49
1.0
 49
0.0
  0
ENDTAB
  0
TABLE
  2
LAYER
 70
     7
  0
LAYER
  2
0
 70
     0
 62
    30
  6
CONTINUOUS
  0
LAYER
  2
1
 70
     0
 62
     2
  6
CONTINUOUS
  0
LAYER
  2
2
 70
     0
 62
     9
  6
CONTINUOUS
  0
LAYER
  2
4
 70
     1
 62
     4
  6
CONTINUOUS
  0
LAYER
  2
5
 70
     0
 62
     1
  6
CONTINUOUS
  0
LAYER
  2
6
 70
     0
 62
     3
  6
CONTINUOUS
  0
LAYER
  2
DEFPOINTS
 70
     0
 62
     7
  6
CONTINUOUS
  0
ENDTAB
  0
TABLE
  2
STYLE
 70
     2
  0
STYLE
  2
STANDARD
 70
     0
 40
0.0
 41
1.0
 50
0.0
 71
     0
 42
2.5
  3
txt
  4

  0
STYLE
  2
BESCHLAG
 70
     0
 40
0.0
 41
1.0
 50
0.0
 71
     0
 42
3.5
  3
txt
  4

  0
ENDTAB
  0
TABLE
  2
VIEW
 70
     0
  0
ENDTAB
  0
TABLE
  2
UCS
 70
     0
  0
ENDTAB
  0
TABLE
  2
APPID
 70
     1
  0
APPID
  2
ACAD
 70
     0
  0
ENDTAB
  0
TABLE
  2
DIMSTYLE
 70
     1
  0
DIMSTYLE
  2
OPO-SSTRICH
 70
     0
  3

  4

  5

  6
OBLIQUE
  7
OBLIQUE
 40
1.0
 41
2.0
 42
2.0
 43
0.0
 44
1.0
 45
0.0
 46
1.0
 47
0.0
 48
0.0
140
3.5
141
0.0
142
0.0
143
0.039370078740157
144
1.0
145
0.0
146
0.7114285714285716
147
1.0
 71
     0
 72
     0
 73
     0
 74
     0
 75
     0
 76
     0
 77
     1
 78
     8
170
     0
171
     2
172
     1
173
     1
174
     1
175
     0
176
   256
177
   256
178
   256
  0
ENDTAB
  0
ENDSEC
  0
SECTION
  2
BLOCKS
  0
BLOCK
  8
0
  2
$MODEL_SPACE
 70
     0
 10
0.0
 20
0.0
 30
0.0
  3
$MODEL_SPACE
  1

  0
ENDBLK
  5
1C
  8
0
  0
BLOCK
 67
     1
  8
0
  2
$PAPER_SPACE
 70
     0
 10
0.0
 20
0.0
 30
0.0
  3
$PAPER_SPACE
  1

  0
ENDBLK
  5
19
 67
     1
  8
0
  0
BLOCK
  8
0
  2
_OBLIQUE
 70
     0
 10
0.0
 20
0.0
 30
0.0
  3
_OBLIQUE
  1

  0
LINE
  5
204
  8
0
 62
     0
 10
-0.5
 20
-0.5
 30
0.0
 11
0.5
 21
0.5
 31
0.0
  0
ENDBLK
  5
206
  8
0
  0
BLOCK
  8
0
  2
NULLPUNKT
 70
     0
 10
0.0
 20
0.0
 30
0.0
  3
NULLPUNKT
  1

  0
SOLID
  5
254
  8
5
 10
0.0
 20
0.0
 30
0.0
 11
2.0
 21
0.0
 31
0.0
 12
0.0
 22
-2.0
 32
0.0
 13
0.0
 23
-2.0
 33
0.0
  0
SOLID
  5
255
  8
5
 10
0.0
 20
0.0
 30
0.0
 11
-2.0
 21
0.0
 31
0.0
 12
0.0
 22
2.0
 32
0.0
 13
0.0
 23
2.0
 33
0.0
  0
POLYLINE
  5
256
  8
5
 66
     1
 10
0.0
 20
0.0
 30
0.0
  0
VERTEX
  5
3F4
  8
5
 10
0.0
 20
2.0
 30
0.0
  0
VERTEX
  5
3F5
  8
5
 10
0.0
 20
-2.0
 30
0.0
  0
SEQEND
  5
3F6
  8
5
  0
POLYLINE
  5
257
  8
5
 66
     1
 10
0.0
 20
0.0
 30
0.0
  0
VERTEX
  5
3F7
  8
5
 10
-2.0
 20
0.0
 30
0.0
  0
VERTEX
  5
3F8
  8
5
 10
2.0
 20
0.0
 30
0.0
  0
SEQEND
  5
3F9
  8
5
  0
CIRCLE
  5
258
  8
5
 10
0.0
 20
0.0
 30
0.0
 40
2.0
  0
ENDBLK
  5
25A
  8
0
  0
BLOCK
  8
0
  2
*X2
 70
     1
 10
0.0
 20
0.0
 30
0.0
  3
*X2
  1

  0
LINE
  5
292
  8
0
 62
     0
 10
254.39139799731541
 20
-471.1001595000821
 30
0.0
 11
255.22932366596481
 21
-470.26223383143281
 31
0.0
  0
LINE
  5
293
  8
0
 62
     0
 10
258.62932366596499
 20
-466.86223383143272
 30
0.0
 11
259.42932366596511
 21
-466.06223383143248
 31
0.0
  0
LINE
  5
294
  8
0
 62
     0
 10
254.42932366596509
 20
-469.64802026905937
 30
0.0
 11
255.22932366596481
 21
-468.84802026905959
 31
0.0
  0
LINE
  5
295
  8
0
 62
     0
 10
257.7248927095518
 20
-466.35245122547269
 30
0.0
 11
258.7248927095518
 21
-465.35245122547258
 31
0.0
  0
LINE
  5
296
  8
0
 62
     0
 10
254.42932366596509
 20
-468.23380670668632
 30
0.0
 11
255.22932366596481
 21
-467.4338067066866
 31
0.0
  0
LINE
  5
297
  8
0
 62
     0
 10
256.31067914717869
 20
-466.35245122547258
 30
0.0
 11
257.3106791471788
 21
-465.35245122547258
 31
0.0
  0
LINE
  5
298
  8
0
 62
     0
 10
254.42932366596509
 20
-466.81959314431322
 30
0.0
 11
255.8964655848057
 21
-465.35245122547258
 31
0.0
  0
LINE
  5
299
  8
0
 62
     0
 10
254.5552622499969
 20
-472.35050880977383
 30
0.0
 11
255.5516491115516
 21
-471.35412194821907
 31
0.0
  0
LINE
  5
29A
  8
0
 62
     0
 10
258.62932366596499
 20
-468.27644739380582
 30
0.0
 11
259.42932366596511
 21
-467.47644739380547
 31
0.0
  0
LINE
  5
29B
  8
0
 62
     0
 10
258.62932366596499
 20
-469.69066095617887
 30
0.0
 11
259.42932366596511
 21
-468.89066095617869
 31
0.0
  0
LINE
  5
29C
  8
0
 62
     0
 10
258.17932366596511
 20
-471.55487451855169
 30
0.0
 11
258.38174695904422
 21
-471.35245122547269
 31
0.0
  0
LINE
  5
29D
  8
0
 62
     0
 10
258.62932366596499
 20
-471.10487451855198
 30
0.0
 11
259.45341573354972
 21
-470.28078245096719
 31
0.0
  0
LINE
  5
29E
  8
0
 62
     0
 10
258.81336396101233
 20
-472.33504778587769
 30
0.0
 11
259.42932366596511
 21
-471.71908808092491
 31
0.0
  0
ENDBLK
  5
2A0
  8
0
  0
BLOCK
  8
0
  2
*D3
 70
     1
 10
0.0
 20
0.0
 30
0.0
  3
*D3
  1

  0
LINE
  5
2DC
  8
1
 10
-5.0000000000002274
 20
9.0
 30
0.0
 11
-5.0000000000002256
 21
20.0
 31
0.0
  0
LINE
  5
2DD
  8
1
 10
0.0000000000000001
 20
9.0
 30
0.0
 11
0.0000000000000008
 21
20.0
 31
0.0
  0
LINE
  5
2DE
  8
1
 10
-6.0000000000002256
 20
19.0
 30
0.0
 11
1.0
 21
19.0
 31
0.0
  0
INSERT
  5
2DF
  8
1
  2
_OBLIQUE
 10
-5.0000000000002256
 20
19.0
 30
0.0
 41
2.0
 42
2.0
 43
2.0
 50
180.0
  0
INSERT
  5
2E0
  8
1
  2
_OBLIQUE
 10
0.0000000000000007
 20
19.0
 30
0.0
 41
2.0
 42
2.0
 43
2.0
  0
TEXT
  5
2E1
  8
0
 10
-3.8632332878582298
 20
20.059686221009539
 30
0.0
 40
3.5
  1
5
  7
BESCHLAG
  0
POINT
  5
2E2
  8
DEFPOINTS
 62
     0
 10
-5.0000000000002274
 20
7.0
 30
0.0
  0
POINT
  5
2E3
  8
DEFPOINTS
 62
     0
 10
0.0
 20
7.0
 30
0.0
  0
POINT
  5
2E4
  8
DEFPOINTS
 62
     0
 10
0.0000000000000007
 20
19.0
 30
0.0
  0
ENDBLK
  5
2C3
  8
0
  0
BLOCK
  8
0
  2
*D4
 70
     1
 10
0.0
 20
0.0
 30
0.0
  3
*D4
  1

  0
LINE
  5
2E5
  8
1
 10
2.0
 20
-0.0000000000000006
 30
0.0
 11
13.0
 21
-0.0000000000000037
 31
0.0
  0
LINE
  5
2E6
  8
1
 10
-0.5
 20
-6.0
 30
0.0
 11
13.0
 21
-6.0000000000000044
 31
0.0
  0
LINE
  5
2E7
  8
1
 10
12.0
 20
0.9999999999999966
 30
0.0
 11
12.0
 21
-7.0000000000000044
 31
0.0
  0
INSERT
  5
2E8
  8
1
  2
_OBLIQUE
 10
12.0
 20
-0.0000000000000034
 30
0.0
 41
2.0
 42
2.0
 43
2.0
 50
90.0
  0
INSERT
  5
2E9
  8
1
  2
_OBLIQUE
 10
12.0
 20
-6.0000000000000044
 30
0.0
 41
2.0
 42
2.0
 43
2.0
 50
270.0
  0
TEXT
  5
2EA
  8
0
 10
10.9331514324693
 20
-4.339358799454299
 30
0.0
 40
3.5
  1
6
 50
90.0
  7
BESCHLAG
  0
POINT
  5
2EB
  8
DEFPOINTS
 62
     0
 10
0.0
 20
0.0
 30
0.0
  0
POINT
  5
2EC
  8
DEFPOINTS
 62
     0
 10
-2.5
 20
-6.0
 30
0.0
  0
POINT
  5
2ED
  8
DEFPOINTS
 62
     0
 10
12.0
 20
-6.0000000000000044
 30
0.0
  0
ENDBLK
  5
2CF
  8
0
  0
BLOCK
  8
0
  2
*D5
 70
     1
 10
0.0
 20
0.0
 30
0.0
  3
*D5
  1

  0
LINE
  5
2EE
  8
1
 10
2.0
 20
7.0
 30
0.0
 11
13.0
 21
6.9999999999999956
 31
0.0
  0
LINE
  5
2EF
  8
1
 10
2.0
 20
-0.0000000000000006
 30
0.0
 11
13.0
 21
-0.0000000000000037
 31
0.0
  0
LINE
  5
2F0
  8
1
 10
12.0
 20
7.9999999999999956
 30
0.0
 11
12.0
 21
-1.0000000000000031
 31
0.0
  0
INSERT
  5
2F1
  8
1
  2
_OBLIQUE
 10
12.0
 20
6.9999999999999956
 30
0.0
 41
2.0
 42
2.0
 43
2.0
 50
90.0
  0
INSERT
  5
2F2
  8
1
  2
_OBLIQUE
 10
12.0
 20
-0.0000000000000034
 30
0.0
 41
2.0
 42
2.0
 43
2.0
 50
270.0
  0
TEXT
  5
2F3
  8
0
 10
11.0
 20
2.13557298772169
 30
0.0
 40
3.5
  1
7
 50
90.0
  7
BESCHLAG
  0
POINT
  5
2F4
  8
DEFPOINTS
 62
     0
 10
0.0
 20
7.0
 30
0.0
  0
POINT
  5
2F5
  8
DEFPOINTS
 62
     0
 10
0.0
 20
0.0
 30
0.0
  0
POINT
  5
2F6
  8
DEFPOINTS
 62
     0
 10
12.0
 20
-0.0000000000000034
 30
0.0
  0
ENDBLK
  5
2DB
  8
0
  0
ENDSEC
  0
SECTION
  2
ENTITIES
  0
INSERT
  5
25B
  8
5
  2
NULLPUNKT
 10
0.0
 20
0.0
 30
0.0
  0
INSERT
  5
2AF
  8
2
  2
*X2
 10
-259.42932366596523
 20
472.35245122547258
 30
0.0
1001
ACAD
1000
HATCH
1002
{
1070
    16
1000
_U,I
1040
1.0
1040
0.7853981633974483
1070
     0
1002
}
  0
DIMENSION
  5
2B0
  8
1
  2
*D3
 10
0.0000000000000007
 20
19.0
 30
0.0
 11
-2.5000000000001119
 21
21.779843110504771
 31
0.0
 70
     0
 13
-5.0000000000002274
 23
7.0
 33
0.0
 14
0.0
 24
7.0
 34
0.0
  0
LINE
  5
2B1
  8
5
 10
-5.0000000000002274
 20
-6.0000000000002274
 30
0.0
 11
0.0
 21
-6.0000000000002274
 31
0.0
  0
POLYLINE
  5
2B2
  8
5
 66
     1
 10
0.0
 20
0.0
 30
0.0
  0
VERTEX
  5
3FA
  8
5
 10
-6.0000000000002274
 20
0.0
 30
0.0
  0
VERTEX
  5
3FB
  8
5
 10
-5.0000000000002274
 20
0.0
 30
0.0
  0
VERTEX
  5
3FC
  8
5
 10
-5.0000000000002274
 20
7.0
 30
0.0
  0
VERTEX
  5
3FD
  8
5
 10
0.0
 20
7.0
 30
0.0
  0
VERTEX
  5
3FE
  8
5
 10
0.0
 20
0.0
 30
0.0
  0
VERTEX
  5
3FF
  8
5
 10
1.0
 20
0.0
 30
0.0
  0
SEQEND
  5
400
  8
5
  0
POLYLINE
  5
2B3
  8
4
 66
     1
 10
0.0
 20
0.0
 30
0.0
 70
     1
  0
VERTEX
  5
401
  8
4
 10
-5.0000000000002274
 20
0.0
 30
0.0
  0
VERTEX
  5
402
  8
4
 10
-5.0000000000002274
 20
7.0
 30
0.0
  0
VERTEX
  5
403
  8
4
 10
0.0
 20
7.0
 30
0.0
  0
VERTEX
  5
404
  8
4
 10
0.0
 20
0.0
 30
0.0
  0
SEQEND
  5
405
  8
4
  0
POLYLINE
  5
2B4
  8
6
 66
     1
 10
0.0
 20
0.0
 30
0.0
 70
     1
  0
VERTEX
  5
406
  8
6
 10
-4.2000000000005002
 20
1.0
 30
0.0
  0
VERTEX
  5
407
  8
6
 10
-4.2000000000005002
 20
5.6999999999998181
 30
0.0
 42
-0.4142135623730951
  0
VERTEX
  5
408
  8
6
 10
-3.9000000000003179
 20
6.0
 30
0.0
  0
VERTEX
  5
409
  8
6
 10
-2.5
 20
6.0
 30
0.0
  0
VERTEX
  5
40A
  8
6
 10
-1.0999999999999091
 20
6.0
 30
0.0
 42
-0.4142135623730951
  0
VERTEX
  5
40B
  8
6
 10
-0.8000000000001818
 20
5.6999999999998181
 30
0.0
  0
VERTEX
  5
40C
  8
6
 10
-0.8000000000001818
 20
1.0
 30
0.0
  0
VERTEX
  5
40D
  8
6
 10
-1.0999999999999091
 20
1.0
 30
0.0
 42
0.4142135623730951
  0
VERTEX
  5
40E
  8
6
 10
-1.25
 20
0.8499999999999091
 30
0.0
  0
VERTEX
  5
40F
  8
6
 10
-1.25
 20
0.7999999999999546
 30
0.0
 42
0.4142135623730951
  0
VERTEX
  5
410
  8
6
 10
-0.4500000000002729
 20
0.0
 30
0.0
  0
VERTEX
  5
411
  8
6
 10
-0.1500000000000909
 20
0.0
 30
0.0
 42
0.4142135623730951
  0
VERTEX
  5
412
  8
6
 10
0.0
 20
0.1499999999998636
 30
0.0
  0
VERTEX
  5
413
  8
6
 10
0.0
 20
1.186602540378316
 30
0.0
  0
VERTEX
  5
414
  8
6
 10
0.0799038105674299
 20
1.325000000000045
 30
0.0
 42
0.2679491924310219
  0
VERTEX
  5
415
  8
6
 10
0.0799038105674299
 20
1.4749999999999091
 30
0.0
  0
VERTEX
  5
416
  8
6
 10
0.0
 20
1.61339745962141
 30
0.0
  0
VERTEX
  5
417
  8
6
 10
0.0
 20
1.686602540378316
 30
0.0
  0
VERTEX
  5
418
  8
6
 10
0.0799038105674299
 20
1.825000000000045
 30
0.0
 42
0.2679491924310219
  0
VERTEX
  5
419
  8
6
 10
0.0799038105674299
 20
1.9749999999999091
 30
0.0
  0
VERTEX
  5
41A
  8
6
 10
0.0
 20
2.1133974596214098
 30
0.0
  0
VERTEX
  5
41B
  8
6
 10
0.0
 20
2.186602540378316
 30
0.0
  0
VERTEX
  5
41C
  8
6
 10
0.0799038105674299
 20
2.325000000000045
 30
0.0
 42
0.2679491924310219
  0
VERTEX
  5
41D
  8
6
 10
0.0799038105674299
 20
2.4749999999999091
 30
0.0
  0
VERTEX
  5
41E
  8
6
 10
0.0
 20
2.6133974596214098
 30
0.0
  0
VERTEX
  5
41F
  8
6
 10
0.0
 20
6.5
 30
0.0
 42
0.4142135623730951
  0
VERTEX
  5
420
  8
6
 10
-0.5
 20
7.0
 30
0.0
  0
VERTEX
  5
421
  8
6
 10
-2.5
 20
7.0
 30
0.0
  0
VERTEX
  5
422
  8
6
 10
-4.5000000000002274
 20
7.0
 30
0.0
 42
0.4142135623730951
  0
VERTEX
  5
423
  8
6
 10
-5.0000000000002274
 20
6.5
 30
0.0
  0
VERTEX
  5
424
  8
6
 10
-5.0000000000002274
 20
2.6133974596214098
 30
0.0
  0
VERTEX
  5
425
  8
6
 10
-5.079903810568112
 20
2.4749999999999091
 30
0.0
 42
0.2679491924310219
  0
VERTEX
  5
426
  8
6
 10
-5.079903810568112
 20
2.325000000000045
 30
0.0
  0
VERTEX
  5
427
  8
6
 10
-5.0000000000002274
 20
2.186602540378316
 30
0.0
  0
VERTEX
  5
428
  8
6
 10
-5.0000000000002274
 20
2.1133974596214098
 30
0.0
  0
VERTEX
  5
429
  8
6
 10
-5.079903810568112
 20
1.9749999999999091
 30
0.0
 42
0.2679491924310219
  0
VERTEX
  5
42A
  8
6
 10
-5.079903810568112
 20
1.825000000000045
 30
0.0
  0
VERTEX
  5
42B
  8
6
 10
-5.0000000000002274
 20
1.686602540378316
 30
0.0
  0
VERTEX
  5
42C
  8
6
 10
-5.0000000000002274
 20
1.61339745962141
 30
0.0
  0
VERTEX
  5
42D
  8
6
 10
-5.079903810568112
 20
1.4749999999999091
 30
0.0
 42
0.2679491924310219
  0
VERTEX
  5
42E
  8
6
 10
-5.079903810568112
 20
1.325000000000045
 30
0.0
  0
VERTEX
  5
42F
  8
6
 10
-5.0000000000002274
 20
1.186602540378316
 30
0.0
  0
VERTEX
  5
430
  8
6
 10
-5.0000000000002274
 20
0.1499999999998636
 30
0.0
 42
0.4142135623730951
  0
VERTEX
  5
431
  8
6
 10
-4.8500000000001364
 20
0.0
 30
0.0
  0
VERTEX
  5
432
  8
6
 10
-4.5500000000004093
 20
0.0
 30
0.0
 42
0.4142135623730951
  0
VERTEX
  5
433
  8
6
 10
-3.7500000000002269
 20
0.7999999999999546
 30
0.0
  0
VERTEX
  5
434
  8
6
 10
-3.7500000000002269
 20
0.8499999999999091
 30
0.0
 42
0.4142135623730951
  0
VERTEX
  5
435
  8
6
 10
-3.9000000000003179
 20
1.0
 30
0.0
  0
SEQEND
  5
436
  8
6
  0
POLYLINE
  5
2B5
  8
6
 66
     1
 10
0.0
 20
0.0
 30
0.0
 70
     1
  0
VERTEX
  5
437
  8
6
 10
-4.8247446402440337
 20
0.0
 30
0.0
 42
0.2855687983890529
  0
VERTEX
  5
438
  8
6
 10
-3.709388204511697
 20
0.1037126952210201
 30
0.0
 42
0.2577988718047752
  0
VERTEX
  5
439
  8
6
 10
-3.2317545648588739
 20
0.8408118686579655
 30
0.0
  0
VERTEX
  5
43A
  8
6
 10
-3.2317545648588739
 20
1.608366850875881
 30
0.0
  0
VERTEX
  5
43B
  8
6
 10
-3.4286790597693648
 20
1.8371616885474391
 30
0.0
 42
0.5723913899065157
  0
VERTEX
  5
43C
  8
6
 10
-3.524479911899788
 20
1.8318409458265701
 30
0.0
  0
VERTEX
  5
43D
  8
6
 10
-3.8012385705030729
 20
1.2944388606254049
 30
0.0
  0
VERTEX
  5
43E
  8
6
 10
-3.9555848287443491
 20
1.2944388606254049
 30
0.0
  0
VERTEX
  5
43F
  8
6
 10
-3.9555848287443491
 20
1.9936561644411761
 30
0.0
  0
VERTEX
  5
440
  8
6
 10
-3.3009443497603561
 20
2.818381982412006
 30
0.0
  0
VERTEX
  5
441
  8
6
 10
-3.3009443497603561
 20
3.8089920386979652
 30
0.0
 42
0.6764201413968999
  0
VERTEX
  5
442
  8
6
 10
-3.4127121308301862
 20
3.8462377816205162
 30
0.0
  0
VERTEX
  5
443
  8
6
 10
-3.7373713357499119
 20
3.4631394108301938
 30
0.0
  0
VERTEX
  5
444
  8
6
 10
-3.9555848287443491
 20
3.4631394108301938
 30
0.0
  0
VERTEX
  5
445
  8
6
 10
-3.9555848287443491
 20
3.9920905907804349
 30
0.0
  0
VERTEX
  5
446
  8
6
 10
-3.135953472226447
 20
5.0668945798904579
 30
0.0
 42
-0.2073828153970596
  0
VERTEX
  5
447
  8
6
 10
-2.5
 20
5.3752037831584403
 30
0.0
 42
-0.2073828153970596
  0
VERTEX
  5
448
  8
6
 10
-1.8640465277735521
 20
5.0668945798904579
 30
0.0
  0
VERTEX
  5
449
  8
6
 10
-1.0444151712563321
 20
3.9920905907804349
 30
0.0
  0
VERTEX
  5
44A
  8
6
 10
-1.0444151712563321
 20
3.4631394108301938
 30
0.0
  0
VERTEX
  5
44B
  8
6
 10
-1.2626286642507689
 20
3.4631394108301938
 30
0.0
  0
VERTEX
  5
44C
  8
6
 10
-1.5872878691702681
 20
3.8462377816205162
 30
0.0
 42
0.6764201413968999
  0
VERTEX
  5
44D
  8
6
 10
-1.699055650239643
 20
3.8089920386979652
 30
0.0
  0
VERTEX
  5
44E
  8
6
 10
-1.699055650239643
 20
2.818381982412006
 30
0.0
  0
VERTEX
  5
44F
  8
6
 10
-1.0444151712563321
 20
1.9936561644411761
 30
0.0
  0
VERTEX
  5
450
  8
6
 10
-1.0444151712563321
 20
1.2944388606254049
 30
0.0
  0
VERTEX
  5
451
  8
6
 10
-1.1987614294971529
 20
1.2944388606254049
 30
0.0
  0
VERTEX
  5
452
  8
6
 10
-1.475520088100893
 20
1.8318409458265701
 30
0.0
 42
0.5723913899065157
  0
VERTEX
  5
453
  8
6
 10
-1.5713209402306341
 20
1.8371616885474391
 30
0.0
  0
VERTEX
  5
454
  8
6
 10
-1.7682454351415791
 20
1.608366850875881
 30
0.0
  0
VERTEX
  5
455
  8
6
 10
-1.7682454351415791
 20
0.8408118686579655
 30
0.0
 42
0.2577988718047752
  0
VERTEX
  5
456
  8
6
 10
-1.2906117954885299
 20
0.1037126952210201
 30
0.0
 42
0.2855687983891429
  0
VERTEX
  5
457
  8
6
 10
-0.1752553597561928
 20
0.0
 30
0.0
  0
VERTEX
  5
458
  8
6
 10
-0.1752553597561928
 20
-0.249253016763987
 30
0.0
 42
-0.1763302173266947
  0
VERTEX
  5
459
  8
6
 10
-1.0659621149766281
 20
-0.9902848451465615
 30
0.0
  0
VERTEX
  5
45A
  8
6
 10
-1.7981902242586321
 20
-1.0775937378616609
 30
0.0
 42
0.7142757161901087
  0
VERTEX
  5
45B
  8
6
 10
-1.9032264709630899
 20
-1.4568603976176739
 30
0.0
 42
-0.2646199055260972
  0
VERTEX
  5
45C
  8
6
 10
-1.5380367225984619
 20
-1.843390164886614
 30
0.0
 42
0.2858304093502286
  0
VERTEX
  5
45D
  8
6
 10
0.127584943097645
 20
-4.4969636643834292
 30
0.0
 42
-2.3910683767553249
  0
VERTEX
  5
45E
  8
6
 10
-0.4780956626100306
 20
-5.3890995586152712
 30
0.0
 42
-0.1354041067351331
  0
VERTEX
  5
45F
  8
6
 10
-3.377351004421143
 20
-1.7347810384540019
 30
0.0
 42
0.7082956273545247
  0
VERTEX
  5
460
  8
6
 10
-3.3938776078639421
 20
-1.0243338581519761
 30
0.0
  0
VERTEX
  5
461
  8
6
 10
-4.0231085301513749
 20
-1.024166114262925
 30
0.0
 42
-0.1857078600295553
  0
VERTEX
  5
462
  8
6
 10
-4.8247446402440337
 20
-0.4720803191012238
 30
0.0
  0
SEQEND
  5
463
  8
6
  0
DIMENSION
  5
2B6
  8
1
  2
*D4
 10
12.0
 20
-6.0000000000000044
 30
0.0
 11
9.21299454297408
 21
-3.0000000000000009
 31
0.0
 70
     0
 13
0.0
 23
0.0
 33
0.0
 14
-2.5
 24
-6.0
 34
0.0
 50
90.0
  0
DIMENSION
  5
2B7
  8
1
  2
*D5
 10
12.0
 20
-0.0000000000000034
 30
0.0
 11
9.25
 21
3.4999999999999978
 31
0.0
 70
     0
 13
0.0
 23
7.0
 33
0.0
 14
0.0
 24
0.0
 34
0.0
 50
90.0
  0
TEXT
  5
2FC
  8
1
 10
-4.2484608792397012
 20
25.058745105621359
 30
0.0
 40
2.5
  1
Hebgo 131/657
 41
0.9
  7
BESCHLAG
  0
VIEWPORT
  5
22
 67
     1
  8
0
 10
210.0
 20
170.2366863905325
 30
0.0
 40
420.0
 41
340.47337278106511
 68
     1
 69
     1
1001
ACAD
1000
MVIEW
1002
{
1070
    16
1010
0.0
1020
0.0
1030
0.0
1010
0.0
1020
0.0
1030
1.0
1040
0.0
1040
340.47337278106511
1040
210.0
1040
170.2366863905325
1040
50.0
1040
0.0
1040
0.0
1070
     0
1070
   100
1070
     1
1070
     1
1070
     0
1070
     0
1070
     0
1070
     0
1040
0.0
1040
0.0
1040
0.0
1040
5.0
1040
5.0
1040
10.0
1040
10.0
1070
     0
1002
{
1002
}
1002
}
  0
ENDSEC
  0
EOF
