  0
SECTION
  2
HEADER
  9
$ACADVER
  1
AC1009
  9
$INSBASE
 10
0.0
 20
0.0
 30
0.0
  9
$EXTMIN
 10
-6.0195914190489921
 20
-7.003783314725978
 30
-0.0000000000000058
  9
$EXTMAX
 10
17.555237360712219
 20
28.266907295057312
 30
0.0000000000000104
  9
$LIMMIN
 10
-150.0
 20
-150.0
  9
$LIMMAX
 10
150.0
 20
150.0
  9
$ORTHOMODE
 70
     0
  9
$REGENMODE
 70
     1
  9
$FILLMODE
 70
     1
  9
$QTEXTMODE
 70
     0
  9
$MIRRTEXT
 70
     0
  9
$DRAGMODE
 70
     2
  9
$LTSCALE
 40
1.0
  9
$OSMODE
 70
   111
  9
$ATTMODE
 70
     1
  9
$TEXTSIZE
 40
3.5
  9
$TRACEWID
 40
1.0
  9
$TEXTSTYLE
  7
BESCHLAG
  9
$CLAYER
  8
0
  9
$CELTYPE
  6
BYLAYER
  9
$CECOLOR
 62
   256
  9
$DIMSCALE
 40
1.0
  9
$DIMASZ
 40
2.0
  9
$DIMEXO
 40
2.0
  9
$DIMDLI
 40
0.0
  9
$DIMRND
 40
0.0
  9
$DIMDLE
 40
1.0
  9
$DIMEXE
 40
1.0
  9
$DIMTP
 40
0.0
  9
$DIMTM
 40
0.0
  9
$DIMTXT
 40
3.5
  9
$DIMCEN
 40
0.0
  9
$DIMTSZ
 40
0.0
  9
$DIMTOL
 70
     0
  9
$DIMLIM
 70
     0
  9
$DIMTIH
 70
     0
  9
$DIMTOH
 70
     0
  9
$DIMSE1
 70
     0
  9
$DIMSE2
 70
     0
  9
$DIMTAD
 70
     1
  9
$DIMZIN
 70
     8
  9
$DIMBLK
  1

  9
$DIMASO
 70
     1
  9
$DIMSHO
 70
     1
  9
$DIMPOST
  1

  9
$DIMAPOST
  1

  9
$DIMALT
 70
     0
  9
$DIMALTD
 70
     2
  9
$DIMALTF
 40
0.039370078740157
  9
$DIMLFAC
 40
1.0
  9
$DIMTOFL
 70
     1
  9
$DIMTVP
 40
0.0
  9
$DIMTIX
 70
     1
  9
$DIMSOXD
 70
     0
  9
$DIMSAH
 70
     1
  9
$DIMBLK1
  1
OBLIQUE
  9
$DIMBLK2
  1
OBLIQUE
  9
$DIMSTYLE
  2
OPO-SSTRICH
  9
$DIMCLRD
 70
   256
  9
$DIMCLRE
 70
   256
  9
$DIMCLRT
 70
   256
  9
$DIMTFAC
 40
0.7114285714285716
  9
$DIMGAP
 40
1.0
  9
$LUNITS
 70
     2
  9
$LUPREC
 70
     1
  9
$SKETCHINC
 40
1.0
  9
$FILLETRAD
 40
0.0
  9
$AUNITS
 70
     0
  9
$AUPREC
 70
     1
  9
$MENU
  1
D:\ACL_CGWG\CGTAB13
  9
$ELEVATION
 40
0.0
  9
$PELEVATION
 40
0.0
  9
$THICKNESS
 40
0.0
  9
$LIMCHECK
 70
     0
  9
$BLIPMODE
 70
     0
  9
$CHAMFERA
 40
1.0
  9
$CHAMFERB
 40
1.0
  9
$SKPOLY
 70
     0
  9
$TDCREATE
 40
2451739.8509119898
  9
$TDUPDATE
 40
2452086.742700683
  9
$TDINDWG
 40
0.0010416319
  9
$TDUSRTIMER
 40
0.0010416319
  9
$USRTIMER
 70
     1
  9
$ANGBASE
 50
0.0
  9
$ANGDIR
 70
     0
  9
$PDMODE
 70
    35
  9
$PDSIZE
 40
5.0
  9
$PLINEWID
 40
0.0
  9
$COORDS
 70
     1
  9
$SPLFRAME
 70
     0
  9
$SPLINETYPE
 70
     6
  9
$SPLINESEGS
 70
     8
  9
$ATTDIA
 70
     1
  9
$ATTREQ
 70
     1
  9
$HANDLING
 70
-16383
  9
$HANDSEED
  5
42D
  9
$SURFTAB1
 70
    12
  9
$SURFTAB2
 70
    12
  9
$SURFTYPE
 70
     6
  9
$SURFU
 70
    12
  9
$SURFV
 70
    12
  9
$UCSNAME
  2

  9
$UCSORG
 10
0.0
 20
0.0
 30
0.0
  9
$UCSXDIR
 10
1.0
 20
0.0
 30
0.0
  9
$UCSYDIR
 10
0.0
 20
1.0
 30
0.0
  9
$PUCSNAME
  2

  9
$PUCSORG
 10
0.0
 20
0.0
 30
0.0
  9
$PUCSXDIR
 10
1.0
 20
0.0
 30
0.0
  9
$PUCSYDIR
 10
0.0
 20
1.0
 30
0.0
  9
$USERI1
 70
     0
  9
$USERI2
 70
     0
  9
$USERI3
 70
     0
  9
$USERI4
 70
     0
  9
$USERI5
 70
     0
  9
$USERR1
 40
0.0
  9
$USERR2
 40
0.0
  9
$USERR3
 40
0.0
  9
$USERR4
 40
0.0
  9
$USERR5
 40
0.0
  9
$WORLDVIEW
 70
     1
  9
$SHADEDGE
 70
     3
  9
$SHADEDIF
 70
    70
  9
$TILEMODE
 70
     1
  9
$MAXACTVP
 70
    48
  9
$PLIMCHECK
 70
     0
  9
$PEXTMIN
 10
1.0000000000000000E+020
 20
1.0000000000000000E+020
 30
1.0000000000000000E+020
  9
$PEXTMAX
 10
-1.0000000000000000E+020
 20
-1.0000000000000000E+020
 30
-1.0000000000000000E+020
  9
$PLIMMIN
 10
0.0
 20
0.0
  9
$PLIMMAX
 10
420.0
 20
297.0
  9
$UNITMODE
 70
     0
  9
$VISRETAIN
 70
     1
  9
$PLINEGEN
 70
     0
  9
$PSLTSCALE
 70
     1
  0
ENDSEC
  0
SECTION
  2
TABLES
  0
TABLE
  2
VPORT
 70
     2
  0
VPORT
  2
*ACTIVE
 70
     0
 10
0.0
 20
0.0
 11
1.0
 21
1.0
 12
5.7678229708316158
 22
10.631561990165659
 13
0.0
 23
0.0
 14
0.5
 24
0.5
 15
10.0
 25
10.0
 16
0.0
 26
0.0
 36
1.0
 17
0.0
 27
0.0
 37
0.0
 40
35.557056162772049
 41
1.6070460704607039
 42
50.0
 43
0.0
 44
0.0
 50
0.0
 51
0.0
 71
     0
 72
   800
 73
     1
 74
     1
 75
     0
 76
     0
 77
     0
 78
     0
  0
ENDTAB
  0
TABLE
  2
LTYPE
 70
     1
  0
LTYPE
  2
CONTINUOUS
 70
     0
  3
_______________________________________________
 72
    65
 73
     2
 40
1.0
 49
1.0
 49
0.0
  0
ENDTAB
  0
TABLE
  2
LAYER
 70
     7
  0
LAYER
  2
0
 70
     0
 62
    30
  6
CONTINUOUS
  0
LAYER
  2
1
 70
     0
 62
     2
  6
CONTINUOUS
  0
LAYER
  2
2
 70
     0
 62
     9
  6
CONTINUOUS
  0
LAYER
  2
4
 70
     1
 62
     4
  6
CONTINUOUS
  0
LAYER
  2
5
 70
     0
 62
     1
  6
CONTINUOUS
  0
LAYER
  2
6
 70
     0
 62
     3
  6
CONTINUOUS
  0
LAYER
  2
DEFPOINTS
 70
     0
 62
     7
  6
CONTINUOUS
  0
ENDTAB
  0
TABLE
  2
STYLE
 70
     2
  0
STYLE
  2
STANDARD
 70
     0
 40
0.0
 41
1.0
 50
0.0
 71
     0
 42
2.5
  3
txt
  4

  0
STYLE
  2
BESCHLAG
 70
     0
 40
0.0
 41
1.0
 50
0.0
 71
     0
 42
3.5
  3
txt
  4

  0
ENDTAB
  0
TABLE
  2
VIEW
 70
     0
  0
ENDTAB
  0
TABLE
  2
UCS
 70
     0
  0
ENDTAB
  0
TABLE
  2
APPID
 70
     1
  0
APPID
  2
ACAD
 70
     0
  0
ENDTAB
  0
TABLE
  2
DIMSTYLE
 70
     1
  0
DIMSTYLE
  2
OPO-SSTRICH
 70
     0
  3

  4

  5

  6
OBLIQUE
  7
OBLIQUE
 40
1.0
 41
2.0
 42
2.0
 43
0.0
 44
1.0
 45
0.0
 46
1.0
 47
0.0
 48
0.0
140
3.5
141
0.0
142
0.0
143
0.039370078740157
144
1.0
145
0.0
146
0.7114285714285716
147
1.0
 71
     0
 72
     0
 73
     0
 74
     0
 75
     0
 76
     0
 77
     1
 78
     8
170
     0
171
     2
172
     1
173
     1
174
     1
175
     0
176
   256
177
   256
178
   256
  0
ENDTAB
  0
ENDSEC
  0
SECTION
  2
BLOCKS
  0
BLOCK
  8
0
  2
$MODEL_SPACE
 70
     0
 10
0.0
 20
0.0
 30
0.0
  3
$MODEL_SPACE
  1

  0
ENDBLK
  5
1C
  8
0
  0
BLOCK
 67
     1
  8
0
  2
$PAPER_SPACE
 70
     0
 10
0.0
 20
0.0
 30
0.0
  3
$PAPER_SPACE
  1

  0
ENDBLK
  5
19
 67
     1
  8
0
  0
BLOCK
  8
0
  2
_OBLIQUE
 70
     0
 10
0.0
 20
0.0
 30
0.0
  3
_OBLIQUE
  1

  0
LINE
  5
204
  8
0
 62
     0
 10
-0.5
 20
-0.5
 30
0.0
 11
0.5
 21
0.5
 31
0.0
  0
ENDBLK
  5
206
  8
0
  0
BLOCK
  8
0
  2
NULLPUNKT
 70
     0
 10
0.0
 20
0.0
 30
0.0
  3
NULLPUNKT
  1

  0
SOLID
  5
254
  8
5
 10
0.0
 20
0.0
 30
0.0
 11
2.0
 21
0.0
 31
0.0
 12
0.0
 22
-2.0
 32
0.0
 13
0.0
 23
-2.0
 33
0.0
  0
SOLID
  5
255
  8
5
 10
0.0
 20
0.0
 30
0.0
 11
-2.0
 21
0.0
 31
0.0
 12
0.0
 22
2.0
 32
0.0
 13
0.0
 23
2.0
 33
0.0
  0
POLYLINE
  5
256
  8
5
 66
     1
 10
0.0
 20
0.0
 30
0.0
  0
VERTEX
  5
3C2
  8
5
 10
0.0
 20
2.0
 30
0.0
  0
VERTEX
  5
3C3
  8
5
 10
0.0
 20
-2.0
 30
0.0
  0
SEQEND
  5
3C4
  8
5
  0
POLYLINE
  5
257
  8
5
 66
     1
 10
0.0
 20
0.0
 30
0.0
  0
VERTEX
  5
3C5
  8
5
 10
-2.0
 20
0.0
 30
0.0
  0
VERTEX
  5
3C6
  8
5
 10
2.0
 20
0.0
 30
0.0
  0
SEQEND
  5
3C7
  8
5
  0
CIRCLE
  5
258
  8
5
 10
0.0
 20
0.0
 30
0.0
 40
2.0
  0
ENDBLK
  5
25A
  8
0
  0
BLOCK
  8
0
  2
*X2
 70
     1
 10
0.0
 20
0.0
 30
0.0
  3
*X2
  1

  0
LINE
  5
292
  8
0
 62
     0
 10
162.59334484194119
 20
-469.56011753883212
 30
0.0
 11
163.40463514665089
 21
-468.74882723412247
 31
0.0
  0
LINE
  5
293
  8
0
 62
     0
 10
166.38718692017221
 20
-465.76627546060109
 30
0.0
 11
167.33233200066331
 21
-464.82113038010999
 31
0.0
  0
LINE
  5
294
  8
0
 62
     0
 10
162.60463514665119
 20
-468.13461367174909
 30
0.0
 11
163.40463514665089
 21
-467.33461367174931
 31
0.0
  0
LINE
  5
295
  8
0
 62
     0
 10
164.97297335779911
 20
-465.76627546060109
 30
0.0
 11
165.97297335779919
 21
-464.76627546060109
 31
0.0
  0
LINE
  5
296
  8
0
 62
     0
 10
162.60463514665119
 20
-466.72040010937599
 30
0.0
 11
164.55875979542611
 21
-464.76627546060109
 31
0.0
  0
LINE
  5
297
  8
0
 62
     0
 10
162.60463514665119
 20
-465.30618654700288
 30
0.0
 11
163.14454623305301
 21
-464.76627546060109
 31
0.0
  0
LINE
  5
298
  8
0
 62
     0
 10
162.60463514665119
 20
-470.96304079649542
 30
0.0
 11
163.40463514665089
 21
-470.16304079649541
 31
0.0
  0
LINE
  5
299
  8
0
 62
     0
 10
166.80463514665101
 20
-466.76304079649537
 30
0.0
 11
167.60463514665119
 21
-465.96304079649531
 31
0.0
  0
LINE
  5
29A
  8
0
 62
     0
 10
163.23657830243681
 20
-471.74531120308279
 30
0.0
 11
163.83367088913289
 21
-471.14821861638671
 31
0.0
  0
LINE
  5
29B
  8
0
 62
     0
 10
166.80463514665101
 20
-468.17725435886848
 30
0.0
 11
167.60463514665119
 21
-467.3772543588683
 31
0.0
  0
LINE
  5
29C
  8
0
 62
     0
 10
166.80463514665101
 20
-469.59146792124159
 30
0.0
 11
167.60463514665119
 21
-468.79146792124152
 31
0.0
  0
LINE
  5
29D
  8
0
 62
     0
 10
166.45538701571189
 20
-471.35492961455378
 30
0.0
 11
167.62396256270389
 21
-470.18635406756181
 31
0.0
  0
LINE
  5
29E
  8
0
 62
     0
 10
167.45825473203769
 20
-471.76627546060121
 30
0.0
 11
167.60459038177899
 21
-471.61993981085988
 31
0.0
  0
ENDBLK
  5
2A0
  8
0
  0
BLOCK
  8
0
  2
*D3
 70
     1
 10
0.0
 20
0.0
 30
0.0
  3
*D3
  1

  0
LINE
  5
2E4
  8
1
 10
-5.0
 20
9.0
 30
0.0
 11
-4.9999999999999991
 21
20.0
 31
0.0
  0
LINE
  5
2E5
  8
1
 10
0.0000000000000001
 20
9.0
 30
0.0
 11
0.0000000000000008
 21
20.0
 31
0.0
  0
LINE
  5
2E6
  8
1
 10
-5.9999999999999991
 20
19.0
 30
0.0
 11
1.0
 21
19.0
 31
0.0
  0
INSERT
  5
2E7
  8
1
  2
_OBLIQUE
 10
-4.9999999999999991
 20
19.0
 30
0.0
 41
2.0
 42
2.0
 43
2.0
 50
180.0
  0
INSERT
  5
2E8
  8
1
  2
_OBLIQUE
 10
0.0000000000000007
 20
19.0
 30
0.0
 41
2.0
 42
2.0
 43
2.0
  0
TEXT
  5
2E9
  8
0
 10
-3.8632332878581161
 20
20.059686221009539
 30
0.0
 40
3.5
  1
5
  7
BESCHLAG
  0
POINT
  5
2EA
  8
DEFPOINTS
 62
     0
 10
-5.0
 20
7.0
 30
0.0
  0
POINT
  5
2EB
  8
DEFPOINTS
 62
     0
 10
0.0
 20
7.0
 30
0.0
  0
POINT
  5
2EC
  8
DEFPOINTS
 62
     0
 10
0.0000000000000007
 20
19.0
 30
0.0
  0
ENDBLK
  5
2CB
  8
0
  0
BLOCK
  8
0
  2
*D4
 70
     1
 10
0.0
 20
0.0
 30
0.0
  3
*D4
  1

  0
LINE
  5
2ED
  8
1
 10
2.0
 20
7.0
 30
0.0
 11
13.0
 21
6.9999999999999956
 31
0.0
  0
LINE
  5
2EE
  8
1
 10
2.0
 20
-0.0000000000000006
 30
0.0
 11
13.0
 21
-0.0000000000000037
 31
0.0
  0
LINE
  5
2EF
  8
1
 10
12.0
 20
7.9999999999999956
 30
0.0
 11
12.0
 21
-1.0000000000000031
 31
0.0
  0
INSERT
  5
2F0
  8
1
  2
_OBLIQUE
 10
12.0
 20
6.9999999999999956
 30
0.0
 41
2.0
 42
2.0
 43
2.0
 50
90.0
  0
INSERT
  5
2F1
  8
1
  2
_OBLIQUE
 10
12.0
 20
-0.0000000000000034
 30
0.0
 41
2.0
 42
2.0
 43
2.0
 50
270.0
  0
TEXT
  5
2F2
  8
0
 10
11.0
 20
2.13557298772169
 30
0.0
 40
3.5
  1
7
 50
90.0
  7
BESCHLAG
  0
POINT
  5
2F3
  8
DEFPOINTS
 62
     0
 10
0.0
 20
7.0
 30
0.0
  0
POINT
  5
2F4
  8
DEFPOINTS
 62
     0
 10
0.0
 20
0.0
 30
0.0
  0
POINT
  5
2F5
  8
DEFPOINTS
 62
     0
 10
12.0
 20
-0.0000000000000034
 30
0.0
  0
ENDBLK
  5
2D7
  8
0
  0
BLOCK
  8
0
  2
*D5
 70
     1
 10
0.0
 20
0.0
 30
0.0
  3
*D5
  1

  0
LINE
  5
2F6
  8
1
 10
2.0
 20
-0.0000000000000006
 30
0.0
 11
13.0
 21
-0.0000000000000037
 31
0.0
  0
LINE
  5
2F7
  8
1
 10
-0.5
 20
-6.0
 30
0.0
 11
13.0
 21
-6.0000000000000044
 31
0.0
  0
LINE
  5
2F8
  8
1
 10
12.0
 20
0.9999999999999966
 30
0.0
 11
12.0
 21
-7.0000000000000044
 31
0.0
  0
INSERT
  5
2F9
  8
1
  2
_OBLIQUE
 10
12.0
 20
-0.0000000000000034
 30
0.0
 41
2.0
 42
2.0
 43
2.0
 50
90.0
  0
INSERT
  5
2FA
  8
1
  2
_OBLIQUE
 10
12.0
 20
-6.0000000000000044
 30
0.0
 41
2.0
 42
2.0
 43
2.0
 50
270.0
  0
TEXT
  5
2FB
  8
0
 10
10.9331514324693
 20
-4.339358799454299
 30
0.0
 40
3.5
  1
6
 50
90.0
  7
BESCHLAG
  0
POINT
  5
2FC
  8
DEFPOINTS
 62
     0
 10
0.0
 20
0.0
 30
0.0
  0
POINT
  5
2FD
  8
DEFPOINTS
 62
     0
 10
-2.5
 20
-6.0
 30
0.0
  0
POINT
  5
2FE
  8
DEFPOINTS
 62
     0
 10
12.0
 20
-6.0000000000000044
 30
0.0
  0
ENDBLK
  5
2E3
  8
0
  0
ENDSEC
  0
SECTION
  2
ENTITIES
  0
INSERT
  5
25B
  8
5
  2
NULLPUNKT
 10
0.0
 20
0.0
 30
0.0
  0
POLYLINE
  5
2B3
  8
6
 66
     1
 10
0.0
 20
0.0
 30
0.0
  0
VERTEX
  5
3C8
  8
6
 10
-1.145235821643382
 20
-6.0
 30
0.0
 42
-0.0971882558108869
  0
VERTEX
  5
3C9
  8
6
 10
-2.806501672670719
 20
1.4422879552154191
 30
0.0
 42
0.1329999682531278
  0
VERTEX
  5
3CA
  8
6
 10
-3.2140905620462941
 20
3.814713262902159
 30
0.0
 42
-0.5950444255291105
  0
VERTEX
  5
3CB
  8
6
 10
-2.5
 20
5.1304000537710399
 30
0.0
 42
-0.5950444255293999
  0
VERTEX
  5
3CC
  8
6
 10
-1.785909437953705
 20
3.814713262901591
 30
0.0
 42
0.1328005891597704
  0
VERTEX
  5
3CD
  8
6
 10
-2.1938367368084069
 20
1.4458807338670561
 30
0.0
 42
0.0918870041333806
  0
VERTEX
  5
3CE
  8
6
 10
-0.51270016343301
 20
-6.0
 30
0.0
  0
SEQEND
  5
3CF
  8
6
  0
POLYLINE
  5
2B4
  8
1
 66
     1
 10
0.0
 20
0.0
 30
0.0
  0
VERTEX
  5
3D0
  8
1
 10
-5.0
 20
0.0
 30
0.0
  0
VERTEX
  5
3D1
  8
1
 10
0.0
 20
0.0
 30
0.0
  0
SEQEND
  5
3D2
  8
1
  0
INSERT
  5
2B5
  8
2
  2
*X2
 10
-167.60463514665111
 20
471.76627546060109
 30
0.0
1001
ACAD
1000
HATCH
1002
{
1070
    16
1000
_U,I
1040
1.0
1040
0.7853981633974483
1070
     0
1002
}
  0
DIMENSION
  5
2B6
  8
1
  2
*D3
 10
0.0000000000000007
 20
19.0
 30
0.0
 11
-2.4999999999999991
 21
21.779843110504771
 31
0.0
 70
     0
 13
-5.0
 23
7.0
 33
0.0
 14
0.0
 24
7.0
 34
0.0
  0
CIRCLE
  5
2B7
  8
6
 10
-2.5
 20
4.2787699097186751
 30
0.0
 40
0.5425533030331441
  0
POLYLINE
  5
2B8
  8
6
 66
     1
 10
0.0
 20
0.0
 30
0.0
 70
     1
  0
VERTEX
  5
3D3
  8
6
 10
-4.200000000000272
 20
1.0
 30
0.0
  0
VERTEX
  5
3D4
  8
6
 10
-4.200000000000272
 20
5.7000000000000446
 30
0.0
 42
-0.4142135623730951
  0
VERTEX
  5
3D5
  8
6
 10
-3.9000000000000901
 20
6.0
 30
0.0
  0
VERTEX
  5
3D6
  8
6
 10
-2.5
 20
6.0
 30
0.0
  0
VERTEX
  5
3D7
  8
6
 10
-1.0999999999999091
 20
6.0
 30
0.0
 42
-0.4142135623730951
  0
VERTEX
  5
3D8
  8
6
 10
-0.8000000000001818
 20
5.7000000000000446
 30
0.0
  0
VERTEX
  5
3D9
  8
6
 10
-0.8000000000001818
 20
1.0
 30
0.0
  0
VERTEX
  5
3DA
  8
6
 10
-1.0999999999999091
 20
1.0
 30
0.0
 42
0.4142135623730951
  0
VERTEX
  5
3DB
  8
6
 10
-1.25
 20
0.8499999999999091
 30
0.0
  0
VERTEX
  5
3DC
  8
6
 10
-1.25
 20
0.7999999999999546
 30
0.0
 42
0.4142135623730951
  0
VERTEX
  5
3DD
  8
6
 10
-0.4500000000002729
 20
0.0
 30
0.0
  0
VERTEX
  5
3DE
  8
6
 10
-0.1500000000000909
 20
0.0
 30
0.0
 42
0.4142135623730951
  0
VERTEX
  5
3DF
  8
6
 10
0.0
 20
0.1499999999998636
 30
0.0
  0
VERTEX
  5
3E0
  8
6
 10
0.0
 20
1.186602540378316
 30
0.0
  0
VERTEX
  5
3E1
  8
6
 10
0.0799038105674299
 20
1.325000000000045
 30
0.0
 42
0.2679491924310219
  0
VERTEX
  5
3E2
  8
6
 10
0.0799038105674299
 20
1.4749999999999091
 30
0.0
  0
VERTEX
  5
3E3
  8
6
 10
0.0
 20
1.6133974596216369
 30
0.0
  0
VERTEX
  5
3E4
  8
6
 10
0.0
 20
1.686602540378316
 30
0.0
  0
VERTEX
  5
3E5
  8
6
 10
0.0799038105674299
 20
1.825000000000045
 30
0.0
 42
0.2679491924310219
  0
VERTEX
  5
3E6
  8
6
 10
0.0799038105674299
 20
1.9749999999999091
 30
0.0
  0
VERTEX
  5
3E7
  8
6
 10
0.0
 20
2.1133974596216372
 30
0.0
  0
VERTEX
  5
3E8
  8
6
 10
0.0
 20
2.186602540378316
 30
0.0
  0
VERTEX
  5
3E9
  8
6
 10
0.0799038105674299
 20
2.325000000000045
 30
0.0
 42
0.2679491924310219
  0
VERTEX
  5
3EA
  8
6
 10
0.0799038105674299
 20
2.4749999999999091
 30
0.0
  0
VERTEX
  5
3EB
  8
6
 10
0.0
 20
2.6133974596216372
 30
0.0
  0
VERTEX
  5
3EC
  8
6
 10
0.0
 20
6.5
 30
0.0
 42
0.4142135623730951
  0
VERTEX
  5
3ED
  8
6
 10
-0.5
 20
7.0
 30
0.0
  0
VERTEX
  5
3EE
  8
6
 10
-2.5
 20
7.0
 30
0.0
  0
VERTEX
  5
3EF
  8
6
 10
-4.5
 20
7.0
 30
0.0
 42
0.4142135623730951
  0
VERTEX
  5
3F0
  8
6
 10
-5.0
 20
6.5
 30
0.0
  0
VERTEX
  5
3F1
  8
6
 10
-5.0
 20
2.6133974596216372
 30
0.0
  0
VERTEX
  5
3F2
  8
6
 10
-5.0799038105678838
 20
2.4749999999999091
 30
0.0
 42
0.2679491924310219
  0
VERTEX
  5
3F3
  8
6
 10
-5.0799038105678838
 20
2.325000000000045
 30
0.0
  0
VERTEX
  5
3F4
  8
6
 10
-5.0
 20
2.186602540378316
 30
0.0
  0
VERTEX
  5
3F5
  8
6
 10
-5.0
 20
2.1133974596216372
 30
0.0
  0
VERTEX
  5
3F6
  8
6
 10
-5.0799038105678838
 20
1.9749999999999091
 30
0.0
 42
0.2679491924310219
  0
VERTEX
  5
3F7
  8
6
 10
-5.0799038105678838
 20
1.825000000000045
 30
0.0
  0
VERTEX
  5
3F8
  8
6
 10
-5.0
 20
1.686602540378316
 30
0.0
  0
VERTEX
  5
3F9
  8
6
 10
-5.0
 20
1.6133974596216369
 30
0.0
  0
VERTEX
  5
3FA
  8
6
 10
-5.0799038105678838
 20
1.4749999999999091
 30
0.0
 42
0.2679491924310219
  0
VERTEX
  5
3FB
  8
6
 10
-5.0799038105678838
 20
1.325000000000045
 30
0.0
  0
VERTEX
  5
3FC
  8
6
 10
-5.0
 20
1.186602540378316
 30
0.0
  0
VERTEX
  5
3FD
  8
6
 10
-5.0
 20
0.1499999999998636
 30
0.0
 42
0.4142135623730951
  0
VERTEX
  5
3FE
  8
6
 10
-4.8499999999999091
 20
0.0
 30
0.0
  0
VERTEX
  5
3FF
  8
6
 10
-4.550000000000181
 20
0.0
 30
0.0
 42
0.4142135623730951
  0
VERTEX
  5
400
  8
6
 10
-3.75
 20
0.7999999999999546
 30
0.0
  0
VERTEX
  5
401
  8
6
 10
-3.75
 20
0.8499999999999091
 30
0.0
 42
0.4142135623730951
  0
VERTEX
  5
402
  8
6
 10
-3.9000000000000901
 20
1.0
 30
0.0
  0
SEQEND
  5
403
  8
6
  0
POLYLINE
  5
2B9
  8
4
 66
     1
 10
0.0
 20
0.0
 30
0.0
 70
     1
  0
VERTEX
  5
404
  8
4
 10
-5.0
 20
0.0
 30
0.0
  0
VERTEX
  5
405
  8
4
 10
-5.0
 20
7.0
 30
0.0
  0
VERTEX
  5
406
  8
4
 10
0.0
 20
7.0
 30
0.0
  0
VERTEX
  5
407
  8
4
 10
0.0
 20
0.0
 30
0.0
  0
SEQEND
  5
408
  8
4
  0
POLYLINE
  5
2BA
  8
5
 66
     1
 10
0.0
 20
0.0
 30
0.0
  0
VERTEX
  5
409
  8
5
 10
-6.0
 20
0.0
 30
0.0
  0
VERTEX
  5
40A
  8
5
 10
-5.0
 20
0.0
 30
0.0
  0
VERTEX
  5
40B
  8
5
 10
-5.0
 20
7.0
 30
0.0
  0
VERTEX
  5
40C
  8
5
 10
0.0
 20
7.0
 30
0.0
  0
VERTEX
  5
40D
  8
5
 10
0.0
 20
0.0
 30
0.0
  0
VERTEX
  5
40E
  8
5
 10
1.0
 20
0.0
 30
0.0
  0
SEQEND
  5
40F
  8
5
  0
POLYLINE
  5
2BB
  8
6
 66
     1
 10
0.0
 20
0.0
 30
0.0
  0
VERTEX
  5
410
  8
6
 10
-1.7294789190618749
 20
-5.9730663836799058
 30
0.0
 42
-0.0871219970094961
  0
VERTEX
  5
411
  8
6
 10
-3.1932730853159219
 20
1.463302445744147
 30
0.0
 42
0.1324695894867593
  0
VERTEX
  5
412
  8
6
 10
-3.5549542246003512
 20
3.629705934920139
 30
0.0
 42
-0.5867084866790316
  0
VERTEX
  5
413
  8
6
 10
-2.5
 20
5.5174032127520141
 30
0.0
 42
-0.5867084866791127
  0
VERTEX
  5
414
  8
6
 10
-1.4450457754001029
 20
3.6297059349199108
 30
0.0
 42
0.132607238862008
  0
VERTEX
  5
415
  8
6
 10
-1.8065030423417729
 20
1.461031223654117
 30
0.0
 42
0.1319966489652039
  0
VERTEX
  5
416
  8
6
 10
0.0705210809383061
 20
-5.9730663836799058
 30
0.0
  0
SEQEND
  5
417
  8
6
  0
POLYLINE
  5
2BC
  8
6
 66
     1
 10
0.0
 20
0.0
 30
0.0
 70
     1
  0
VERTEX
  5
418
  8
6
 10
-3.3453969203983429
 20
1.2269336163201381
 30
0.0
  0
VERTEX
  5
419
  8
6
 10
-3.6547210809380881
 20
1.2269336163201381
 30
0.0
 42
-0.4142135623730951
  0
VERTEX
  5
41A
  8
6
 10
-4.0705210809383061
 20
1.642733616320128
 30
0.0
  0
VERTEX
  5
41B
  8
6
 10
-4.0705210809383061
 20
5.5842000000000089
 30
0.0
 42
-0.4142135623730951
  0
VERTEX
  5
41C
  8
6
 10
-3.6547210809380881
 20
6.0
 30
0.0
  0
VERTEX
  5
41D
  8
6
 10
-1.345278919061911
 20
6.0
 30
0.0
 42
-0.4142135623730951
  0
VERTEX
  5
41E
  8
6
 10
-0.9294789190616938
 20
5.5842000000000089
 30
0.0
  0
VERTEX
  5
41F
  8
6
 10
-0.9294789190616938
 20
1.642733616320128
 30
0.0
 42
-0.4142135623730951
  0
VERTEX
  5
420
  8
6
 10
-1.345278919061911
 20
1.2269336163201381
 30
0.0
  0
VERTEX
  5
421
  8
6
 10
-1.654603079601656
 20
1.2269336163201381
 30
0.0
  0
VERTEX
  5
422
  8
6
 10
-1.654603079601656
 20
1.642733616320128
 30
0.0
  0
VERTEX
  5
423
  8
6
 10
-1.45867891906164
 20
1.642733616320128
 30
0.0
 42
0.4142135623730945
  0
VERTEX
  5
424
  8
6
 10
-1.345278919061911
 20
1.756133616320084
 30
0.0
  0
VERTEX
  5
425
  8
6
 10
-1.345278919061911
 20
5.470800000000053
 30
0.0
 42
0.4142135623730948
  0
VERTEX
  5
426
  8
6
 10
-1.45867891906164
 20
5.5842000000000089
 30
0.0
  0
VERTEX
  5
427
  8
6
 10
-3.5413210809383591
 20
5.5842000000000089
 30
0.0
 42
0.4142135623730951
  0
VERTEX
  5
428
  8
6
 10
-3.6547210809385429
 20
5.470800000000053
 30
0.0
  0
VERTEX
  5
429
  8
6
 10
-3.6547210809380881
 20
1.756133616320084
 30
0.0
 42
0.4142135623730955
  0
VERTEX
  5
42A
  8
6
 10
-3.5413210809383591
 20
1.642733616320128
 30
0.0
  0
VERTEX
  5
42B
  8
6
 10
-3.3453969203983429
 20
1.642733616320128
 30
0.0
  0
SEQEND
  5
42C
  8
6
  0
DIMENSION
  5
2BD
  8
1
  2
*D4
 10
12.0
 20
-0.0000000000000034
 30
0.0
 11
9.25
 21
3.4999999999999978
 31
0.0
 70
     0
 13
0.0
 23
7.0
 33
0.0
 14
0.0
 24
0.0
 34
0.0
 50
90.0
  0
DIMENSION
  5
2BE
  8
1
  2
*D5
 10
12.0
 20
-6.0000000000000044
 30
0.0
 11
9.21299454297408
 21
-3.0000000000000009
 31
0.0
 70
     0
 13
0.0
 23
0.0
 33
0.0
 14
-2.5
 24
-6.0
 34
0.0
 50
90.0
  0
LINE
  5
2BF
  8
5
 10
-5.0
 20
-6.0
 30
0.0
 11
0.0
 21
-6.0
 31
0.0
  0
TEXT
  5
304
  8
1
 10
-3.9477480882230789
 20
25.095713105317031
 30
0.0
 40
2.5
  1
Hebgo 131/751
 41
0.9
  7
BESCHLAG
  0
VIEWPORT
  5
22
 67
     1
  8
0
 10
210.0
 20
170.2366863905325
 30
0.0
 40
420.0
 41
340.47337278106511
 68
     1
 69
     1
1001
ACAD
1000
MVIEW
1002
{
1070
    16
1010
0.0
1020
0.0
1030
0.0
1010
0.0
1020
0.0
1030
1.0
1040
0.0
1040
340.47337278106511
1040
210.0
1040
170.2366863905325
1040
50.0
1040
0.0
1040
0.0
1070
     0
1070
   100
1070
     1
1070
     1
1070
     0
1070
     0
1070
     0
1070
     0
1040
0.0
1040
0.0
1040
0.0
1040
5.0
1040
5.0
1040
10.0
1040
10.0
1070
     0
1002
{
1002
}
1002
}
  0
ENDSEC
  0
EOF
