  0
SECTION
  2
HEADER
  9
$ACADVER
  1
AC1009
  9
$INSBASE
 10
0.0
 20
0.0
 30
0.0
  9
$EXTMIN
 10
-5.8593741337062957
 20
-15.01464758186443
 30
-0.000000000000013
  9
$EXTMAX
 10
43.89953670778732
 20
28.701782783844799
 30
0.0000000000000023
  9
$LIMMIN
 10
-150.0
 20
-150.0
  9
$LIMMAX
 10
150.0
 20
150.0
  9
$ORTHOMODE
 70
     0
  9
$REGENMODE
 70
     1
  9
$FILLMODE
 70
     1
  9
$QTEXTMODE
 70
     0
  9
$MIRRTEXT
 70
     0
  9
$DRAGMODE
 70
     2
  9
$LTSCALE
 40
1.0
  9
$OSMODE
 70
   111
  9
$ATTMODE
 70
     1
  9
$TEXTSIZE
 40
3.5
  9
$TRACEWID
 40
1.0
  9
$TEXTSTYLE
  7
BESCHLAG
  9
$CLAYER
  8
0
  9
$CELTYPE
  6
BYLAYER
  9
$CECOLOR
 62
   256
  9
$DIMSCALE
 40
1.0
  9
$DIMASZ
 40
2.0
  9
$DIMEXO
 40
2.0
  9
$DIMDLI
 40
0.0
  9
$DIMRND
 40
0.0
  9
$DIMDLE
 40
1.0
  9
$DIMEXE
 40
1.0
  9
$DIMTP
 40
0.0
  9
$DIMTM
 40
0.0
  9
$DIMTXT
 40
3.5
  9
$DIMCEN
 40
0.0
  9
$DIMTSZ
 40
0.0
  9
$DIMTOL
 70
     0
  9
$DIMLIM
 70
     0
  9
$DIMTIH
 70
     0
  9
$DIMTOH
 70
     0
  9
$DIMSE1
 70
     0
  9
$DIMSE2
 70
     0
  9
$DIMTAD
 70
     1
  9
$DIMZIN
 70
     8
  9
$DIMBLK
  1

  9
$DIMASO
 70
     1
  9
$DIMSHO
 70
     1
  9
$DIMPOST
  1

  9
$DIMAPOST
  1

  9
$DIMALT
 70
     0
  9
$DIMALTD
 70
     2
  9
$DIMALTF
 40
0.039370078740157
  9
$DIMLFAC
 40
1.0
  9
$DIMTOFL
 70
     1
  9
$DIMTVP
 40
0.0
  9
$DIMTIX
 70
     1
  9
$DIMSOXD
 70
     0
  9
$DIMSAH
 70
     1
  9
$DIMBLK1
  1
OBLIQUE
  9
$DIMBLK2
  1
OBLIQUE
  9
$DIMSTYLE
  2
OPO-SSTRICH
  9
$DIMCLRD
 70
   256
  9
$DIMCLRE
 70
   256
  9
$DIMCLRT
 70
   256
  9
$DIMTFAC
 40
0.7114285714285716
  9
$DIMGAP
 40
1.0
  9
$LUNITS
 70
     2
  9
$LUPREC
 70
     1
  9
$SKETCHINC
 40
1.0
  9
$FILLETRAD
 40
0.0
  9
$AUNITS
 70
     0
  9
$AUPREC
 70
     1
  9
$MENU
  1
D:\ACL_CGWG\CGTAB13
  9
$ELEVATION
 40
0.0
  9
$PELEVATION
 40
0.0
  9
$THICKNESS
 40
0.0
  9
$LIMCHECK
 70
     0
  9
$BLIPMODE
 70
     0
  9
$CHAMFERA
 40
1.0
  9
$CHAMFERB
 40
1.0
  9
$SKPOLY
 70
     0
  9
$TDCREATE
 40
2451739.8528653011
  9
$TDUPDATE
 40
2452086.7431113422
  9
$TDINDWG
 40
0.0040454861
  9
$TDUSRTIMER
 40
0.0040454861
  9
$USRTIMER
 70
     1
  9
$ANGBASE
 50
0.0
  9
$ANGDIR
 70
     0
  9
$PDMODE
 70
    35
  9
$PDSIZE
 40
5.0
  9
$PLINEWID
 40
0.0
  9
$COORDS
 70
     1
  9
$SPLFRAME
 70
     0
  9
$SPLINETYPE
 70
     6
  9
$SPLINESEGS
 70
     8
  9
$ATTDIA
 70
     1
  9
$ATTREQ
 70
     1
  9
$HANDLING
 70
-16383
  9
$HANDSEED
  5
588
  9
$SURFTAB1
 70
    12
  9
$SURFTAB2
 70
    12
  9
$SURFTYPE
 70
     6
  9
$SURFU
 70
    12
  9
$SURFV
 70
    12
  9
$UCSNAME
  2

  9
$UCSORG
 10
0.0
 20
0.0
 30
0.0
  9
$UCSXDIR
 10
1.0
 20
0.0
 30
0.0
  9
$UCSYDIR
 10
0.0
 20
1.0
 30
0.0
  9
$PUCSNAME
  2

  9
$PUCSORG
 10
0.0
 20
0.0
 30
0.0
  9
$PUCSXDIR
 10
1.0
 20
0.0
 30
0.0
  9
$PUCSYDIR
 10
0.0
 20
1.0
 30
0.0
  9
$USERI1
 70
     0
  9
$USERI2
 70
     0
  9
$USERI3
 70
     0
  9
$USERI4
 70
     0
  9
$USERI5
 70
     0
  9
$USERR1
 40
0.0
  9
$USERR2
 40
0.0
  9
$USERR3
 40
0.0
  9
$USERR4
 40
0.0
  9
$USERR5
 40
0.0
  9
$WORLDVIEW
 70
     1
  9
$SHADEDGE
 70
     3
  9
$SHADEDIF
 70
    70
  9
$TILEMODE
 70
     1
  9
$MAXACTVP
 70
    48
  9
$PLIMCHECK
 70
     0
  9
$PEXTMIN
 10
1.0000000000000000E+020
 20
1.0000000000000000E+020
 30
1.0000000000000000E+020
  9
$PEXTMAX
 10
-1.0000000000000000E+020
 20
-1.0000000000000000E+020
 30
-1.0000000000000000E+020
  9
$PLIMMIN
 10
0.0
 20
0.0
  9
$PLIMMAX
 10
420.0
 20
297.0
  9
$UNITMODE
 70
     0
  9
$VISRETAIN
 70
     1
  9
$PLINEGEN
 70
     0
  9
$PSLTSCALE
 70
     1
  0
ENDSEC
  0
SECTION
  2
TABLES
  0
TABLE
  2
VPORT
 70
     2
  0
VPORT
  2
*ACTIVE
 70
     0
 10
0.0
 20
0.0
 11
1.0
 21
1.0
 12
19.020081287040512
 22
6.8435676009901849
 13
0.0
 23
0.0
 14
0.5
 24
0.5
 15
10.0
 25
10.0
 16
0.0
 26
0.0
 36
1.0
 17
0.0
 27
0.0
 37
0.0
 40
44.071367554064118
 41
1.6070460704607039
 42
50.0
 43
0.0
 44
0.0
 50
0.0
 51
0.0
 71
     0
 72
   800
 73
     1
 74
     1
 75
     0
 76
     0
 77
     0
 78
     0
  0
ENDTAB
  0
TABLE
  2
LTYPE
 70
     1
  0
LTYPE
  2
CONTINUOUS
 70
     0
  3
_______________________________________________
 72
    65
 73
     2
 40
1.0
 49
1.0
 49
0.0
  0
ENDTAB
  0
TABLE
  2
LAYER
 70
     7
  0
LAYER
  2
0
 70
     0
 62
    30
  6
CONTINUOUS
  0
LAYER
  2
1
 70
     0
 62
     2
  6
CONTINUOUS
  0
LAYER
  2
2
 70
     0
 62
     9
  6
CONTINUOUS
  0
LAYER
  2
4
 70
     1
 62
     4
  6
CONTINUOUS
  0
LAYER
  2
5
 70
     0
 62
     1
  6
CONTINUOUS
  0
LAYER
  2
6
 70
     0
 62
     3
  6
CONTINUOUS
  0
LAYER
  2
DEFPOINTS
 70
     0
 62
     7
  6
CONTINUOUS
  0
ENDTAB
  0
TABLE
  2
STYLE
 70
     2
  0
STYLE
  2
STANDARD
 70
     0
 40
0.0
 41
1.0
 50
0.0
 71
     0
 42
2.5
  3
txt
  4

  0
STYLE
  2
BESCHLAG
 70
     0
 40
0.0
 41
1.0
 50
0.0
 71
     0
 42
3.5
  3
txt
  4

  0
ENDTAB
  0
TABLE
  2
VIEW
 70
     0
  0
ENDTAB
  0
TABLE
  2
UCS
 70
     0
  0
ENDTAB
  0
TABLE
  2
APPID
 70
     1
  0
APPID
  2
ACAD
 70
     0
  0
ENDTAB
  0
TABLE
  2
DIMSTYLE
 70
     1
  0
DIMSTYLE
  2
OPO-SSTRICH
 70
     0
  3

  4

  5

  6
OBLIQUE
  7
OBLIQUE
 40
1.0
 41
2.0
 42
2.0
 43
0.0
 44
1.0
 45
0.0
 46
1.0
 47
0.0
 48
0.0
140
3.5
141
0.0
142
0.0
143
0.039370078740157
144
1.0
145
0.0
146
0.7114285714285716
147
1.0
 71
     0
 72
     0
 73
     0
 74
     0
 75
     0
 76
     0
 77
     1
 78
     8
170
     0
171
     2
172
     1
173
     1
174
     1
175
     0
176
   256
177
   256
178
   256
  0
ENDTAB
  0
ENDSEC
  0
SECTION
  2
BLOCKS
  0
BLOCK
  8
0
  2
$MODEL_SPACE
 70
     0
 10
0.0
 20
0.0
 30
0.0
  3
$MODEL_SPACE
  1

  0
ENDBLK
  5
1C
  8
0
  0
BLOCK
 67
     1
  8
0
  2
$PAPER_SPACE
 70
     0
 10
0.0
 20
0.0
 30
0.0
  3
$PAPER_SPACE
  1

  0
ENDBLK
  5
19
 67
     1
  8
0
  0
BLOCK
  8
0
  2
_OBLIQUE
 70
     0
 10
0.0
 20
0.0
 30
0.0
  3
_OBLIQUE
  1

  0
LINE
  5
204
  8
0
 62
     0
 10
-0.5
 20
-0.5
 30
0.0
 11
0.5
 21
0.5
 31
0.0
  0
ENDBLK
  5
206
  8
0
  0
BLOCK
  8
0
  2
NULLPUNKT
 70
     0
 10
0.0
 20
0.0
 30
0.0
  3
NULLPUNKT
  1

  0
SOLID
  5
254
  8
5
 10
0.0
 20
0.0
 30
0.0
 11
2.0
 21
0.0
 31
0.0
 12
0.0
 22
-2.0
 32
0.0
 13
0.0
 23
-2.0
 33
0.0
  0
SOLID
  5
255
  8
5
 10
0.0
 20
0.0
 30
0.0
 11
-2.0
 21
0.0
 31
0.0
 12
0.0
 22
2.0
 32
0.0
 13
0.0
 23
2.0
 33
0.0
  0
POLYLINE
  5
256
  8
5
 66
     1
 10
0.0
 20
0.0
 30
0.0
  0
VERTEX
  5
4AE
  8
5
 10
0.0
 20
2.0
 30
0.0
  0
VERTEX
  5
4AF
  8
5
 10
0.0
 20
-2.0
 30
0.0
  0
SEQEND
  5
4B0
  8
5
  0
POLYLINE
  5
257
  8
5
 66
     1
 10
0.0
 20
0.0
 30
0.0
  0
VERTEX
  5
4B1
  8
5
 10
-2.0
 20
0.0
 30
0.0
  0
VERTEX
  5
4B2
  8
5
 10
2.0
 20
0.0
 30
0.0
  0
SEQEND
  5
4B3
  8
5
  0
CIRCLE
  5
258
  8
5
 10
0.0
 20
0.0
 30
0.0
 40
2.0
  0
ENDBLK
  5
25A
  8
0
  0
BLOCK
  8
0
  2
*X2
 70
     1
 10
0.0
 20
0.0
 30
0.0
  3
*X2
  1

  0
LINE
  5
29E
  8
0
 62
     0
 10
125.5783164806042
 20
-532.03099002288479
 30
0.0
 11
126.4771568491652
 21
-531.13214965432405
 31
0.0
  0
LINE
  5
29F
  8
0
 62
     0
 10
129.679085578696
 20
-527.93022092479305
 30
0.0
 11
130.54045962166029
 21
-527.06884688182879
 31
0.0
  0
LINE
  5
2A0
  8
0
 62
     0
 10
125.6771568491654
 20
-530.51793609195045
 30
0.0
 11
126.4771568491652
 21
-529.71793609195095
 31
0.0
  0
LINE
  5
2A1
  8
0
 62
     0
 10
128.2827186288045
 20
-527.9123743123115
 30
0.0
 11
129.2827186288045
 21
-526.9123743123115
 31
0.0
  0
LINE
  5
2A2
  8
0
 62
     0
 10
125.6771568491654
 20
-529.10372252957745
 30
0.0
 11
126.4771568491652
 21
-528.30372252957784
 31
0.0
  0
LINE
  5
2A3
  8
0
 62
     0
 10
126.8685050664314
 20
-527.9123743123115
 30
0.0
 11
127.8685050664314
 21
-526.9123743123115
 31
0.0
  0
LINE
  5
2A4
  8
0
 62
     0
 10
125.6771568491654
 20
-527.68950896720435
 30
0.0
 11
126.4542915040584
 21
-526.9123743123115
 31
0.0
  0
LINE
  5
2A5
  8
0
 62
     0
 10
125.6771568491654
 20
-533.34636321669677
 30
0.0
 11
126.4771568491652
 21
-532.54636321669705
 31
0.0
  0
LINE
  5
2A6
  8
0
 62
     0
 10
129.8771568491652
 20
-529.14636321669695
 30
0.0
 11
130.67715684916541
 21
-528.34636321669666
 31
0.0
  0
LINE
  5
2A7
  8
0
 62
     0
 10
129.8771568491652
 20
-530.56057677907006
 30
0.0
 11
130.67715684916541
 21
-529.76057677906977
 31
0.0
  0
LINE
  5
2A8
  8
0
 62
     0
 10
129.8771568491652
 20
-531.97479034144305
 30
0.0
 11
130.67715684916541
 21
-531.17479034144287
 31
0.0
  0
LINE
  5
2A9
  8
0
 62
     0
 10
129.6259770073944
 20
-533.64018374558702
 30
0.0
 11
130.77556710096681
 21
-532.49059365201458
 31
0.0
  0
ENDBLK
  5
2AB
  8
0
  0
BLOCK
  8
0
  2
*X3
 70
     1
 10
0.0
 20
0.0
 30
0.0
  3
*X3
  1

  0
LINE
  5
2AD
  8
0
 62
     0
 10
156.37895089902651
 20
-532.3430539766706
 30
0.0
 11
157.20439883842161
 21
-531.51760603727541
 31
0.0
  0
LINE
  5
2AE
  8
0
 62
     0
 10
160.59267564127339
 20
-528.12932923442372
 30
0.0
 11
161.39675046373341
 21
-527.32525441196367
 31
0.0
  0
LINE
  5
2AF
  8
0
 62
     0
 10
156.404398838422
 20
-530.90339247490203
 30
0.0
 11
157.20439883842161
 21
-530.10339247490231
 31
0.0
  0
LINE
  5
2B0
  8
0
 62
     0
 10
159.3954170010125
 20
-527.9123743123115
 30
0.0
 11
160.3954170010125
 21
-526.9123743123115
 31
0.0
  0
LINE
  5
2B1
  8
0
 62
     0
 10
156.404398838422
 20
-529.48917891252904
 30
0.0
 11
157.20439883842161
 21
-528.6891789125292
 31
0.0
  0
LINE
  5
2B2
  8
0
 62
     0
 10
157.9812034386394
 20
-527.9123743123115
 30
0.0
 11
158.98120343863951
 21
-526.9123743123115
 31
0.0
  0
LINE
  5
2B3
  8
0
 62
     0
 10
156.404398838422
 20
-528.07496535015594
 30
0.0
 11
157.5669898762664
 21
-526.9123743123115
 31
0.0
  0
LINE
  5
2B4
  8
0
 62
     0
 10
156.404398838422
 20
-533.73181959964825
 30
0.0
 11
157.22384412575869
 21
-532.9123743123115
 31
0.0
  0
LINE
  5
2B5
  8
0
 62
     0
 10
160.6043988384217
 20
-529.53181959964843
 30
0.0
 11
161.40439883842191
 21
-528.73181959964825
 31
0.0
  0
LINE
  5
2B6
  8
0
 62
     0
 10
160.6043988384217
 20
-530.94603316202154
 30
0.0
 11
161.40439883842191
 21
-530.14603316202135
 31
0.0
  0
LINE
  5
2B7
  8
0
 62
     0
 10
160.6043988384217
 20
-532.36024672439464
 30
0.0
 11
161.49743737029451
 21
-531.46720819252175
 31
0.0
  0
LINE
  5
2B8
  8
0
 62
     0
 10
160.56670421784079
 20
-533.81215490734871
 30
0.0
 11
161.404398838422
 21
-532.97446028676745
 31
0.0
  0
ENDBLK
  5
2BA
  8
0
  0
BLOCK
  8
0
  2
*D4
 70
     1
 10
0.0
 20
0.0
 30
0.0
  3
*D4
  1

  0
LINE
  5
33C
  8
1
 10
-4.8499999999999091
 20
9.0
 30
0.0
 11
-4.8499999999999082
 21
20.0
 31
0.0
  0
LINE
  5
33D
  8
1
 10
0.1500000000000911
 20
9.0
 30
0.0
 11
0.1500000000000917
 21
20.0
 31
0.0
  0
LINE
  5
33E
  8
1
 10
-5.8499999999999082
 20
19.0
 30
0.0
 11
1.1500000000000909
 21
19.0
 31
0.0
  0
INSERT
  5
33F
  8
1
  2
_OBLIQUE
 10
-4.8499999999999082
 20
19.0
 30
0.0
 41
2.0
 42
2.0
 43
2.0
 50
180.0
  0
INSERT
  5
340
  8
1
  2
_OBLIQUE
 10
0.1500000000000917
 20
19.0
 30
0.0
 41
2.0
 42
2.0
 43
2.0
  0
TEXT
  5
341
  8
0
 10
-3.7132332878580252
 20
20.059686221009539
 30
0.0
 40
3.5
  1
5
  7
BESCHLAG
  0
POINT
  5
342
  8
DEFPOINTS
 62
     0
 10
-4.8499999999999091
 20
7.0
 30
0.0
  0
POINT
  5
343
  8
DEFPOINTS
 62
     0
 10
0.1500000000000909
 20
7.0
 30
0.0
  0
POINT
  5
344
  8
DEFPOINTS
 62
     0
 10
0.1500000000000917
 20
19.0
 30
0.0
  0
ENDBLK
  5
2FF
  8
0
  0
BLOCK
  8
0
  2
*D5
 70
     1
 10
0.0
 20
0.0
 30
0.0
  3
*D5
  1

  0
LINE
  5
345
  8
1
 10
2.1500000000000901
 20
6.9999999999999991
 30
0.0
 11
13.150000000000089
 21
6.9999999999999956
 31
0.0
  0
LINE
  5
346
  8
1
 10
2.1500000000000901
 20
-0.0000000000000006
 30
0.0
 11
13.150000000000089
 21
-0.0000000000000037
 31
0.0
  0
LINE
  5
347
  8
1
 10
12.150000000000089
 20
7.9999999999999956
 30
0.0
 11
12.150000000000089
 21
-1.0000000000000031
 31
0.0
  0
INSERT
  5
348
  8
1
  2
_OBLIQUE
 10
12.150000000000089
 20
6.9999999999999956
 30
0.0
 41
2.0
 42
2.0
 43
2.0
 50
90.0
  0
INSERT
  5
349
  8
1
  2
_OBLIQUE
 10
12.150000000000089
 20
-0.0000000000000034
 30
0.0
 41
2.0
 42
2.0
 43
2.0
 50
270.0
  0
TEXT
  5
34A
  8
0
 10
11.150000000000089
 20
2.13557298772169
 30
0.0
 40
3.5
  1
7
 50
90.0
  7
BESCHLAG
  0
POINT
  5
34B
  8
DEFPOINTS
 62
     0
 10
0.1500000000000909
 20
7.0
 30
0.0
  0
POINT
  5
34C
  8
DEFPOINTS
 62
     0
 10
0.1500000000000909
 20
0.0
 30
0.0
  0
POINT
  5
34D
  8
DEFPOINTS
 62
     0
 10
12.150000000000089
 20
-0.0000000000000034
 30
0.0
  0
ENDBLK
  5
30B
  8
0
  0
BLOCK
  8
0
  2
*D6
 70
     1
 10
0.0
 20
0.0
 30
0.0
  3
*D6
  1

  0
LINE
  5
34E
  8
1
 10
2.1500000000000901
 20
-0.0000000000000006
 30
0.0
 11
13.150000000000089
 21
-0.0000000000000037
 31
0.0
  0
LINE
  5
34F
  8
1
 10
2.1500000000000901
 20
-13.0
 30
0.0
 11
13.150000000000089
 21
-13.0
 31
0.0
  0
LINE
  5
350
  8
1
 10
12.150000000000089
 20
0.9999999999999966
 30
0.0
 11
12.150000000000089
 21
-14.0
 31
0.0
  0
INSERT
  5
351
  8
1
  2
_OBLIQUE
 10
12.150000000000089
 20
-0.0000000000000034
 30
0.0
 41
2.0
 42
2.0
 43
2.0
 50
90.0
  0
INSERT
  5
352
  8
1
  2
_OBLIQUE
 10
12.150000000000089
 20
-13.0
 30
0.0
 41
2.0
 42
2.0
 43
2.0
 50
270.0
  0
TEXT
  5
353
  8
0
 10
11.08076398362901
 20
-9.3744884038199192
 30
0.0
 40
3.5
  1
13
 50
90.0
  7
BESCHLAG
  0
POINT
  5
354
  8
DEFPOINTS
 62
     0
 10
0.1500000000000909
 20
0.0
 30
0.0
  0
POINT
  5
355
  8
DEFPOINTS
 62
     0
 10
0.1500000000000909
 20
-13.0
 30
0.0
  0
POINT
  5
356
  8
DEFPOINTS
 62
     0
 10
12.150000000000089
 20
-13.0
 30
0.0
  0
ENDBLK
  5
317
  8
0
  0
BLOCK
  8
0
  2
*D7
 70
     1
 10
0.0
 20
0.0
 30
0.0
  3
*D7
  1

  0
LINE
  5
357
  8
1
 10
32.87724198925639
 20
7.0
 30
0.0
 11
43.87724198925639
 21
6.9999999999999956
 31
0.0
  0
LINE
  5
358
  8
1
 10
32.87724198925639
 20
-0.0000000000000006
 30
0.0
 11
43.87724198925639
 21
-0.0000000000000037
 31
0.0
  0
LINE
  5
359
  8
1
 10
42.87724198925639
 20
7.9999999999999973
 30
0.0
 11
42.87724198925639
 21
-1.0000000000000031
 31
0.0
  0
INSERT
  5
35A
  8
1
  2
_OBLIQUE
 10
42.87724198925639
 20
6.9999999999999956
 30
0.0
 41
2.0
 42
2.0
 43
2.0
 50
90.0
  0
INSERT
  5
35B
  8
1
  2
_OBLIQUE
 10
42.87724198925639
 20
-0.0000000000000034
 30
0.0
 41
2.0
 42
2.0
 43
2.0
 50
270.0
  0
TEXT
  5
35C
  8
0
 10
41.877241989256383
 20
2.135572987721694
 30
0.0
 40
3.5
  1
7
 50
90.0
  7
BESCHLAG
  0
POINT
  5
35D
  8
DEFPOINTS
 62
     0
 10
30.87724198925639
 20
7.0
 30
0.0
  0
POINT
  5
35E
  8
DEFPOINTS
 62
     0
 10
30.87724198925639
 20
0.0
 30
0.0
  0
POINT
  5
35F
  8
DEFPOINTS
 62
     0
 10
42.87724198925639
 20
-0.0000000000000034
 30
0.0
  0
ENDBLK
  5
323
  8
0
  0
BLOCK
  8
0
  2
*D8
 70
     1
 10
0.0
 20
0.0
 30
0.0
  3
*D8
  1

  0
LINE
  5
360
  8
1
 10
32.87724198925639
 20
-0.0000000000000006
 30
0.0
 11
43.87724198925639
 21
-0.0000000000000037
 31
0.0
  0
LINE
  5
361
  8
1
 10
30.37724198925639
 20
-14.0
 30
0.0
 11
43.87724198925639
 21
-14.0
 31
0.0
  0
LINE
  5
362
  8
1
 10
42.87724198925639
 20
0.9999999999999966
 30
0.0
 11
42.87724198925639
 21
-15.0
 31
0.0
  0
INSERT
  5
363
  8
1
  2
_OBLIQUE
 10
42.87724198925639
 20
-0.0000000000000034
 30
0.0
 41
2.0
 42
2.0
 43
2.0
 50
90.0
  0
INSERT
  5
364
  8
1
  2
_OBLIQUE
 10
42.87724198925639
 20
-14.0
 30
0.0
 41
2.0
 42
2.0
 43
2.0
 50
270.0
  0
TEXT
  5
365
  8
0
 10
41.870079642735242
 20
-9.8673260572987687
 30
0.0
 40
3.5
  1
14
 50
90.0
  7
BESCHLAG
  0
POINT
  5
366
  8
DEFPOINTS
 62
     0
 10
30.87724198925639
 20
0.0
 30
0.0
  0
POINT
  5
367
  8
DEFPOINTS
 62
     0
 10
28.37724198925639
 20
-14.0
 30
0.0
  0
POINT
  5
368
  8
DEFPOINTS
 62
     0
 10
42.87724198925639
 20
-14.0
 30
0.0
  0
ENDBLK
  5
32F
  8
0
  0
BLOCK
  8
0
  2
*D9
 70
     1
 10
0.0
 20
0.0
 30
0.0
  3
*D9
  1

  0
LINE
  5
369
  8
1
 10
25.87724198925639
 20
9.0
 30
0.0
 11
25.87724198925639
 21
20.0
 31
0.0
  0
LINE
  5
36A
  8
1
 10
30.87724198925639
 20
9.0
 30
0.0
 11
30.87724198925639
 21
20.0
 31
0.0
  0
LINE
  5
36B
  8
1
 10
24.87724198925639
 20
19.0
 30
0.0
 11
31.87724198925639
 21
19.0
 31
0.0
  0
INSERT
  5
36C
  8
1
  2
_OBLIQUE
 10
25.87724198925639
 20
19.0
 30
0.0
 41
2.0
 42
2.0
 43
2.0
 50
180.0
  0
INSERT
  5
36D
  8
1
  2
_OBLIQUE
 10
30.87724198925639
 20
19.0
 30
0.0
 41
2.0
 42
2.0
 43
2.0
  0
TEXT
  5
36E
  8
0
 10
27.014008701398271
 20
20.059686221009539
 30
0.0
 40
3.5
  1
5
  7
BESCHLAG
  0
POINT
  5
36F
  8
DEFPOINTS
 62
     0
 10
25.87724198925639
 20
7.0
 30
0.0
  0
POINT
  5
370
  8
DEFPOINTS
 62
     0
 10
30.87724198925639
 20
7.0
 30
0.0
  0
POINT
  5
371
  8
DEFPOINTS
 62
     0
 10
30.87724198925639
 20
19.0
 30
0.0
  0
ENDBLK
  5
33B
  8
0
  0
ENDSEC
  0
SECTION
  2
ENTITIES
  0
INSERT
  5
25B
  8
5
  2
NULLPUNKT
 10
0.0
 20
0.0
 30
0.0
  0
INSERT
  5
2DA
  8
2
  2
*X3
 10
-130.52715684916521
 20
533.91237431231139
 30
0.0
1001
ACAD
1000
HATCH
1002
{
1070
    16
1000
_U,I
1040
1.0
1040
0.7853981633974483
1070
     0
1002
}
  0
INSERT
  5
2DB
  8
2
  2
*X2
 10
-130.52715684916521
 20
533.91237431231139
 30
0.0
1001
ACAD
1000
HATCH
1002
{
1070
    16
1000
_U,I
1040
1.0
1040
0.7853981633974483
1070
     0
1002
}
  0
DIMENSION
  5
2DC
  8
1
  2
*D4
 10
0.1500000000000917
 20
19.0
 30
0.0
 11
-2.3499999999999082
 21
21.779843110504771
 31
0.0
 70
     0
 13
-4.8499999999999091
 23
7.0
 33
0.0
 14
0.1500000000000909
 24
7.0
 34
0.0
  0
DIMENSION
  5
2DD
  8
1
  2
*D5
 10
12.150000000000089
 20
-0.0000000000000034
 30
0.0
 11
9.4000000000000892
 21
3.4999999999999978
 31
0.0
 70
     0
 13
0.1500000000000909
 23
7.0
 33
0.0
 14
0.1500000000000909
 24
0.0
 34
0.0
 50
90.0
  0
DIMENSION
  5
2DE
  8
1
  2
*D6
 10
12.150000000000089
 20
-13.0
 30
0.0
 11
9.3618008185539825
 21
-6.5
 31
0.0
 70
     0
 13
0.1500000000000909
 23
0.0
 33
0.0
 14
0.1500000000000909
 24
-13.0
 34
0.0
 50
90.0
  0
POLYLINE
  5
2DF
  8
6
 66
     1
 10
0.0
 20
0.0
 30
0.0
 70
     1
  0
VERTEX
  5
4B4
  8
6
 10
-3.195396920398252
 20
1.2269336163201381
 30
0.0
  0
VERTEX
  5
4B5
  8
6
 10
-3.5047210809379972
 20
1.2269336163201381
 30
0.0
 42
-0.4142135623730951
  0
VERTEX
  5
4B6
  8
6
 10
-3.9205210809382152
 20
1.642733616320128
 30
0.0
  0
VERTEX
  5
4B7
  8
6
 10
-3.9205210809382152
 20
5.5842000000000089
 30
0.0
 42
-0.4142135623730951
  0
VERTEX
  5
4B8
  8
6
 10
-3.5047210809379972
 20
6.0
 30
0.0
  0
VERTEX
  5
4B9
  8
6
 10
-1.19527891906182
 20
6.0
 30
0.0
 42
-0.4142135623730951
  0
VERTEX
  5
4BA
  8
6
 10
-0.7794789190616031
 20
5.5842000000000089
 30
0.0
  0
VERTEX
  5
4BB
  8
6
 10
-0.7794789190616031
 20
1.642733616320128
 30
0.0
 42
-0.4142135623730951
  0
VERTEX
  5
4BC
  8
6
 10
-1.19527891906182
 20
1.2269336163201381
 30
0.0
  0
VERTEX
  5
4BD
  8
6
 10
-1.504603079601565
 20
1.2269336163201381
 30
0.0
  0
VERTEX
  5
4BE
  8
6
 10
-1.504603079601565
 20
1.642733616320128
 30
0.0
  0
VERTEX
  5
4BF
  8
6
 10
-1.3086789190615491
 20
1.642733616320128
 30
0.0
 42
0.4142135623730945
  0
VERTEX
  5
4C0
  8
6
 10
-1.19527891906182
 20
1.756133616320084
 30
0.0
  0
VERTEX
  5
4C1
  8
6
 10
-1.19527891906182
 20
5.470800000000053
 30
0.0
 42
0.4142135623730948
  0
VERTEX
  5
4C2
  8
6
 10
-1.3086789190615491
 20
5.5842000000000089
 30
0.0
  0
VERTEX
  5
4C3
  8
6
 10
-3.391321080938269
 20
5.5842000000000089
 30
0.0
 42
0.4142135623730951
  0
VERTEX
  5
4C4
  8
6
 10
-3.5047210809384519
 20
5.470800000000053
 30
0.0
  0
VERTEX
  5
4C5
  8
6
 10
-3.5047210809379972
 20
1.756133616320084
 30
0.0
 42
0.4142135623730955
  0
VERTEX
  5
4C6
  8
6
 10
-3.391321080938269
 20
1.642733616320128
 30
0.0
  0
VERTEX
  5
4C7
  8
6
 10
-3.195396920398252
 20
1.642733616320128
 30
0.0
  0
SEQEND
  5
4C8
  8
6
  0
CIRCLE
  5
2E0
  8
6
 10
-2.3499999999999091
 20
4.2787699097186751
 30
0.0
 40
0.5425533030331441
  0
LINE
  5
2E1
  8
5
 10
-4.8499999999999091
 20
-13.0
 30
0.0
 11
0.1500000000000909
 21
-13.0
 31
0.0
  0
POLYLINE
  5
2E2
  8
6
 66
     1
 10
0.0
 20
0.0
 30
0.0
  0
VERTEX
  5
4C9
  8
6
 10
-0.0640869423593813
 20
-12.82263685940608
 30
0.0
 42
-0.0444981926744291
  0
VERTEX
  5
4CA
  8
6
 10
-2.48333104879839
 20
1.436075705006487
 30
0.0
 42
0.1331579098238507
  0
VERTEX
  5
4CB
  8
6
 10
-2.912701881650718
 20
3.8994155208258681
 30
0.0
 42
-0.600780471392009
  0
VERTEX
  5
4CC
  8
6
 10
-2.3499999999999091
 20
4.9574032127518421
 30
0.0
 42
-0.600780471392009
  0
VERTEX
  5
4CD
  8
6
 10
-1.787298118349099
 20
3.8994155208258681
 30
0.0
 42
0.1331579098238511
  0
VERTEX
  5
4CE
  8
6
 10
-2.2166689512014268
 20
1.436075705006487
 30
0.0
 42
0.0644501105765824
  0
VERTEX
  5
4CF
  8
6
 10
0.3361232540610217
 20
-12.82263685940608
 30
0.0
  0
SEQEND
  5
4D0
  8
6
  0
POLYLINE
  5
2E3
  8
6
 66
     1
 10
0.0
 20
0.0
 30
0.0
  0
VERTEX
  5
4D1
  8
6
 10
-0.4878302447664283
 20
-12.82263685940608
 30
0.0
 42
-0.0420133543264273
  0
VERTEX
  5
4D2
  8
6
 10
-2.7633075576159172
 20
1.4494331061639509
 30
0.0
 42
0.1327522819770013
  0
VERTEX
  5
4D3
  8
6
 10
-3.1580691566996388
 20
3.7630160462574622
 30
0.0
 42
-0.5922717439205512
  0
VERTEX
  5
4D4
  8
6
 10
-2.3499999999999091
 20
5.2374032127520422
 30
0.0
 42
-0.5922717439206635
  0
VERTEX
  5
4D5
  8
6
 10
-1.5419308433006329
 20
3.763016046257234
 30
0.0
 42
0.1328113523651923
  0
VERTEX
  5
4D6
  8
6
 10
-1.936593299350533
 20
1.4483934843813131
 30
0.0
 42
0.0685253409886929
  0
VERTEX
  5
4D7
  8
6
 10
0.7621697552335718
 20
-12.82263685940608
 30
0.0
  0
SEQEND
  5
4D8
  8
6
  0
POLYLINE
  5
2E4
  8
6
 66
     1
 10
0.0
 20
0.0
 30
0.0
  0
VERTEX
  5
4D9
  8
6
 10
-0.9878302447664282
 20
-12.82263685940608
 30
0.0
 42
-0.0278242690922207
  0
VERTEX
  5
4DA
  8
6
 10
-3.043273085315831
 20
1.463302445744147
 30
0.0
 42
0.1324695894867593
  0
VERTEX
  5
4DB
  8
6
 10
-3.4049542246002602
 20
3.629705934920139
 30
0.0
 42
-0.5867084866790316
  0
VERTEX
  5
4DC
  8
6
 10
-2.3499999999999091
 20
5.5174032127520141
 30
0.0
 42
-0.5867084866791127
  0
VERTEX
  5
4DD
  8
6
 10
-1.295045775400012
 20
3.6297059349199108
 30
0.0
 42
0.132607238862008
  0
VERTEX
  5
4DE
  8
6
 10
-1.656503042341682
 20
1.461031223654345
 30
0.0
 42
0.0820960166353742
  0
VERTEX
  5
4DF
  8
6
 10
1.2621697552335709
 20
-12.82263685940608
 30
0.0
  0
SEQEND
  5
4E0
  8
6
  0
POLYLINE
  5
2E5
  8
5
 66
     1
 10
0.0
 20
0.0
 30
0.0
  0
VERTEX
  5
4E1
  8
5
 10
-5.8499999999999091
 20
0.0
 30
0.0
  0
VERTEX
  5
4E2
  8
5
 10
-4.8499999999999091
 20
0.0
 30
0.0
  0
VERTEX
  5
4E3
  8
5
 10
-4.8499999999999091
 20
7.0
 30
0.0
  0
VERTEX
  5
4E4
  8
5
 10
0.1500000000000909
 20
7.0
 30
0.0
  0
VERTEX
  5
4E5
  8
5
 10
0.1500000000000909
 20
0.0
 30
0.0
  0
VERTEX
  5
4E6
  8
5
 10
1.1500000000000901
 20
0.0
 30
0.0
  0
SEQEND
  5
4E7
  8
5
  0
POLYLINE
  5
2E6
  8
4
 66
     1
 10
0.0
 20
0.0
 30
0.0
 70
     1
  0
VERTEX
  5
4E8
  8
4
 10
-4.8499999999999091
 20
0.0
 30
0.0
  0
VERTEX
  5
4E9
  8
4
 10
-4.8499999999999091
 20
7.0
 30
0.0
  0
VERTEX
  5
4EA
  8
4
 10
0.1500000000000909
 20
7.0
 30
0.0
  0
VERTEX
  5
4EB
  8
4
 10
0.1500000000000909
 20
0.0
 30
0.0
  0
SEQEND
  5
4EC
  8
4
  0
POLYLINE
  5
2E7
  8
6
 66
     1
 10
0.0
 20
0.0
 30
0.0
 70
     1
  0
VERTEX
  5
4ED
  8
6
 10
-4.050000000000181
 20
1.0
 30
0.0
  0
VERTEX
  5
4EE
  8
6
 10
-4.050000000000181
 20
5.6999999999998181
 30
0.0
 42
-0.4142135623730951
  0
VERTEX
  5
4EF
  8
6
 10
-3.75
 20
6.0
 30
0.0
  0
VERTEX
  5
4F0
  8
6
 10
-2.3499999999999091
 20
6.0
 30
0.0
  0
VERTEX
  5
4F1
  8
6
 10
-0.9499999999998181
 20
6.0
 30
0.0
 42
-0.4142135623730951
  0
VERTEX
  5
4F2
  8
6
 10
-0.650000000000091
 20
5.6999999999998181
 30
0.0
  0
VERTEX
  5
4F3
  8
6
 10
-0.650000000000091
 20
1.0
 30
0.0
  0
VERTEX
  5
4F4
  8
6
 10
-0.9499999999998181
 20
1.0
 30
0.0
 42
0.4142135623730951
  0
VERTEX
  5
4F5
  8
6
 10
-1.0999999999999091
 20
0.8499999999999091
 30
0.0
  0
VERTEX
  5
4F6
  8
6
 10
-1.0999999999999091
 20
0.7999999999999546
 30
0.0
 42
0.4142135623730951
  0
VERTEX
  5
4F7
  8
6
 10
-0.3000000000001819
 20
0.0
 30
0.0
  0
VERTEX
  5
4F8
  8
6
 10
0.0
 20
0.0
 30
0.0
 42
0.4142135623730951
  0
VERTEX
  5
4F9
  8
6
 10
0.1500000000000909
 20
0.1499999999998636
 30
0.0
  0
VERTEX
  5
4FA
  8
6
 10
0.1500000000000909
 20
1.186602540378316
 30
0.0
  0
VERTEX
  5
4FB
  8
6
 10
0.2299038105675208
 20
1.325000000000045
 30
0.0
 42
0.2679491924310219
  0
VERTEX
  5
4FC
  8
6
 10
0.2299038105675208
 20
1.4749999999999091
 30
0.0
  0
VERTEX
  5
4FD
  8
6
 10
0.1500000000000909
 20
1.6133974596216369
 30
0.0
  0
VERTEX
  5
4FE
  8
6
 10
0.1500000000000909
 20
1.686602540378316
 30
0.0
  0
VERTEX
  5
4FF
  8
6
 10
0.2299038105675208
 20
1.825000000000045
 30
0.0
 42
0.2679491924310219
  0
VERTEX
  5
500
  8
6
 10
0.2299038105675208
 20
1.9749999999999091
 30
0.0
  0
VERTEX
  5
501
  8
6
 10
0.1500000000000909
 20
2.1133974596216372
 30
0.0
  0
VERTEX
  5
502
  8
6
 10
0.1500000000000909
 20
2.186602540378316
 30
0.0
  0
VERTEX
  5
503
  8
6
 10
0.2299038105675208
 20
2.325000000000045
 30
0.0
 42
0.2679491924310219
  0
VERTEX
  5
504
  8
6
 10
0.2299038105675208
 20
2.4749999999999091
 30
0.0
  0
VERTEX
  5
505
  8
6
 10
0.1500000000000909
 20
2.6133974596216372
 30
0.0
  0
VERTEX
  5
506
  8
6
 10
0.1500000000000909
 20
6.5
 30
0.0
 42
0.4142135623730951
  0
VERTEX
  5
507
  8
6
 10
-0.349999999999909
 20
7.0
 30
0.0
  0
VERTEX
  5
508
  8
6
 10
-2.3499999999999091
 20
7.0
 30
0.0
  0
VERTEX
  5
509
  8
6
 10
-4.3499999999999091
 20
7.0
 30
0.0
 42
0.4142135623730951
  0
VERTEX
  5
50A
  8
6
 10
-4.8499999999999091
 20
6.5
 30
0.0
  0
VERTEX
  5
50B
  8
6
 10
-4.8499999999999091
 20
2.6133974596216372
 30
0.0
  0
VERTEX
  5
50C
  8
6
 10
-4.9299038105677928
 20
2.4749999999999091
 30
0.0
 42
0.2679491924310219
  0
VERTEX
  5
50D
  8
6
 10
-4.9299038105677928
 20
2.325000000000045
 30
0.0
  0
VERTEX
  5
50E
  8
6
 10
-4.8499999999999091
 20
2.186602540378316
 30
0.0
  0
VERTEX
  5
50F
  8
6
 10
-4.8499999999999091
 20
2.1133974596216372
 30
0.0
  0
VERTEX
  5
510
  8
6
 10
-4.9299038105677928
 20
1.9749999999999091
 30
0.0
 42
0.2679491924310219
  0
VERTEX
  5
511
  8
6
 10
-4.9299038105677928
 20
1.825000000000045
 30
0.0
  0
VERTEX
  5
512
  8
6
 10
-4.8499999999999091
 20
1.686602540378316
 30
0.0
  0
VERTEX
  5
513
  8
6
 10
-4.8499999999999091
 20
1.6133974596216369
 30
0.0
  0
VERTEX
  5
514
  8
6
 10
-4.9299038105677928
 20
1.4749999999999091
 30
0.0
 42
0.2679491924310219
  0
VERTEX
  5
515
  8
6
 10
-4.9299038105677928
 20
1.325000000000045
 30
0.0
  0
VERTEX
  5
516
  8
6
 10
-4.8499999999999091
 20
1.186602540378316
 30
0.0
  0
VERTEX
  5
517
  8
6
 10
-4.8499999999999091
 20
0.1499999999998636
 30
0.0
 42
0.4142135623730951
  0
VERTEX
  5
518
  8
6
 10
-4.6999999999998181
 20
0.0
 30
0.0
  0
VERTEX
  5
519
  8
6
 10
-4.4000000000000901
 20
0.0
 30
0.0
 42
0.4142135623730951
  0
VERTEX
  5
51A
  8
6
 10
-3.5999999999999091
 20
0.7999999999999546
 30
0.0
  0
VERTEX
  5
51B
  8
6
 10
-3.5999999999999091
 20
0.8499999999999091
 30
0.0
 42
0.4142135623730951
  0
VERTEX
  5
51C
  8
6
 10
-3.75
 20
1.0
 30
0.0
  0
SEQEND
  5
51D
  8
6
  0
DIMENSION
  5
2E8
  8
1
  2
*D7
 10
42.87724198925639
 20
-0.0000000000000034
 30
0.0
 11
40.12724198925639
 21
3.5000000000000031
 31
0.0
 70
     0
 13
30.87724198925639
 23
7.0
 33
0.0
 14
30.87724198925639
 24
0.0
 34
0.0
 50
90.0
  0
DIMENSION
  5
2E9
  8
1
  2
*D8
 10
42.87724198925639
 20
-14.0
 30
0.0
 11
40.120079642735242
 21
-6.9999999999999956
 31
0.0
 70
     0
 13
30.87724198925639
 23
0.0
 33
0.0
 14
28.37724198925639
 24
-14.0
 34
0.0
 50
90.0
  0
DIMENSION
  5
2EA
  8
1
  2
*D9
 10
30.87724198925639
 20
19.0
 30
0.0
 11
28.37724198925639
 21
21.779843110504771
 31
0.0
 70
     0
 13
25.87724198925639
 23
7.0
 33
0.0
 14
30.87724198925639
 24
7.0
 34
0.0
  0
CIRCLE
  5
2EB
  8
6
 10
28.377241989256611
 20
4.2787699097186751
 30
0.0
 40
0.5425533030331441
  0
POLYLINE
  5
2EC
  8
6
 66
     1
 10
0.0
 20
0.0
 30
0.0
 70
     1
  0
VERTEX
  5
51E
  8
6
 10
27.531845068858271
 20
1.2269336163201381
 30
0.0
  0
VERTEX
  5
51F
  8
6
 10
27.222520908318529
 20
1.2269336163201381
 30
0.0
 42
-0.4142135623730951
  0
VERTEX
  5
520
  8
6
 10
26.806720908318312
 20
1.642733616320128
 30
0.0
  0
VERTEX
  5
521
  8
6
 10
26.806720908318312
 20
5.5842000000000089
 30
0.0
 42
-0.4142135623730951
  0
VERTEX
  5
522
  8
6
 10
27.222520908318529
 20
6.0
 30
0.0
  0
VERTEX
  5
523
  8
6
 10
29.531963070194699
 20
6.0
 30
0.0
 42
-0.4142135623730951
  0
VERTEX
  5
524
  8
6
 10
29.94776307019492
 20
5.5842000000000089
 30
0.0
  0
VERTEX
  5
525
  8
6
 10
29.94776307019492
 20
1.642733616320128
 30
0.0
 42
-0.4142135623730951
  0
VERTEX
  5
526
  8
6
 10
29.531963070194699
 20
1.2269336163201381
 30
0.0
  0
VERTEX
  5
527
  8
6
 10
29.222638909654961
 20
1.2269336163201381
 30
0.0
  0
VERTEX
  5
528
  8
6
 10
29.222638909654961
 20
1.642733616320128
 30
0.0
  0
VERTEX
  5
529
  8
6
 10
29.418563070194971
 20
1.642733616320128
 30
0.0
 42
0.4142135623730945
  0
VERTEX
  5
52A
  8
6
 10
29.531963070194699
 20
1.756133616320084
 30
0.0
  0
VERTEX
  5
52B
  8
6
 10
29.531963070194699
 20
5.470800000000053
 30
0.0
 42
0.4142135623730948
  0
VERTEX
  5
52C
  8
6
 10
29.418563070194971
 20
5.5842000000000089
 30
0.0
  0
VERTEX
  5
52D
  8
6
 10
27.335920908318251
 20
5.5842000000000089
 30
0.0
 42
0.4142135623730951
  0
VERTEX
  5
52E
  8
6
 10
27.222520908318071
 20
5.470800000000053
 30
0.0
  0
VERTEX
  5
52F
  8
6
 10
27.222520908318529
 20
1.756133616320084
 30
0.0
 42
0.4142135623730955
  0
VERTEX
  5
530
  8
6
 10
27.335920908318251
 20
1.642733616320128
 30
0.0
  0
VERTEX
  5
531
  8
6
 10
27.531845068858271
 20
1.642733616320128
 30
0.0
  0
SEQEND
  5
532
  8
6
  0
POLYLINE
  5
2ED
  8
6
 66
     1
 10
0.0
 20
0.0
 30
0.0
  0
VERTEX
  5
533
  8
6
 10
27.989541553315121
 20
-13.773066383679859
 30
0.0
  0
VERTEX
  5
534
  8
6
 10
28.243910940458129
 20
1.436075705006487
 30
0.0
 42
0.1331579098238507
  0
VERTEX
  5
535
  8
6
 10
27.814540107605801
 20
3.8994155208258681
 30
0.0
 42
-0.600780471392009
  0
VERTEX
  5
536
  8
6
 10
28.377241989256611
 20
4.9574032127518421
 30
0.0
 42
-0.600780471392009
  0
VERTEX
  5
537
  8
6
 10
28.93994387090742
 20
3.8994155208258681
 30
0.0
 42
0.1331579098238507
  0
VERTEX
  5
538
  8
6
 10
28.510573038055089
 20
1.436075705006487
 30
0.0
  0
VERTEX
  5
539
  8
6
 10
28.693697246575539
 20
-13.773066383679859
 30
0.0
  0
SEQEND
  5
53A
  8
6
  0
POLYLINE
  5
2EE
  8
6
 66
     1
 10
0.0
 20
0.0
 30
0.0
  0
VERTEX
  5
53B
  8
6
 10
27.29049198925668
 20
-13.773066383679859
 30
0.0
  0
VERTEX
  5
53C
  8
6
 10
27.941510940458102
 20
1.436075705006487
 30
0.0
 42
0.1467423678365007
  0
VERTEX
  5
53D
  8
6
 10
27.57381419700641
 20
3.7703294631246531
 30
0.0
 42
-0.5909698273094226
  0
VERTEX
  5
53E
  8
6
 10
28.377241989256611
 20
5.2295632127518266
 30
0.0
 42
-0.5909698273094226
  0
VERTEX
  5
53F
  8
6
 10
29.180669781506818
 20
3.7703294631246531
 30
0.0
 42
0.1467423678365007
  0
VERTEX
  5
540
  8
6
 10
28.81297303805513
 20
1.436075705006487
 30
0.0
  0
VERTEX
  5
541
  8
6
 10
29.463991989256549
 20
-13.773066383679859
 30
0.0
  0
SEQEND
  5
542
  8
6
  0
POLYLINE
  5
2EF
  8
6
 66
     1
 10
0.0
 20
0.0
 30
0.0
  0
VERTEX
  5
543
  8
6
 10
26.421091989256631
 20
-13.773066383679859
 30
0.0
  0
VERTEX
  5
544
  8
6
 10
27.63911094045806
 20
1.436075705006487
 30
0.0
 42
0.1619987839817428
  0
VERTEX
  5
545
  8
6
 10
27.331547511534609
 20
3.6446265184727049
 30
0.0
 42
-0.5845518180594144
  0
VERTEX
  5
546
  8
6
 10
28.377241989256611
 20
5.5017232127518119
 30
0.0
 42
-0.5845518180594144
  0
VERTEX
  5
547
  8
6
 10
29.422936466978619
 20
3.6446265184727049
 30
0.0
 42
0.1619987839817428
  0
VERTEX
  5
548
  8
6
 10
29.115373038055161
 20
1.436075705006487
 30
0.0
  0
VERTEX
  5
549
  8
6
 10
30.33339198925659
 20
-13.773066383679859
 30
0.0
  0
SEQEND
  5
54A
  8
6
  0
LINE
  5
2F0
  8
5
 10
25.877241989256611
 20
-14.0
 30
0.0
 11
30.877241989256611
 21
-14.0
 31
0.0
  0
POLYLINE
  5
2F1
  8
5
 66
     1
 10
0.0
 20
0.0
 30
0.0
  0
VERTEX
  5
54B
  8
5
 10
24.877241989256611
 20
0.0
 30
0.0
  0
VERTEX
  5
54C
  8
5
 10
25.877241989256611
 20
0.0
 30
0.0
  0
VERTEX
  5
54D
  8
5
 10
25.877241989256611
 20
7.0
 30
0.0
  0
VERTEX
  5
54E
  8
5
 10
30.877241989256611
 20
7.0
 30
0.0
  0
VERTEX
  5
54F
  8
5
 10
30.877241989256611
 20
0.0
 30
0.0
  0
VERTEX
  5
550
  8
5
 10
31.877241989256611
 20
0.0
 30
0.0
  0
SEQEND
  5
551
  8
5
  0
POLYLINE
  5
2F2
  8
6
 66
     1
 10
0.0
 20
0.0
 30
0.0
 70
     1
  0
VERTEX
  5
552
  8
6
 10
26.677241989256341
 20
1.0
 30
0.0
  0
VERTEX
  5
553
  8
6
 10
26.677241989256341
 20
5.7000000000000446
 30
0.0
 42
-0.4142135623730951
  0
VERTEX
  5
554
  8
6
 10
26.97724198925652
 20
6.0
 30
0.0
  0
VERTEX
  5
555
  8
6
 10
28.377241989256611
 20
6.0
 30
0.0
  0
VERTEX
  5
556
  8
6
 10
29.777241989256702
 20
6.0
 30
0.0
 42
-0.4142135623730951
  0
VERTEX
  5
557
  8
6
 10
30.077241989256429
 20
5.7000000000000446
 30
0.0
  0
VERTEX
  5
558
  8
6
 10
30.077241989256429
 20
1.0
 30
0.0
  0
VERTEX
  5
559
  8
6
 10
29.777241989256702
 20
1.0
 30
0.0
 42
0.4142135623730951
  0
VERTEX
  5
55A
  8
6
 10
29.627241989256611
 20
0.8500000000001364
 30
0.0
  0
VERTEX
  5
55B
  8
6
 10
29.627241989256611
 20
0.8000000000001818
 30
0.0
 42
0.4142135623730951
  0
VERTEX
  5
55C
  8
6
 10
30.427241989256341
 20
0.0
 30
0.0
  0
VERTEX
  5
55D
  8
6
 10
30.72724198925652
 20
0.0
 30
0.0
 42
0.4142135623730951
  0
VERTEX
  5
55E
  8
6
 10
30.877241989256611
 20
0.1500000000000909
 30
0.0
  0
VERTEX
  5
55F
  8
6
 10
30.877241989256611
 20
1.1866025403785441
 30
0.0
  0
VERTEX
  5
560
  8
6
 10
30.95714579982404
 20
1.325000000000045
 30
0.0
 42
0.2679491924310219
  0
VERTEX
  5
561
  8
6
 10
30.95714579982404
 20
1.4749999999999091
 30
0.0
  0
VERTEX
  5
562
  8
6
 10
30.877241989256611
 20
1.6133974596216369
 30
0.0
  0
VERTEX
  5
563
  8
6
 10
30.877241989256611
 20
1.6866025403785441
 30
0.0
  0
VERTEX
  5
564
  8
6
 10
30.95714579982404
 20
1.825000000000045
 30
0.0
 42
0.2679491924310219
  0
VERTEX
  5
565
  8
6
 10
30.95714579982404
 20
1.9749999999999091
 30
0.0
  0
VERTEX
  5
566
  8
6
 10
30.877241989256611
 20
2.1133974596216372
 30
0.0
  0
VERTEX
  5
567
  8
6
 10
30.877241989256611
 20
2.1866025403785438
 30
0.0
  0
VERTEX
  5
568
  8
6
 10
30.95714579982404
 20
2.325000000000045
 30
0.0
 42
0.2679491924310219
  0
VERTEX
  5
569
  8
6
 10
30.95714579982404
 20
2.4749999999999091
 30
0.0
  0
VERTEX
  5
56A
  8
6
 10
30.877241989256611
 20
2.6133974596216372
 30
0.0
  0
VERTEX
  5
56B
  8
6
 10
30.877241989256611
 20
6.5
 30
0.0
 42
0.4142135623730951
  0
VERTEX
  5
56C
  8
6
 10
30.377241989256621
 20
7.0
 30
0.0
  0
VERTEX
  5
56D
  8
6
 10
28.377241989256611
 20
7.0
 30
0.0
  0
VERTEX
  5
56E
  8
6
 10
26.377241989256621
 20
7.0
 30
0.0
 42
0.4142135623730951
  0
VERTEX
  5
56F
  8
6
 10
25.877241989256611
 20
6.5
 30
0.0
  0
VERTEX
  5
570
  8
6
 10
25.877241989256611
 20
2.6133974596216372
 30
0.0
  0
VERTEX
  5
571
  8
6
 10
25.797338178688729
 20
2.4749999999999091
 30
0.0
 42
0.2679491924310219
  0
VERTEX
  5
572
  8
6
 10
25.797338178688729
 20
2.325000000000045
 30
0.0
  0
VERTEX
  5
573
  8
6
 10
25.877241989256611
 20
2.1866025403785438
 30
0.0
  0
VERTEX
  5
574
  8
6
 10
25.877241989256611
 20
2.1133974596216372
 30
0.0
  0
VERTEX
  5
575
  8
6
 10
25.797338178688729
 20
1.9749999999999091
 30
0.0
 42
0.2679491924310219
  0
VERTEX
  5
576
  8
6
 10
25.797338178688729
 20
1.825000000000045
 30
0.0
  0
VERTEX
  5
577
  8
6
 10
25.877241989256611
 20
1.6866025403785441
 30
0.0
  0
VERTEX
  5
578
  8
6
 10
25.877241989256611
 20
1.6133974596216369
 30
0.0
  0
VERTEX
  5
579
  8
6
 10
25.797338178688729
 20
1.4749999999999091
 30
0.0
 42
0.2679491924310219
  0
VERTEX
  5
57A
  8
6
 10
25.797338178688729
 20
1.325000000000045
 30
0.0
  0
VERTEX
  5
57B
  8
6
 10
25.877241989256611
 20
1.1866025403785441
 30
0.0
  0
VERTEX
  5
57C
  8
6
 10
25.877241989256611
 20
0.1500000000000909
 30
0.0
 42
0.4142135623730951
  0
VERTEX
  5
57D
  8
6
 10
26.027241989256702
 20
0.0
 30
0.0
  0
VERTEX
  5
57E
  8
6
 10
26.327241989256429
 20
0.0
 30
0.0
 42
0.4142135623730951
  0
VERTEX
  5
57F
  8
6
 10
27.127241989256611
 20
0.8000000000001818
 30
0.0
  0
VERTEX
  5
580
  8
6
 10
27.127241989256611
 20
0.8500000000001364
 30
0.0
 42
0.4142135623730951
  0
VERTEX
  5
581
  8
6
 10
26.97724198925652
 20
1.0
 30
0.0
  0
SEQEND
  5
582
  8
6
  0
POLYLINE
  5
2F3
  8
4
 66
     1
 10
0.0
 20
0.0
 30
0.0
 70
     1
  0
VERTEX
  5
583
  8
4
 10
25.877241989256611
 20
0.0
 30
0.0
  0
VERTEX
  5
584
  8
4
 10
25.877241989256611
 20
7.0
 30
0.0
  0
VERTEX
  5
585
  8
4
 10
30.877241989256611
 20
7.0
 30
0.0
  0
VERTEX
  5
586
  8
4
 10
30.877241989256611
 20
0.0
 30
0.0
  0
SEQEND
  5
587
  8
4
  0
TEXT
  5
377
  8
1
 10
-4.532799409205154
 20
25.524665646954759
 30
0.0
 40
2.5
  1
Hebgo 131/756
 41
0.9
  7
BESCHLAG
  0
VIEWPORT
  5
22
 67
     1
  8
0
 10
210.0
 20
170.2366863905325
 30
0.0
 40
420.0
 41
340.47337278106511
 68
     1
 69
     1
1001
ACAD
1000
MVIEW
1002
{
1070
    16
1010
0.0
1020
0.0
1030
0.0
1010
0.0
1020
0.0
1030
1.0
1040
0.0
1040
340.47337278106511
1040
210.0
1040
170.2366863905325
1040
50.0
1040
0.0
1040
0.0
1070
     0
1070
   100
1070
     1
1070
     1
1070
     0
1070
     0
1070
     0
1070
     0
1040
0.0
1040
0.0
1040
0.0
1040
5.0
1040
5.0
1040
10.0
1040
10.0
1070
     0
1002
{
1002
}
1002
}
  0
ENDSEC
  0
EOF
