  0
SECTION
  2
HEADER
  9
$ACADVER
  1
AC1009
  9
$INSBASE
 10
0.0
 20
0.0
 30
0.0
  9
$EXTMIN
 10
-37.422179346231466
 20
-13.54980383015913
 30
-0.0000000000112498
  9
$EXTMAX
 10
28.152466376955321
 20
22.521973206337972
 30
0.0000000000002956
  9
$LIMMIN
 10
-150.0
 20
-150.0
  9
$LIMMAX
 10
150.0
 20
150.0
  9
$ORTHOMODE
 70
     0
  9
$REGENMODE
 70
     1
  9
$FILLMODE
 70
     1
  9
$QTEXTMODE
 70
     0
  9
$MIRRTEXT
 70
     0
  9
$DRAGMODE
 70
     2
  9
$LTSCALE
 40
2.0
  9
$OSMODE
 70
   111
  9
$ATTMODE
 70
     1
  9
$TEXTSIZE
 40
3.5
  9
$TRACEWID
 40
1.0
  9
$TEXTSTYLE
  7
BESCHLAG
  9
$CLAYER
  8
0
  9
$CELTYPE
  6
BYLAYER
  9
$CECOLOR
 62
   256
  9
$DIMSCALE
 40
1.0
  9
$DIMASZ
 40
2.0
  9
$DIMEXO
 40
2.0
  9
$DIMDLI
 40
0.0
  9
$DIMRND
 40
0.0
  9
$DIMDLE
 40
1.0
  9
$DIMEXE
 40
1.0
  9
$DIMTP
 40
0.0
  9
$DIMTM
 40
0.0
  9
$DIMTXT
 40
3.5
  9
$DIMCEN
 40
0.0
  9
$DIMTSZ
 40
0.0
  9
$DIMTOL
 70
     0
  9
$DIMLIM
 70
     0
  9
$DIMTIH
 70
     0
  9
$DIMTOH
 70
     0
  9
$DIMSE1
 70
     0
  9
$DIMSE2
 70
     0
  9
$DIMTAD
 70
     1
  9
$DIMZIN
 70
     8
  9
$DIMBLK
  1

  9
$DIMASO
 70
     1
  9
$DIMSHO
 70
     1
  9
$DIMPOST
  1

  9
$DIMAPOST
  1

  9
$DIMALT
 70
     0
  9
$DIMALTD
 70
     2
  9
$DIMALTF
 40
0.039370078740157
  9
$DIMLFAC
 40
1.0
  9
$DIMTOFL
 70
     1
  9
$DIMTVP
 40
0.0
  9
$DIMTIX
 70
     1
  9
$DIMSOXD
 70
     0
  9
$DIMSAH
 70
     1
  9
$DIMBLK1
  1
OBLIQUE
  9
$DIMBLK2
  1
OBLIQUE
  9
$DIMSTYLE
  2
OPO-SSTRICH
  9
$DIMCLRD
 70
   256
  9
$DIMCLRE
 70
   256
  9
$DIMCLRT
 70
   256
  9
$DIMTFAC
 40
0.7114285714285716
  9
$DIMGAP
 40
1.0
  9
$LUNITS
 70
     2
  9
$LUPREC
 70
     1
  9
$SKETCHINC
 40
1.0
  9
$FILLETRAD
 40
0.0
  9
$AUNITS
 70
     0
  9
$AUPREC
 70
     1
  9
$MENU
  1
D:\ACL_CGWG\CGTAB13
  9
$ELEVATION
 40
0.0
  9
$PELEVATION
 40
0.0
  9
$THICKNESS
 40
0.0
  9
$LIMCHECK
 70
     0
  9
$BLIPMODE
 70
     0
  9
$CHAMFERA
 40
1.0
  9
$CHAMFERB
 40
1.0
  9
$SKPOLY
 70
     0
  9
$TDCREATE
 40
2451739.864275706
  9
$TDUPDATE
 40
2452086.7448660638
  9
$TDINDWG
 40
0.0007670718
  9
$TDUSRTIMER
 40
0.0007670718
  9
$USRTIMER
 70
     1
  9
$ANGBASE
 50
0.0
  9
$ANGDIR
 70
     0
  9
$PDMODE
 70
    35
  9
$PDSIZE
 40
5.0
  9
$PLINEWID
 40
0.0
  9
$COORDS
 70
     1
  9
$SPLFRAME
 70
     0
  9
$SPLINETYPE
 70
     6
  9
$SPLINESEGS
 70
     8
  9
$ATTDIA
 70
     1
  9
$ATTREQ
 70
     1
  9
$HANDLING
 70
-16383
  9
$HANDSEED
  5
480
  9
$SURFTAB1
 70
    12
  9
$SURFTAB2
 70
    12
  9
$SURFTYPE
 70
     6
  9
$SURFU
 70
    12
  9
$SURFV
 70
    12
  9
$UCSNAME
  2

  9
$UCSORG
 10
0.0
 20
0.0
 30
0.0
  9
$UCSXDIR
 10
1.0
 20
0.0
 30
0.0
  9
$UCSYDIR
 10
0.0
 20
1.0
 30
0.0
  9
$PUCSNAME
  2

  9
$PUCSORG
 10
0.0
 20
0.0
 30
0.0
  9
$PUCSXDIR
 10
1.0
 20
0.0
 30
0.0
  9
$PUCSYDIR
 10
0.0
 20
1.0
 30
0.0
  9
$USERI1
 70
     0
  9
$USERI2
 70
     0
  9
$USERI3
 70
     0
  9
$USERI4
 70
     0
  9
$USERI5
 70
     0
  9
$USERR1
 40
0.0
  9
$USERR2
 40
0.0
  9
$USERR3
 40
0.0
  9
$USERR4
 40
0.0
  9
$USERR5
 40
0.0
  9
$WORLDVIEW
 70
     1
  9
$SHADEDGE
 70
     3
  9
$SHADEDIF
 70
    70
  9
$TILEMODE
 70
     1
  9
$MAXACTVP
 70
    48
  9
$PLIMCHECK
 70
     0
  9
$PEXTMIN
 10
1.0000000000000000E+020
 20
1.0000000000000000E+020
 30
1.0000000000000000E+020
  9
$PEXTMAX
 10
-1.0000000000000000E+020
 20
-1.0000000000000000E+020
 30
-1.0000000000000000E+020
  9
$PLIMMIN
 10
0.0
 20
0.0
  9
$PLIMMAX
 10
420.0
 20
297.0
  9
$UNITMODE
 70
     0
  9
$VISRETAIN
 70
     1
  9
$PLINEGEN
 70
     0
  9
$PSLTSCALE
 70
     1
  0
ENDSEC
  0
SECTION
  2
TABLES
  0
TABLE
  2
VPORT
 70
     2
  0
VPORT
  2
*ACTIVE
 70
     0
 10
0.0
 20
0.0
 11
1.0
 21
1.0
 12
-4.6348564846380782
 22
4.4860846880894183
 13
0.0
 23
0.0
 14
0.5
 24
0.5
 15
10.0
 25
10.0
 16
0.0
 26
0.0
 36
1.0
 17
0.0
 27
0.0
 37
0.0
 40
41.01061045860785
 41
1.6070460704607039
 42
50.0
 43
0.0
 44
0.0
 50
0.0
 51
0.0
 71
     0
 72
   800
 73
     1
 74
     1
 75
     0
 76
     0
 77
     0
 78
     0
  0
ENDTAB
  0
TABLE
  2
LTYPE
 70
     2
  0
LTYPE
  2
CONTINUOUS
 70
     0
  3
_______________________________________________
 72
    65
 73
     2
 40
1.0
 49
1.0
 49
0.0
  0
LTYPE
  2
STRICHPUNKT
 70
     0
  3
__ . __ . __ . __ . __ . __ . __ . __ . __ . __
 72
    65
 73
     4
 40
1.0
 49
0.5
 49
-0.25
 49
0.0
 49
-0.25
  0
ENDTAB
  0
TABLE
  2
LAYER
 70
     7
  0
LAYER
  2
0
 70
     0
 62
    30
  6
CONTINUOUS
  0
LAYER
  2
1
 70
     0
 62
     2
  6
CONTINUOUS
  0
LAYER
  2
2
 70
     0
 62
     9
  6
CONTINUOUS
  0
LAYER
  2
4
 70
     1
 62
     4
  6
CONTINUOUS
  0
LAYER
  2
5
 70
     0
 62
     1
  6
CONTINUOUS
  0
LAYER
  2
6
 70
     0
 62
     3
  6
CONTINUOUS
  0
LAYER
  2
DEFPOINTS
 70
     0
 62
     7
  6
CONTINUOUS
  0
ENDTAB
  0
TABLE
  2
STYLE
 70
     2
  0
STYLE
  2
STANDARD
 70
     0
 40
0.0
 41
1.0
 50
0.0
 71
     0
 42
2.5
  3
txt
  4

  0
STYLE
  2
BESCHLAG
 70
     0
 40
0.0
 41
1.0
 50
0.0
 71
     0
 42
3.5
  3
txt
  4

  0
ENDTAB
  0
TABLE
  2
VIEW
 70
     0
  0
ENDTAB
  0
TABLE
  2
UCS
 70
     0
  0
ENDTAB
  0
TABLE
  2
APPID
 70
     1
  0
APPID
  2
ACAD
 70
     0
  0
ENDTAB
  0
TABLE
  2
DIMSTYLE
 70
     1
  0
DIMSTYLE
  2
OPO-SSTRICH
 70
     0
  3

  4

  5

  6
OBLIQUE
  7
OBLIQUE
 40
1.0
 41
2.0
 42
2.0
 43
0.0
 44
1.0
 45
0.0
 46
1.0
 47
0.0
 48
0.0
140
3.5
141
0.0
142
0.0
143
0.039370078740157
144
1.0
145
0.0
146
0.7114285714285716
147
1.0
 71
     0
 72
     0
 73
     0
 74
     0
 75
     0
 76
     0
 77
     1
 78
     8
170
     0
171
     2
172
     1
173
     1
174
     1
175
     0
176
   256
177
   256
178
   256
  0
ENDTAB
  0
ENDSEC
  0
SECTION
  2
BLOCKS
  0
BLOCK
  8
0
  2
$MODEL_SPACE
 70
     0
 10
0.0
 20
0.0
 30
0.0
  3
$MODEL_SPACE
  1

  0
ENDBLK
  5
1C
  8
0
  0
BLOCK
 67
     1
  8
0
  2
$PAPER_SPACE
 70
     0
 10
0.0
 20
0.0
 30
0.0
  3
$PAPER_SPACE
  1

  0
ENDBLK
  5
19
 67
     1
  8
0
  0
BLOCK
  8
0
  2
_OBLIQUE
 70
     0
 10
0.0
 20
0.0
 30
0.0
  3
_OBLIQUE
  1

  0
LINE
  5
204
  8
0
 62
     0
 10
-0.5
 20
-0.5
 30
0.0
 11
0.5
 21
0.5
 31
0.0
  0
ENDBLK
  5
206
  8
0
  0
BLOCK
  8
0
  2
NULLPUNKT
 70
     0
 10
0.0
 20
0.0
 30
0.0
  3
NULLPUNKT
  1

  0
SOLID
  5
254
  8
5
 10
0.0
 20
0.0
 30
0.0
 11
2.0
 21
0.0
 31
0.0
 12
0.0
 22
-2.0
 32
0.0
 13
0.0
 23
-2.0
 33
0.0
  0
SOLID
  5
255
  8
5
 10
0.0
 20
0.0
 30
0.0
 11
-2.0
 21
0.0
 31
0.0
 12
0.0
 22
2.0
 32
0.0
 13
0.0
 23
2.0
 33
0.0
  0
POLYLINE
  5
256
  8
5
 66
     1
 10
0.0
 20
0.0
 30
0.0
  0
VERTEX
  5
429
  8
5
 10
0.0
 20
2.0
 30
0.0
  0
VERTEX
  5
42A
  8
5
 10
0.0
 20
-2.0
 30
0.0
  0
SEQEND
  5
42B
  8
5
  0
POLYLINE
  5
257
  8
5
 66
     1
 10
0.0
 20
0.0
 30
0.0
  0
VERTEX
  5
42C
  8
5
 10
-2.0
 20
0.0
 30
0.0
  0
VERTEX
  5
42D
  8
5
 10
2.0
 20
0.0
 30
0.0
  0
SEQEND
  5
42E
  8
5
  0
CIRCLE
  5
258
  8
5
 10
0.0
 20
0.0
 30
0.0
 40
2.0
  0
ENDBLK
  5
25A
  8
0
  0
BLOCK
  8
0
  2
*X2
 70
     1
 10
0.0
 20
0.0
 30
0.0
  3
*X2
  1

  0
LINE
  5
2AC
  8
0
 62
     0
 10
648.23702198252283
 20
-456.26377023086428
 30
0.0
 11
649.48388078253492
 21
-455.0169114308523
 31
0.0
  0
LINE
  5
2AD
  8
0
 62
     0
 10
640.38702198252247
 20
-464.1137702308647
 30
0.0
 11
641.98388078253481
 21
-462.51691143085242
 31
0.0
  0
LINE
  5
2AE
  8
0
 62
     0
 10
640.38702198252247
 20
-462.69955666849148
 30
0.0
 11
640.56966722016159
 21
-462.51691143085242
 31
0.0
  0
LINE
  5
2AF
  8
0
 62
     0
 10
635.24124009541561
 20
-465.0169114308523
 30
0.0
 11
636.08702198252229
 21
-464.17112954374551
 31
0.0
  0
LINE
  5
2B0
  8
0
 62
     0
 10
633.82702653304239
 20
-465.0169114308523
 30
0.0
 11
636.08702198252229
 21
-462.7569159813724
 31
0.0
  0
LINE
  5
2B1
  8
0
 62
     0
 10
632.41281297066939
 20
-465.0169114308523
 30
0.0
 11
634.91281297066928
 21
-462.51691143085242
 31
0.0
  0
LINE
  5
2B2
  8
0
 62
     0
 10
630.99859940829617
 20
-465.0169114308523
 30
0.0
 11
633.49859940829629
 21
-462.51691143085242
 31
0.0
  0
LINE
  5
2B3
  8
0
 62
     0
 10
629.58438584592318
 20
-465.0169114308523
 30
0.0
 11
632.08438584592307
 21
-462.51691143085242
 31
0.0
  0
LINE
  5
2B4
  8
0
 62
     0
 10
628.29411496326429
 20
-464.89296875113808
 30
0.0
 11
630.67017228355007
 21
-462.51691143085242
 31
0.0
  0
LINE
  5
2B5
  8
0
 62
     0
 10
628.23702198252283
 20
-463.53584816950649
 30
0.0
 11
629.25595872117685
 21
-462.51691143085242
 31
0.0
  0
LINE
  5
2B6
  8
0
 62
     0
 10
640.89809434490792
 20
-465.0169114308523
 30
0.0
 11
643.3980943449078
 21
-462.51691143085242
 31
0.0
  0
LINE
  5
2B7
  8
0
 62
     0
 10
648.23702198252283
 20
-457.67798379323739
 30
0.0
 11
650.89809434490803
 21
-455.0169114308523
 31
0.0
  0
LINE
  5
2B8
  8
0
 62
     0
 10
642.31230790728091
 20
-465.0169114308523
 30
0.0
 11
644.81230790728102
 21
-462.51691143085242
 31
0.0
  0
LINE
  5
2B9
  8
0
 62
     0
 10
650.81230790728091
 20
-456.5169114308523
 30
0.0
 11
651.73702198252283
 21
-455.59219735561038
 31
0.0
  0
LINE
  5
2BA
  8
0
 62
     0
 10
648.23702198252283
 20
-459.09219735561049
 30
0.0
 11
649.73702198252283
 21
-457.59219735561049
 31
0.0
  0
LINE
  5
2BB
  8
0
 62
     0
 10
643.72652146965413
 20
-465.0169114308523
 30
0.0
 11
646.22652146965413
 21
-462.51691143085242
 31
0.0
  0
LINE
  5
2BC
  8
0
 62
     0
 10
648.23702198252283
 20
-460.5064109179836
 30
0.0
 11
649.73702198252283
 21
-459.00641091798349
 31
0.0
  0
LINE
  5
2BD
  8
0
 62
     0
 10
645.14073503202724
 20
-465.0169114308523
 30
0.0
 11
647.64073503202724
 21
-462.51691143085242
 31
0.0
  0
LINE
  5
2BE
  8
0
 62
     0
 10
648.23702198252283
 20
-461.92062448035659
 30
0.0
 11
651.14073503202724
 21
-459.0169114308523
 31
0.0
  0
LINE
  5
2BF
  8
0
 62
     0
 10
646.55494859440034
 20
-465.0169114308523
 30
0.0
 11
650.73702198252283
 21
-460.8348380427297
 31
0.0
  0
LINE
  5
2C0
  8
0
 62
     0
 10
651.05494859440023
 20
-460.5169114308523
 30
0.0
 11
652.55494859440023
 21
-459.0169114308523
 31
0.0
  0
LINE
  5
2C1
  8
0
 62
     0
 10
647.96916215677345
 20
-465.0169114308523
 30
0.0
 11
650.73702198252283
 21
-462.24905160510281
 31
0.0
  0
LINE
  5
2C2
  8
0
 62
     0
 10
652.46916215677334
 20
-460.5169114308523
 30
0.0
 11
653.96916215677334
 21
-459.0169114308523
 31
0.0
  0
LINE
  5
2C3
  8
0
 62
     0
 10
649.38337571914656
 20
-465.0169114308523
 30
0.0
 11
650.91108796232493
 21
-463.48919918767382
 31
0.0
  0
LINE
  5
2C4
  8
0
 62
     0
 10
653.88337571914644
 20
-460.5169114308523
 30
0.0
 11
655.38337571914644
 21
-459.0169114308523
 31
0.0
  0
LINE
  5
2C5
  8
0
 62
     0
 10
650.79758928151955
 20
-465.0169114308523
 30
0.0
 11
652.29758928151955
 21
-463.5169114308523
 31
0.0
  0
LINE
  5
2C6
  8
0
 62
     0
 10
659.73702198252283
 20
-456.07747872984902
 30
0.0
 11
660.79758928151955
 21
-455.0169114308523
 31
0.0
  0
LINE
  5
2C7
  8
0
 62
     0
 10
655.29758928151955
 20
-460.5169114308523
 30
0.0
 11
656.79758928151955
 21
-459.0169114308523
 31
0.0
  0
LINE
  5
2C8
  8
0
 62
     0
 10
652.21180284389266
 20
-465.0169114308523
 30
0.0
 11
653.71180284389266
 21
-463.5169114308523
 31
0.0
  0
LINE
  5
2C9
  8
0
 62
     0
 10
660.71180284389266
 20
-456.5169114308523
 30
0.0
 11
662.15297658947463
 21
-455.07573768527033
 31
0.0
  0
LINE
  5
2CA
  8
0
 62
     0
 10
656.71180284389266
 20
-460.5169114308523
 30
0.0
 11
658.21180284389266
 21
-459.0169114308523
 31
0.0
  0
LINE
  5
2CB
  8
0
 62
     0
 10
653.62601640626576
 20
-465.0169114308523
 30
0.0
 11
655.12601640626565
 21
-463.5169114308523
 31
0.0
  0
LINE
  5
2CC
  8
0
 62
     0
 10
661.73702198252283
 20
-456.90590585459529
 30
0.0
 11
662.97419404043865
 21
-455.66873379667931
 31
0.0
  0
LINE
  5
2CD
  8
0
 62
     0
 10
658.12601640626576
 20
-460.5169114308523
 30
0.0
 11
659.62601640626565
 21
-459.0169114308523
 31
0.0
  0
LINE
  5
2CE
  8
0
 62
     0
 10
655.04022996863876
 20
-465.0169114308523
 30
0.0
 11
656.54022996863887
 21
-463.5169114308523
 31
0.0
  0
LINE
  5
2CF
  8
0
 62
     0
 10
661.73702198252283
 20
-458.32011941696828
 30
0.0
 11
663.23702198252295
 21
-456.8201194169684
 31
0.0
  0
LINE
  5
2D0
  8
0
 62
     0
 10
659.54022996863876
 20
-460.5169114308523
 30
0.0
 11
661.04022996863887
 21
-459.0169114308523
 31
0.0
  0
LINE
  5
2D1
  8
0
 62
     0
 10
656.45444353101198
 20
-465.0169114308523
 30
0.0
 11
657.95444353101186
 21
-463.5169114308523
 31
0.0
  0
LINE
  5
2D2
  8
0
 62
     0
 10
660.95444353101198
 20
-460.5169114308523
 30
0.0
 11
663.23702198252295
 21
-458.23433297934139
 31
0.0
  0
LINE
  5
2D3
  8
0
 62
     0
 10
657.86865709338497
 20
-465.0169114308523
 30
0.0
 11
659.36865709338508
 21
-463.5169114308523
 31
0.0
  0
LINE
  5
2D4
  8
0
 62
     0
 10
661.73702198252283
 20
-461.1485465417145
 30
0.0
 11
663.23702198252295
 21
-459.6485465417145
 31
0.0
  0
LINE
  5
2D5
  8
0
 62
     0
 10
659.28287065575819
 20
-465.0169114308523
 30
0.0
 11
660.78287065575796
 21
-463.5169114308523
 31
0.0
  0
LINE
  5
2D6
  8
0
 62
     0
 10
661.73702198252283
 20
-462.5627601040876
 30
0.0
 11
663.23702198252295
 21
-461.0627601040876
 31
0.0
  0
LINE
  5
2D7
  8
0
 62
     0
 10
660.69708421813118
 20
-465.0169114308523
 30
0.0
 11
663.23702198252295
 21
-462.47697366646082
 31
0.0
  0
LINE
  5
2D8
  8
0
 62
     0
 10
662.17739780738486
 20
-464.95081140397178
 30
0.0
 11
663.17092195564226
 21
-463.9572872557145
 31
0.0
  0
ENDBLK
  5
2DA
  8
0
  0
BLOCK
  8
0
  2
*D3
 70
     1
 10
0.0
 20
0.0
 30
0.0
  3
*D3
  1

  0
LINE
  5
33D
  8
1
 10
17.000000000000231
 20
10.0
 30
0.0
 11
28.132446002455481
 21
9.9999999999999964
 31
0.0
  0
LINE
  5
33E
  8
1
 10
17.00000000000022
 20
15.0
 30
0.0
 11
28.132446002455481
 21
14.999999999999989
 31
0.0
  0
LINE
  5
33F
  8
1
 10
27.132446002455481
 20
8.9999999999999982
 30
0.0
 11
27.132446002455481
 21
15.999999999999989
 31
0.0
  0
INSERT
  5
340
  8
1
  2
_OBLIQUE
 10
27.132446002455481
 20
9.9999999999999982
 30
0.0
 41
2.0
 42
2.0
 43
2.0
 50
270.0
  0
INSERT
  5
341
  8
1
  2
_OBLIQUE
 10
27.132446002455481
 20
15.0
 30
0.0
 41
2.0
 42
2.0
 43
2.0
 50
90.0
  0
TEXT
  5
342
  8
0
 10
26.072759781445921
 20
11.136766712141879
 30
0.0
 40
3.5
  1
5
 50
90.0
  7
BESCHLAG
  0
POINT
  5
343
  8
DEFPOINTS
 62
     0
 10
15.00000000000022
 20
10.0
 30
0.0
  0
POINT
  5
344
  8
DEFPOINTS
 62
     0
 10
15.00000000000022
 20
15.0
 30
0.0
  0
POINT
  5
345
  8
DEFPOINTS
 62
     0
 10
27.132446002455481
 20
15.0
 30
0.0
  0
ENDBLK
  5
30A
  8
0
  0
BLOCK
  8
0
  2
*D4
 70
     1
 10
0.0
 20
0.0
 30
0.0
  3
*D4
  1

  0
LINE
  5
346
  8
1
 10
17.00000000000022
 20
-0.0000000000000006
 30
0.0
 11
28.132446002455481
 21
-0.0000000000000037
 31
0.0
  0
LINE
  5
347
  8
1
 10
17.000000000000231
 20
10.0
 30
0.0
 11
28.132446002455481
 21
9.9999999999999964
 31
0.0
  0
LINE
  5
348
  8
1
 10
27.13244600245547
 20
-1.0000000000000031
 30
0.0
 11
27.132446002455481
 21
10.999999999999989
 31
0.0
  0
INSERT
  5
349
  8
1
  2
_OBLIQUE
 10
27.13244600245547
 20
-0.0000000000000034
 30
0.0
 41
2.0
 42
2.0
 43
2.0
 50
270.0
  0
INSERT
  5
34A
  8
1
  2
_OBLIQUE
 10
27.132446002455481
 20
9.9999999999999982
 30
0.0
 41
2.0
 42
2.0
 43
2.0
 50
90.0
  0
TEXT
  5
34B
  8
0
 10
26.065597434924779
 20
2.1314802182810371
 30
0.0
 40
3.5
  1
10
 50
90.0
  7
BESCHLAG
  0
POINT
  5
34C
  8
DEFPOINTS
 62
     0
 10
15.00000000000022
 20
0.0
 30
0.0
  0
POINT
  5
34D
  8
DEFPOINTS
 62
     0
 10
15.00000000000022
 20
10.0
 30
0.0
  0
POINT
  5
34E
  8
DEFPOINTS
 62
     0
 10
27.132446002455481
 20
9.9999999999999982
 30
0.0
  0
ENDBLK
  5
316
  8
0
  0
BLOCK
  8
0
  2
*D5
 70
     1
 10
0.0
 20
0.0
 30
0.0
  3
*D5
  1

  0
LINE
  5
34F
  8
1
 10
-20.999999999999769
 20
-2.0
 30
0.0
 11
-20.999999999999769
 21
-13.532113042514309
 31
0.0
  0
LINE
  5
350
  8
1
 10
0.0000000000002273
 20
-2.0
 30
0.0
 11
0.0000000000002265
 21
-13.532113042514309
 31
0.0
  0
LINE
  5
351
  8
1
 10
-21.999999999999769
 20
-12.532113042514309
 30
0.0
 11
1.000000000000226
 21
-12.532113042514309
 31
0.0
  0
INSERT
  5
352
  8
1
  2
_OBLIQUE
 10
-20.999999999999769
 20
-12.532113042514309
 30
0.0
 41
2.0
 42
2.0
 43
2.0
 50
180.0
  0
INSERT
  5
353
  8
1
  2
_OBLIQUE
 10
0.0000000000002266
 20
-12.532113042514309
 30
0.0
 41
2.0
 42
2.0
 43
2.0
  0
TEXT
  5
354
  8
0
 10
-12.842087312414501
 20
-11.52495069599316
 30
0.0
 40
3.5
  1
21
  7
BESCHLAG
  0
POINT
  5
355
  8
DEFPOINTS
 62
     0
 10
-20.999999999999769
 20
0.0
 30
0.0
  0
POINT
  5
356
  8
DEFPOINTS
 62
     0
 10
0.0000000000002274
 20
0.0
 30
0.0
  0
POINT
  5
357
  8
DEFPOINTS
 62
     0
 10
0.0000000000002266
 20
-12.532113042514309
 30
0.0
  0
ENDBLK
  5
322
  8
0
  0
BLOCK
  8
0
  2
*D6
 70
     1
 10
0.0
 20
0.0
 30
0.0
  3
*D6
  1

  0
LINE
  5
358
  8
1
 10
0.0000000000002273
 20
0.5
 30
0.0
 11
0.0000000000002264
 21
-13.532113042514309
 31
0.0
  0
LINE
  5
359
  8
1
 10
15.00000000000022
 20
-2.0
 30
0.0
 11
15.00000000000022
 21
-13.532113042514309
 31
0.0
  0
LINE
  5
35A
  8
1
 10
-0.9999999999997735
 20
-12.532113042514309
 30
0.0
 11
16.00000000000022
 21
-12.532113042514309
 31
0.0
  0
INSERT
  5
35B
  8
1
  2
_OBLIQUE
 10
0.0000000000002265
 20
-12.532113042514309
 30
0.0
 41
2.0
 42
2.0
 43
2.0
 50
180.0
  0
INSERT
  5
35C
  8
1
  2
_OBLIQUE
 10
15.00000000000022
 20
-12.532113042514309
 30
0.0
 41
2.0
 42
2.0
 43
2.0
  0
TEXT
  5
35D
  8
0
 10
4.6123806275582071
 20
-11.465264474983609
 30
0.0
 40
3.5
  1
15
  7
BESCHLAG
  0
POINT
  5
35E
  8
DEFPOINTS
 62
     0
 10
0.0000000000002274
 20
2.5
 30
0.0
  0
POINT
  5
35F
  8
DEFPOINTS
 62
     0
 10
15.00000000000022
 20
0.0
 30
0.0
  0
POINT
  5
360
  8
DEFPOINTS
 62
     0
 10
15.00000000000022
 20
-12.532113042514309
 30
0.0
  0
ENDBLK
  5
32E
  8
0
  0
BLOCK
  8
0
  2
*D7
 70
     1
 10
0.0
 20
0.0
 30
0.0
  3
*D7
  1

  0
LINE
  5
361
  8
1
 10
-22.999999999999769
 20
0.0000000000000006
 30
0.0
 11
-32.907350705437011
 21
0.0000000000000034
 31
0.0
  0
LINE
  5
362
  8
1
 10
-22.999999999999769
 20
2.5
 30
0.0
 11
-32.907350705437011
 21
2.5000000000000031
 31
0.0
  0
LINE
  5
363
  8
1
 10
-31.907350705437011
 20
0.0000000000000031
 30
0.0
 11
-31.907350705437011
 21
-1.999999999999996
 31
0.0
  0
LINE
  5
364
  8
1
 10
-31.907350705437011
 20
2.5000000000000031
 30
0.0
 11
-31.907350705437011
 21
4.5000000000000027
 31
0.0
  0
LINE
  5
365
  8
1
 10
-31.907350705437011
 20
0.0000000000000031
 30
0.0
 11
-31.907350705437011
 21
2.5000000000000031
 31
0.0
  0
INSERT
  5
366
  8
1
  2
_OBLIQUE
 10
-31.907350705437011
 20
0.0000000000000031
 30
0.0
 41
2.0
 42
2.0
 43
2.0
 50
90.0
  0
INSERT
  5
367
  8
1
  2
_OBLIQUE
 10
-31.907350705437011
 20
2.5000000000000031
 30
0.0
 41
2.0
 42
2.0
 43
2.0
 50
270.0
  0
TEXT
  5
368
  8
0
 10
-32.974199272967709
 20
-2.1222714870395651
 30
0.0
 40
3.5
  1
2.5
 50
90.0
  7
BESCHLAG
  0
POINT
  5
369
  8
DEFPOINTS
 62
     0
 10
-20.999999999999769
 20
0.0
 30
0.0
  0
POINT
  5
36A
  8
DEFPOINTS
 62
     0
 10
-20.999999999999769
 20
2.5
 30
0.0
  0
POINT
  5
36B
  8
DEFPOINTS
 62
     0
 10
-31.907350705437011
 20
2.5000000000000031
 30
0.0
  0
ENDBLK
  5
33C
  8
0
  0
ENDSEC
  0
SECTION
  2
ENTITIES
  0
INSERT
  5
25B
  8
5
  2
NULLPUNKT
 10
0.0
 20
0.0
 30
0.0
  0
INSERT
  5
2F0
  8
2
  2
*X2
 10
-648.23702198252272
 20
465.0169114308523
 30
0.0
1001
ACAD
1000
HATCH
1002
{
1070
    16
1000
_U,I
1040
1.0
1040
0.7853981633974483
1070
     0
1002
}
  0
DIMENSION
  5
2F1
  8
1
  2
*D3
 10
27.132446002455481
 20
15.0
 30
0.0
 11
24.352602891950699
 21
12.5
 31
0.0
 70
     0
 13
15.00000000000022
 23
10.0
 33
0.0
 14
15.00000000000022
 24
15.0
 34
0.0
 50
90.0
  0
DIMENSION
  5
2F2
  8
1
  2
*D4
 10
27.132446002455481
 20
9.9999999999999982
 30
0.0
 11
24.34544054542955
 21
5.0
 31
0.0
 70
     0
 13
15.00000000000022
 23
0.0
 33
0.0
 14
15.00000000000022
 24
10.0
 34
0.0
 50
90.0
  0
TEXT
  5
2F3
  8
1
 10
-32.593501361775679
 20
9.291440597844371
 30
0.0
 40
2.5
  1
Hebgo 135/620
  0
DIMENSION
  5
2F4
  8
1
  2
*D5
 10
0.0000000000002266
 20
-12.532113042514309
 30
0.0
 11
-10.499999999999771
 21
-9.7749506959931658
 31
0.0
 70
     0
 13
-20.999999999999769
 23
0.0
 33
0.0
 14
0.0000000000002274
 24
0.0
 34
0.0
  0
POLYLINE
  5
2F5
  8
6
 66
     1
 10
0.0
 20
0.0
 30
0.0
 70
     1
  0
VERTEX
  5
42F
  8
6
 10
5.3662526282953422
 20
6.1685687309527557
 30
0.0
 42
-0.6415838065530063
  0
VERTEX
  5
430
  8
6
 10
10.741824769380621
 20
6.551145035511694
 30
0.0
 42
0.5157822426877657
  0
VERTEX
  5
431
  8
6
 10
12.052181509352749
 20
6.4646397704516403
 30
0.0
  0
VERTEX
  5
432
  8
6
 10
12.84917903202154
 20
7.8312963554020589
 30
0.0
  0
VERTEX
  5
433
  8
6
 10
12.84917903202154
 20
8.5
 30
0.0
  0
VERTEX
  5
434
  8
6
 10
12.01503604100639
 20
8.5
 30
0.0
  0
VERTEX
  5
435
  8
6
 10
12.01503604100639
 20
9.9376330714744654
 30
0.0
 42
0.2542712822039416
  0
VERTEX
  5
436
  8
6
 10
12.96271408027974
 20
11.492743080729269
 30
0.0
 42
0.2243409163654158
  0
VERTEX
  5
437
  8
6
 10
11.92883614106654
 20
13.783711096743209
 30
0.0
 42
0.1306125509340432
  0
VERTEX
  5
438
  8
6
 10
9.8132456110608928
 20
14.646436935943941
 30
0.0
 42
0.0700993617324612
  0
VERTEX
  5
439
  8
6
 10
4.0892916407985922
 20
14.801379927665151
 30
0.0
 42
0.9870930961173433
  0
VERTEX
  5
43A
  8
6
 10
4.1871242781955971
 20
14.146081988702569
 30
0.0
 42
-0.0371998225987245
  0
VERTEX
  5
43B
  8
6
 10
8.6514838543982933
 20
14.003425484209281
 30
0.0
 42
-0.1406088209171751
  0
VERTEX
  5
43C
  8
6
 10
10.501234303865431
 20
13.33595964057076
 30
0.0
 42
-0.1105408410528704
  0
VERTEX
  5
43D
  8
6
 10
11.371632604335209
 20
12.27606180053453
 30
0.0
 42
-0.2870603126370058
  0
VERTEX
  5
43E
  8
6
 10
11.094110244928061
 20
11.3069122906694
 30
0.0
 42
-0.1002807908351088
  0
VERTEX
  5
43F
  8
6
 10
9.8418521307241917
 20
10.84722569864493
 30
0.0
 42
-0.0333497571445928
  0
VERTEX
  5
440
  8
6
 10
5.2176012612046634
 20
10.38564207161914
 30
0.0
 42
0.4545352424188308
  0
VERTEX
  5
441
  8
6
 10
4.5145541720632991
 20
9.8836041512029151
 30
0.0
  0
VERTEX
  5
442
  8
6
 10
3.9425426013779079
 20
8.4020842178508701
 30
0.0
 42
-0.3791917245757989
  0
VERTEX
  5
443
  8
6
 10
3.2674972533525302
 20
8.2358145834220977
 30
0.0
  0
VERTEX
  5
444
  8
6
 10
2.5565228823390949
 20
8.49579581232706
 30
0.0
  0
VERTEX
  5
445
  8
6
 10
2.1607161271369928
 20
8.0836108879658468
 30
0.0
  0
VERTEX
  5
446
  8
6
 10
2.1508209679780061
 20
7.9055470415111131
 30
0.0
  0
VERTEX
  5
447
  8
6
 10
3.188101334672182
 20
6.1685687309527557
 30
0.0
  0
SEQEND
  5
448
  8
6
  0
POLYLINE
  5
2F6
  8
6
 66
     1
 10
0.0
 20
0.0
 30
0.0
 70
     1
  0
VERTEX
  5
449
  8
6
 10
2.5000000000002269
 20
1.800000000000068
 30
0.0
  0
VERTEX
  5
44A
  8
6
 10
2.5000000000002269
 20
4.2000000000000446
 30
0.0
 42
-0.4142135623730951
  0
VERTEX
  5
44B
  8
6
 10
2.8000000000004088
 20
4.5
 30
0.0
  0
VERTEX
  5
44C
  8
6
 10
13.20000000000004
 20
4.5
 30
0.0
 42
-0.4142135623730951
  0
VERTEX
  5
44D
  8
6
 10
13.50000000000022
 20
4.2000000000000446
 30
0.0
  0
VERTEX
  5
44E
  8
6
 10
13.50000000000022
 20
1.800000000000068
 30
0.0
 42
-0.4142135623730951
  0
VERTEX
  5
44F
  8
6
 10
13.20000000000004
 20
1.5
 30
0.0
  0
VERTEX
  5
450
  8
6
 10
2.8000000000004088
 20
1.5
 30
0.0
 42
-0.4142135623730959
  0
SEQEND
  5
451
  8
6
  0
POLYLINE
  5
2F7
  8
4
 66
     1
 10
0.0
 20
0.0
 30
0.0
 70
     1
  0
VERTEX
  5
452
  8
4
 10
15.00000000000022
 20
0.0
 30
0.0
  0
VERTEX
  5
453
  8
4
 10
-19.999999999999769
 20
0.0
 30
0.0
  0
VERTEX
  5
454
  8
4
 10
-19.999999999999769
 20
2.5
 30
0.0
  0
VERTEX
  5
455
  8
4
 10
0.0000000000002274
 20
2.5
 30
0.0
  0
VERTEX
  5
456
  8
4
 10
0.0000000000002274
 20
10.0
 30
0.0
  0
VERTEX
  5
457
  8
4
 10
15.00000000000022
 20
10.0
 30
0.0
  0
SEQEND
  5
458
  8
4
  0
POLYLINE
  5
2F8
  8
6
 66
     1
 10
0.0
 20
0.0
 30
0.0
 70
     1
  0
VERTEX
  5
459
  8
6
 10
0.0000000000002274
 20
2.5
 30
0.0
  0
VERTEX
  5
45A
  8
6
 10
-19.699999999999591
 20
2.5
 30
0.0
 42
0.4142135623730951
  0
VERTEX
  5
45B
  8
6
 10
-19.999999999999769
 20
2.200000000000045
 30
0.0
  0
VERTEX
  5
45C
  8
6
 10
-19.999999999999769
 20
0.3000000000000682
 30
0.0
 42
0.4142135623730951
  0
VERTEX
  5
45D
  8
6
 10
-19.699999999999591
 20
0.0
 30
0.0
  0
VERTEX
  5
45E
  8
6
 10
13.50000000000022
 20
0.0
 30
0.0
 42
0.4142135623730951
  0
VERTEX
  5
45F
  8
6
 10
15.00000000000022
 20
1.5
 30
0.0
  0
VERTEX
  5
460
  8
6
 10
15.00000000000022
 20
8.5
 30
0.0
 42
0.4142135623730953
  0
VERTEX
  5
461
  8
6
 10
13.50000000000022
 20
10.0
 30
0.0
  0
VERTEX
  5
462
  8
6
 10
11.800000000000409
 20
10.0
 30
0.0
 42
0.4142135623730951
  0
VERTEX
  5
463
  8
6
 10
11.50000000000022
 20
9.7000000000000455
 30
0.0
  0
VERTEX
  5
464
  8
6
 10
11.50000000000022
 20
8.8000000000000682
 30
0.0
 42
0.4142135623730951
  0
VERTEX
  5
465
  8
6
 10
11.800000000000409
 20
8.5
 30
0.0
  0
VERTEX
  5
466
  8
6
 10
13.50000000000022
 20
8.5
 30
0.0
  0
VERTEX
  5
467
  8
6
 10
13.50000000000022
 20
6.0
 30
0.0
  0
VERTEX
  5
468
  8
6
 10
1.5000000000002269
 20
6.0
 30
0.0
  0
VERTEX
  5
469
  8
6
 10
1.5000000000002269
 20
8.5
 30
0.0
  0
VERTEX
  5
46A
  8
6
 10
3.200000000000045
 20
8.5
 30
0.0
 42
0.4142135623730951
  0
VERTEX
  5
46B
  8
6
 10
3.5000000000002269
 20
8.8000000000000682
 30
0.0
  0
VERTEX
  5
46C
  8
6
 10
3.5000000000002269
 20
9.7000000000000455
 30
0.0
 42
0.4142135623730951
  0
VERTEX
  5
46D
  8
6
 10
3.200000000000045
 20
10.0
 30
0.0
  0
VERTEX
  5
46E
  8
6
 10
0.3000000000004093
 20
10.0
 30
0.0
 42
0.4142135623730951
  0
VERTEX
  5
46F
  8
6
 10
0.0000000000002274
 20
9.7000000000000455
 30
0.0
  0
SEQEND
  5
470
  8
6
  0
DIMENSION
  5
2F9
  8
1
  2
*D6
 10
15.00000000000022
 20
-12.532113042514309
 30
0.0
 11
7.5000000000002256
 21
-9.7451075854883911
 31
0.0
 70
     0
 13
0.0000000000002274
 23
2.5
 33
0.0
 14
15.00000000000022
 24
0.0
 34
0.0
  0
POLYLINE
  5
2FA
  8
5
 66
     1
 10
0.0
 20
0.0
 30
0.0
  0
VERTEX
  5
471
  8
5
 10
4.0000000000002274
 20
22.5
 30
0.0
  0
VERTEX
  5
472
  8
5
 10
4.0000000000002274
 20
15.0
 30
0.0
  0
VERTEX
  5
473
  8
5
 10
21.26092049575459
 20
15.0
 30
0.0
  0
SEQEND
  5
474
  8
5
  0
POLYLINE
  5
2FB
  8
5
 66
     1
 10
0.0
 20
0.0
 30
0.0
  0
VERTEX
  5
475
  8
5
 10
-25.999999999999769
 20
0.0
 30
0.0
  0
VERTEX
  5
476
  8
5
 10
-20.999999999999769
 20
0.0
 30
0.0
  0
VERTEX
  5
477
  8
5
 10
-20.999999999999769
 20
2.5
 30
0.0
  0
VERTEX
  5
478
  8
5
 10
0.0000000000002274
 20
2.5
 30
0.0
  0
VERTEX
  5
479
  8
5
 10
0.0000000000002274
 20
22.5
 30
0.0
  0
SEQEND
  5
47A
  8
5
  0
LINE
  5
2FC
  8
6
  6
STRICHPUNKT
 10
-9.9999999999997726
 20
-1.742074484378008
 30
0.0
 11
-9.9999999999997726
 21
20.0
 31
0.0
  0
POLYLINE
  5
2FD
  8
6
 66
     1
 10
0.0
 20
0.0
 30
0.0
 70
     1
  0
VERTEX
  5
47B
  8
6
 10
-7.8500000000001364
 20
0.0
 30
0.0
  0
VERTEX
  5
47C
  8
6
 10
-7.8500000000001364
 20
2.5
 30
0.0
  0
VERTEX
  5
47D
  8
6
 10
-12.150000000000309
 20
2.5
 30
0.0
  0
VERTEX
  5
47E
  8
6
 10
-12.150000000000309
 20
0.0
 30
0.0
  0
SEQEND
  5
47F
  8
6
  0
DIMENSION
  5
2FE
  8
1
  2
*D7
 10
-31.907350705437011
 20
2.5000000000000031
 30
0.0
 11
-34.694356162462931
 21
1.249999999999998
 31
0.0
 70
     0
 13
-20.999999999999769
 23
0.0
 33
0.0
 14
-20.999999999999769
 24
2.5
 34
0.0
 50
90.0
  0
VIEWPORT
  5
22
 67
     1
  8
0
 10
210.0
 20
170.2366863905325
 30
0.0
 40
420.0
 41
340.47337278106511
 68
     1
 69
     1
1001
ACAD
1000
MVIEW
1002
{
1070
    16
1010
0.0
1020
0.0
1030
0.0
1010
0.0
1020
0.0
1030
1.0
1040
0.0
1040
340.47337278106511
1040
210.0
1040
170.2366863905325
1040
50.0
1040
0.0
1040
0.0
1070
     0
1070
   100
1070
     1
1070
     1
1070
     0
1070
     0
1070
     0
1070
     0
1040
0.0
1040
0.0
1040
0.0
1040
5.0
1040
5.0
1040
10.0
1040
10.0
1070
     0
1002
{
1002
}
1002
}
  0
ENDSEC
  0
EOF
