  0
SECTION
  2
HEADER
  9
$ACADVER
  1
AC1015
  9
$ACADMAINTVER
 70
    13
  9
$DWGCODEPAGE
  3
ANSI_1252
  9
$INSBASE
 10
0.0
 20
0.0
 30
0.0
  9
$EXTMIN
 10
-19.29182692112067
 20
-19.24757433545755
 30
0.0
  9
$EXTMAX
 10
27.81638487263081
 20
20.29833602865069
 30
0.0
  9
$LIMMIN
 10
-150.0
 20
-150.0
  9
$LIMMAX
 10
150.0
 20
150.0
  9
$ORTHOMODE
 70
     0
  9
$REGENMODE
 70
     1
  9
$FILLMODE
 70
     1
  9
$QTEXTMODE
 70
     0
  9
$MIRRTEXT
 70
     0
  9
$LTSCALE
 40
3.0
  9
$ATTMODE
 70
     1
  9
$TEXTSIZE
 40
3.5
  9
$TRACEWID
 40
1.0
  9
$TEXTSTYLE
  7
Beschlag
  9
$CLAYER
  8
6
  9
$CELTYPE
  6
BYLAYER
  9
$CECOLOR
 62
   256
  9
$CELTSCALE
 40
1.0
  9
$DISPSILH
 70
     1
  9
$DIMSCALE
 40
1.0
  9
$DIMASZ
 40
2.0
  9
$DIMEXO
 40
2.0
  9
$DIMDLI
 40
0.0
  9
$DIMRND
 40
0.0
  9
$DIMDLE
 40
1.0
  9
$DIMEXE
 40
1.0
  9
$DIMTP
 40
0.0
  9
$DIMTM
 40
0.0
  9
$DIMTXT
 40
3.5
  9
$DIMCEN
 40
0.0
  9
$DIMTSZ
 40
0.0
  9
$DIMTOL
 70
     0
  9
$DIMLIM
 70
     0
  9
$DIMTIH
 70
     0
  9
$DIMTOH
 70
     0
  9
$DIMSE1
 70
     0
  9
$DIMSE2
 70
     0
  9
$DIMTAD
 70
     1
  9
$DIMZIN
 70
     8
  9
$DIMBLK
  1

  9
$DIMASO
 70
     1
  9
$DIMSHO
 70
     1
  9
$DIMPOST
  1

  9
$DIMAPOST
  1

  9
$DIMALT
 70
     0
  9
$DIMALTD
 70
     2
  9
$DIMALTF
 40
0.039370078740157
  9
$DIMLFAC
 40
1.0
  9
$DIMTOFL
 70
     1
  9
$DIMTVP
 40
0.0
  9
$DIMTIX
 70
     1
  9
$DIMSOXD
 70
     0
  9
$DIMSAH
 70
     1
  9
$DIMBLK1
  1
Oblique
  9
$DIMBLK2
  1
Oblique
  9
$DIMSTYLE
  2
OPO-SSTRICH
  9
$DIMCLRD
 70
   256
  9
$DIMCLRE
 70
   256
  9
$DIMCLRT
 70
   256
  9
$DIMTFAC
 40
0.7114285714285716
  9
$DIMGAP
 40
1.0
  9
$DIMJUST
 70
     0
  9
$DIMSD1
 70
     0
  9
$DIMSD2
 70
     0
  9
$DIMTOLJ
 70
     1
  9
$DIMTZIN
 70
     8
  9
$DIMALTZ
 70
     8
  9
$DIMALTTZ
 70
     8
  9
$DIMUPT
 70
     0
  9
$DIMDEC
 70
     1
  9
$DIMTDEC
 70
     1
  9
$DIMALTU
 70
     2
  9
$DIMALTTD
 70
     2
  9
$DIMTXSTY
  7
Beschlag
  9
$DIMAUNIT
 70
     0
  9
$DIMADEC
 70
     1
  9
$DIMALTRND
 40
0.0
  9
$DIMAZIN
 70
     2
  9
$DIMDSEP
 70
    46
  9
$DIMATFIT
 70
     3
  9
$DIMFRAC
 70
     0
  9
$DIMLDRBLK
  1
Oblique
  9
$DIMLUNIT
 70
     2
  9
$DIMLWD
 70
    -2
  9
$DIMLWE
 70
    -2
  9
$DIMTMOVE
 70
     2
  9
$LUNITS
 70
     2
  9
$LUPREC
 70
     1
  9
$SKETCHINC
 40
1.0
  9
$FILLETRAD
 40
2.5
  9
$AUNITS
 70
     0
  9
$AUPREC
 70
     1
  9
$MENU
  1
D:\ACL_CGWG\CGTAB13
  9
$ELEVATION
 40
0.0
  9
$PELEVATION
 40
0.0
  9
$THICKNESS
 40
0.0
  9
$LIMCHECK
 70
     0
  9
$CHAMFERA
 40
1.0
  9
$CHAMFERB
 40
1.0
  9
$CHAMFERC
 40
1.0
  9
$CHAMFERD
 40
0.7853981633974483
  9
$SKPOLY
 70
     0
  9
$TDCREATE
 40
2451739.901524155
  9
$TDUCREATE
 40
2451739.859857488
  9
$TDUPDATE
 40
2452243.467996180
  9
$TDUUPDATE
 40
2452243.426329514
  9
$TDINDWG
 40
0.1575378125
  9
$TDUSRTIMER
 40
0.1575376273
  9
$USRTIMER
 70
     1
  9
$ANGBASE
 50
0.0
  9
$ANGDIR
 70
     0
  9
$PDMODE
 70
    35
  9
$PDSIZE
 40
5.0
  9
$PLINEWID
 40
0.0
  9
$SPLFRAME
 70
     0
  9
$SPLINETYPE
 70
     6
  9
$SPLINESEGS
 70
     8
  9
$HANDSEED
  5
827
  9
$SURFTAB1
 70
    12
  9
$SURFTAB2
 70
    12
  9
$SURFTYPE
 70
     6
  9
$SURFU
 70
    12
  9
$SURFV
 70
    12
  9
$UCSBASE
  2

  9
$UCSNAME
  2

  9
$UCSORG
 10
0.0
 20
0.0
 30
0.0
  9
$UCSXDIR
 10
1.0
 20
0.0
 30
0.0
  9
$UCSYDIR
 10
0.0
 20
1.0
 30
0.0
  9
$UCSORTHOREF
  2

  9
$UCSORTHOVIEW
 70
     0
  9
$UCSORGTOP
 10
0.0
 20
0.0
 30
0.0
  9
$UCSORGBOTTOM
 10
0.0
 20
0.0
 30
0.0
  9
$UCSORGLEFT
 10
0.0
 20
0.0
 30
0.0
  9
$UCSORGRIGHT
 10
0.0
 20
0.0
 30
0.0
  9
$UCSORGFRONT
 10
0.0
 20
0.0
 30
0.0
  9
$UCSORGBACK
 10
0.0
 20
0.0
 30
0.0
  9
$PUCSBASE
  2

  9
$PUCSNAME
  2

  9
$PUCSORG
 10
0.0
 20
0.0
 30
0.0
  9
$PUCSXDIR
 10
1.0
 20
0.0
 30
0.0
  9
$PUCSYDIR
 10
0.0
 20
1.0
 30
0.0
  9
$PUCSORTHOREF
  2

  9
$PUCSORTHOVIEW
 70
     0
  9
$PUCSORGTOP
 10
0.0
 20
0.0
 30
0.0
  9
$PUCSORGBOTTOM
 10
0.0
 20
0.0
 30
0.0
  9
$PUCSORGLEFT
 10
0.0
 20
0.0
 30
0.0
  9
$PUCSORGRIGHT
 10
0.0
 20
0.0
 30
0.0
  9
$PUCSORGFRONT
 10
0.0
 20
0.0
 30
0.0
  9
$PUCSORGBACK
 10
0.0
 20
0.0
 30
0.0
  9
$USERI1
 70
     0
  9
$USERI2
 70
     0
  9
$USERI3
 70
     0
  9
$USERI4
 70
     0
  9
$USERI5
 70
     0
  9
$USERR1
 40
0.0
  9
$USERR2
 40
0.0
  9
$USERR3
 40
0.0
  9
$USERR4
 40
0.0
  9
$USERR5
 40
0.0
  9
$WORLDVIEW
 70
     1
  9
$SHADEDGE
 70
     3
  9
$SHADEDIF
 70
    70
  9
$TILEMODE
 70
     1
  9
$MAXACTVP
 70
    48
  9
$PINSBASE
 10
0.0
 20
0.0
 30
0.0
  9
$PLIMCHECK
 70
     0
  9
$PEXTMIN
 10
1.000000000000000E+20
 20
1.000000000000000E+20
 30
1.000000000000000E+20
  9
$PEXTMAX
 10
-1.000000000000000E+20
 20
-1.000000000000000E+20
 30
-1.000000000000000E+20
  9
$PLIMMIN
 10
0.0
 20
0.0
  9
$PLIMMAX
 10
420.0
 20
297.0
  9
$UNITMODE
 70
     0
  9
$VISRETAIN
 70
     1
  9
$PLINEGEN
 70
     0
  9
$PSLTSCALE
 70
     1
  9
$TREEDEPTH
 70
  3020
  9
$CMLSTYLE
  2
STANDARD
  9
$CMLJUST
 70
     0
  9
$CMLSCALE
 40
1.0
  9
$PROXYGRAPHICS
 70
     1
  9
$MEASUREMENT
 70
     1
  9
$CELWEIGHT
370
    -1
  9
$ENDCAPS
280
     0
  9
$JOINSTYLE
280
     0
  9
$LWDISPLAY
290
     0
  9
$INSUNITS
 70
     0
  9
$HYPERLINKBASE
  1

  9
$STYLESHEET
  1
Hebgo Laser.ctb
  9
$XEDIT
290
     1
  9
$CEPSNTYPE
380
     0
  9
$PSTYLEMODE
290
     1
  9
$FINGERPRINTGUID
  2
{DEF6964E-5F8B-11D3-8AEE-0008C71A8CF4}
  9
$VERSIONGUID
  2
{FF6043AC-8D21-44EB-9E19-BF1FD51F4BEB}
  9
$EXTNAMES
290
     1
  9
$PSVPSCALE
 40
0.0
  9
$OLESTARTUP
290
     0
  0
ENDSEC
  0
SECTION
  2
CLASSES
  0
CLASS
  1
ACDBDICTIONARYWDFLT
  2
AcDbDictionaryWithDefault
  3
AutoCAD 2000
 90
        0
280
     0
281
     0
  0
CLASS
  1
ACDBPLACEHOLDER
  2
AcDbPlaceHolder
  3
AutoCAD 2000
 90
        0
280
     0
281
     0
  0
CLASS
  1
LAYOUT
  2
AcDbLayout
  3
AutoCAD 2000
 90
        0
280
     0
281
     0
  0
CLASS
  1
DICTIONARYVAR
  2
AcDbDictionaryVar
  3
AutoCAD 2000
 90
        0
280
     0
281
     0
  0
CLASS
  1
LONG_TRANSACTION
  2
AcDbLongTransaction
  3
AutoCAD 2000
 90
    32768
280
     0
281
     0
  0
CLASS
  1
LWPOLYLINE
  2
AcDbPolyline
  3
AutoCAD 2000
 90
    32768
280
     0
281
     1
  0
CLASS
  1
HATCH
  2
AcDbHatch
  3
AutoCAD 2000
 90
    32768
280
     0
281
     1
  0
CLASS
  1
XRECORD
  2
AcDbXrecord
  3
AutoCAD 2000
 90
    32768
280
     0
281
     0
  0
CLASS
  1
PLOTSETTINGS
  2
AcDbPlotSettings
  3
AutoCAD 2000
 90
        0
280
     0
281
     0
  0
CLASS
  1
LONG_TRANSACTION
  2
AcDbLongTransaction
  3
AutoCAD 2000
 90
    32768
280
     0
281
     0
  0
CLASS
  1
LWPOLYLINE
  2
AcDbPolyline
  3
AutoCAD 2000
 90
    32768
280
     0
281
     1
  0
CLASS
  1
HATCH
  2
AcDbHatch
  3
AutoCAD 2000
 90
    32768
280
     0
281
     1
  0
CLASS
  1
XRECORD
  2
AcDbXrecord
  3
AutoCAD 2000
 90
    32768
280
     0
281
     0
  0
CLASS
  1
LONG_TRANSACTION
  2
AcDbLongTransaction
  3
AutoCAD 2000
 90
    32768
280
     0
281
     0
  0
CLASS
  1
LWPOLYLINE
  2
AcDbPolyline
  3
AutoCAD 2000
 90
    32768
280
     0
281
     1
  0
CLASS
  1
HATCH
  2
AcDbHatch
  3
AutoCAD 2000
 90
    32768
280
     0
281
     1
  0
CLASS
  1
XRECORD
  2
AcDbXrecord
  3
AutoCAD 2000
 90
    32768
280
     0
281
     0
  0
CLASS
  1
LONG_TRANSACTION
  2
AcDbLongTransaction
  3
AutoCAD 2000
 90
    32768
280
     0
281
     0
  0
CLASS
  1
LWPOLYLINE
  2
AcDbPolyline
  3
AutoCAD 2000
 90
    32768
280
     0
281
     1
  0
CLASS
  1
HATCH
  2
AcDbHatch
  3
AutoCAD 2000
 90
    32768
280
     0
281
     1
  0
CLASS
  1
XRECORD
  2
AcDbXrecord
  3
AutoCAD 2000
 90
    32768
280
     0
281
     0
  0
CLASS
  1
LONG_TRANSACTION
  2
AcDbLongTransaction
  3
AutoCAD 2000
 90
    32768
280
     0
281
     0
  0
CLASS
  1
LWPOLYLINE
  2
AcDbPolyline
  3
AutoCAD 2000
 90
    32768
280
     0
281
     1
  0
CLASS
  1
HATCH
  2
AcDbHatch
  3
AutoCAD 2000
 90
    32768
280
     0
281
     1
  0
CLASS
  1
XRECORD
  2
AcDbXrecord
  3
AutoCAD 2000
 90
    32768
280
     0
281
     0
  0
CLASS
  1
LONG_TRANSACTION
  2
AcDbLongTransaction
  3
AutoCAD 2000
 90
    32768
280
     0
281
     0
  0
CLASS
  1
LWPOLYLINE
  2
AcDbPolyline
  3
AutoCAD 2000
 90
    32768
280
     0
281
     1
  0
CLASS
  1
HATCH
  2
AcDbHatch
  3
AutoCAD 2000
 90
    32768
280
     0
281
     1
  0
CLASS
  1
XRECORD
  2
AcDbXrecord
  3
AutoCAD 2000
 90
    32768
280
     0
281
     0
  0
CLASS
  1
SORTENTSTABLE
  2
AcDbSortentsTable
  3
AutoCAD 2000
 90
        0
280
     0
281
     0
  0
ENDSEC
  0
SECTION
  2
TABLES
  0
TABLE
  2
VPORT
  5
8
330
0
100
AcDbSymbolTable
 70
     2
  0
VPORT
  5
826
330
8
100
AcDbSymbolTableRecord
100
AcDbViewportTableRecord
  2
*Active
 70
     0
 10
0.0
 20
0.0
 11
1.0
 21
1.0
 12
4.268646943695671
 22
0.5264289217610667
 13
0.0
 23
0.0
 14
0.25
 24
0.25
 15
2.0
 25
2.0
 16
0.0
 26
0.0
 36
1.0
 17
0.0
 27
0.0
 37
0.0
 40
39.85977142294405
 41
1.581486310299869
 42
50.0
 43
0.0
 44
0.0
 50
0.0
 51
0.0
 71
     0
 72
   800
 73
     1
 74
     1
 75
     0
 76
     0
 77
     0
 78
     0
281
     0
 65
     1
110
0.0
120
0.0
130
0.0
111
1.0
121
0.0
131
0.0
112
0.0
122
1.0
132
0.0
 79
     0
146
0.0
  0
ENDTAB
  0
TABLE
  2
LTYPE
  5
5
330
0
100
AcDbSymbolTable
 70
     2
  0
LTYPE
  5
14
330
5
100
AcDbSymbolTableRecord
100
AcDbLinetypeTableRecord
  2
BYBLOCK
 70
     0
  3

 72
    65
 73
     0
 40
0.0
  0
LTYPE
  5
15
330
5
100
AcDbSymbolTableRecord
100
AcDbLinetypeTableRecord
  2
BYLAYER
 70
     0
  3

 72
    65
 73
     0
 40
0.0
  0
LTYPE
  5
16
330
5
100
AcDbSymbolTableRecord
100
AcDbLinetypeTableRecord
  2
CONTINUOUS
 70
     0
  3
_______________________________________________
 72
    65
 73
     2
 40
1.0
 49
1.0
 74
     0
 49
0.0
 74
     0
  0
LTYPE
  5
2BE
330
5
100
AcDbSymbolTableRecord
100
AcDbLinetypeTableRecord
  2
STRICHPUNKT
 70
     0
  3
__ . __ . __ . __ . __ . __ . __ . __ . __ . __
 72
    65
 73
     4
 40
1.0
 49
0.5
 74
     0
 49
-0.25
 74
     0
 49
0.0
 74
     0
 49
-0.25
 74
     0
  0
ENDTAB
  0
TABLE
  2
LAYER
  5
2
330
0
100
AcDbSymbolTable
 70
     7
  0
LAYER
  5
F
330
2
100
AcDbSymbolTableRecord
100
AcDbLayerTableRecord
  2
0
 70
     0
 62
    30
  6
CONTINUOUS
370
    -3
390
F3
  0
LAYER
  5
120
330
2
100
AcDbSymbolTableRecord
100
AcDbLayerTableRecord
  2
1
 70
     0
 62
     2
  6
CONTINUOUS
370
    -3
390
F3
  0
LAYER
  5
121
330
2
100
AcDbSymbolTableRecord
100
AcDbLayerTableRecord
  2
2
 70
     0
 62
     9
  6
CONTINUOUS
370
    -3
390
F3
  0
LAYER
  5
123
330
2
100
AcDbSymbolTableRecord
100
AcDbLayerTableRecord
  2
4
 70
     1
 62
     4
  6
CONTINUOUS
370
    -3
390
F3
  0
LAYER
  5
124
330
2
100
AcDbSymbolTableRecord
100
AcDbLayerTableRecord
  2
5
 70
     0
 62
     1
  6
CONTINUOUS
370
    -3
390
F3
  0
LAYER
  5
125
330
2
100
AcDbSymbolTableRecord
100
AcDbLayerTableRecord
  2
6
 70
     0
 62
     3
  6
CONTINUOUS
370
    35
390
F3
  0
LAYER
  5
207
330
2
100
AcDbSymbolTableRecord
100
AcDbLayerTableRecord
  2
Defpoints
 70
     0
 62
     7
  6
CONTINUOUS
290
     0
370
    -3
390
F3
  0
ENDTAB
  0
TABLE
  2
STYLE
  5
3
330
0
100
AcDbSymbolTable
 70
     2
  0
STYLE
  5
10
330
3
100
AcDbSymbolTableRecord
100
AcDbTextStyleTableRecord
  2
STANDARD
 70
     0
 40
0.0
 41
1.0
 50
0.0
 71
     0
 42
2.5
  3
ARIAL.TTF
  4

1001
ACAD
1000
Arial
1071
       34
  0
STYLE
  5
12B
330
3
100
AcDbSymbolTableRecord
100
AcDbTextStyleTableRecord
  2
Beschlag
 70
     0
 40
0.0
 41
1.0
 50
0.0
 71
     0
 42
3.5
  3
ARIAL.TTF
  4

1001
ACAD
1000
Arial
1071
       34
  0
ENDTAB
  0
TABLE
  2
VIEW
  5
6
330
0
100
AcDbSymbolTable
 70
     0
  0
ENDTAB
  0
TABLE
  2
UCS
  5
7
330
0
100
AcDbSymbolTable
 70
     0
  0
ENDTAB
  0
TABLE
  2
APPID
  5
9
330
0
100
AcDbSymbolTable
 70
     1
  0
APPID
  5
11
330
9
100
AcDbSymbolTableRecord
100
AcDbRegAppTableRecord
  2
ACAD
 70
     0
  0
ENDTAB
  0
TABLE
  2
DIMSTYLE
  5
A
330
0
100
AcDbSymbolTable
 70
     1
100
AcDbDimStyleTable
 71
     1
340
209
  0
DIMSTYLE
105
209
102
{ACAD_REACTORS
330
2E9
330
6BF
330
6CE
330
70D
330
768
102
}
330
A
100
AcDbSymbolTableRecord
100
AcDbDimStyleTableRecord
  2
OPO-SSTRICH
 70
     0
 41
2.0
 42
2.0
 43
0.0
 44
1.0
 46
1.0
 73
     0
 74
     0
 77
     1
 78
     8
 79
     2
140
3.5
141
0.0
143
0.039370078740157
146
0.7114285714285716
147
1.0
172
     1
173
     1
174
     1
176
   256
177
   256
178
   256
179
     1
271
     1
272
     1
279
     2
284
     8
285
     8
286
     8
340
12B
341
203
343
203
344
203
  0
ENDTAB
  0
TABLE
  2
BLOCK_RECORD
  5
1
330
0
100
AcDbSymbolTable
 70
     7
  0
BLOCK_RECORD
  5
1A
102
{ACAD_XDICTIONARY
360
1F6
102
}
330
1
100
AcDbSymbolTableRecord
100
AcDbBlockTableRecord
  2
*MODEL_SPACE
340
F6
  0
BLOCK_RECORD
  5
17
102
{ACAD_XDICTIONARY
360
1F4
102
}
330
1
100
AcDbSymbolTableRecord
100
AcDbBlockTableRecord
  2
*PAPER_SPACE
340
F7
  0
BLOCK_RECORD
  5
203
330
1
100
AcDbSymbolTableRecord
100
AcDbBlockTableRecord
  2
_Oblique
340
0
102
{BLKREFS
331
7F6
331
7F7
331
7FF
331
800
331
808
331
809
331
813
331
814
331
81C
331
81D
102
}
  0
BLOCK_RECORD
  5
253
330
1
100
AcDbSymbolTableRecord
100
AcDbBlockTableRecord
  2
NullPunkt
340
0
102
{BLKREFS
331
25B
102
}
  0
BLOCK_RECORD
  5
30C
330
1
100
AcDbSymbolTableRecord
100
AcDbBlockTableRecord
  2
*D2
340
0
  0
BLOCK_RECORD
  5
6C0
330
1
100
AcDbSymbolTableRecord
100
AcDbBlockTableRecord
  2
*D3
340
0
  0
BLOCK_RECORD
  5
6CF
330
1
100
AcDbSymbolTableRecord
100
AcDbBlockTableRecord
  2
*D4
340
0
  0
BLOCK_RECORD
  5
70E
330
1
100
AcDbSymbolTableRecord
100
AcDbBlockTableRecord
  2
*D5
340
0
  0
BLOCK_RECORD
  5
769
330
1
100
AcDbSymbolTableRecord
100
AcDbBlockTableRecord
  2
*D6
340
0
  0
ENDTAB
  0
ENDSEC
  0
SECTION
  2
BLOCKS
  0
BLOCK
  5
1B
330
1A
100
AcDbEntity
  8
0
100
AcDbBlockBegin
  2
*MODEL_SPACE
 70
     0
 10
0.0
 20
0.0
 30
0.0
  3
*MODEL_SPACE
  1

  0
ENDBLK
  5
1C
330
1A
100
AcDbEntity
  8
0
100
AcDbBlockEnd
  0
BLOCK
  5
18
330
17
100
AcDbEntity
 67
     1
  8
0
100
AcDbBlockBegin
  2
*PAPER_SPACE
 70
     0
 10
0.0
 20
0.0
 30
0.0
  3
*PAPER_SPACE
  1

  0
ENDBLK
  5
19
330
17
100
AcDbEntity
 67
     1
  8
0
100
AcDbBlockEnd
  0
BLOCK
  5
205
330
203
100
AcDbEntity
  8
0
100
AcDbBlockBegin
  2
_Oblique
 70
     0
 10
0.0
 20
0.0
 30
0.0
  3
_Oblique
  1

  0
LINE
  5
204
330
203
100
AcDbEntity
  8
0
 62
     0
370
    -2
100
AcDbLine
 10
-0.5
 20
-0.5
 30
0.0
 11
0.5
 21
0.5
 31
0.0
  0
ENDBLK
  5
206
330
203
100
AcDbEntity
  8
0
100
AcDbBlockEnd
  0
BLOCK
  5
259
330
253
100
AcDbEntity
  8
0
100
AcDbBlockBegin
  2
NullPunkt
 70
     0
 10
0.0
 20
0.0
 30
0.0
  3
NullPunkt
  1

  0
SOLID
  5
254
330
253
100
AcDbEntity
  8
5
100
AcDbTrace
 10
0.0
 20
0.0
 30
0.0
 11
2.0
 21
0.0
 31
0.0
 12
0.0
 22
-2.0
 32
0.0
 13
0.0
 23
-2.0
 33
0.0
  0
SOLID
  5
255
330
253
100
AcDbEntity
  8
5
100
AcDbTrace
 10
0.0
 20
0.0
 30
0.0
 11
-2.0
 21
0.0
 31
0.0
 12
0.0
 22
2.0
 32
0.0
 13
0.0
 23
2.0
 33
0.0
  0
LWPOLYLINE
  5
256
330
253
100
AcDbEntity
  8
5
100
AcDbPolyline
 90
        2
 70
     0
 43
0.0
 10
0.0
 20
2.0
 10
0.0
 20
-2.0
  0
LWPOLYLINE
  5
257
330
253
100
AcDbEntity
  8
5
100
AcDbPolyline
 90
        2
 70
     0
 43
0.0
 10
-2.0
 20
0.0
 10
2.0
 20
0.0
  0
CIRCLE
  5
258
330
253
100
AcDbEntity
  8
5
100
AcDbCircle
 10
0.0
 20
0.0
 30
0.0
 40
2.0
  0
ENDBLK
  5
25A
330
253
100
AcDbEntity
  8
0
100
AcDbBlockEnd
  0
BLOCK
  5
316
330
30C
100
AcDbEntity
  8
0
100
AcDbBlockBegin
  2
*D2
 70
     1
 10
0.0
 20
0.0
 30
0.0
  3
*D2
  1

  0
LINE
  5
819
330
30C
100
AcDbEntity
  8
1
370
    -2
100
AcDbLine
 10
6.500000000000003
 20
-7.999999999999997
 30
0.0
 11
6.500000000000002
 21
-19.24757433545755
 31
0.0
  0
LINE
  5
81A
330
30C
100
AcDbEntity
  8
1
370
    -2
100
AcDbLine
 10
-15.5
 20
-7.999999999999997
 30
0.0
 11
-15.5
 21
-19.24757433545755
 31
0.0
  0
LINE
  5
81B
330
30C
100
AcDbEntity
  8
1
370
    -2
100
AcDbLine
 10
7.500000000000002
 20
-18.24757433545755
 30
0.0
 11
-16.5
 21
-18.24757433545755
 31
0.0
  0
INSERT
  5
81C
330
30C
100
AcDbEntity
  8
1
370
    -2
100
AcDbBlockReference
  2
_Oblique
 10
6.500000000000002
 20
-18.24757433545755
 30
0.0
 41
2.0
 42
2.0
 43
2.0
  0
INSERT
  5
81D
330
30C
100
AcDbEntity
  8
1
370
    -2
100
AcDbBlockReference
  2
_Oblique
 10
-15.5
 20
-18.24757433545755
 30
0.0
 41
2.0
 42
2.0
 43
2.0
 50
180.0
  0
MTEXT
  5
81E
330
30C
100
AcDbEntity
  8
1
100
AcDbMText
 10
-4.499999999999998
 20
-15.49041198893641
 30
0.0
 40
3.5
 41
0.0
 71
     5
 72
     1
  1
\A1;22
  7
Beschlag
 73
     1
 44
1.0
  0
POINT
  5
81F
330
30C
100
AcDbEntity
  8
Defpoints
 62
     0
100
AcDbPoint
 10
6.500000000000003
 20
-5.999999999999997
 30
0.0
  0
POINT
  5
820
330
30C
100
AcDbEntity
  8
Defpoints
 62
     0
100
AcDbPoint
 10
-15.5
 20
-5.999999999999997
 30
0.0
  0
POINT
  5
821
330
30C
100
AcDbEntity
  8
Defpoints
 62
     0
100
AcDbPoint
 10
-15.5
 20
-18.24757433545755
 30
0.0
  0
ENDBLK
  5
317
330
30C
100
AcDbEntity
  8
0
100
AcDbBlockEnd
  0
BLOCK
  5
6CC
330
6C0
100
AcDbEntity
  8
0
100
AcDbBlockBegin
  2
*D3
 70
     1
 10
0.0
 20
0.0
 30
0.0
  3
*D3
  1

  0
LINE
  5
80E
330
6C0
100
AcDbEntity
  8
1
370
    -2
100
AcDbLine
 10
0.0000000000000037
 20
3.500000000000002
 30
0.0
 11
0.0000000000000044
 21
15.80515731105178
 31
0.0
  0
LINE
  5
80F
330
6C0
100
AcDbEntity
  8
1
370
    -2
100
AcDbLine
 10
6.500000000000003
 20
3.500000000000001
 30
0.0
 11
6.500000000000004
 21
15.80515731105178
 31
0.0
  0
LINE
  5
810
330
6C0
100
AcDbEntity
  8
1
370
    -2
100
AcDbLine
 10
0.0000000000000044
 20
14.80515731105178
 30
0.0
 11
-1.999999999999995
 21
14.80515731105178
 31
0.0
  0
LINE
  5
811
330
6C0
100
AcDbEntity
  8
1
370
    -2
100
AcDbLine
 10
6.500000000000004
 20
14.80515731105178
 30
0.0
 11
8.500000000000003
 21
14.80515731105178
 31
0.0
  0
LINE
  5
812
330
6C0
100
AcDbEntity
  8
1
370
    -2
100
AcDbLine
 10
0.0000000000000044
 20
14.80515731105178
 30
0.0
 11
6.500000000000004
 21
14.80515731105178
 31
0.0
  0
INSERT
  5
813
330
6C0
100
AcDbEntity
  8
1
370
    -2
100
AcDbBlockReference
  2
_Oblique
 10
0.0000000000000044
 20
14.80515731105178
 30
0.0
 41
2.0
 42
2.0
 43
2.0
  0
INSERT
  5
814
330
6C0
100
AcDbEntity
  8
1
370
    -2
100
AcDbBlockReference
  2
_Oblique
 10
6.500000000000004
 20
14.80515731105178
 30
0.0
 41
2.0
 42
2.0
 43
2.0
 50
180.0
  0
MTEXT
  5
815
330
6C0
100
AcDbEntity
  8
1
100
AcDbMText
 10
3.250000000000004
 20
17.5921627680777
 30
0.0
 40
3.5
 41
0.0
 71
     5
 72
     1
  1
\A1;6.5
  7
Beschlag
 73
     1
 44
1.0
  0
POINT
  5
816
330
6C0
100
AcDbEntity
  8
Defpoints
 62
     0
100
AcDbPoint
 10
0.0000000000000036
 20
1.500000000000002
 30
0.0
  0
POINT
  5
817
330
6C0
100
AcDbEntity
  8
Defpoints
 62
     0
100
AcDbPoint
 10
6.500000000000003
 20
1.500000000000001
 30
0.0
  0
POINT
  5
818
330
6C0
100
AcDbEntity
  8
Defpoints
 62
     0
100
AcDbPoint
 10
6.500000000000004
 20
14.80515731105178
 30
0.0
  0
ENDBLK
  5
6CD
330
6C0
100
AcDbEntity
  8
0
100
AcDbBlockEnd
  0
BLOCK
  5
6DB
330
6CF
100
AcDbEntity
  8
0
100
AcDbBlockBegin
  2
*D4
 70
     1
 10
0.0
 20
0.0
 30
0.0
  3
*D4
  1

  0
LINE
  5
805
330
6CF
100
AcDbEntity
  8
1
370
    -2
100
AcDbLine
 10
8.500000000000001
 20
-5.999999999999997
 30
0.0
 11
19.00000000000017
 21
-6.0
 31
0.0
  0
LINE
  5
806
330
6CF
100
AcDbEntity
  8
1
370
    -2
100
AcDbLine
 10
8.499999999999891
 20
0.0000000000000012
 30
0.0
 11
19.00000000000017
 21
-0.0000000000000018
 31
0.0
  0
LINE
  5
807
330
6CF
100
AcDbEntity
  8
1
370
    -2
100
AcDbLine
 10
18.00000000000017
 20
-7.0
 30
0.0
 11
18.00000000000017
 21
0.9999999999999984
 31
0.0
  0
INSERT
  5
808
330
6CF
100
AcDbEntity
  8
1
370
    -2
100
AcDbBlockReference
  2
_Oblique
 10
18.00000000000017
 20
-6.0
 30
0.0
 41
2.0
 42
2.0
 43
2.0
 50
270.0
  0
INSERT
  5
809
330
6CF
100
AcDbEntity
  8
1
370
    -2
100
AcDbBlockReference
  2
_Oblique
 10
18.00000000000017
 20
-0.0000000000000015
 30
0.0
 41
2.0
 42
2.0
 43
2.0
 50
90.0
  0
MTEXT
  5
80A
330
6CF
100
AcDbEntity
  8
1
100
AcDbMText
 10
15.21299454297425
 20
-2.999999999999997
 30
0.0
 40
3.5
 41
0.0
 71
     5
 72
     1
  1
\A1;6
  7
Beschlag
 11
0.0000000000000001
 21
1.0
 31
0.0
 73
     1
 44
1.0
  0
POINT
  5
80B
330
6CF
100
AcDbEntity
  8
Defpoints
 62
     0
100
AcDbPoint
 10
6.500000000000003
 20
-5.999999999999997
 30
0.0
  0
POINT
  5
80C
330
6CF
100
AcDbEntity
  8
Defpoints
 62
     0
100
AcDbPoint
 10
6.499999999999891
 20
0.0000000000000018
 30
0.0
  0
POINT
  5
80D
330
6CF
100
AcDbEntity
  8
Defpoints
 62
     0
100
AcDbPoint
 10
18.00000000000017
 20
-0.0000000000000015
 30
0.0
  0
ENDBLK
  5
6DC
330
6CF
100
AcDbEntity
  8
0
100
AcDbBlockEnd
  0
BLOCK
  5
71A
330
70E
100
AcDbEntity
  8
0
100
AcDbBlockBegin
  2
*D5
 70
     1
 10
0.0
 20
0.0
 30
0.0
  3
*D5
  1

  0
LINE
  5
7FC
330
70E
100
AcDbEntity
  8
1
370
    -2
100
AcDbLine
 10
8.499999999999891
 20
0.0000000000000012
 30
0.0
 11
19.00000000000017
 21
-0.0000000000000018
 31
0.0
  0
LINE
  5
7FD
330
70E
100
AcDbEntity
  8
1
370
    -2
100
AcDbLine
 10
5.250000000000009
 20
8.499999999999996
 30
0.0
 11
19.00000000000017
 21
8.499999999999992
 31
0.0
  0
LINE
  5
7FE
330
70E
100
AcDbEntity
  8
1
370
    -2
100
AcDbLine
 10
18.00000000000017
 20
-1.000000000000001
 30
0.0
 11
18.00000000000017
 21
9.499999999999992
 31
0.0
  0
INSERT
  5
7FF
330
70E
100
AcDbEntity
  8
1
370
    -2
100
AcDbBlockReference
  2
_Oblique
 10
18.00000000000017
 20
-0.0000000000000015
 30
0.0
 41
2.0
 42
2.0
 43
2.0
 50
270.0
  0
INSERT
  5
800
330
70E
100
AcDbEntity
  8
1
370
    -2
100
AcDbBlockReference
  2
_Oblique
 10
18.00000000000017
 20
8.499999999999992
 30
0.0
 41
2.0
 42
2.0
 43
2.0
 50
90.0
  0
MTEXT
  5
801
330
70E
100
AcDbEntity
  8
1
100
AcDbMText
 10
15.21299454297425
 20
4.249999999999998
 30
0.0
 40
3.5
 41
0.0
 71
     5
 72
     1
  1
\A1;8.5
  7
Beschlag
 11
0.0000000000000001
 21
1.0
 31
0.0
 73
     1
 44
1.0
  0
POINT
  5
802
330
70E
100
AcDbEntity
  8
Defpoints
 62
     0
100
AcDbPoint
 10
6.499999999999891
 20
0.0000000000000018
 30
0.0
  0
POINT
  5
803
330
70E
100
AcDbEntity
  8
Defpoints
 62
     0
100
AcDbPoint
 10
3.250000000000009
 20
8.499999999999998
 30
0.0
  0
POINT
  5
804
330
70E
100
AcDbEntity
  8
Defpoints
 62
     0
100
AcDbPoint
 10
18.00000000000017
 20
8.499999999999992
 30
0.0
  0
ENDBLK
  5
71B
330
70E
100
AcDbEntity
  8
0
100
AcDbBlockEnd
  0
BLOCK
  5
775
330
769
100
AcDbEntity
  8
0
100
AcDbBlockBegin
  2
*D6
 70
     1
 10
0.0
 20
0.0
 30
0.0
  3
*D6
  1

  0
LINE
  5
7F1
330
769
100
AcDbEntity
  8
1
370
    -2
100
AcDbLine
 10
8.500000000000001
 20
-5.999999999999997
 30
0.0
 11
27.81638487263081
 21
-6.000000000000002
 31
0.0
  0
LINE
  5
7F2
330
769
100
AcDbEntity
  8
1
370
    -2
100
AcDbLine
 10
18.57834861207368
 20
1.500000000000001
 30
0.0
 11
27.81638487263081
 21
1.499999999999998
 31
0.0
  0
LINE
  5
7F3
330
769
100
AcDbEntity
  8
1
370
    -2
100
AcDbLine
 10
26.8163848726308
 20
-6.000000000000002
 30
0.0
 11
26.8163848726308
 21
-8.000000000000001
 31
0.0
  0
LINE
  5
7F4
330
769
100
AcDbEntity
  8
1
370
    -2
100
AcDbLine
 10
26.8163848726308
 20
1.499999999999998
 30
0.0
 11
26.8163848726308
 21
3.499999999999999
 31
0.0
  0
LINE
  5
7F5
330
769
100
AcDbEntity
  8
1
370
    -2
100
AcDbLine
 10
26.8163848726308
 20
-6.000000000000002
 30
0.0
 11
26.8163848726308
 21
1.499999999999998
 31
0.0
  0
INSERT
  5
7F6
330
769
100
AcDbEntity
  8
1
370
    -2
100
AcDbBlockReference
  2
_Oblique
 10
26.8163848726308
 20
-6.000000000000002
 30
0.0
 41
2.0
 42
2.0
 43
2.0
 50
90.0
  0
INSERT
  5
7F7
330
769
100
AcDbEntity
  8
1
370
    -2
100
AcDbBlockReference
  2
_Oblique
 10
26.8163848726308
 20
1.499999999999998
 30
0.0
 41
2.0
 42
2.0
 43
2.0
 50
270.0
  0
MTEXT
  5
7F8
330
769
100
AcDbEntity
  8
1
100
AcDbMText
 10
24.03654176212603
 20
-2.249999999999996
 30
0.0
 40
3.5
 41
0.0
 71
     5
 72
     1
  1
\A1;7.5
  7
Beschlag
 11
0.0000000000000001
 21
1.0
 31
0.0
 73
     1
 44
1.0
  0
POINT
  5
7F9
330
769
100
AcDbEntity
  8
Defpoints
 62
     0
100
AcDbPoint
 10
6.500000000000003
 20
-5.999999999999997
 30
0.0
  0
POINT
  5
7FA
330
769
100
AcDbEntity
  8
Defpoints
 62
     0
100
AcDbPoint
 10
16.57834861207368
 20
1.500000000000001
 30
0.0
  0
POINT
  5
7FB
330
769
100
AcDbEntity
  8
Defpoints
 62
     0
100
AcDbPoint
 10
26.8163848726308
 20
1.499999999999998
 30
0.0
  0
ENDBLK
  5
776
330
769
100
AcDbEntity
  8
0
100
AcDbBlockEnd
  0
ENDSEC
  0
SECTION
  2
ENTITIES
  0
INSERT
  5
25B
330
1A
100
AcDbEntity
  8
5
100
AcDbBlockReference
  2
NullPunkt
 10
0.0
 20
0.0
 30
0.0
 50
270.0
  0
DIMENSION
  5
2E9
330
1A
100
AcDbEntity
  8
1
100
AcDbDimension
  2
*D2
 10
-15.5
 20
-18.24757433545755
 30
0.0
 11
-4.499999999999998
 21
-15.49041198893641
 31
0.0
 70
    32
 71
     5
 42
22.0
  3
OPO-SSTRICH
100
AcDbAlignedDimension
 13
6.500000000000003
 23
-5.999999999999997
 33
0.0
 14
-15.5
 24
-5.999999999999997
 34
0.0
100
AcDbRotatedDimension
  0
LWPOLYLINE
  5
2EC
330
1A
100
AcDbEntity
  8
5
100
AcDbPolyline
 90
        3
 70
     0
 43
0.0
 10
0.0000000000000036
 20
3.486585065859824
 10
0.0000000000000036
 20
-0.0000000000000018
 10
-19.29182692112067
 20
0.0000000000000021
  0
LWPOLYLINE
  5
2EE
330
1A
100
AcDbEntity
  8
4
100
AcDbPolyline
 90
        9
 70
     1
 43
0.0
 10
6.499999999999831
 20
-0.0000000000000036
 10
6.500000000000003
 20
1.500000000000001
 10
0.0000000000000036
 20
1.500000000000002
 10
0.0
 20
-0.0000000000000023
 10
-15.49999999999999
 20
0.0000000000000009
 10
-15.49999999999999
 20
-3.499999999999751
 42
0.4142135623730909
 10
-13.00000000000003
 20
-5.999999999999751
 10
3.999999999999895
 20
-5.999999999999994
 42
0.4142135623731076
 10
6.49999999999993
 20
-3.499999999999923
  0
TEXT
  5
2F1
330
1A
100
AcDbEntity
  8
1
100
AcDbText
 10
-4.491164926136487
 20
-11.25
 30
0.0
 40
2.49999995
  1
Hebgo 136/751
100
AcDbText
  0
LINE
  5
5FB
330
1A
100
AcDbEntity
  8
6
  6
STRICHPUNKT
100
AcDbLine
 10
-7.500000000000191
 20
-3.764667700392326
 30
0.0
 11
-7.500000000000191
 21
3.499999999999996
 31
0.0
  0
LWPOLYLINE
  5
653
102
{ACAD_REACTORS
330
6E7
102
}
330
1A
100
AcDbEntity
  8
6
100
AcDbPolyline
 90
       71
 70
     1
 43
0.0
 10
6.500000000000002
 20
0.7100000000000319
 10
6.500000000000003
 20
-3.499999999999996
 42
-0.4142135623730951
 10
4.000000000000003
 20
-5.999999999999997
 10
-12.99999999999999
 20
-5.999999999999996
 42
-0.4142135623730953
 10
-15.49999999999999
 20
-3.499999999999994
 10
-15.49999999999999
 20
-0.4891164776242924
 42
-0.6714695952603508
 10
-15.15729942194365
 20
-0.3489860204697371
 10
-15.12684402233025
 20
-0.379999999999881
 10
-14.89828163880087
 20
-0.0790395606147733
 42
-0.5128473494945071
 10
-14.57355466543003
 20
-0.0876358919006173
 10
-14.37499999999999
 20
-0.3799999999998811
 10
-14.1241522450989
 20
-0.0759167182900449
 42
-0.640016886991525
 10
-13.77291082053556
 20
-0.1684573482968966
 10
-13.67619186923145
 20
-0.7169777784403716
 42
0.7002075382097299
 10
-12.75077529083312
 20
-0.8801536896068789
 10
-12.30129534129968
 20
-0.1016315800313802
 42
-0.5866121572054289
 10
-11.95218443120097
 20
-0.1064625766553034
 10
-11.80419454329807
 20
-0.3799999999998816
 10
-11.64382493842003
 20
-0.0987533511956825
 42
-0.6730833256522799
 10
-11.27648401594478
 20
-0.1476358916029311
 10
-10.93818442352607
 20
-1.452695774905805
 42
-0.3371805774911301
 10
-11.03178557849014
 20
-1.676086439216305
 10
-11.49999999999999
 20
-1.94641016151354
 42
0.2679491924311163
 10
-11.60000000000013
 20
-2.119615242270583
 10
-11.60000000000013
 20
-2.699999999999818
 42
-0.4142135623730951
 10
-11.90000000000008
 20
-3.0
 10
-12.75999999999998
 20
-2.999999999999999
 42
0.4142135623730951
 10
-13.49999999999999
 20
-3.739999999999781
 10
-13.49999999999999
 20
-3.759999999999763
 42
0.4142135623730943
 10
-12.75999999999998
 20
-4.5
 10
-8.122432151244616
 20
-4.5
 10
-7.641736012075021
 20
-4.982842362428073
 42
0.4155189665304489
 10
-7.358263987925363
 20
-4.982842362428073
 10
-6.877567848755994
 20
-4.5
 10
-2.240000000000396
 20
-4.5
 42
0.4142135623730943
 10
-1.500000000000387
 20
-3.759999999999763
 10
-1.500000000000387
 20
-3.739999999999781
 42
0.4142135623730951
 10
-2.240000000000396
 20
-2.999999999999999
 10
-3.100000000000296
 20
-3.0
 42
-0.4142135623730951
 10
-3.40000000000025
 20
-2.699999999999818
 10
-3.40000000000025
 20
-2.119615242270583
 42
0.2679491924311163
 10
-3.500000000000387
 20
-1.94641016151354
 10
-3.968214421510243
 20
-1.676086439216305
 42
-0.3371805774911301
 10
-4.061815576474305
 20
-1.452695774905805
 10
-3.723515984055598
 20
-0.1476358916029311
 42
-0.6730833256522799
 10
-3.356175061580348
 20
-0.0987533511956825
 10
-3.195805456702306
 20
-0.3799999999998816
 10
-3.047815568799411
 20
-0.1064625766553034
 42
-0.5866121572054289
 10
-2.698704658700695
 20
-0.1016315800313802
 10
-1.891356275005639
 20
-1.500000000000003
 10
0.0000000000001741
 20
-1.500000000000003
 42
0.4142135623730951
 10
0.5000000000001741
 20
-1.000000000000003
 10
0.5000000000001741
 20
0.4999999999999965
 10
0.0000000000000036
 20
0.7499999999999965
 10
0.0000000000000036
 20
1.000000000000002
 42
-0.4142135623730951
 10
0.5000000000000036
 20
1.500000000000002
 10
1.210000000000039
 20
1.500000000000002
 42
-0.4142135623730901
 10
2.000000000000003
 20
0.7100000000000382
 10
2.000000000000003
 20
0.7000000000000473
 42
-0.4142135623730951
 10
1.79999999999973
 20
0.5000000000000018
 10
1.54999999999973
 20
0.5000000000000018
 10
1.54999999999973
 20
-3.999999999999997
 42
0.4142135623730951
 10
1.849999999999912
 20
-4.300000000000179
 10
4.649999999999865
 20
-4.300000000000179
 42
0.4142135623730951
 10
4.94999999999982
 20
-3.999999999999999
 10
4.949999999999821
 20
0.5000000000000018
 10
4.699999999999821
 20
0.5000000000000018
 42
-0.4142135623730951
 10
4.500000000000003
 20
0.7000000000000473
 10
4.500000000000003
 20
0.7100000000000382
 42
-0.4142135623730951
 10
5.289999999999967
 20
1.500000000000001
 10
5.710000000000039
 20
1.500000000000001
 42
-0.4142135623730951
  0
DIMENSION
  5
6BF
330
1A
100
AcDbEntity
  8
1
100
AcDbDimension
  2
*D3
 10
6.500000000000004
 20
14.80515731105178
 30
0.0
 11
3.250000000000004
 21
17.5921627680777
 31
0.0
 70
    32
 71
     5
 42
6.5
  3
OPO-SSTRICH
100
AcDbAlignedDimension
 13
0.0000000000000036
 23
1.500000000000002
 33
0.0
 14
6.500000000000003
 24
1.500000000000001
 34
0.0
100
AcDbRotatedDimension
  0
DIMENSION
  5
6CE
330
1A
100
AcDbEntity
  8
1
100
AcDbDimension
  2
*D4
 10
18.00000000000017
 20
-0.0000000000000015
 30
0.0
 11
15.21299454297425
 21
-2.999999999999997
 31
0.0
 70
    32
 71
     5
 42
5.999999999999999
  3
OPO-SSTRICH
100
AcDbAlignedDimension
 13
6.500000000000003
 23
-5.999999999999997
 33
0.0
 14
6.499999999999891
 24
0.0000000000000018
 34
0.0
 50
90.0
100
AcDbRotatedDimension
  0
HATCH
  5
6E7
330
1A
100
AcDbEntity
  8
2
100
AcDbHatch
 10
0.0
 20
0.0
 30
0.0
210
0.0
220
0.0
230
1.0
  2
_USER
 70
     0
 71
     1
 91
        1
 92
        1
 93
       71
 72
     1
 10
6.500000000000002
 20
0.7100000000000319
 11
6.500000000000003
 21
-3.499999999999996
 72
     2
 10
4.000000000000003
 20
-3.499999999999997
 40
2.5
 50
360.0
 51
450.0
 73
     0
 72
     1
 10
4.000000000000003
 20
-5.999999999999997
 11
-12.99999999999999
 21
-5.999999999999996
 72
     2
 10
-12.99999999999999
 20
-3.499999999999996
 40
2.5
 50
90.0
 51
180.0
 73
     0
 72
     1
 10
-15.49999999999999
 20
-3.499999999999994
 11
-15.49999999999999
 21
-0.4891164776242923
 72
     2
 10
-15.30000000000008
 20
-0.4891164776242402
 40
0.1999999999999176
 50
179.999999999985
 51
315.5206395660115
 73
     0
 72
     1
 10
-15.15729942194365
 20
-0.3489860204697371
 11
-15.12684402233025
 21
-0.379999999999881
 72
     1
 10
-15.12684402233025
 20
-0.379999999999881
 11
-14.89828163880087
 21
-0.0790395606147732
 72
     2
 10
-14.73900649289367
 20
-0.1999999999998913
 40
0.200000000000006
 50
217.2146094592241
 51
325.8182060201448
 73
     0
 72
     1
 10
-14.57355466543003
 20
-0.0876358919006173
 11
-14.37499999999999
 21
-0.3799999999998811
 72
     1
 10
-14.37499999999999
 20
-0.3799999999998811
 11
-14.1241522450989
 21
-0.0759167182900449
 72
     2
 10
-13.96987237113809
 20
-0.2031869838302251
 40
0.2000000000000787
 50
219.5202821252247
 51
350.0000000000206
 73
     0
 72
     1
 10
-13.77291082053556
 20
-0.1684573482968966
 11
-13.67619186923145
 21
-0.7169777784403716
 72
     2
 10
-13.18378799272535
 20
-0.6301536896069042
 40
0.4999999999999992
 50
190.0000000000002
 51
330.0000000000034
 73
     1
 72
     1
 10
-12.75077529083312
 20
-0.8801536896068789
 11
-12.30129534129968
 21
-0.1016315800313803
 72
     2
 10
-12.12809026054275
 20
-0.2016315800314016
 40
0.2000000000000499
 50
209.9999999999988
 51
331.5856167396906
 73
     0
 72
     1
 10
-11.95218443120097
 20
-0.1064625766553034
 11
-11.80419454329807
 21
-0.3799999999998816
 72
     1
 10
-11.80419454329807
 20
-0.3799999999998816
 11
-11.64382493842003
 21
-0.0987533511956825
 72
     2
 10
-11.47008517090877
 20
-0.1978214751567007
 40
0.2000000000000567
 50
209.69221369947
 51
345.4675716373669
 73
     0
 72
     1
 10
-11.27648401594478
 20
-0.1476358916029311
 11
-10.93818442352607
 21
-1.452695774905805
 72
     2
 10
-11.13178557849001
 20
-1.50288135845939
 40
0.1999999999999613
 50
345.4675716374144
 51
420.0000000000349
 73
     0
 72
     1
 10
-11.03178557849014
 20
-1.676086439216305
 11
-11.49999999999999
 21
-1.94641016151354
 72
     2
 10
-11.39999999999992
 20
-2.119615242270626
 40
0.200000000000207
 50
119.9999999999891
 51
179.9999999999877
 73
     1
 72
     1
 10
-11.60000000000013
 20
-2.119615242270583
 11
-11.60000000000013
 21
-2.699999999999818
 72
     2
 10
-11.9000000000002
 20
-2.699999999999931
 40
0.3000000000000682
 50
359.9999999999782
 51
449.9999999999783
 73
     0
 72
     1
 10
-11.90000000000008
 20
-3.0
 11
-12.75999999999998
 21
-2.999999999999999
 72
     2
 10
-12.7600000000001
 20
-3.739999999999895
 40
0.7399999999998959
 50
89.99999999999118
 51
179.9999999999911
 73
     1
 72
     1
 10
-13.49999999999999
 20
-3.739999999999781
 11
-13.49999999999999
 21
-3.759999999999763
 72
     2
 10
-12.75999999999987
 20
-3.759999999999876
 40
0.7400000000001246
 50
179.9999999999912
 51
269.999999999991
 73
     1
 72
     1
 10
-12.75999999999998
 20
-4.5
 11
-8.122432151244616
 21
-4.5
 72
     1
 10
-8.122432151244616
 20
-4.5
 11
-7.641736012075021
 21
-4.982842362428073
 72
     2
 10
-7.500000000000192
 20
-4.841736363685553
 40
0.2000000000000005
 50
224.8723773559107
 51
315.1276226440892
 73
     1
 72
     1
 10
-7.358263987925363
 20
-4.982842362428073
 11
-6.877567848755994
 21
-4.5
 72
     1
 10
-6.877567848755994
 20
-4.5
 11
-2.240000000000396
 21
-4.5
 72
     2
 10
-2.240000000000511
 20
-3.759999999999875
 40
0.7400000000001242
 50
270.0000000000089
 51
360.0000000000087
 73
     1
 72
     1
 10
-1.500000000000387
 20
-3.759999999999763
 11
-1.500000000000387
 21
-3.739999999999781
 72
     2
 10
-2.240000000000282
 20
-3.739999999999894
 40
0.7399999999998954
 50
0.0000000000088024
 51
90.00000000000881
 73
     1
 72
     1
 10
-2.240000000000396
 20
-2.999999999999999
 11
-3.100000000000296
 21
-3.0
 72
     2
 10
-3.100000000000182
 20
-2.699999999999931
 40
0.3000000000000682
 50
90.00000000002167
 51
180.0000000000217
 73
     0
 72
     1
 10
-3.40000000000025
 20
-2.699999999999818
 11
-3.40000000000025
 21
-2.119615242270583
 72
     2
 10
-3.600000000000457
 20
-2.119615242270626
 40
0.2000000000002071
 50
0.0000000000122133
 51
60.00000000001086
 73
     1
 72
     1
 10
-3.500000000000387
 20
-1.94641016151354
 11
-3.968214421510243
 21
-1.676086439216305
 72
     2
 10
-3.868214421510367
 20
-1.50288135845939
 40
0.1999999999999614
 50
119.9999999999651
 51
194.5324283625856
 73
     0
 72
     1
 10
-4.061815576474305
 20
-1.452695774905805
 11
-3.723515984055598
 21
-0.1476358916029312
 72
     2
 10
-3.529914829091609
 20
-0.1978214751567007
 40
0.2000000000000571
 50
194.5324283626331
 51
330.30778630053
 73
     0
 72
     1
 10
-3.356175061580348
 20
-0.0987533511956825
 11
-3.195805456702306
 21
-0.3799999999998816
 72
     1
 10
-3.195805456702306
 20
-0.3799999999998816
 11
-3.047815568799411
 21
-0.1064625766553033
 72
     2
 10
-2.871909739457628
 20
-0.2016315800314016
 40
0.2000000000000504
 50
208.4143832603094
 51
330.0000000000012
 73
     0
 72
     1
 10
-2.698704658700695
 20
-0.1016315800313802
 11
-1.891356275005639
 21
-1.500000000000003
 72
     1
 10
-1.891356275005639
 20
-1.500000000000003
 11
0.0000000000001741
 21
-1.500000000000003
 72
     2
 10
0.0000000000001741
 20
-1.000000000000003
 40
0.5
 50
270.0
 51
360.0
 73
     1
 72
     1
 10
0.5000000000001741
 20
-1.000000000000003
 11
0.5000000000001741
 21
0.4999999999999965
 72
     1
 10
0.5000000000001741
 20
0.4999999999999965
 11
0.0000000000000036
 21
0.7499999999999965
 72
     1
 10
0.0000000000000036
 20
0.7499999999999965
 11
0.0000000000000036
 21
1.000000000000002
 72
     2
 10
0.5000000000000036
 20
1.000000000000002
 40
0.5
 50
180.0
 51
270.0
 73
     0
 72
     1
 10
0.5000000000000036
 20
1.500000000000002
 11
1.210000000000039
 21
1.500000000000002
 72
     2
 10
1.210000000000032
 20
0.7100000000000319
 40
0.7899999999999709
 50
270.0000000000005
 51
359.9999999999995
 73
     0
 72
     1
 10
2.000000000000003
 20
0.7100000000000382
 11
2.000000000000003
 21
0.7000000000000473
 72
     2
 10
1.799999999999844
 20
0.700000000000161
 40
0.2000000000001592
 50
0.0000000000325689
 51
90.00000000003257
 73
     0
 72
     1
 10
1.79999999999973
 20
0.5000000000000018
 11
1.54999999999973
 21
0.5000000000000018
 72
     1
 10
1.54999999999973
 20
0.5000000000000018
 11
1.54999999999973
 21
-3.999999999999997
 72
     2
 10
1.849999999999912
 20
-3.999999999999997
 40
0.3000000000001819
 50
180.0
 51
270.0
 73
     1
 72
     1
 10
1.849999999999912
 20
-4.300000000000179
 11
4.649999999999865
 21
-4.300000000000179
 72
     2
 10
4.649999999999752
 20
-4.000000000000111
 40
0.3000000000000673
 50
270.0000000000215
 51
360.0000000000215
 73
     1
 72
     1
 10
4.94999999999982
 20
-3.999999999999999
 11
4.949999999999821
 21
0.5000000000000018
 72
     1
 10
4.949999999999821
 20
0.5000000000000018
 11
4.699999999999821
 21
0.5000000000000018
 72
     2
 10
4.699999999999935
 20
0.6999999999999336
 40
0.1999999999999318
 50
90.00000000003257
 51
180.0000000000325
 73
     0
 72
     1
 10
4.500000000000003
 20
0.7000000000000473
 11
4.500000000000003
 21
0.7100000000000382
 72
     2
 10
5.289999999999967
 20
0.7100000000000382
 40
0.7899999999999637
 50
180.0
 51
270.0
 73
     0
 72
     1
 10
5.289999999999967
 20
1.500000000000001
 11
5.710000000000039
 21
1.500000000000001
 72
     2
 10
5.710000000000036
 20
0.7100000000000355
 40
0.7899999999999663
 50
270.0000000000002
 51
360.0000000000002
 73
     0
 97
        1
330
653
 75
     0
 76
     0
 52
45.0
 41
1.0
 77
     0
 78
     1
 53
45.0
 43
8.500000000000174
 44
-0.0000000000000036
 45
-0.7071067811865475
 46
0.7071067811865476
 79
     0
 98
        1
 10
8.500000000000174
 20
-0.0000000000000036
  0
LWPOLYLINE
  5
6F3
330
1A
100
AcDbEntity
  8
6
100
AcDbPolyline
 90
        6
 70
     0
 43
0.0
 10
-5.376166442186409
 20
-2.306250321635502
 10
-4.700000000000237
 20
-3.011613044933596
 10
-4.700000000000237
 20
-3.211613044933642
 10
-10.50000000000019
 20
-3.211613044933642
 10
-10.50000000000019
 20
-3.011613044933596
 10
-9.725068117014608
 20
-2.306250321635502
 42
0.142709741532141
  0
LWPOLYLINE
  5
6F4
330
1A
100
AcDbEntity
  8
6
100
AcDbPolyline
 90
        9
 70
     1
 43
0.0
 10
-4.1273822692552
 20
-3.261613044933596
 10
-3.700000000000009
 20
-2.041184713909728
 10
-4.706393037037479
 20
-1.432509064255896
 10
-4.706393037037479
 20
0.0
 10
-10.2936069629629
 20
0.0
 10
-10.2936069629629
 20
-1.432509064255896
 10
-11.30000000000037
 20
-2.041184713909728
 10
-10.87261773074518
 20
-3.261613044933596
 10
-7.500000000000191
 20
-3.261613044933596
  0
LWPOLYLINE
  5
6F7
330
1A
100
AcDbEntity
  8
6
100
AcDbPolyline
 90
        2
 70
     0
 43
0.0
 10
-6.678654341814556
 20
-0.0000000000001137
 42
0.0716230936514669
 10
-6.408367884415973
 20
-1.066181442512061
  0
LWPOLYLINE
  5
6F8
330
1A
100
AcDbEntity
  8
6
100
AcDbPolyline
 90
        2
 70
     0
 43
0.0
 10
-8.598737203898814
 20
-1.066181442512061
 42
0.0698020145797582
 10
-8.325775050047944
 20
-0.0000000000001137
 42
-3.223428038561326
  0
LINE
  5
6F9
330
1A
100
AcDbEntity
  8
6
100
AcDbLine
 10
-9.337228201438868
 20
-1.953228559257809
 30
0.0
 11
-8.928000000000189
 21
-1.580738634717476
 31
0.0
  0
LINE
  5
6FC
330
1A
100
AcDbEntity
  8
6
100
AcDbLine
 10
-6.071816296422262
 20
-1.580562909436707
 30
0.0
 11
-5.714575974185798
 21
-1.953228559257809
 31
0.0
  0
DIMENSION
  5
70D
330
1A
100
AcDbEntity
  8
1
100
AcDbDimension
  2
*D5
 10
18.00000000000017
 20
8.499999999999992
 30
0.0
 11
15.21299454297425
 21
4.249999999999998
 31
0.0
 70
    32
 71
     5
 42
8.499999999999994
  3
OPO-SSTRICH
100
AcDbAlignedDimension
 13
6.499999999999891
 23
0.0000000000000018
 33
0.0
 14
3.250000000000009
 24
8.499999999999998
 34
0.0
 50
90.0
100
AcDbRotatedDimension
  0
DIMENSION
  5
768
330
1A
100
AcDbEntity
  8
1
100
AcDbDimension
  2
*D6
 10
26.8163848726308
 20
1.499999999999998
 30
0.0
 11
24.03654176212603
 21
-2.249999999999996
 31
0.0
 70
    32
 71
     5
 42
7.5
  3
OPO-SSTRICH
100
AcDbAlignedDimension
 13
6.500000000000003
 23
-5.999999999999997
 33
0.0
 14
16.57834861207368
 24
1.500000000000001
 34
0.0
 50
90.0
100
AcDbRotatedDimension
  0
LWPOLYLINE
  5
7A6
330
1A
100
AcDbEntity
  8
6
100
AcDbPolyline
 90
       20
 70
     1
 43
0.0
 10
4.095396920398346
 20
0.2730663836798683
 10
4.404721080938092
 20
0.2730663836798683
 42
-0.4142135623730951
 10
4.820521080938309
 20
-0.1427336163201218
 10
4.820521080938309
 20
-4.084199999999999
 42
-0.4142135623730951
 10
4.404721080938092
 20
-4.499999999999989
 10
2.095278919061907
 20
-4.499999999999989
 42
-0.4142135623730951
 10
1.67947891906169
 20
-4.084199999999999
 10
1.679478919061697
 20
-0.1427336163201218
 42
-0.4142135623730951
 10
2.095278919061914
 20
0.2730663836798683
 10
2.40460307960166
 20
0.2730663836798683
 10
2.40460307960166
 20
-0.1427336163201218
 10
2.208678919061643
 20
-0.1427336163201218
 42
0.4142135623730945
 10
2.095278919061914
 20
-0.2561336163200778
 10
2.095278919061907
 20
-3.970800000000043
 42
0.4142135623730948
 10
2.208678919061636
 20
-4.084199999999999
 10
4.291321080938363
 20
-4.084199999999999
 42
0.4142135623730951
 10
4.404721080938546
 20
-3.970800000000043
 10
4.404721080938092
 20
-0.2561336163200778
 42
0.4142135623730955
 10
4.291321080938363
 20
-0.1427336163201218
 10
4.095396920398346
 20
-0.1427336163201218
  0
CIRCLE
  5
7A7
330
1A
100
AcDbEntity
  8
6
100
AcDbCircle
 10
3.250000000000003
 20
-2.778769909718668
 30
0.0
 40
0.5425533030331441
  0
LINE
  5
7A8
330
1A
100
AcDbEntity
  8
5
  6
STRICHPUNKT
100
AcDbLine
 10
0.0
 20
8.499999999999998
 30
0.0
 11
20.0
 21
8.499999999999998
 31
0.0
  0
LINE
  5
7A9
330
1A
100
AcDbEntity
  8
5
  6
STRICHPUNKT
100
AcDbLine
 10
3.250000000000008
 20
-2.778769909718802
 30
0.0
 11
3.250000000000009
 21
13.85674126571441
 31
0.0
  0
LINE
  5
7E0
330
1A
100
AcDbEntity
  8
6
100
AcDbLine
 10
2.94383673680841
 20
0.0541192661329504
 30
0.0
 11
2.658816354806081
 21
8.499999999999998
 31
0.0
  0
LWPOLYLINE
  5
7E1
330
1A
100
AcDbEntity
  8
6
100
AcDbPolyline
 90
        3
 70
     0
 43
0.0
 10
2.736048938585192
 20
-2.604935525597565
 10
3.178151568308724
 20
-0.8559889416797297
 10
3.048591067605773
 20
8.499999999999998
  0
LINE
  5
7E4
330
1A
100
AcDbEntity
  8
6
100
AcDbLine
 10
3.556501672670723
 20
0.0577120447845887
 30
0.0
 11
3.841183645193936
 21
8.499999999999998
 31
0.0
  0
LWPOLYLINE
  5
7E5
330
1A
100
AcDbEntity
  8
6
100
AcDbPolyline
 90
        3
 70
     0
 43
0.0
 10
3.763951061414825
 20
-2.604935525597565
 10
3.321848431691293
 20
-0.8559889416797297
 10
3.451408932394244
 20
8.499999999999998
  0
LWPOLYLINE
  5
7E6
330
1A
100
AcDbEntity
  8
6
100
AcDbPolyline
 90
        7
 70
     0
 43
0.0
 10
5.067641635285369
 20
8.499999999999998
 10
3.943273085315926
 20
0.0366975542558604
 42
0.1324695894867593
 10
4.304954224600354
 20
-2.129705934920131
 42
-0.5867084866790316
 10
3.249999999999996
 20
-4.017403212752004
 42
-0.5867084866791127
 10
2.195045775400099
 20
-2.129705934919906
 42
0.1326072388620081
 10
2.556503042341777
 20
0.0389687763458895
 10
1.432358364714648
 20
8.499999999999998
  0
LWPOLYLINE
  5
7E7
330
1A
100
AcDbEntity
  8
6
100
AcDbPolyline
 90
        7
 70
     0
 43
0.0
 10
4.441365209481986
 20
8.499999999999998
 10
3.556501672670723
 20
0.0577120447845887
 42
0.1329999682531278
 10
3.964090562046298
 20
-2.314713262902152
 42
-0.5950444255291102
 10
3.249999999999996
 20
-3.630400053771033
 42
-0.5950444255294001
 10
2.535909437953701
 20
-2.314713262901584
 42
0.1328005891597704
 10
2.94383673680841
 20
0.0541192661329504
 10
2.058634790518031
 20
8.499999999999998
  0
VIEWPORT
  5
22
330
17
100
AcDbEntity
 67
     1
  8
0
100
AcDbViewport
 10
210.0
 20
170.2366863905325
 30
0.0
 40
420.0
 41
340.4733727810651
 68
     1
 69
     1
 12
210.0
 22
170.2366863905325
 13
0.0
 23
0.0
 14
5.0
 24
5.0
 15
10.0
 25
10.0
 16
0.0
 26
0.0
 36
1.0
 17
0.0
 27
0.0
 37
0.0
 42
50.0
 43
0.0
 44
0.0
 45
340.4733727810651
 50
0.0
 51
0.0
 72
   100
 90
    32800
  1

281
     0
 71
     1
 74
     0
110
0.0
120
0.0
130
0.0
111
1.0
121
0.0
131
0.0
112
0.0
122
1.0
132
0.0
 79
     0
146
0.0
  0
ENDSEC
  0
SECTION
  2
OBJECTS
  0
DICTIONARY
  5
C
330
0
100
AcDbDictionary
281
     1
  3
ACAD_GROUP
350
D
  3
ACAD_LAYOUT
350
F4
  3
ACAD_MLINESTYLE
350
E
  3
ACAD_PLOTSETTINGS
350
F5
  3
ACAD_PLOTSTYLENAME
350
F2
  3
AcDbVariableDictionary
350
136
  3
AEC_PROPERTY_SET_DEFS
350
5F6
  3
DWGPROPS
350
541
  0
DICTIONARY
  5
1F6
330
1A
100
AcDbDictionary
280
     1
281
     1
  3
ACAD_LAYOUTSELFREF
360
571
  3
ACAD_SORTENTS
360
5B8
  0
DICTIONARY
  5
1F4
330
17
100
AcDbDictionary
280
     1
281
     1
  3
ACAD_LAYOUTSELFREF
360
570
  0
DICTIONARY
  5
D
102
{ACAD_REACTORS
330
C
102
}
330
C
100
AcDbDictionary
281
     1
  0
DICTIONARY
  5
F4
102
{ACAD_REACTORS
330
C
102
}
330
C
100
AcDbDictionary
281
     1
  3
Layout1
350
F7
  3
Model
350
F6
  0
DICTIONARY
  5
E
102
{ACAD_REACTORS
330
C
102
}
330
C
100
AcDbDictionary
281
     1
  3
STANDARD
350
13
  0
DICTIONARY
  5
F5
102
{ACAD_REACTORS
330
C
102
}
330
C
100
AcDbDictionary
281
     1
  3
e Plot 1zu1
350
25C
  3
e Plot angepasst
350
25D
  3
Laser A4
350
25E
  0
ACDBDICTIONARYWDFLT
  5
F2
102
{ACAD_REACTORS
330
C
102
}
330
C
100
AcDbDictionary
281
     1
  3
Normal
350
F3
100
AcDbDictionaryWithDefault
340
F3
  0
DICTIONARY
  5
136
102
{ACAD_REACTORS
330
C
102
}
330
C
100
AcDbDictionary
281
     1
  3
DIMASSOC
350
580
  3
SORTENTS
350
137
  0
DICTIONARY
  5
5F6
102
{ACAD_REACTORS
330
C
102
}
330
C
100
AcDbDictionary
281
     1
  0
XRECORD
  5
541
102
{ACAD_REACTORS
330
C
102
}
330
C
100
AcDbXrecord
280
     1
  1
DWGPROPS COOKIE
  2
Datenaufbau HEBGO
  3
Format 14/2000 mit DWF-Format
  4
robert koch cad-support, ch-2540 grenchen
  6
Anpassung für DWF Format und ^M^JZeichnungsvorschau, ^M^Jrobert koch cad-support, ch-2540 grenchen
  7

  8
robert koch
  9

300
=
301
=
302
=
303
=
304
=
305
=
306
=
307
=
308
=
309
=
 40
0.01542375
 41
2451739.901524155
 42
2452087.651404178
  1

 90
        0
  0
XRECORD
  5
571
102
{ACAD_REACTORS
330
1F6
102
}
330
1F6
100
AcDbXrecord
280
     1
340
1A
  0
SORTENTSTABLE
  5
5B8
102
{ACAD_REACTORS
330
1F6
102
}
330
1F6
100
AcDbSortentsTable
330
1A
331
6FC
  5
6FD
331
6BF
  5
6E7
331
25B
  5
2EC
331
7E1
  5
7E1
331
7E5
  5
7E5
331
768
  5
768
331
6F9
  5
6FC
331
2EC
  5
2F8
331
6E7
  5
2E9
331
2E9
  5
2EE
331
5FB
  5
6BF
331
6F3
  5
6F4
331
7A8
  5
7A8
331
7A6
  5
7A6
331
7E6
  5
7E6
331
2F1
  5
653
331
70D
  5
70D
331
653
  5
6CE
331
6F7
  5
6F8
331
7A9
  5
7A9
331
2EE
  5
2F9
331
7E0
  5
7E0
331
6CE
  5
6F3
331
7E7
  5
7E7
331
6F4
  5
6F7
331
7A7
  5
7A7
331
6F8
  5
6F9
331
7E4
  5
7E4
  0
XRECORD
  5
570
102
{ACAD_REACTORS
330
1F4
102
}
330
1F4
100
AcDbXrecord
280
     1
340
17
  0
LAYOUT
  5
F7
102
{ACAD_REACTORS
330
F4
102
}
330
F4
100
AcDbPlotSettings
  1

  2
D:\AC2000\ACAD2000\plotters\DesignJet 650C test A3.pc3
  4

  6

 40
0.0
 41
0.0
 42
0.0
 43
0.0
 44
0.0
 45
0.0
 46
0.0
 47
0.0
 48
0.0
 49
0.0
140
0.0
141
0.0
142
1.0
143
1.0
 70
   688
 72
     0
 73
     0
 74
     5
  7
Hebgo Laser.ctb
 75
    16
147
1.0
148
0.0
149
0.0
100
AcDbLayout
  1
Layout1
 70
     1
 71
     1
 10
0.0
 20
0.0
 11
420.0
 21
297.0
 12
0.0
 22
0.0
 32
0.0
 14
1.000000000000000E+20
 24
1.000000000000000E+20
 34
1.000000000000000E+20
 15
-1.000000000000000E+20
 25
-1.000000000000000E+20
 35
-1.000000000000000E+20
146
0.0
 13
0.0
 23
0.0
 33
0.0
 16
1.0
 26
0.0
 36
0.0
 17
0.0
 27
1.0
 37
0.0
 76
     0
330
17
331
22
  0
LAYOUT
  5
F6
102
{ACAD_REACTORS
330
F4
102
}
330
F4
100
AcDbPlotSettings
  1

  2
2 Xerox N24.pc3
  4
A4
  6

 40
7.143749713897705
 41
6.170062541961669
 42
7.736404418945312
 43
7.14373779296875
 44
209.9733276367187
 45
296.9683227539062
 46
50.42
 47
102.2799999999999
 48
0.0
 49
0.0
140
0.0
141
0.0
142
1.0
143
0.5
 70
 28340
 72
     1
 73
     0
 74
     1
  7
Hebgo Laser.ctb
 75
    27
147
2.0
148
27.80914222566536
149
19.24896155163753
100
AcDbLayout
  1
Model
 70
     1
 71
     0
 10
0.0
 20
0.0
 11
12.0
 21
9.0
 12
0.0
 22
0.0
 32
0.0
 14
0.0
 24
0.0
 34
0.0
 15
0.0
 25
0.0
 35
0.0
146
0.0
 13
0.0
 23
0.0
 33
0.0
 16
1.0
 26
0.0
 36
0.0
 17
0.0
 27
1.0
 37
0.0
 76
     0
330
1A
  0
MLINESTYLE
  5
13
102
{ACAD_REACTORS
330
E
102
}
330
E
100
AcDbMlineStyle
  2
STANDARD
 70
     0
  3

 62
     0
 51
90.0
 52
90.0
 71
     2
 49
0.5
 62
   256
  6
BYLAYER
 49
-0.5
 62
   256
  6
BYLAYER
  0
PLOTSETTINGS
  5
25C
102
{ACAD_REACTORS
330
F5
102
}
330
F5
100
AcDbPlotSettings
  1
e Plot 1zu1
  2
DWF ePlot.pc3
  4
UserDefinedMetric (210.00 x 297.00MM)
  6

 40
13.0
 41
13.0
 42
13.0
 43
13.0
 44
210.0
 45
297.0
 46
58.27
 47
107.6999999999999
 48
0.0
 49
0.0
140
0.0
141
0.0
142
1.0
143
1.0
 70
  1716
 72
     1
 73
     0
 74
     1
  7
OPO_DWF.ctb
 75
    16
147
1.0
148
17.16613684218157
149
24.55902015156925
  0
PLOTSETTINGS
  5
25D
102
{ACAD_REACTORS
330
F5
102
}
330
F5
100
AcDbPlotSettings
  1
e Plot angepasst
  2
DWF ePlot.pc3
  4
UserDefinedMetric (210.00 x 297.00MM)
  6

 40
13.0
 41
13.0
 42
13.0
 43
13.0
 44
210.0
 45
297.0
 46
0.0
 47
59.67
 48
0.0
 49
0.0
140
0.0
141
0.0
142
1.0
143
0.3665841129351039
 70
  1716
 72
     1
 73
     0
 74
     1
  7
OPO_DWF.ctb
 75
     0
147
2.727886901571834
148
17.16613684218157
149
24.55902015156925
  0
PLOTSETTINGS
  5
25E
102
{ACAD_REACTORS
330
F5
102
}
330
F5
100
AcDbPlotSettings
  1
Laser A4
  2
4 Xerox XL.pc3
  4
A4
  6

 40
5.111750125885009
 41
5.11176061630249
 42
5.111740112304687
 43
5.11175537109375
 44
209.9733276367187
 45
296.9259948730469
 46
0.0
 47
43.47999999999999
 48
0.0
 49
0.0
140
0.0
141
0.0
142
1.0
143
0.020166824766453
 70
  1716
 72
     1
 73
     0
 74
     1
  7
OPO.ctb
 75
     0
147
49.58638811913882
148
2.014159285479877
149
2.014159285479877
  0
ACDBPLACEHOLDER
  5
F3
102
{ACAD_REACTORS
330
F2
102
}
330
F2
  0
DICTIONARYVAR
  5
580
102
{ACAD_REACTORS
330
136
102
}
330
136
100
DictionaryVariables
280
     0
  1
1
  0
DICTIONARYVAR
  5
137
102
{ACAD_REACTORS
330
136
102
}
330
136
100
DictionaryVariables
280
     0
  1
127
  0
ENDSEC
  0
EOF
