  0
SECTION
  2
HEADER
  9
$ACADVER
  1
AC1009
  9
$INSBASE
 10
0.0
 20
0.0
 30
0.0
  9
$EXTMIN
 10
-30.25817787304765
 20
-31.013487932520771
 30
-0.0000000000112498
  9
$EXTMAX
 10
26.985169012315168
 20
18.562317440009672
 30
0.0000000000002956
  9
$LIMMIN
 10
-150.0
 20
-150.0
  9
$LIMMAX
 10
150.0
 20
150.0
  9
$ORTHOMODE
 70
     0
  9
$REGENMODE
 70
     1
  9
$FILLMODE
 70
     1
  9
$QTEXTMODE
 70
     0
  9
$MIRRTEXT
 70
     0
  9
$DRAGMODE
 70
     2
  9
$LTSCALE
 40
3.0
  9
$OSMODE
 70
   111
  9
$ATTMODE
 70
     1
  9
$TEXTSIZE
 40
3.5
  9
$TRACEWID
 40
1.0
  9
$TEXTSTYLE
  7
BESCHLAG
  9
$CLAYER
  8
0
  9
$CELTYPE
  6
BYLAYER
  9
$CECOLOR
 62
   256
  9
$DIMSCALE
 40
1.0
  9
$DIMASZ
 40
2.0
  9
$DIMEXO
 40
2.0
  9
$DIMDLI
 40
0.0
  9
$DIMRND
 40
0.0
  9
$DIMDLE
 40
1.0
  9
$DIMEXE
 40
1.0
  9
$DIMTP
 40
0.0
  9
$DIMTM
 40
0.0
  9
$DIMTXT
 40
3.5
  9
$DIMCEN
 40
0.0
  9
$DIMTSZ
 40
0.0
  9
$DIMTOL
 70
     0
  9
$DIMLIM
 70
     0
  9
$DIMTIH
 70
     0
  9
$DIMTOH
 70
     0
  9
$DIMSE1
 70
     0
  9
$DIMSE2
 70
     0
  9
$DIMTAD
 70
     1
  9
$DIMZIN
 70
     8
  9
$DIMBLK
  1

  9
$DIMASO
 70
     1
  9
$DIMSHO
 70
     1
  9
$DIMPOST
  1

  9
$DIMAPOST
  1

  9
$DIMALT
 70
     0
  9
$DIMALTD
 70
     2
  9
$DIMALTF
 40
0.039370078740157
  9
$DIMLFAC
 40
1.0
  9
$DIMTOFL
 70
     1
  9
$DIMTVP
 40
0.0
  9
$DIMTIX
 70
     1
  9
$DIMSOXD
 70
     0
  9
$DIMSAH
 70
     1
  9
$DIMBLK1
  1
OBLIQUE
  9
$DIMBLK2
  1
OBLIQUE
  9
$DIMSTYLE
  2
OPO-SSTRICH
  9
$DIMCLRD
 70
   256
  9
$DIMCLRE
 70
   256
  9
$DIMCLRT
 70
   256
  9
$DIMTFAC
 40
0.7114285714285716
  9
$DIMGAP
 40
1.0
  9
$LUNITS
 70
     2
  9
$LUPREC
 70
     1
  9
$SKETCHINC
 40
1.0
  9
$FILLETRAD
 40
0.0
  9
$AUNITS
 70
     0
  9
$AUPREC
 70
     1
  9
$MENU
  1
D:\ACL_CGWG\CGTAB13
  9
$ELEVATION
 40
0.0
  9
$PELEVATION
 40
0.0
  9
$THICKNESS
 40
0.0
  9
$LIMCHECK
 70
     0
  9
$BLIPMODE
 70
     0
  9
$CHAMFERA
 40
1.0
  9
$CHAMFERB
 40
1.0
  9
$SKPOLY
 70
     0
  9
$TDCREATE
 40
2451739.8696195022
  9
$TDUPDATE
 40
2452087.6070787502
  9
$TDINDWG
 40
0.0007982639
  9
$TDUSRTIMER
 40
0.0007980787
  9
$USRTIMER
 70
     1
  9
$ANGBASE
 50
0.0
  9
$ANGDIR
 70
     0
  9
$PDMODE
 70
    35
  9
$PDSIZE
 40
5.0
  9
$PLINEWID
 40
0.0
  9
$COORDS
 70
     1
  9
$SPLFRAME
 70
     0
  9
$SPLINETYPE
 70
     6
  9
$SPLINESEGS
 70
     8
  9
$ATTDIA
 70
     1
  9
$ATTREQ
 70
     1
  9
$HANDLING
 70
-16383
  9
$HANDSEED
  5
42D
  9
$SURFTAB1
 70
    12
  9
$SURFTAB2
 70
    12
  9
$SURFTYPE
 70
     6
  9
$SURFU
 70
    12
  9
$SURFV
 70
    12
  9
$UCSNAME
  2

  9
$UCSORG
 10
0.0
 20
0.0
 30
0.0
  9
$UCSXDIR
 10
1.0
 20
0.0
 30
0.0
  9
$UCSYDIR
 10
0.0
 20
1.0
 30
0.0
  9
$PUCSNAME
  2

  9
$PUCSORG
 10
0.0
 20
0.0
 30
0.0
  9
$PUCSXDIR
 10
1.0
 20
0.0
 30
0.0
  9
$PUCSYDIR
 10
0.0
 20
1.0
 30
0.0
  9
$USERI1
 70
     0
  9
$USERI2
 70
     0
  9
$USERI3
 70
     0
  9
$USERI4
 70
     0
  9
$USERI5
 70
     0
  9
$USERR1
 40
0.0
  9
$USERR2
 40
0.0
  9
$USERR3
 40
0.0
  9
$USERR4
 40
0.0
  9
$USERR5
 40
0.0
  9
$WORLDVIEW
 70
     1
  9
$SHADEDGE
 70
     3
  9
$SHADEDIF
 70
    70
  9
$TILEMODE
 70
     1
  9
$MAXACTVP
 70
    48
  9
$PLIMCHECK
 70
     0
  9
$PEXTMIN
 10
1.0000000000000000E+020
 20
1.0000000000000000E+020
 30
1.0000000000000000E+020
  9
$PEXTMAX
 10
-1.0000000000000000E+020
 20
-1.0000000000000000E+020
 30
-1.0000000000000000E+020
  9
$PLIMMIN
 10
0.0
 20
0.0
  9
$PLIMMAX
 10
420.0
 20
297.0
  9
$UNITMODE
 70
     0
  9
$VISRETAIN
 70
     1
  9
$PLINEGEN
 70
     0
  9
$PSLTSCALE
 70
     1
  0
ENDSEC
  0
SECTION
  2
TABLES
  0
TABLE
  2
VPORT
 70
     2
  0
VPORT
  2
*ACTIVE
 70
     0
 10
0.0
 20
0.0
 11
1.0
 21
1.0
 12
-1.636504430366249
 22
-6.2255852462555481
 13
0.0
 23
0.0
 14
0.5
 24
0.5
 15
10.0
 25
10.0
 16
0.0
 26
0.0
 36
1.0
 17
0.0
 27
0.0
 37
0.0
 40
49.978315294364251
 41
1.6070460704607039
 42
50.0
 43
0.0
 44
0.0
 50
0.0
 51
0.0
 71
     0
 72
   800
 73
     1
 74
     1
 75
     0
 76
     0
 77
     0
 78
     0
  0
ENDTAB
  0
TABLE
  2
LTYPE
 70
     2
  0
LTYPE
  2
CONTINUOUS
 70
     0
  3
_______________________________________________
 72
    65
 73
     2
 40
1.0
 49
1.0
 49
0.0
  0
LTYPE
  2
STRICHPUNKT
 70
     0
  3
__ . __ . __ . __ . __ . __ . __ . __ . __ . __
 72
    65
 73
     4
 40
1.0
 49
0.5
 49
-0.25
 49
0.0
 49
-0.25
  0
ENDTAB
  0
TABLE
  2
LAYER
 70
     7
  0
LAYER
  2
0
 70
     0
 62
    30
  6
CONTINUOUS
  0
LAYER
  2
1
 70
     0
 62
     2
  6
CONTINUOUS
  0
LAYER
  2
2
 70
     0
 62
     9
  6
CONTINUOUS
  0
LAYER
  2
4
 70
     1
 62
     4
  6
CONTINUOUS
  0
LAYER
  2
5
 70
     0
 62
     1
  6
CONTINUOUS
  0
LAYER
  2
6
 70
     0
 62
     3
  6
CONTINUOUS
  0
LAYER
  2
DEFPOINTS
 70
     0
 62
     7
  6
CONTINUOUS
  0
ENDTAB
  0
TABLE
  2
STYLE
 70
     2
  0
STYLE
  2
STANDARD
 70
     0
 40
0.0
 41
1.0
 50
0.0
 71
     0
 42
2.5
  3
txt
  4

  0
STYLE
  2
BESCHLAG
 70
     0
 40
0.0
 41
1.0
 50
0.0
 71
     0
 42
3.5
  3
txt
  4

  0
ENDTAB
  0
TABLE
  2
VIEW
 70
     0
  0
ENDTAB
  0
TABLE
  2
UCS
 70
     0
  0
ENDTAB
  0
TABLE
  2
APPID
 70
     1
  0
APPID
  2
ACAD
 70
     0
  0
ENDTAB
  0
TABLE
  2
DIMSTYLE
 70
     1
  0
DIMSTYLE
  2
OPO-SSTRICH
 70
     0
  3

  4

  5

  6
OBLIQUE
  7
OBLIQUE
 40
1.0
 41
2.0
 42
2.0
 43
0.0
 44
1.0
 45
0.0
 46
1.0
 47
0.0
 48
0.0
140
3.5
141
0.0
142
0.0
143
0.039370078740157
144
1.0
145
0.0
146
0.7114285714285716
147
1.0
 71
     0
 72
     0
 73
     0
 74
     0
 75
     0
 76
     0
 77
     1
 78
     8
170
     0
171
     2
172
     1
173
     1
174
     1
175
     0
176
   256
177
   256
178
   256
  0
ENDTAB
  0
ENDSEC
  0
SECTION
  2
BLOCKS
  0
BLOCK
  8
0
  2
$MODEL_SPACE
 70
     0
 10
0.0
 20
0.0
 30
0.0
  3
$MODEL_SPACE
  1

  0
ENDBLK
  5
1C
  8
0
  0
BLOCK
 67
     1
  8
0
  2
$PAPER_SPACE
 70
     0
 10
0.0
 20
0.0
 30
0.0
  3
$PAPER_SPACE
  1

  0
ENDBLK
  5
19
 67
     1
  8
0
  0
BLOCK
  8
0
  2
_OBLIQUE
 70
     0
 10
0.0
 20
0.0
 30
0.0
  3
_OBLIQUE
  1

  0
LINE
  5
204
  8
0
 62
     0
 10
-0.5
 20
-0.5
 30
0.0
 11
0.5
 21
0.5
 31
0.0
  0
ENDBLK
  5
206
  8
0
  0
BLOCK
  8
0
  2
NULLPUNKT
 70
     0
 10
0.0
 20
0.0
 30
0.0
  3
NULLPUNKT
  1

  0
SOLID
  5
254
  8
5
 10
0.0
 20
0.0
 30
0.0
 11
2.0
 21
0.0
 31
0.0
 12
0.0
 22
-2.0
 32
0.0
 13
0.0
 23
-2.0
 33
0.0
  0
SOLID
  5
255
  8
5
 10
0.0
 20
0.0
 30
0.0
 11
-2.0
 21
0.0
 31
0.0
 12
0.0
 22
2.0
 32
0.0
 13
0.0
 23
2.0
 33
0.0
  0
POLYLINE
  5
256
  8
5
 66
     1
 10
0.0
 20
0.0
 30
0.0
  0
VERTEX
  5
3D5
  8
5
 10
0.0
 20
2.0
 30
0.0
  0
VERTEX
  5
3D6
  8
5
 10
0.0
 20
-2.0
 30
0.0
  0
SEQEND
  5
3D7
  8
5
  0
POLYLINE
  5
257
  8
5
 66
     1
 10
0.0
 20
0.0
 30
0.0
  0
VERTEX
  5
3D8
  8
5
 10
-2.0
 20
0.0
 30
0.0
  0
VERTEX
  5
3D9
  8
5
 10
2.0
 20
0.0
 30
0.0
  0
SEQEND
  5
3DA
  8
5
  0
CIRCLE
  5
258
  8
5
 10
0.0
 20
0.0
 30
0.0
 40
2.0
  0
ENDBLK
  5
25A
  8
0
  0
BLOCK
  8
0
  2
*X2
 70
     1
 10
0.0
 20
0.0
 30
0.0
  3
*X2
  1

  0
LINE
  5
292
  8
0
 62
     0
 10
976.44304270916939
 20
57.373875293278893
 30
0.0
 11
978.44304270916928
 21
59.373875293278871
 31
0.0
  0
LINE
  5
293
  8
0
 62
     0
 10
981.70698783456817
 20
62.637820418677727
 30
0.0
 11
984.20698783456805
 21
65.137820418677734
 31
0.0
  0
LINE
  5
294
  8
0
 62
     0
 10
976.44304270916939
 20
59.070931568126511
 30
0.0
 11
978.44304270916928
 21
61.070931568126483
 31
0.0
  0
LINE
  5
295
  8
0
 62
     0
 10
980.0099315597206
 20
62.637820418677727
 30
0.0
 11
982.5099315597206
 21
65.137820418677734
 31
0.0
  0
LINE
  5
296
  8
0
 62
     0
 10
976.44304270916939
 20
60.767987842974293
 30
0.0
 11
980.81287528487292
 21
65.137820418677734
 31
0.0
  0
LINE
  5
297
  8
0
 62
     0
 10
976.44304270916939
 20
62.465044117821911
 30
0.0
 11
979.11581901002512
 21
65.137820418677734
 31
0.0
  0
LINE
  5
298
  8
0
 62
     0
 10
976.44304270916939
 20
64.162100392669686
 30
0.0
 11
977.41876273517732
 21
65.137820418677734
 31
0.0
  0
LINE
  5
299
  8
0
 62
     0
 10
977.35404410941601
 20
56.587820418677779
 30
0.0
 11
978.44304270916928
 21
57.676819018431097
 31
0.0
  0
LINE
  5
29A
  8
0
 62
     0
 10
983.40404410941596
 20
62.637820418677727
 30
0.0
 11
985.56184097369965
 21
64.795617282961459
 31
0.0
  0
LINE
  5
29B
  8
0
 62
     0
 10
984.44304270916939
 20
61.97976274358335
 30
0.0
 11
986.31231400659055
 21
63.849034041004373
 31
0.0
  0
LINE
  5
29C
  8
0
 62
     0
 10
984.44304270916939
 20
60.282706468735739
 30
0.0
 11
986.4430427091695
 21
62.282706468735803
 31
0.0
  0
LINE
  5
29D
  8
0
 62
     0
 10
985.49665088615768
 20
59.639258370876391
 30
0.0
 11
986.44160475697061
 21
60.584212241689301
 31
0.0
  0
ENDBLK
  5
29F
  8
0
  0
BLOCK
  8
0
  2
*X3
 70
     1
 10
0.0
 20
0.0
 30
0.0
  3
*X3
  1

  0
LINE
  5
2A1
  8
0
 62
     0
 10
981.67755058304544
 20
45.637820418677791
 30
0.0
 11
983.67755058304544
 21
47.637820418677727
 31
0.0
  0
LINE
  5
2A2
  8
0
 62
     0
 10
984.44304270916939
 20
48.403312544801771
 30
0.0
 11
986.25761401594661
 21
50.217883851579018
 31
0.0
  0
LINE
  5
2A3
  8
0
 62
     0
 10
979.98049430819776
 20
45.637820418677791
 30
0.0
 11
981.98049430819776
 21
47.637820418677727
 31
0.0
  0
LINE
  5
2A4
  8
0
 62
     0
 10
984.44304270916939
 20
50.10036881964939
 30
0.0
 11
984.98049430819765
 21
50.637820418677727
 31
0.0
  0
LINE
  5
2A5
  8
0
 62
     0
 10
978.28343803334985
 20
45.637820418677791
 30
0.0
 11
980.28343803334997
 21
47.637820418677727
 31
0.0
  0
LINE
  5
2A6
  8
0
 62
     0
 10
976.61505382741575
 20
45.666492487590993
 30
0.0
 11
978.95647621138232
 21
48.007914871557567
 31
0.0
  0
LINE
  5
2A7
  8
0
 62
     0
 10
976.44304270916939
 20
47.191537644192593
 30
0.0
 11
978.44304270916928
 21
49.191537644192522
 31
0.0
  0
LINE
  5
2A8
  8
0
 62
     0
 10
976.44304270916939
 20
48.888593919040382
 30
0.0
 11
978.44304270916928
 21
50.888593919040296
 31
0.0
  0
LINE
  5
2A9
  8
0
 62
     0
 10
976.44304270916939
 20
50.585650193887993
 30
0.0
 11
978.44304270916928
 21
52.585650193887922
 31
0.0
  0
LINE
  5
2AA
  8
0
 62
     0
 10
976.44304270916939
 20
52.282706468735782
 30
0.0
 11
977.8481566591114
 21
53.687820418677688
 31
0.0
  0
LINE
  5
2AB
  8
0
 62
     0
 10
983.37460685789324
 20
45.637820418677791
 30
0.0
 11
986.44304270916939
 21
48.706256269953982
 31
0.0
  0
LINE
  5
2AC
  8
0
 62
     0
 10
984.44304270916939
 20
45.009199995106179
 30
0.0
 11
986.44304270916939
 21
47.009199995106187
 31
0.0
  0
LINE
  5
2AD
  8
0
 62
     0
 10
984.44304270916939
 20
43.312143720258568
 30
0.0
 11
986.44304270916939
 21
45.312143720258582
 31
0.0
  0
LINE
  5
2AE
  8
0
 62
     0
 10
984.44304270916939
 20
41.615087445410779
 30
0.0
 11
986.44304270916939
 21
43.615087445410801
 31
0.0
  0
LINE
  5
2AF
  8
0
 62
     0
 10
984.44304270916939
 20
39.918031170563168
 30
0.0
 11
986.44304270916939
 21
41.918031170563189
 31
0.0
  0
LINE
  5
2B0
  8
0
 62
     0
 10
984.44304270916939
 20
38.220974895715393
 30
0.0
 11
986.44304270916939
 21
40.220974895715408
 31
0.0
  0
LINE
  5
2B1
  8
0
 62
     0
 10
984.44304270916939
 20
36.523918620867768
 30
0.0
 11
986.44304270916939
 21
38.523918620867789
 31
0.0
  0
LINE
  5
2B2
  8
0
 62
     0
 10
984.78099022064941
 20
35.164809857500089
 30
0.0
 11
986.44304270916939
 21
36.826862346020008
 31
0.0
  0
ENDBLK
  5
2B4
  8
0
  0
BLOCK
  8
0
  2
*D4
 70
     1
 10
0.0
 20
0.0
 30
0.0
  3
*D4
  1

  0
LINE
  5
2FD
  8
1
 10
10.0
 20
2.0
 30
0.0
 11
10.0
 21
14.06803747083233
 31
0.0
  0
LINE
  5
2FE
  8
1
 10
15.0
 20
2.0
 30
0.0
 11
15.0
 21
14.06803747083233
 31
0.0
  0
LINE
  5
2FF
  8
1
 10
9.0
 20
13.06803747083233
 30
0.0
 11
16.0
 21
13.06803747083233
 31
0.0
  0
INSERT
  5
300
  8
1
  2
_OBLIQUE
 10
10.0
 20
13.06803747083233
 30
0.0
 41
2.0
 42
2.0
 43
2.0
 50
180.0
  0
INSERT
  5
301
  8
1
  2
_OBLIQUE
 10
15.0
 20
13.06803747083233
 30
0.0
 41
2.0
 42
2.0
 43
2.0
  0
TEXT
  5
302
  8
0
 10
11.136766712141879
 20
14.127723691841879
 30
0.0
 40
3.5
  1
5
  7
BESCHLAG
  0
POINT
  5
303
  8
DEFPOINTS
 62
     0
 10
10.0
 20
0.0
 30
0.0
  0
POINT
  5
304
  8
DEFPOINTS
 62
     0
 10
15.0
 20
0.0
 30
0.0
  0
POINT
  5
305
  8
DEFPOINTS
 62
     0
 10
15.0
 20
13.06803747083233
 30
0.0
  0
ENDBLK
  5
2E4
  8
0
  0
BLOCK
  8
0
  2
*D5
 70
     1
 10
0.0
 20
0.0
 30
0.0
  3
*D5
  1

  0
LINE
  5
306
  8
1
 10
0.0000000000000001
 20
2.0
 30
0.0
 11
0.0000000000000009
 21
14.06803747083233
 31
0.0
  0
LINE
  5
307
  8
1
 10
10.0
 20
2.0
 30
0.0
 11
10.0
 21
14.06803747083233
 31
0.0
  0
LINE
  5
308
  8
1
 10
-0.9999999999999992
 20
13.06803747083233
 30
0.0
 11
11.0
 21
13.06803747083233
 31
0.0
  0
INSERT
  5
309
  8
1
  2
_OBLIQUE
 10
0.0000000000000008
 20
13.06803747083233
 30
0.0
 41
2.0
 42
2.0
 43
2.0
 50
180.0
  0
INSERT
  5
30A
  8
1
  2
_OBLIQUE
 10
10.0
 20
13.06803747083233
 30
0.0
 41
2.0
 42
2.0
 43
2.0
  0
TEXT
  5
30B
  8
0
 10
2.1314802182810362
 20
14.13488603836303
 30
0.0
 40
3.5
  1
10
  7
BESCHLAG
  0
POINT
  5
30C
  8
DEFPOINTS
 62
     0
 10
0.0
 20
0.0
 30
0.0
  0
POINT
  5
30D
  8
DEFPOINTS
 62
     0
 10
10.0
 20
0.0
 30
0.0
  0
POINT
  5
30E
  8
DEFPOINTS
 62
     0
 10
10.0
 20
13.06803747083233
 30
0.0
  0
ENDBLK
  5
2F0
  8
0
  0
BLOCK
  8
0
  2
*D6
 70
     1
 10
0.0
 20
0.0
 30
0.0
  3
*D6
  1

  0
LINE
  5
30F
  8
1
 10
12.0
 20
-0.0000000000000006
 30
0.0
 11
26.967447738917379
 21
-0.0000000000000048
 31
0.0
  0
LINE
  5
310
  8
1
 10
12.0
 20
-29.99999999999994
 30
0.0
 11
26.967447738917372
 21
-29.99999999999994
 31
0.0
  0
LINE
  5
311
  8
1
 10
25.967447738917372
 20
0.9999999999999955
 30
0.0
 11
25.967447738917372
 21
-30.99999999999994
 31
0.0
  0
INSERT
  5
312
  8
1
  2
_OBLIQUE
 10
25.967447738917372
 20
-0.0000000000000045
 30
0.0
 41
2.0
 42
2.0
 43
2.0
 50
90.0
  0
INSERT
  5
313
  8
1
  2
_OBLIQUE
 10
25.967447738917372
 20
-29.99999999999994
 30
0.0
 41
2.0
 42
2.0
 43
2.0
 50
270.0
  0
TEXT
  5
314
  8
0
 10
24.8982117225463
 20
-17.70497953615277
 30
0.0
 40
3.5
  1
30
 50
90.0
  7
BESCHLAG
  0
POINT
  5
315
  8
DEFPOINTS
 62
     0
 10
10.0
 20
0.0
 30
0.0
  0
POINT
  5
316
  8
DEFPOINTS
 62
     0
 10
10.0
 20
-29.99999999999994
 30
0.0
  0
POINT
  5
317
  8
DEFPOINTS
 62
     0
 10
25.967447738917372
 20
-29.99999999999994
 30
0.0
  0
ENDBLK
  5
2FC
  8
0
  0
ENDSEC
  0
SECTION
  2
ENTITIES
  0
INSERT
  5
25B
  8
5
  2
NULLPUNKT
 10
0.0
 20
0.0
 30
0.0
  0
LINE
  5
2CA
  8
6
 10
0.0
 20
-11.44999999999998
 30
0.0
 11
2.0
 21
-11.44999999999998
 31
0.0
  0
LINE
  5
2CB
  8
6
 10
0.0
 20
-8.5500000000000114
 30
0.0
 11
2.0
 21
-8.5500000000000114
 31
0.0
  0
INSERT
  5
2CC
  8
2
  2
*X2
 10
-976.44304270916939
 20
-65.137820418677734
 30
0.0
1001
ACAD
1000
HATCH
1002
{
1070
    16
1000
_U,O
1040
1.1999999999999991
1040
0.7853981633974483
1070
     0
1002
}
  0
INSERT
  5
2CD
  8
2
  2
*X3
 10
-976.44304270916939
 20
-65.137820418677734
 30
0.0
1001
ACAD
1000
HATCH
1002
{
1070
    16
1000
_U,O
1040
1.1999999999999991
1040
0.7853981633974483
1070
     0
1002
}
  0
DIMENSION
  5
2CE
  8
1
  2
*D4
 10
15.0
 20
13.06803747083233
 30
0.0
 11
12.5
 21
15.84788058133711
 31
0.0
 70
     0
 13
10.0
 23
0.0
 33
0.0
 14
15.0
 24
0.0
 34
0.0
  0
POLYLINE
  5
2CF
  8
6
 66
     1
 10
0.0
 20
0.0
 30
0.0
 70
     1
  0
VERTEX
  5
3DB
  8
6
 10
7.0359560886313366
 20
-4.4433583048729579
 30
0.0
 42
-0.4340228066750199
  0
VERTEX
  5
3DC
  8
6
 10
7.4119206914385813
 20
-4.4310281891142722
 30
0.0
  0
VERTEX
  5
3DD
  8
6
 10
8.0960529926787785
 20
-5.4729226374469127
 30
0.0
  0
VERTEX
  5
3DE
  8
6
 10
9.6923617067384384
 20
-5.4729226374469127
 30
0.0
 42
0.2926708623625712
  0
VERTEX
  5
3DF
  8
6
 10
10.000529438668529
 20
-5.2756407853074734
 30
0.0
  0
VERTEX
  5
3E0
  8
6
 10
10.00607581436474
 20
-3.1809080349383971
 30
0.0
 42
-0.4725495945331585
  0
VERTEX
  5
3E1
  8
6
 10
10.333350569054801
 20
-2.9205895196990919
 30
0.0
 42
-0.1497715981737393
  0
VERTEX
  5
3E2
  8
6
 10
10.90037913551123
 20
-3.0438906772861851
 30
0.0
 42
-0.1375660736324291
  0
VERTEX
  5
3E3
  8
6
 10
11.88035245270498
 20
-4.6899605311729138
 30
0.0
 42
-0.3441417900027466
  0
VERTEX
  5
3E4
  8
6
 10
13.959546934994471
 20
-15.7830495487961
 30
0.0
 42
-1.013427136496432
  0
VERTEX
  5
3E5
  8
6
 10
12.85263467813683
 20
-15.1810670288649
 30
0.0
 42
0.2618032337289678
  0
VERTEX
  5
3E6
  8
6
 10
11.982150276763599
 20
-7.4627911245144096
 30
0.0
 42
1.48716411242179
  0
VERTEX
  5
3E7
  8
6
 10
11.401344839740879
 20
-7.2566205934944028
 30
0.0
  0
VERTEX
  5
3E8
  8
6
 10
11.50744519327986
 20
-14.637755886324671
 30
0.0
 42
-0.264033326694127
  0
VERTEX
  5
3E9
  8
6
 10
10.31419862674147
 20
-16.53462016943109
 30
0.0
 42
-0.4546962762195842
  0
VERTEX
  5
3EA
  8
6
 10
10.00193323333132
 20
-16.320118201682639
 30
0.0
  0
VERTEX
  5
3EB
  8
6
 10
9.9991091634537952
 20
-14.79896506325173
 30
0.0
 42
0.5545890291270417
  0
VERTEX
  5
3EC
  8
6
 10
9.6665370836858528
 20
-14.533256185591931
 30
0.0
  0
VERTEX
  5
3ED
  8
6
 10
8.2440249688836502
 20
-14.533256185591931
 30
0.0
 42
0.3795622521557158
  0
VERTEX
  5
3EE
  8
6
 10
7.9219145559554809
 20
-14.82255209259921
 30
0.0
  0
VERTEX
  5
3EF
  8
6
 10
7.3534600867785684
 20
-17.026251946034389
 30
0.0
 42
-0.2098868600260434
  0
VERTEX
  5
3F0
  8
6
 10
7.2493215888709983
 20
-17.136186224174988
 30
0.0
 42
-0.3590346299987293
  0
VERTEX
  5
3F1
  8
6
 10
6.432784867663031
 20
-16.97782733641116
 30
0.0
  0
VERTEX
  5
3F2
  8
6
 10
4.820640754898931
 20
-14.082081611206259
 30
0.0
 42
-0.1375040557749069
  0
VERTEX
  5
3F3
  8
6
 10
4.6818561504933314
 20
-13.52678989571165
 30
0.0
  0
VERTEX
  5
3F4
  8
6
 10
4.6818561504933314
 20
-7.6612923326862301
 30
0.0
 42
-0.1555493545182818
  0
VERTEX
  5
3F5
  8
6
 10
5.2022984840091331
 20
-6.1807428169587411
 30
0.0
  0
SEQEND
  5
3F6
  8
6
  0
POLYLINE
  5
2D0
  8
6
 66
     1
 10
0.0
 20
0.0
 30
0.0
 70
     1
  0
VERTEX
  5
3F7
  8
6
 10
9.6636345637009526
 20
-8.2832801569308003
 30
0.0
  0
VERTEX
  5
3F8
  8
6
 10
9.6636345637009526
 20
-12.41006711374791
 30
0.0
 42
-0.3542222137672995
  0
VERTEX
  5
3F9
  8
6
 10
8.8189173044306681
 20
-13.25501752133175
 30
0.0
  0
VERTEX
  5
3FA
  8
6
 10
7.3131170353128701
 20
-13.248894700985479
 30
0.0
 42
-0.343655940181943
  0
VERTEX
  5
3FB
  8
6
 10
6.5051266192276671
 20
-12.31210181045946
 30
0.0
  0
VERTEX
  5
3FC
  8
6
 10
6.5051266192276671
 20
-8.0199984821082353
 30
0.0
 42
-0.2923726044221553
  0
VERTEX
  5
3FD
  8
6
 10
7.4110552614752123
 20
-7.2791361537218791
 30
0.0
  0
VERTEX
  5
3FE
  8
6
 10
8.5251026259434184
 20
-7.2791361537218791
 30
0.0
 42
-0.345210202999001
  0
SEQEND
  5
3FF
  8
6
  0
LINE
  5
2D1
  8
6
  6
STRICHPUNKT
 10
2.6865791333905231
 20
-10.0
 30
0.0
 11
-11.122785646177361
 21
-10.0
 31
0.0
  0
DIMENSION
  5
2D2
  8
1
  2
*D5
 10
10.0
 20
13.06803747083233
 30
0.0
 11
5.0
 21
15.85504292785825
 31
0.0
 70
     0
 13
0.0
 23
0.0
 33
0.0
 14
10.0
 24
0.0
 34
0.0
  0
POLYLINE
  5
2D3
  8
5
 66
     1
 10
0.0
 20
0.0
 30
0.0
  0
VERTEX
  5
400
  8
5
 10
15.0
 20
11.578948339931911
 30
0.0
  0
VERTEX
  5
401
  8
5
 10
15.0
 20
-14.99999999999994
 30
0.0
  0
VERTEX
  5
402
  8
5
 10
20.590166435468511
 20
-14.99999999999994
 30
0.0
  0
SEQEND
  5
403
  8
5
  0
TEXT
  5
2D4
  8
1
 10
-30.254903261099571
 20
-7.1546889870247687
 30
0.0
 40
2.4999999499999999
  1
Hebgo 140/610
  0
POLYLINE
  5
2D5
  8
4
 66
     1
 10
0.0
 20
0.0
 30
0.0
 70
     1
  0
VERTEX
  5
404
  8
4
 10
10.0
 20
-29.99999999999994
 30
0.0
  0
VERTEX
  5
405
  8
4
 10
8.0
 20
-29.99999999999994
 30
0.0
  0
VERTEX
  5
406
  8
4
 10
8.0
 20
-19.49999999999994
 30
0.0
  0
VERTEX
  5
407
  8
4
 10
0.0
 20
-19.49999999999994
 30
0.0
  0
VERTEX
  5
408
  8
4
 10
0.0
 20
0.0
 30
0.0
  0
VERTEX
  5
409
  8
4
 10
10.0
 20
0.0
 30
0.0
  0
SEQEND
  5
40A
  8
4
  0
POLYLINE
  5
2D6
  8
6
 66
     1
 10
0.0
 20
0.0
 30
0.0
 70
     1
  0
VERTEX
  5
40B
  8
6
 10
10.0
 20
-29.49999999999994
 30
0.0
  0
VERTEX
  5
40C
  8
6
 10
10.0
 20
-15.49999999999994
 30
0.0
 42
0.4142135623730951
  0
VERTEX
  5
40D
  8
6
 10
9.0
 20
-14.49999999999994
 30
0.0
  0
VERTEX
  5
40E
  8
6
 10
8.2999999999999545
 20
-14.49999999999994
 30
0.0
 42
0.4142135623730951
  0
VERTEX
  5
40F
  8
6
 10
8.0
 20
-14.80000000000012
 30
0.0
  0
VERTEX
  5
410
  8
6
 10
8.0
 20
-17.200000000000209
 30
0.0
 42
-0.4142135623730951
  0
VERTEX
  5
411
  8
6
 10
7.7000000000000446
 20
-17.49999999999994
 30
0.0
  0
VERTEX
  5
412
  8
6
 10
3.5
 20
-17.49999999999994
 30
0.0
 42
-0.4142135623730951
  0
VERTEX
  5
413
  8
6
 10
2.0
 20
-15.99999999999994
 30
0.0
  0
VERTEX
  5
414
  8
6
 10
2.0
 20
-4.0
 30
0.0
 42
-0.4142135623730951
  0
VERTEX
  5
415
  8
6
 10
3.5
 20
-2.5
 30
0.0
  0
VERTEX
  5
416
  8
6
 10
7.7000000000000446
 20
-2.5
 30
0.0
 42
-0.4142135623730951
  0
VERTEX
  5
417
  8
6
 10
8.0
 20
-2.800000000000181
 30
0.0
  0
VERTEX
  5
418
  8
6
 10
8.0
 20
-5.200000000000272
 30
0.0
 42
0.4142135623730951
  0
VERTEX
  5
419
  8
6
 10
8.2999999999999545
 20
-5.5
 30
0.0
  0
VERTEX
  5
41A
  8
6
 10
9.0
 20
-5.5
 30
0.0
 42
0.4142135623730951
  0
VERTEX
  5
41B
  8
6
 10
10.0
 20
-4.5
 30
0.0
  0
VERTEX
  5
41C
  8
6
 10
10.0
 20
-2.0
 30
0.0
 42
0.4142135623730951
  0
VERTEX
  5
41D
  8
6
 10
8.0
 20
0.0
 30
0.0
  0
VERTEX
  5
41E
  8
6
 10
0.2999999999999545
 20
0.0
 30
0.0
 42
0.4142135623730951
  0
VERTEX
  5
41F
  8
6
 10
0.0
 20
-0.3000000000001819
 30
0.0
  0
VERTEX
  5
420
  8
6
 10
0.0
 20
-19.200000000000209
 30
0.0
 42
0.4142135623730951
  0
VERTEX
  5
421
  8
6
 10
0.2999999999999545
 20
-19.49999999999994
 30
0.0
  0
VERTEX
  5
422
  8
6
 10
7.7000000000000446
 20
-19.49999999999994
 30
0.0
 42
-0.4142135623730951
  0
VERTEX
  5
423
  8
6
 10
8.0
 20
-19.800000000000122
 30
0.0
  0
VERTEX
  5
424
  8
6
 10
8.0
 20
-29.49999999999994
 30
0.0
 42
0.4142135623730951
  0
VERTEX
  5
425
  8
6
 10
8.5
 20
-29.99999999999994
 30
0.0
  0
VERTEX
  5
426
  8
6
 10
9.5
 20
-29.99999999999994
 30
0.0
 42
0.4142135623730951
  0
SEQEND
  5
427
  8
6
  0
POLYLINE
  5
2D7
  8
5
 66
     1
 10
0.0
 20
0.0
 30
0.0
  0
VERTEX
  5
428
  8
5
 10
-10.235732212045599
 20
0.0
 30
0.0
  0
VERTEX
  5
429
  8
5
 10
0.0
 20
0.0
 30
0.0
  0
VERTEX
  5
42A
  8
5
 10
0.0
 20
-29.99999999999994
 30
0.0
  0
VERTEX
  5
42B
  8
5
 10
20.392567364901421
 20
-29.99999999999994
 30
0.0
  0
SEQEND
  5
42C
  8
5
  0
DIMENSION
  5
2D8
  8
1
  2
*D6
 10
25.967447738917372
 20
-29.99999999999994
 30
0.0
 11
23.179248557471269
 21
-14.99999999999997
 31
0.0
 70
     0
 13
10.0
 23
0.0
 33
0.0
 14
10.0
 24
-29.99999999999994
 34
0.0
 50
90.0
  0
VIEWPORT
  5
22
 67
     1
  8
0
 10
210.0
 20
170.2366863905325
 30
0.0
 40
420.0
 41
340.47337278106511
 68
     1
 69
     1
1001
ACAD
1000
MVIEW
1002
{
1070
    16
1010
0.0
1020
0.0
1030
0.0
1010
0.0
1020
0.0
1030
1.0
1040
0.0
1040
340.47337278106511
1040
210.0
1040
170.2366863905325
1040
50.0
1040
0.0
1040
0.0
1070
     0
1070
   100
1070
     1
1070
     1
1070
     0
1070
     0
1070
     0
1070
     0
1040
0.0
1040
0.0
1040
0.0
1040
5.0
1040
5.0
1040
10.0
1040
10.0
1070
     0
1002
{
1002
}
1002
}
  0
ENDSEC
  0
EOF
