  0
SECTION
  2
HEADER
  9
$ACADVER
  1
AC1009
  9
$INSBASE
 10
0.0
 20
0.0
 30
0.0
  9
$EXTMIN
 10
-28.907775039444338
 20
-12.95471105602882
 30
-0.0000000000112498
  9
$EXTMAX
 10
17.21191460640625
 20
16.799927301239219
 30
0.0000000000002956
  9
$LIMMIN
 10
-150.0
 20
-150.0
  9
$LIMMAX
 10
150.0
 20
150.0
  9
$ORTHOMODE
 70
     0
  9
$REGENMODE
 70
     1
  9
$FILLMODE
 70
     1
  9
$QTEXTMODE
 70
     0
  9
$MIRRTEXT
 70
     0
  9
$DRAGMODE
 70
     2
  9
$LTSCALE
 40
2.0
  9
$OSMODE
 70
   111
  9
$ATTMODE
 70
     1
  9
$TEXTSIZE
 40
3.5
  9
$TRACEWID
 40
1.0
  9
$TEXTSTYLE
  7
BESCHLAG
  9
$CLAYER
  8
0
  9
$CELTYPE
  6
BYLAYER
  9
$CECOLOR
 62
   256
  9
$DIMSCALE
 40
1.0
  9
$DIMASZ
 40
2.0
  9
$DIMEXO
 40
2.0
  9
$DIMDLI
 40
0.0
  9
$DIMRND
 40
0.0
  9
$DIMDLE
 40
1.0
  9
$DIMEXE
 40
1.0
  9
$DIMTP
 40
0.0
  9
$DIMTM
 40
0.0
  9
$DIMTXT
 40
3.5
  9
$DIMCEN
 40
0.0
  9
$DIMTSZ
 40
0.0
  9
$DIMTOL
 70
     0
  9
$DIMLIM
 70
     0
  9
$DIMTIH
 70
     0
  9
$DIMTOH
 70
     0
  9
$DIMSE1
 70
     0
  9
$DIMSE2
 70
     0
  9
$DIMTAD
 70
     1
  9
$DIMZIN
 70
     8
  9
$DIMBLK
  1

  9
$DIMASO
 70
     1
  9
$DIMSHO
 70
     1
  9
$DIMPOST
  1

  9
$DIMAPOST
  1

  9
$DIMALT
 70
     0
  9
$DIMALTD
 70
     2
  9
$DIMALTF
 40
0.039370078740157
  9
$DIMLFAC
 40
1.0
  9
$DIMTOFL
 70
     1
  9
$DIMTVP
 40
0.0
  9
$DIMTIX
 70
     1
  9
$DIMSOXD
 70
     0
  9
$DIMSAH
 70
     1
  9
$DIMBLK1
  1
OBLIQUE
  9
$DIMBLK2
  1
OBLIQUE
  9
$DIMSTYLE
  2
OPO-SSTRICH
  9
$DIMCLRD
 70
   256
  9
$DIMCLRE
 70
   256
  9
$DIMCLRT
 70
   256
  9
$DIMTFAC
 40
0.7114285714285716
  9
$DIMGAP
 40
1.0
  9
$LUNITS
 70
     2
  9
$LUPREC
 70
     1
  9
$SKETCHINC
 40
1.0
  9
$FILLETRAD
 40
0.0
  9
$AUNITS
 70
     0
  9
$AUPREC
 70
     1
  9
$MENU
  1
D:\ACL_CGWG\CGTAB13
  9
$ELEVATION
 40
0.0
  9
$PELEVATION
 40
0.0
  9
$THICKNESS
 40
0.0
  9
$LIMCHECK
 70
     0
  9
$BLIPMODE
 70
     0
  9
$CHAMFERA
 40
1.0
  9
$CHAMFERB
 40
1.0
  9
$SKPOLY
 70
     0
  9
$TDCREATE
 40
2451739.8611373259
  9
$TDUPDATE
 40
2452086.7458603121
  9
$TDINDWG
 40
0.0008482639
  9
$TDUSRTIMER
 40
0.0008482639
  9
$USRTIMER
 70
     1
  9
$ANGBASE
 50
0.0
  9
$ANGDIR
 70
     0
  9
$PDMODE
 70
    35
  9
$PDSIZE
 40
5.0
  9
$PLINEWID
 40
0.0
  9
$COORDS
 70
     1
  9
$SPLFRAME
 70
     0
  9
$SPLINETYPE
 70
     6
  9
$SPLINESEGS
 70
     8
  9
$ATTDIA
 70
     1
  9
$ATTREQ
 70
     1
  9
$HANDLING
 70
-16383
  9
$HANDSEED
  5
436
  9
$SURFTAB1
 70
    12
  9
$SURFTAB2
 70
    12
  9
$SURFTYPE
 70
     6
  9
$SURFU
 70
    12
  9
$SURFV
 70
    12
  9
$UCSNAME
  2

  9
$UCSORG
 10
0.0
 20
0.0
 30
0.0
  9
$UCSXDIR
 10
1.0
 20
0.0
 30
0.0
  9
$UCSYDIR
 10
0.0
 20
1.0
 30
0.0
  9
$PUCSNAME
  2

  9
$PUCSORG
 10
0.0
 20
0.0
 30
0.0
  9
$PUCSXDIR
 10
1.0
 20
0.0
 30
0.0
  9
$PUCSYDIR
 10
0.0
 20
1.0
 30
0.0
  9
$USERI1
 70
     0
  9
$USERI2
 70
     0
  9
$USERI3
 70
     0
  9
$USERI4
 70
     0
  9
$USERI5
 70
     0
  9
$USERR1
 40
0.0
  9
$USERR2
 40
0.0
  9
$USERR3
 40
0.0
  9
$USERR4
 40
0.0
  9
$USERR5
 40
0.0
  9
$WORLDVIEW
 70
     1
  9
$SHADEDGE
 70
     3
  9
$SHADEDIF
 70
    70
  9
$TILEMODE
 70
     1
  9
$MAXACTVP
 70
    48
  9
$PLIMCHECK
 70
     0
  9
$PEXTMIN
 10
1.0000000000000000E+020
 20
1.0000000000000000E+020
 30
1.0000000000000000E+020
  9
$PEXTMAX
 10
-1.0000000000000000E+020
 20
-1.0000000000000000E+020
 30
-1.0000000000000000E+020
  9
$PLIMMIN
 10
0.0
 20
0.0
  9
$PLIMMAX
 10
420.0
 20
297.0
  9
$UNITMODE
 70
     0
  9
$VISRETAIN
 70
     1
  9
$PLINEGEN
 70
     0
  9
$PSLTSCALE
 70
     1
  0
ENDSEC
  0
SECTION
  2
TABLES
  0
TABLE
  2
VPORT
 70
     2
  0
VPORT
  2
*ACTIVE
 70
     0
 10
0.0
 20
0.0
 11
1.0
 21
1.0
 12
-5.847930216519047
 22
1.922608122605197
 13
0.0
 23
0.0
 14
0.5
 24
0.5
 15
10.0
 25
10.0
 16
0.0
 26
0.0
 36
1.0
 17
0.0
 27
0.0
 37
0.0
 40
29.996218641630168
 41
1.6070460704607039
 42
50.0
 43
0.0
 44
0.0
 50
0.0
 51
0.0
 71
     0
 72
   800
 73
     1
 74
     1
 75
     0
 76
     0
 77
     0
 78
     0
  0
ENDTAB
  0
TABLE
  2
LTYPE
 70
     2
  0
LTYPE
  2
CONTINUOUS
 70
     0
  3
_______________________________________________
 72
    65
 73
     2
 40
1.0
 49
1.0
 49
0.0
  0
LTYPE
  2
STRICHPUNKT
 70
     0
  3
__ . __ . __ . __ . __ . __ . __ . __ . __ . __
 72
    65
 73
     4
 40
1.0
 49
0.5
 49
-0.25
 49
0.0
 49
-0.25
  0
ENDTAB
  0
TABLE
  2
LAYER
 70
     7
  0
LAYER
  2
0
 70
     0
 62
    30
  6
CONTINUOUS
  0
LAYER
  2
1
 70
     0
 62
     2
  6
CONTINUOUS
  0
LAYER
  2
2
 70
     0
 62
     9
  6
CONTINUOUS
  0
LAYER
  2
4
 70
     1
 62
     4
  6
CONTINUOUS
  0
LAYER
  2
5
 70
     0
 62
     1
  6
CONTINUOUS
  0
LAYER
  2
6
 70
     0
 62
     3
  6
CONTINUOUS
  0
LAYER
  2
DEFPOINTS
 70
     0
 62
     7
  6
CONTINUOUS
  0
ENDTAB
  0
TABLE
  2
STYLE
 70
     2
  0
STYLE
  2
STANDARD
 70
     0
 40
0.0
 41
1.0
 50
0.0
 71
     0
 42
2.5
  3
txt
  4

  0
STYLE
  2
BESCHLAG
 70
     0
 40
0.0
 41
1.0
 50
0.0
 71
     0
 42
3.5
  3
txt
  4

  0
ENDTAB
  0
TABLE
  2
VIEW
 70
     0
  0
ENDTAB
  0
TABLE
  2
UCS
 70
     0
  0
ENDTAB
  0
TABLE
  2
APPID
 70
     1
  0
APPID
  2
ACAD
 70
     0
  0
ENDTAB
  0
TABLE
  2
DIMSTYLE
 70
     1
  0
DIMSTYLE
  2
OPO-SSTRICH
 70
     0
  3

  4

  5

  6
OBLIQUE
  7
OBLIQUE
 40
1.0
 41
2.0
 42
2.0
 43
0.0
 44
1.0
 45
0.0
 46
1.0
 47
0.0
 48
0.0
140
3.5
141
0.0
142
0.0
143
0.039370078740157
144
1.0
145
0.0
146
0.7114285714285716
147
1.0
 71
     0
 72
     0
 73
     0
 74
     0
 75
     0
 76
     0
 77
     1
 78
     8
170
     0
171
     2
172
     1
173
     1
174
     1
175
     0
176
   256
177
   256
178
   256
  0
ENDTAB
  0
ENDSEC
  0
SECTION
  2
BLOCKS
  0
BLOCK
  8
0
  2
$MODEL_SPACE
 70
     0
 10
0.0
 20
0.0
 30
0.0
  3
$MODEL_SPACE
  1

  0
ENDBLK
  5
1C
  8
0
  0
BLOCK
 67
     1
  8
0
  2
$PAPER_SPACE
 70
     0
 10
0.0
 20
0.0
 30
0.0
  3
$PAPER_SPACE
  1

  0
ENDBLK
  5
19
 67
     1
  8
0
  0
BLOCK
  8
0
  2
_OBLIQUE
 70
     0
 10
0.0
 20
0.0
 30
0.0
  3
_OBLIQUE
  1

  0
LINE
  5
204
  8
0
 62
     0
 10
-0.5
 20
-0.5
 30
0.0
 11
0.5
 21
0.5
 31
0.0
  0
ENDBLK
  5
206
  8
0
  0
BLOCK
  8
0
  2
NULLPUNKT
 70
     0
 10
0.0
 20
0.0
 30
0.0
  3
NULLPUNKT
  1

  0
SOLID
  5
254
  8
5
 10
0.0
 20
0.0
 30
0.0
 11
2.0
 21
0.0
 31
0.0
 12
0.0
 22
-2.0
 32
0.0
 13
0.0
 23
-2.0
 33
0.0
  0
SOLID
  5
255
  8
5
 10
0.0
 20
0.0
 30
0.0
 11
-2.0
 21
0.0
 31
0.0
 12
0.0
 22
2.0
 32
0.0
 13
0.0
 23
2.0
 33
0.0
  0
POLYLINE
  5
256
  8
5
 66
     1
 10
0.0
 20
0.0
 30
0.0
  0
VERTEX
  5
3EA
  8
5
 10
0.0
 20
2.0
 30
0.0
  0
VERTEX
  5
3EB
  8
5
 10
0.0
 20
-2.0
 30
0.0
  0
SEQEND
  5
3EC
  8
5
  0
POLYLINE
  5
257
  8
5
 66
     1
 10
0.0
 20
0.0
 30
0.0
  0
VERTEX
  5
3ED
  8
5
 10
-2.0
 20
0.0
 30
0.0
  0
VERTEX
  5
3EE
  8
5
 10
2.0
 20
0.0
 30
0.0
  0
SEQEND
  5
3EF
  8
5
  0
CIRCLE
  5
258
  8
5
 10
0.0
 20
0.0
 30
0.0
 40
2.0
  0
ENDBLK
  5
25A
  8
0
  0
BLOCK
  8
0
  2
*X2
 70
     1
 10
0.0
 20
0.0
 30
0.0
  3
*X2
  1

  0
LINE
  5
29E
  8
0
 62
     0
 10
346.10307305157511
 20
-632.08022127151082
 30
0.0
 11
347.10307305157511
 21
-631.08022127151071
 31
0.0
  0
LINE
  5
29F
  8
0
 62
     0
 10
346.10307305157511
 20
-630.66600770913772
 30
0.0
 11
347.10307305157511
 21
-629.6660077091376
 31
0.0
  0
LINE
  5
2A0
  8
0
 62
     0
 10
347.31718150161493
 20
-629.45189925909779
 30
0.0
 11
348.02429647989118
 21
-628.7447842808217
 31
0.0
  0
LINE
  5
2A1
  8
0
 62
     0
 10
346.10307305157511
 20
-629.25179414676461
 30
0.0
 11
347.18090125323403
 21
-628.17396594510569
 31
0.0
  0
LINE
  5
2A2
  8
0
 62
     0
 10
346.10307305157511
 20
-633.49443483388393
 30
0.0
 11
347.17247572490658
 21
-632.42503216055241
 31
0.0
  0
LINE
  5
2A3
  8
0
 62
     0
 10
346.85301347928521
 20
-634.15870796854676
 30
0.0
 11
348.5381631737859
 21
-632.47355827404613
 31
0.0
  0
LINE
  5
2A4
  8
0
 62
     0
 10
348.29579701261542
 20
-634.13013799758983
 30
0.0
 11
349.95237673615901
 21
-632.47355827404613
 31
0.0
  0
LINE
  5
2A5
  8
0
 62
     0
 10
349.73858054594552
 20
-634.10156802663278
 30
0.0
 11
350.65307305157501
 21
-633.18707552100307
 31
0.0
  0
ENDBLK
  5
2A7
  8
0
  0
BLOCK
  8
0
  2
*X3
 70
     1
 10
0.0
 20
0.0
 30
0.0
  3
*X3
  1

  0
LINE
  5
2A9
  8
0
 62
     0
 10
354.00923098565153
 20
-634.07355827404604
 30
0.0
 11
355.60923098565149
 21
-632.47355827404613
 31
0.0
  0
LINE
  5
2AA
  8
0
 62
     0
 10
358.10307305157511
 20
-629.97971620812245
 30
0.0
 11
359.09353209485113
 21
-628.98925716484655
 31
0.0
  0
LINE
  5
2AB
  8
0
 62
     0
 10
353.5530730515751
 20
-633.11550264574942
 30
0.0
 11
354.19501742327839
 21
-632.47355827404613
 31
0.0
  0
LINE
  5
2AC
  8
0
 62
     0
 10
357.10307305157511
 20
-629.56550264574935
 30
0.0
 11
358.4480586665166
 21
-628.22051703080786
 31
0.0
  0
LINE
  5
2AD
  8
0
 62
     0
 10
355.39042354811011
 20
-634.10657927396051
 30
0.0
 11
357.0234445480246
 21
-632.47355827404613
 31
0.0
  0
LINE
  5
2AE
  8
0
 62
     0
 10
358.10307305157511
 20
-631.39392977049567
 30
0.0
 11
359.103073051575
 21
-630.39392977049545
 31
0.0
  0
LINE
  5
2AF
  8
0
 62
     0
 10
356.77055967524518
 20
-634.14065670919854
 30
0.0
 11
359.103073051575
 21
-631.80814333286855
 31
0.0
  0
LINE
  5
2B0
  8
0
 62
     0
 10
358.10307305157511
 20
-634.22235689524177
 30
0.0
 11
359.103073051575
 21
-633.22235689524166
 31
0.0
  0
LINE
  5
2B1
  8
0
 62
     0
 10
358.10307305157511
 20
-635.63657045761477
 30
0.0
 11
359.103073051575
 21
-634.63657045761488
 31
0.0
  0
LINE
  5
2B2
  8
0
 62
     0
 10
358.11428254683688
 20
-637.03957452472605
 30
0.0
 11
359.103073051575
 21
-636.05078401998787
 31
0.0
  0
ENDBLK
  5
2B4
  8
0
  0
BLOCK
  8
0
  2
*D4
 70
     1
 10
0.0
 20
0.0
 30
0.0
  3
*D4
  1

  0
LINE
  5
309
  8
1
 10
-12.0
 20
-1.951201378804398
 30
0.0
 11
-12.0
 21
-12.93193954284447
 31
0.0
  0
LINE
  5
30A
  8
1
 10
-0.0000000000000001
 20
-1.951201378804398
 30
0.0
 11
-0.0000000000000008
 21
-12.93193954284447
 31
0.0
  0
LINE
  5
30B
  8
1
 10
-13.0
 20
-11.93193954284447
 30
0.0
 11
0.9999999999999992
 21
-11.93193954284447
 31
0.0
  0
INSERT
  5
30C
  8
1
  2
_OBLIQUE
 10
-12.0
 20
-11.93193954284447
 30
0.0
 41
2.0
 42
2.0
 43
2.0
 50
180.0
  0
INSERT
  5
30D
  8
1
  2
_OBLIQUE
 10
-0.0000000000000007
 20
-11.93193954284447
 30
0.0
 41
2.0
 42
2.0
 43
2.0
  0
TEXT
  5
30E
  8
0
 10
-8.8565825375170526
 20
-10.924777196323319
 30
0.0
 40
3.5
  1
12
  7
BESCHLAG
  0
POINT
  5
30F
  8
DEFPOINTS
 62
     0
 10
-12.0
 20
0.0487986211956013
 30
0.0
  0
POINT
  5
310
  8
DEFPOINTS
 62
     0
 10
0.0
 20
0.0487986211956013
 30
0.0
  0
POINT
  5
311
  8
DEFPOINTS
 62
     0
 10
-0.0000000000000007
 20
-11.93193954284447
 30
0.0
  0
ENDBLK
  5
2E4
  8
0
  0
BLOCK
  8
0
  2
*D5
 70
     1
 10
0.0
 20
0.0
 30
0.0
  3
*D5
  1

  0
LINE
  5
312
  8
1
 10
1.9999999999999989
 20
-2.9512013788043991
 30
0.0
 11
12.96808335967034
 21
-2.9512013788044018
 31
0.0
  0
LINE
  5
313
  8
1
 10
3.0
 20
6.0487986211956004
 30
0.0
 11
12.96808335967034
 21
6.0487986211955969
 31
0.0
  0
LINE
  5
314
  8
1
 10
11.96808335967034
 20
-3.9512013788044018
 30
0.0
 11
11.96808335967034
 21
7.0487986211955969
 31
0.0
  0
INSERT
  5
315
  8
1
  2
_OBLIQUE
 10
11.96808335967034
 20
-2.9512013788044018
 30
0.0
 41
2.0
 42
2.0
 43
2.0
 50
270.0
  0
INSERT
  5
316
  8
1
  2
_OBLIQUE
 10
11.96808335967034
 20
6.0487986211955969
 30
0.0
 41
2.0
 42
2.0
 43
2.0
 50
90.0
  0
TEXT
  5
317
  8
0
 10
10.90123479213964
 20
0.1951151286990104
 30
0.0
 40
3.5
  1
9
 50
90.0
  7
BESCHLAG
  0
POINT
  5
318
  8
DEFPOINTS
 62
     0
 10
0.0
 20
-2.9512013788043978
 30
0.0
  0
POINT
  5
319
  8
DEFPOINTS
 62
     0
 10
1.0
 20
6.0487986211956013
 30
0.0
  0
POINT
  5
31A
  8
DEFPOINTS
 62
     0
 10
11.96808335967034
 20
6.0487986211955969
 30
0.0
  0
ENDBLK
  5
2F0
  8
0
  0
BLOCK
  8
0
  2
*D6
 70
     1
 10
0.0
 20
0.0
 30
0.0
  3
*D6
  1

  0
LINE
  5
31B
  8
1
 10
3.0
 20
6.0487986211956004
 30
0.0
 11
12.96808335967034
 21
6.0487986211955969
 31
0.0
  0
LINE
  5
31C
  8
1
 10
3.0
 20
11.0487986211956
 30
0.0
 11
12.96808335967034
 21
11.048798621195591
 31
0.0
  0
LINE
  5
31D
  8
1
 10
11.96808335967034
 20
5.0487986211955969
 30
0.0
 11
11.96808335967034
 21
12.048798621195591
 31
0.0
  0
INSERT
  5
31E
  8
1
  2
_OBLIQUE
 10
11.96808335967034
 20
6.0487986211955969
 30
0.0
 41
2.0
 42
2.0
 43
2.0
 50
270.0
  0
INSERT
  5
31F
  8
1
  2
_OBLIQUE
 10
11.96808335967034
 20
11.048798621195591
 30
0.0
 41
2.0
 42
2.0
 43
2.0
 50
90.0
  0
TEXT
  5
320
  8
0
 10
10.90839713866079
 20
7.1855653333374843
 30
0.0
 40
3.5
  1
5
 50
90.0
  7
BESCHLAG
  0
POINT
  5
321
  8
DEFPOINTS
 62
     0
 10
1.0
 20
6.0487986211956013
 30
0.0
  0
POINT
  5
322
  8
DEFPOINTS
 62
     0
 10
1.0
 20
11.0487986211956
 30
0.0
  0
POINT
  5
323
  8
DEFPOINTS
 62
     0
 10
11.96808335967034
 20
11.048798621195591
 30
0.0
  0
ENDBLK
  5
2FC
  8
0
  0
BLOCK
  8
0
  2
*D7
 70
     1
 10
0.0
 20
0.0
 30
0.0
  3
*D7
  1

  0
LINE
  5
324
  8
1
 10
-14.0
 20
0.0487986211956019
 30
0.0
 11
-24.458431250464859
 21
0.0487986211956048
 31
0.0
  0
LINE
  5
325
  8
1
 10
-14.0
 20
11.0487986211956
 30
0.0
 11
-24.458431250464852
 21
11.0487986211956
 31
0.0
  0
LINE
  5
326
  8
1
 10
-23.458431250464852
 20
-0.9512013788043955
 30
0.0
 11
-23.458431250464852
 21
12.0487986211956
 31
0.0
  0
INSERT
  5
327
  8
1
  2
_OBLIQUE
 10
-23.458431250464852
 20
0.0487986211956046
 30
0.0
 41
2.0
 42
2.0
 43
2.0
 50
270.0
  0
INSERT
  5
328
  8
1
  2
_OBLIQUE
 10
-23.458431250464852
 20
11.0487986211956
 30
0.0
 41
2.0
 42
2.0
 43
2.0
 50
90.0
  0
TEXT
  5
329
  8
0
 10
-24.465593596986
 20
3.0121342282897339
 30
0.0
 40
3.5
  1
11
 50
90.0
  7
BESCHLAG
  0
POINT
  5
32A
  8
DEFPOINTS
 62
     0
 10
-12.0
 20
0.0487986211956013
 30
0.0
  0
POINT
  5
32B
  8
DEFPOINTS
 62
     0
 10
-12.0
 20
11.0487986211956
 30
0.0
  0
POINT
  5
32C
  8
DEFPOINTS
 62
     0
 10
-23.458431250464852
 20
11.0487986211956
 30
0.0
  0
ENDBLK
  5
308
  8
0
  0
ENDSEC
  0
SECTION
  2
ENTITIES
  0
INSERT
  5
25B
  8
5
  2
NULLPUNKT
 10
0.0
 20
0.0
 30
0.0
  0
INSERT
  5
2CA
  8
2
  2
*X3
 10
-358.10307305157511
 20
634.22235689524177
 30
0.0
1001
ACAD
1000
HATCH
1002
{
1070
    16
1000
_U,I
1040
1.0
1040
0.7853981633974483
1070
     0
1002
}
  0
INSERT
  5
2CB
  8
2
  2
*X2
 10
-358.10307305157511
 20
634.22235689524177
 30
0.0
1001
ACAD
1000
HATCH
1002
{
1070
    16
1000
_U,I
1040
1.0
1040
0.7853981633974483
1070
     0
1002
}
  0
LINE
  5
2CC
  8
6
 10
-4.5499999999999536
 20
1.7487986211956461
 30
0.0
 11
-4.5499999999999536
 21
0.1487986211957377
 31
0.0
  0
LINE
  5
2CD
  8
6
 10
-7.4500000000000446
 20
1.7487986211956461
 30
0.0
 11
-7.4500000000000446
 21
0.1388976310968246
 31
0.0
  0
TEXT
  5
2CE
  8
1
 10
-6.6796892483757802
 20
13.618460321628159
 30
0.0
 40
2.5
  1
Hebgo 144/620
  0
POLYLINE
  5
2CF
  8
5
 66
     1
 10
0.0
 20
0.0
 30
0.0
  0
VERTEX
  5
3F0
  8
5
 10
-8.0
 20
16.048798621195601
 30
0.0
  0
VERTEX
  5
3F1
  8
5
 10
-8.0
 20
11.0487986211956
 30
0.0
  0
VERTEX
  5
3F2
  8
5
 10
5.0
 20
11.0487986211956
 30
0.0
  0
SEQEND
  5
3F3
  8
5
  0
LINE
  5
2D0
  8
6
  6
STRICHPUNKT
 10
-6.0
 20
1.9958253740655889
 30
0.0
 11
-6.0
 21
-4.8013229733984408
 31
0.0
  0
DIMENSION
  5
2D1
  8
1
  2
*D4
 10
-0.0000000000000007
 20
-11.93193954284447
 30
0.0
 11
-6.0
 21
-9.1747771963233298
 31
0.0
 70
     0
 13
-12.0
 23
0.0487986211956013
 33
0.0
 14
0.0
 24
0.0487986211956013
 34
0.0
  0
POLYLINE
  5
2D2
  8
5
 66
     1
 10
0.0
 20
0.0
 30
0.0
  0
VERTEX
  5
3F4
  8
5
 10
-12.0
 20
16.048798621195601
 30
0.0
  0
VERTEX
  5
3F5
  8
5
 10
-12.0
 20
0.0487986211956013
 30
0.0
  0
VERTEX
  5
3F6
  8
5
 10
0.0
 20
0.0487986211956013
 30
0.0
  0
VERTEX
  5
3F7
  8
5
 10
0.0
 20
-4.9512013788043978
 30
0.0
  0
SEQEND
  5
3F8
  8
5
  0
POLYLINE
  5
2D3
  8
4
 66
     1
 10
0.0
 20
0.0
 30
0.0
 70
     1
  0
VERTEX
  5
3F9
  8
4
 10
-12.0
 20
6.0487986211956013
 30
0.0
  0
VERTEX
  5
3FA
  8
4
 10
-12.0
 20
0.0487986211956013
 30
0.0
  0
VERTEX
  5
3FB
  8
4
 10
0.0
 20
0.0487986211956013
 30
0.0
  0
VERTEX
  5
3FC
  8
4
 10
0.0
 20
-2.9512013788043978
 30
0.0
  0
VERTEX
  5
3FD
  8
4
 10
1.0
 20
-2.9512013788043978
 30
0.0
  0
VERTEX
  5
3FE
  8
4
 10
1.0
 20
6.0487986211956013
 30
0.0
  0
SEQEND
  5
3FF
  8
4
  0
POLYLINE
  5
2D4
  8
6
 66
     1
 10
0.0
 20
0.0
 30
0.0
 70
     1
  0
VERTEX
  5
400
  8
6
 10
0.0
 20
5.0487986211956013
 30
0.0
  0
VERTEX
  5
401
  8
6
 10
-0.6414752021792083
 20
4.2148808583629034
 30
0.0
 42
-0.7161369887166513
  0
VERTEX
  5
402
  8
6
 10
-1.0
 20
4.3368230105327248
 30
0.0
  0
VERTEX
  5
403
  8
6
 10
-1.0
 20
5.0987986211955549
 30
0.0
 42
-0.4142135623730951
  0
VERTEX
  5
404
  8
6
 10
-0.0500000000001819
 20
6.0487986211956013
 30
0.0
  0
VERTEX
  5
405
  8
6
 10
0.0499999999997272
 20
6.0487986211956013
 30
0.0
 42
-0.4142135623730951
  0
VERTEX
  5
406
  8
6
 10
1.0
 20
5.0987986211955549
 30
0.0
  0
VERTEX
  5
407
  8
6
 10
1.0
 20
0.0487986211956013
 30
0.0
  0
VERTEX
  5
408
  8
6
 10
1.0
 20
-2.1612013788044351
 30
0.0
 42
-0.4142135623730951
  0
VERTEX
  5
409
  8
6
 10
0.2100000000000364
 20
-2.9512013788043978
 30
0.0
  0
VERTEX
  5
40A
  8
6
 10
0.1999999999998181
 20
-2.9512013788043978
 30
0.0
 42
-0.4142135623730951
  0
VERTEX
  5
40B
  8
6
 10
0.0
 20
-2.7512013788043528
 30
0.0
  0
VERTEX
  5
40C
  8
6
 10
0.0
 20
0.0487986211956013
 30
0.0
  0
VERTEX
  5
40D
  8
6
 10
-4.050000000000181
 20
0.1487986211957377
 30
0.0
  0
VERTEX
  5
40E
  8
6
 10
-6.950000000000272
 20
0.1487986211957377
 30
0.0
  0
VERTEX
  5
40F
  8
6
 10
-12.0
 20
0.0487986211956013
 30
0.0
  0
VERTEX
  5
410
  8
6
 10
-12.0
 20
5.8487986211955549
 30
0.0
 42
-0.4142135623730951
  0
VERTEX
  5
411
  8
6
 10
-11.80000000000018
 20
6.0487986211956013
 30
0.0
  0
VERTEX
  5
412
  8
6
 10
-10.950000000000269
 20
6.0487986211956013
 30
0.0
 42
-0.4142135623730951
  0
VERTEX
  5
413
  8
6
 10
-10.0
 20
5.0987986211955549
 30
0.0
  0
VERTEX
  5
414
  8
6
 10
-10.0
 20
4.3368230105327248
 30
0.0
 42
-0.7161369887166513
  0
VERTEX
  5
415
  8
6
 10
-10.35852479782079
 20
4.2148808583629034
 30
0.0
  0
VERTEX
  5
416
  8
6
 10
-11.0
 20
5.0487986211956013
 30
0.0
  0
VERTEX
  5
417
  8
6
 10
-11.0
 20
1.948798621195692
 30
0.0
 42
0.4142135623730951
  0
VERTEX
  5
418
  8
6
 10
-10.80000000000018
 20
1.7487986211956461
 30
0.0
  0
VERTEX
  5
419
  8
6
 10
-0.2000000000002728
 20
1.7487986211956461
 30
0.0
 42
0.4142135623730951
  0
VERTEX
  5
41A
  8
6
 10
0.0
 20
1.948798621195692
 30
0.0
  0
SEQEND
  5
41B
  8
6
  0
POLYLINE
  5
2D5
  8
6
 66
     1
 10
0.0
 20
0.0
 30
0.0
 70
     1
  0
VERTEX
  5
41C
  8
6
 10
-7.708515826385792
 20
1.802573046031966
 30
0.0
 42
-0.6415838065530063
  0
VERTEX
  5
41D
  8
6
 10
-2.3329436853005059
 20
2.1851493505907911
 30
0.0
 42
0.5157822426877657
  0
VERTEX
  5
41E
  8
6
 10
-1.022586945328384
 20
2.0986440855308501
 30
0.0
  0
VERTEX
  5
41F
  8
6
 10
-0.2255894226591408
 20
3.4653006704811551
 30
0.0
  0
VERTEX
  5
420
  8
6
 10
-0.2255894226591408
 20
4.134004315079209
 30
0.0
  0
VERTEX
  5
421
  8
6
 10
-1.059732413674737
 20
4.134004315079209
 30
0.0
  0
VERTEX
  5
422
  8
6
 10
-1.059732413674737
 20
5.5716373865536752
 30
0.0
 42
0.2542712822039416
  0
VERTEX
  5
423
  8
6
 10
-0.1120543744013958
 20
7.1267473958084793
 30
0.0
 42
0.2243409163654158
  0
VERTEX
  5
424
  8
6
 10
-1.145932313614594
 20
9.4177154118224262
 30
0.0
 42
0.1232367553219718
  0
VERTEX
  5
425
  8
6
 10
-3.2615228436197858
 20
10.59578043548276
 30
0.0
 42
0.0700993617324612
  0
VERTEX
  5
426
  8
6
 10
-8.9854768138820873
 20
10.750723427203861
 30
0.0
 42
0.9870930961173433
  0
VERTEX
  5
427
  8
6
 10
-8.8876441764850824
 20
10.095425488241281
 30
0.0
 42
-0.0371998225987245
  0
VERTEX
  5
428
  8
6
 10
-4.4232846002823862
 20
9.9527689837480011
 30
0.0
 42
-0.1320069700909351
  0
VERTEX
  5
429
  8
6
 10
-2.5735341508152478
 20
8.9699639556499733
 30
0.0
 42
-0.1105408410528704
  0
VERTEX
  5
42A
  8
6
 10
-1.703135850345461
 20
7.910066115613744
 30
0.0
 42
-0.2870603126370058
  0
VERTEX
  5
42B
  8
6
 10
-1.980658209752618
 20
6.9409166057484981
 30
0.0
 42
-0.1002807908351088
  0
VERTEX
  5
42C
  8
6
 10
-3.2329163239569421
 20
6.4812300137241428
 30
0.0
 42
-0.0333497571445928
  0
VERTEX
  5
42D
  8
6
 10
-7.8571671934760161
 20
6.0196463866982413
 30
0.0
 42
0.4545352424188308
  0
VERTEX
  5
42E
  8
6
 10
-8.5602142826173804
 20
5.5176084662821259
 30
0.0
  0
VERTEX
  5
42F
  8
6
 10
-9.1322258533032254
 20
4.0360885329300791
 30
0.0
 42
-0.3791917245757989
  0
VERTEX
  5
430
  8
6
 10
-9.8072712013286036
 20
3.8698188985013071
 30
0.0
  0
VERTEX
  5
431
  8
6
 10
-10.51824557234203
 20
4.129800127406269
 30
0.0
  0
VERTEX
  5
432
  8
6
 10
-10.914052327544139
 20
3.7176152030449421
 30
0.0
  0
VERTEX
  5
433
  8
6
 10
-10.923947486703121
 20
3.5395513565902088
 30
0.0
  0
VERTEX
  5
434
  8
6
 10
-9.8866671200084966
 20
1.802573046031966
 30
0.0
  0
SEQEND
  5
435
  8
6
  0
DIMENSION
  5
2D6
  8
1
  2
*D5
 10
11.96808335967034
 20
6.0487986211955969
 30
0.0
 11
9.1810779026444216
 21
1.5487986211955991
 31
0.0
 70
     0
 13
0.0
 23
-2.9512013788043978
 33
0.0
 14
1.0
 24
6.0487986211956013
 34
0.0
 50
90.0
  0
DIMENSION
  5
2D7
  8
1
  2
*D6
 10
11.96808335967034
 20
11.048798621195591
 30
0.0
 11
9.1882402491655686
 21
8.5487986211956013
 31
0.0
 70
     0
 13
1.0
 23
6.0487986211956013
 33
0.0
 14
1.0
 24
11.0487986211956
 34
0.0
 50
90.0
  0
DIMENSION
  5
2D8
  8
1
  2
*D7
 10
-23.458431250464852
 20
11.0487986211956
 30
0.0
 11
-26.215593596986
 21
5.5487986211956004
 31
0.0
 70
     0
 13
-12.0
 23
0.0487986211956013
 33
0.0
 14
-12.0
 24
11.0487986211956
 34
0.0
 50
90.0
  0
VIEWPORT
  5
22
 67
     1
  8
0
 10
210.0
 20
170.2366863905325
 30
0.0
 40
420.0
 41
340.47337278106511
 68
     1
 69
     1
1001
ACAD
1000
MVIEW
1002
{
1070
    16
1010
0.0
1020
0.0
1030
0.0
1010
0.0
1020
0.0
1030
1.0
1040
0.0
1040
340.47337278106511
1040
210.0
1040
170.2366863905325
1040
50.0
1040
0.0
1040
0.0
1070
     0
1070
   100
1070
     1
1070
     1
1070
     0
1070
     0
1070
     0
1070
     0
1040
0.0
1040
0.0
1040
0.0
1040
5.0
1040
5.0
1040
10.0
1040
10.0
1070
     0
1002
{
1002
}
1002
}
  0
ENDSEC
  0
EOF
