  0
SECTION
  2
HEADER
  9
$ACADVER
  1
AC1009
  9
$INSBASE
 10
0.0
 20
0.0
 30
0.0
  9
$EXTMIN
 10
-27.673453984531079
 20
-31.331880657455251
 30
0.0
  9
$EXTMAX
 10
34.91461152576661
 20
24.090346130517361
 30
0.0
  9
$LIMMIN
 10
-150.0
 20
-150.0
  9
$LIMMAX
 10
150.0
 20
150.0
  9
$ORTHOMODE
 70
     0
  9
$REGENMODE
 70
     1
  9
$FILLMODE
 70
     1
  9
$QTEXTMODE
 70
     0
  9
$MIRRTEXT
 70
     0
  9
$DRAGMODE
 70
     2
  9
$LTSCALE
 40
1.0
  9
$OSMODE
 70
   111
  9
$ATTMODE
 70
     1
  9
$TEXTSIZE
 40
2.5
  9
$TRACEWID
 40
1.0
  9
$TEXTSTYLE
  7
STANDARD
  9
$CLAYER
  8
1
  9
$CELTYPE
  6
BYLAYER
  9
$CECOLOR
 62
   256
  9
$DIMSCALE
 40
1.0
  9
$DIMASZ
 40
2.0
  9
$DIMEXO
 40
2.0
  9
$DIMDLI
 40
0.0
  9
$DIMRND
 40
0.0
  9
$DIMDLE
 40
1.0
  9
$DIMEXE
 40
1.0
  9
$DIMTP
 40
0.0
  9
$DIMTM
 40
0.0
  9
$DIMTXT
 40
3.5
  9
$DIMCEN
 40
0.0
  9
$DIMTSZ
 40
0.0
  9
$DIMTOL
 70
     0
  9
$DIMLIM
 70
     0
  9
$DIMTIH
 70
     0
  9
$DIMTOH
 70
     0
  9
$DIMSE1
 70
     0
  9
$DIMSE2
 70
     0
  9
$DIMTAD
 70
     1
  9
$DIMZIN
 70
     8
  9
$DIMBLK
  1

  9
$DIMASO
 70
     1
  9
$DIMSHO
 70
     1
  9
$DIMPOST
  1

  9
$DIMAPOST
  1

  9
$DIMALT
 70
     0
  9
$DIMALTD
 70
     2
  9
$DIMALTF
 40
0.039370078740157
  9
$DIMLFAC
 40
1.0
  9
$DIMTOFL
 70
     1
  9
$DIMTVP
 40
0.0
  9
$DIMTIX
 70
     1
  9
$DIMSOXD
 70
     0
  9
$DIMSAH
 70
     1
  9
$DIMBLK1
  1
OBLIQUE
  9
$DIMBLK2
  1
OBLIQUE
  9
$DIMSTYLE
  2
OPO-SSTRICH
  9
$DIMCLRD
 70
   256
  9
$DIMCLRE
 70
   256
  9
$DIMCLRT
 70
   256
  9
$DIMTFAC
 40
0.7114285714285716
  9
$DIMGAP
 40
1.0
  9
$LUNITS
 70
     2
  9
$LUPREC
 70
     1
  9
$SKETCHINC
 40
1.0
  9
$FILLETRAD
 40
0.0
  9
$AUNITS
 70
     0
  9
$AUPREC
 70
     1
  9
$MENU
  1
D:\ACL_CGWG\CGTAB13
  9
$ELEVATION
 40
0.0
  9
$PELEVATION
 40
0.0
  9
$THICKNESS
 40
0.0
  9
$LIMCHECK
 70
     0
  9
$BLIPMODE
 70
     0
  9
$CHAMFERA
 40
1.0
  9
$CHAMFERB
 40
1.0
  9
$SKPOLY
 70
     0
  9
$TDCREATE
 40
2451879.4653430558
  9
$TDUPDATE
 40
2452086.7463392471
  9
$TDINDWG
 40
0.1129742014
  9
$TDUSRTIMER
 40
0.1129742014
  9
$USRTIMER
 70
     1
  9
$ANGBASE
 50
0.0
  9
$ANGDIR
 70
     0
  9
$PDMODE
 70
    35
  9
$PDSIZE
 40
5.0
  9
$PLINEWID
 40
0.0
  9
$COORDS
 70
     1
  9
$SPLFRAME
 70
     0
  9
$SPLINETYPE
 70
     6
  9
$SPLINESEGS
 70
     8
  9
$ATTDIA
 70
     1
  9
$ATTREQ
 70
     1
  9
$HANDLING
 70
-16383
  9
$HANDSEED
  5
856
  9
$SURFTAB1
 70
    12
  9
$SURFTAB2
 70
    12
  9
$SURFTYPE
 70
     6
  9
$SURFU
 70
    12
  9
$SURFV
 70
    12
  9
$UCSNAME
  2

  9
$UCSORG
 10
0.0
 20
0.0
 30
0.0
  9
$UCSXDIR
 10
1.0
 20
0.0
 30
0.0
  9
$UCSYDIR
 10
0.0
 20
1.0
 30
0.0
  9
$PUCSNAME
  2

  9
$PUCSORG
 10
0.0
 20
0.0
 30
0.0
  9
$PUCSXDIR
 10
1.0
 20
0.0
 30
0.0
  9
$PUCSYDIR
 10
0.0
 20
1.0
 30
0.0
  9
$USERI1
 70
     0
  9
$USERI2
 70
     0
  9
$USERI3
 70
     0
  9
$USERI4
 70
     0
  9
$USERI5
 70
     0
  9
$USERR1
 40
0.0
  9
$USERR2
 40
0.0
  9
$USERR3
 40
0.0
  9
$USERR4
 40
0.0
  9
$USERR5
 40
0.0
  9
$WORLDVIEW
 70
     1
  9
$SHADEDGE
 70
     3
  9
$SHADEDIF
 70
    70
  9
$TILEMODE
 70
     1
  9
$MAXACTVP
 70
    48
  9
$PLIMCHECK
 70
     0
  9
$PEXTMIN
 10
1.0000000000000000E+020
 20
1.0000000000000000E+020
 30
1.0000000000000000E+020
  9
$PEXTMAX
 10
-1.0000000000000000E+020
 20
-1.0000000000000000E+020
 30
-1.0000000000000000E+020
  9
$PLIMMIN
 10
0.0
 20
0.0
  9
$PLIMMAX
 10
420.0
 20
297.0
  9
$UNITMODE
 70
     0
  9
$VISRETAIN
 70
     1
  9
$PLINEGEN
 70
     0
  9
$PSLTSCALE
 70
     1
  0
ENDSEC
  0
SECTION
  2
TABLES
  0
TABLE
  2
VPORT
 70
     2
  0
VPORT
  2
*ACTIVE
 70
     0
 10
0.0
 20
0.0
 11
1.0
 21
1.0
 12
3.6163337105144739
 22
-3.6163323135305059
 13
0.0
 23
0.0
 14
0.5
 24
0.5
 15
10.0
 25
10.0
 16
0.0
 26
0.0
 36
1.0
 17
0.0
 27
0.0
 37
0.0
 40
55.885263034664277
 41
1.6070460704607039
 42
50.0
 43
0.0
 44
0.0
 50
0.0
 51
0.0
 71
     0
 72
   800
 73
     1
 74
     1
 75
     0
 76
     0
 77
     0
 78
     0
  0
ENDTAB
  0
TABLE
  2
LTYPE
 70
     2
  0
LTYPE
  2
CONTINUOUS
 70
     0
  3
_______________________________________________
 72
    65
 73
     2
 40
1.0
 49
1.0
 49
0.0
  0
LTYPE
  2
MITTE
 70
     0
  3
Mitte ____ _ ____ _ ____ _ ____ _ ____ _ ____
 72
    65
 73
     4
 40
50.799999999999997
 49
31.75
 49
-6.3499999999999988
 49
6.3499999999999988
 49
-6.3499999999999988
  0
ENDTAB
  0
TABLE
  2
LAYER
 70
     7
  0
LAYER
  2
0
 70
     0
 62
    30
  6
CONTINUOUS
  0
LAYER
  2
1
 70
     0
 62
     2
  6
CONTINUOUS
  0
LAYER
  2
2
 70
     0
 62
     9
  6
CONTINUOUS
  0
LAYER
  2
4
 70
     1
 62
     4
  6
CONTINUOUS
  0
LAYER
  2
5
 70
     0
 62
     1
  6
CONTINUOUS
  0
LAYER
  2
6
 70
     0
 62
     3
  6
CONTINUOUS
  0
LAYER
  2
DEFPOINTS
 70
     0
 62
     7
  6
CONTINUOUS
  0
ENDTAB
  0
TABLE
  2
STYLE
 70
     2
  0
STYLE
  2
STANDARD
 70
     0
 40
0.0
 41
1.0
 50
0.0
 71
     0
 42
2.5
  3
txt
  4

  0
STYLE
  2
BESCHLAG
 70
     0
 40
0.0
 41
1.0
 50
0.0
 71
     0
 42
3.5
  3
txt
  4

  0
ENDTAB
  0
TABLE
  2
VIEW
 70
     0
  0
ENDTAB
  0
TABLE
  2
UCS
 70
     0
  0
ENDTAB
  0
TABLE
  2
APPID
 70
     1
  0
APPID
  2
ACAD
 70
     0
  0
ENDTAB
  0
TABLE
  2
DIMSTYLE
 70
     1
  0
DIMSTYLE
  2
OPO-SSTRICH
 70
     0
  3

  4

  5

  6
OBLIQUE
  7
OBLIQUE
 40
1.0
 41
2.0
 42
2.0
 43
0.0
 44
1.0
 45
0.0
 46
1.0
 47
0.0
 48
0.0
140
3.5
141
0.0
142
0.0
143
0.039370078740157
144
1.0
145
0.0
146
0.7114285714285716
147
1.0
 71
     0
 72
     0
 73
     0
 74
     0
 75
     0
 76
     0
 77
     1
 78
     8
170
     0
171
     2
172
     1
173
     1
174
     1
175
     0
176
   256
177
   256
178
   256
  0
ENDTAB
  0
ENDSEC
  0
SECTION
  2
BLOCKS
  0
BLOCK
  8
0
  2
$MODEL_SPACE
 70
     0
 10
0.0
 20
0.0
 30
0.0
  3
$MODEL_SPACE
  1

  0
ENDBLK
  5
1C
  8
0
  0
BLOCK
 67
     1
  8
0
  2
$PAPER_SPACE
 70
     0
 10
0.0
 20
0.0
 30
0.0
  3
$PAPER_SPACE
  1

  0
ENDBLK
  5
19
 67
     1
  8
0
  0
BLOCK
  8
0
  2
_OBLIQUE
 70
     0
 10
0.0
 20
0.0
 30
0.0
  3
_OBLIQUE
  1

  0
LINE
  5
204
  8
0
 62
     0
 10
-0.5
 20
-0.5
 30
0.0
 11
0.5
 21
0.5
 31
0.0
  0
ENDBLK
  5
206
  8
0
  0
BLOCK
  8
0
  2
NULLPUNKT
 70
     0
 10
0.0
 20
0.0
 30
0.0
  3
NULLPUNKT
  1

  0
SOLID
  5
254
  8
5
 10
0.0
 20
0.0
 30
0.0
 11
2.0
 21
0.0
 31
0.0
 12
0.0
 22
-2.0
 32
0.0
 13
0.0
 23
-2.0
 33
0.0
  0
SOLID
  5
255
  8
5
 10
0.0
 20
0.0
 30
0.0
 11
-2.0
 21
0.0
 31
0.0
 12
0.0
 22
2.0
 32
0.0
 13
0.0
 23
2.0
 33
0.0
  0
POLYLINE
  5
256
  8
5
 66
     1
 10
0.0
 20
0.0
 30
0.0
  0
VERTEX
  5
7BE
  8
5
 10
0.0
 20
2.0
 30
0.0
  0
VERTEX
  5
7BF
  8
5
 10
0.0
 20
-2.0
 30
0.0
  0
SEQEND
  5
7C0
  8
5
  0
POLYLINE
  5
257
  8
5
 66
     1
 10
0.0
 20
0.0
 30
0.0
  0
VERTEX
  5
7C1
  8
5
 10
-2.0
 20
0.0
 30
0.0
  0
VERTEX
  5
7C2
  8
5
 10
2.0
 20
0.0
 30
0.0
  0
SEQEND
  5
7C3
  8
5
  0
CIRCLE
  5
258
  8
5
 10
0.0
 20
0.0
 30
0.0
 40
2.0
  0
ENDBLK
  5
25A
  8
0
  0
BLOCK
  8
0
  2
*D2
 70
     1
 10
0.0
 20
0.0
 30
0.0
  3
*D2
  1

  0
LINE
  5
709
  8
1
 10
13.0
 20
4.0
 30
0.0
 11
28.473683197007631
 21
3.9999999999999951
 31
0.0
  0
LINE
  5
70A
  8
1
 10
22.317735318658379
 20
-0.0000000000000006
 30
0.0
 11
28.473683197007631
 21
-0.0000000000000023
 31
0.0
  0
LINE
  5
70B
  8
1
 10
27.473683197007631
 20
3.9999999999999951
 30
0.0
 11
27.473683197007631
 21
5.9999999999999947
 31
0.0
  0
LINE
  5
70C
  8
1
 10
27.473683197007631
 20
-0.000000000000002
 30
0.0
 11
27.473683197007631
 21
-2.0000000000000022
 31
0.0
  0
LINE
  5
70D
  8
1
 10
27.473683197007631
 20
3.9999999999999951
 30
0.0
 11
27.473683197007631
 21
-0.000000000000002
 31
0.0
  0
INSERT
  5
70E
  8
1
  2
_OBLIQUE
 10
27.473683197007631
 20
3.9999999999999951
 30
0.0
 41
2.0
 42
2.0
 43
2.0
 50
270.0
  0
INSERT
  5
70F
  8
1
  2
_OBLIQUE
 10
27.473683197007631
 20
-0.000000000000002
 30
0.0
 41
2.0
 42
2.0
 43
2.0
 50
90.0
  0
TEXT
  5
710
  8
1
 10
26.473683197007631
 20
0.7274897680764
 30
0.0
 40
3.5
  1
4
 50
90.0
  7
BESCHLAG
  0
POINT
  5
711
  8
DEFPOINTS
 62
     0
 10
11.0
 20
4.0
 30
0.0
  0
POINT
  5
712
  8
DEFPOINTS
 62
     0
 10
20.317735318658372
 20
0.0
 30
0.0
  0
POINT
  5
713
  8
DEFPOINTS
 62
     0
 10
27.473683197007631
 20
-0.000000000000002
 30
0.0
  0
ENDBLK
  5
2E6
  8
0
  0
BLOCK
  8
0
  2
*D3
 70
     1
 10
0.0
 20
0.0
 30
0.0
  3
*D3
  1

  0
LINE
  5
72F
  8
1
 10
-4.0
 20
2.0000000000291029
 30
0.0
 11
-3.9999999999999991
 21
15.88808762754706
 31
0.0
  0
LINE
  5
730
  8
1
 10
11.0
 20
6.0
 30
0.0
 11
11.0
 21
15.88808762754706
 31
0.0
  0
LINE
  5
731
  8
1
 10
-4.9999999999999991
 20
14.88808762754706
 30
0.0
 11
12.0
 21
14.88808762754706
 31
0.0
  0
INSERT
  5
732
  8
1
  2
_OBLIQUE
 10
-3.9999999999999991
 20
14.88808762754706
 30
0.0
 41
2.0
 42
2.0
 43
2.0
 50
180.0
  0
INSERT
  5
733
  8
1
  2
_OBLIQUE
 10
11.0
 20
14.88808762754706
 30
0.0
 41
2.0
 42
2.0
 43
2.0
  0
TEXT
  5
734
  8
1
 10
0.6123806275579808
 20
15.95493619507776
 30
0.0
 40
3.5
  1
15
  7
BESCHLAG
  0
POINT
  5
735
  8
DEFPOINTS
 62
     0
 10
-4.0
 20
0.0000000000291038
 30
0.0
  0
POINT
  5
736
  8
DEFPOINTS
 62
     0
 10
11.0
 20
4.0
 30
0.0
  0
POINT
  5
737
  8
DEFPOINTS
 62
     0
 10
11.0
 20
14.88808762754706
 30
0.0
  0
ENDBLK
  5
2F3
  8
0
  0
BLOCK
  8
0
  2
*D4
 70
     1
 10
0.0
 20
0.0
 30
0.0
  3
*D4
  1

  0
LINE
  5
726
  8
1
 10
-4.0
 20
3.0000000000291029
 30
0.0
 11
-3.9999999999999991
 21
15.88808762754706
 31
0.0
  0
LINE
  5
727
  8
1
 10
-13.00000000029558
 20
6.0
 30
0.0
 11
-13.00000000029558
 21
15.88808762754706
 31
0.0
  0
LINE
  5
728
  8
1
 10
-2.9999999999999991
 20
14.88808762754706
 30
0.0
 11
-14.00000000029558
 21
14.88808762754706
 31
0.0
  0
INSERT
  5
729
  8
1
  2
_OBLIQUE
 10
-3.9999999999999991
 20
14.88808762754706
 30
0.0
 41
2.0
 42
2.0
 43
2.0
  0
INSERT
  5
72A
  8
1
  2
_OBLIQUE
 10
-13.00000000029558
 20
14.88808762754706
 30
0.0
 41
2.0
 42
2.0
 43
2.0
 50
180.0
  0
TEXT
  5
72B
  8
1
 10
-9.8536834926443824
 20
15.95493619507776
 30
0.0
 40
3.5
  1
9
  7
BESCHLAG
  0
POINT
  5
72C
  8
DEFPOINTS
 62
     0
 10
-4.0
 20
1.0000000000291029
 30
0.0
  0
POINT
  5
72D
  8
DEFPOINTS
 62
     0
 10
-13.00000000029558
 20
4.0
 30
0.0
  0
POINT
  5
72E
  8
DEFPOINTS
 62
     0
 10
-13.00000000029558
 20
14.88808762754706
 30
0.0
  0
ENDBLK
  5
300
  8
0
  0
BLOCK
  8
0
  2
*D5
 70
     1
 10
0.0
 20
0.0
 30
0.0
  3
*D5
  1

  0
LINE
  5
714
  8
1
 10
-12.99999999998999
 20
-18.999999999979991
 30
0.0
 11
-12.99999999998999
 21
-26.974846289667759
 31
0.0
  0
LINE
  5
715
  8
1
 10
-4.0
 20
-18.999999999970889
 30
0.0
 11
-4.0
 21
-26.974846289667759
 31
0.0
  0
LINE
  5
716
  8
1
 10
-13.99999999998999
 20
-25.97484628966777
 30
0.0
 11
-3.0
 21
-25.97484628966777
 31
0.0
  0
INSERT
  5
717
  8
1
  2
_OBLIQUE
 10
-12.99999999998999
 20
-25.97484628966777
 30
0.0
 41
2.0
 42
2.0
 43
2.0
 50
180.0
  0
INSERT
  5
718
  8
1
  2
_OBLIQUE
 10
-4.0
 20
-25.97484628966777
 30
0.0
 41
2.0
 42
2.0
 43
2.0
  0
TEXT
  5
719
  8
1
 10
-9.8536834924915873
 20
-24.907997722137068
 30
0.0
 40
3.5
  1
9
  7
BESCHLAG
  0
POINT
  5
71A
  8
DEFPOINTS
 62
     0
 10
-12.99999999998999
 20
-16.999999999979991
 30
0.0
  0
POINT
  5
71B
  8
DEFPOINTS
 62
     0
 10
-4.0
 20
-16.999999999970889
 30
0.0
  0
POINT
  5
71C
  8
DEFPOINTS
 62
     0
 10
-4.0
 20
-25.97484628966777
 30
0.0
  0
ENDBLK
  5
30D
  8
0
  0
BLOCK
  8
0
  2
*D6
 70
     1
 10
0.0
 20
0.0
 30
0.0
  3
*D6
  1

  0
LINE
  5
71D
  8
1
 10
-14.99999999998999
 20
-16.999999999979991
 30
0.0
 11
-21.940510797481689
 21
-16.999999999979991
 31
0.0
  0
LINE
  5
71E
  8
1
 10
-15.00000000029558
 20
4.0
 30
0.0
 11
-21.940510797481689
 21
4.0000000000000009
 31
0.0
  0
LINE
  5
71F
  8
1
 10
-20.940510797481689
 20
-17.999999999979991
 30
0.0
 11
-20.940510797481689
 21
5.0000000000000009
 31
0.0
  0
INSERT
  5
720
  8
1
  2
_OBLIQUE
 10
-20.940510797481689
 20
-16.999999999979991
 30
0.0
 41
2.0
 42
2.0
 43
2.0
 50
270.0
  0
INSERT
  5
721
  8
1
  2
_OBLIQUE
 10
-20.940510797481689
 20
4.0000000000000009
 30
0.0
 41
2.0
 42
2.0
 43
2.0
 50
90.0
  0
TEXT
  5
722
  8
1
 10
-21.947673144002831
 20
-8.8420873124047308
 30
0.0
 40
3.5
  1
21
 50
90.0
  7
BESCHLAG
  0
POINT
  5
723
  8
DEFPOINTS
 62
     0
 10
-12.99999999998999
 20
-16.999999999979991
 30
0.0
  0
POINT
  5
724
  8
DEFPOINTS
 62
     0
 10
-13.00000000029558
 20
4.0
 30
0.0
  0
POINT
  5
725
  8
DEFPOINTS
 62
     0
 10
-20.940510797481689
 20
4.0000000000000009
 30
0.0
  0
ENDBLK
  5
31A
  8
0
  0
BLOCK
  8
0
  2
_DOTSMALL
 70
     0
 10
0.0
 20
0.0
 30
0.0
  3
_DOTSMALL
  1

  0
POLYLINE
  5
706
  8
0
  6
BYBLOCK
 62
     0
 66
     1
 10
0.0
 20
0.0
 30
0.0
 70
     1
 40
0.5
 41
0.5
  0
VERTEX
  5
849
  8
0
  6
BYBLOCK
 62
     0
 10
-0.0625
 20
0.0
 30
0.0
 42
1.0
  0
VERTEX
  5
84A
  8
0
  6
BYBLOCK
 62
     0
 10
0.0625
 20
0.0
 30
0.0
 42
1.0
  0
SEQEND
  5
84B
  8
0
  6
BYBLOCK
 62
     0
  0
ENDBLK
  5
708
  8
0
  0
BLOCK
  8
0
  2
*X8
 70
     1
 10
0.0
 20
0.0
 30
0.0
  3
*X8
  1

  0
LINE
  5
835
  8
0
 62
     0
 10
-6.3933982821726829
 20
-16.999999999970889
 30
0.0
 11
-6.0000000000001901
 21
-16.606601717798402
 31
0.0
  0
LINE
  5
836
  8
0
 62
     0
 10
-8.5147186257323284
 20
-16.999999999970889
 30
0.0
 11
-6.0000000000012186
 21
-14.48528137423979
 31
0.0
  0
LINE
  5
837
  8
0
 62
     0
 10
-8.0000000000072742
 20
-14.3639610306862
 30
0.0
 11
-6.0000000000022471
 21
-12.363961030681169
 31
0.0
  0
LINE
  5
838
  8
0
 62
     0
 10
-10.63603896929196
 20
-16.999999999970889
 30
0.0
 11
-8.6360389692923683
 21
-14.999999999971291
 31
0.0
  0
LINE
  5
839
  8
0
 62
     0
 10
-8.0000000000072742
 20
-12.24264068712656
 30
0.0
 11
-6.0000000000032774
 21
-10.242640687122551
 31
0.0
  0
LINE
  5
83A
  8
0
 62
     0
 10
-12.57530105592531
 20
-16.817941743044589
 30
0.0
 11
-10.757359312853341
 21
-14.99999999997263
 31
0.0
  0
LINE
  5
83B
  8
0
 62
     0
 10
-7.3786796564112542
 20
-9.4999999999708944
 30
0.0
 11
-6.0000000000043068
 21
-8.1213203435639478
 31
0.0
  0
LINE
  5
83C
  8
0
 62
     0
 10
-8.0000000000072742
 20
-10.121320343566911
 30
0.0
 11
-7.3786796564112542
 21
-9.4999999999708944
 31
0.0
  0
LINE
  5
83D
  8
0
 62
     0
 10
-8.0000000000072742
 20
-8.0000000000072742
 30
0.0
 11
-6.0000000000053344
 21
-6.0000000000053326
 31
0.0
  0
LINE
  5
83E
  8
0
 62
     0
 10
-8.0000000000072742
 20
-5.8786796564476322
 30
0.0
 11
-6.0000000000063629
 21
-3.8786796564467201
 31
0.0
  0
LINE
  5
83F
  8
0
 62
     0
 10
-8.0000000000072742
 20
-3.757359312887989
 30
0.0
 11
-4.3927669529582261
 21
-0.1501262658389413
 31
0.0
  0
LINE
  5
840
  8
0
 62
     0
 10
-6.8400974234058474
 20
-0.4761363927269185
 30
0.0
 11
-6.4433170961082
 21
-0.0793560654292724
 31
0.0
  0
LINE
  5
841
  8
0
 62
     0
 10
-9.3639610306498255
 20
-2.9999999999708962
 30
0.0
 11
-7.0266504294405223
 21
-0.6626893987615931
 31
0.0
  0
LINE
  5
842
  8
0
 62
     0
 10
-8.5367965645023318
 20
-0.0515151902637596
 30
0.0
 11
-8.4938672392581722
 21
-0.0085858650196027
 31
0.0
  0
LINE
  5
843
  8
0
 62
     0
 10
-11.48528137420946
 20
-2.9999999999708971
 30
0.0
 11
-9.0772005725904972
 21
-0.5919191983519259
 31
0.0
  0
LINE
  5
844
  8
0
 62
     0
 10
-13.000000000004849
 20
-2.3933982822066429
 30
0.0
 11
-10.843589817708949
 21
-0.2369880999107439
 31
0.0
  0
LINE
  5
845
  8
0
 62
     0
 10
-13.000000000007001
 20
-0.2720779386491436
 30
0.0
 11
-11.000000000007271
 21
1.727922061350581
 31
0.0
  0
LINE
  5
846
  8
0
 62
     0
 10
-13.000000000007271
 20
1.849242404910223
 30
0.0
 11
-11.000000000007271
 21
3.849242404910223
 31
0.0
  0
ENDBLK
  5
848
  8
0
  0
ENDSEC
  0
SECTION
  2
ENTITIES
  0
INSERT
  5
25B
  8
5
  2
NULLPUNKT
 10
0.0
 20
0.0
 30
0.0
 41
-1.0
 50
180.0
  0
DIMENSION
  5
2CA
  8
1
  2
*D2
 10
27.473683197007631
 20
-0.000000000000002
 30
0.0
 11
24.723683197007631
 21
2.0000000000000009
 31
0.0
 70
     0
 13
11.0
 23
4.0
 33
0.0
 14
20.317735318658372
 24
0.0
 34
0.0
 50
270.0
  0
POLYLINE
  5
2CB
  8
5
 66
     1
 10
0.0
 20
0.0
 30
0.0
  0
VERTEX
  5
7C4
  8
5
 10
11.0
 20
4.0
 30
0.0
  0
VERTEX
  5
7C5
  8
5
 10
11.0
 20
18.26972661044055
 30
0.0
  0
SEQEND
  5
7C6
  8
5
  0
DIMENSION
  5
2CC
  8
1
  2
*D3
 10
11.0
 20
14.88808762754706
 30
0.0
 11
3.5
 21
17.675093084572978
 31
0.0
 70
     0
 13
-4.0
 23
0.0000000000291038
 33
0.0
 14
11.0
 24
4.0
 34
0.0
  0
DIMENSION
  5
2CD
  8
1
  2
*D4
 10
-13.00000000029558
 20
14.88808762754706
 30
0.0
 11
-8.5000000001477911
 21
17.675093084572978
 31
0.0
 70
     0
 13
-4.0
 23
1.0000000000291029
 33
0.0
 14
-13.00000000029558
 24
4.0
 34
0.0
  0
POLYLINE
  5
2CE
  8
6
 66
     1
 10
0.0
 20
0.0
 30
0.0
 70
     1
  0
VERTEX
  5
7C7
  8
6
 10
-6.0
 20
-1.9999999999708959
 30
0.0
  0
VERTEX
  5
7C8
  8
6
 10
-4.0
 20
-1.9999999999708959
 30
0.0
  0
VERTEX
  5
7C9
  8
6
 10
-4.0
 20
-16.999999999970889
 30
0.0
  0
VERTEX
  5
7CA
  8
6
 10
-6.0
 20
-16.999999999970889
 30
0.0
  0
SEQEND
  5
7CB
  8
6
  0
POLYLINE
  5
2CF
  8
5
 66
     1
 10
0.0
 20
0.0
 30
0.0
  0
VERTEX
  5
7CC
  8
5
 10
11.0
 20
4.0
 30
0.0
  0
VERTEX
  5
7CD
  8
5
 10
-13.00000000029558
 20
4.0
 30
0.0
  0
VERTEX
  5
7CE
  8
5
 10
-12.99999999998999
 20
-16.999999999979991
 30
0.0
  0
VERTEX
  5
7CF
  8
5
 10
-4.0
 20
-16.999999999970889
 30
0.0
  0
VERTEX
  5
7D0
  8
5
 10
-4.0
 20
-31.331880657455251
 30
0.0
  0
SEQEND
  5
7D1
  8
5
  0
POLYLINE
  5
2D1
  8
4
 66
     1
 10
0.0
 20
0.0
 30
0.0
 70
     1
1001
ACAD
1000
ASC_BOUNDS
1002
{
1070
    19
1005
4B6
1002
}
  0
VERTEX
  5
7D2
  8
4
 10
-11.000000000007271
 20
4.0000000000291029
 30
0.0
  0
VERTEX
  5
7D3
  8
4
 10
-13.00000000029558
 20
4.0
 30
0.0
  0
VERTEX
  5
7D4
  8
4
 10
-12.99999999998999
 20
-16.999999999979991
 30
0.0
  0
VERTEX
  5
7D5
  8
4
 10
-4.0
 20
-16.999999999970889
 30
0.0
  0
VERTEX
  5
7D6
  8
4
 10
-4.0
 20
0.0000000000291038
 30
0.0
  0
VERTEX
  5
7D7
  8
4
 10
-11.000000000007271
 20
0.0000000000291038
 30
0.0
  0
SEQEND
  5
7D8
  8
4
  0
POLYLINE
  5
2D2
  8
6
 66
     1
 10
0.0
 20
0.0
 30
0.0
 70
     1
1001
ACAD
1000
ASC_BOUNDS
1002
{
1070
    19
1005
4B6
1005
4B6
1002
}
  0
VERTEX
  5
7D9
  8
6
 10
-6.0000000000072751
 20
-1.9999999999708959
 30
0.0
  0
VERTEX
  5
7DA
  8
6
 10
-4.3000000000101863
 20
-1.999999999982492
 30
0.0
 42
0.4142135623730951
  0
VERTEX
  5
7DB
  8
6
 10
-4.0000000000072751
 20
-1.6999999999679849
 30
0.0
  0
VERTEX
  5
7DC
  8
6
 10
-4.0000000000072751
 20
-0.6999999999679858
 30
0.0
  0
VERTEX
  5
7DD
  8
6
 10
-4.5000000000072751
 20
0.0000000000291038
 30
0.0
  0
VERTEX
  5
7DE
  8
6
 10
-5.0000000000072751
 20
-0.6999999999679858
 30
0.0
  0
VERTEX
  5
7DF
  8
6
 10
-5.5000000000072751
 20
0.0000000000291038
 30
0.0
  0
VERTEX
  5
7E0
  8
6
 10
-6.0000000000072751
 20
-0.6999999999679858
 30
0.0
  0
VERTEX
  5
7E1
  8
6
 10
-6.5000000000072751
 20
0.0000000000291038
 30
0.0
  0
VERTEX
  5
7E2
  8
6
 10
-7.0000000000072751
 20
-0.6999999999679858
 30
0.0
  0
VERTEX
  5
7E3
  8
6
 10
-7.5000000000072751
 20
0.0000000000291038
 30
0.0
  0
VERTEX
  5
7E4
  8
6
 10
-8.0000000000072742
 20
-0.6999999999679858
 30
0.0
  0
VERTEX
  5
7E5
  8
6
 10
-8.5000000000072742
 20
0.0000000000291038
 30
0.0
  0
VERTEX
  5
7E6
  8
6
 10
-9.0000000000072742
 20
-0.6999999999679858
 30
0.0
  0
VERTEX
  5
7E7
  8
6
 10
-9.5000000000072742
 20
0.0000000000291038
 30
0.0
  0
VERTEX
  5
7E8
  8
6
 10
-10.000000000007271
 20
-0.6999999999825377
 30
0.0
 42
-0.4142135623730951
  0
VERTEX
  5
7E9
  8
6
 10
-11.000000000007271
 20
0.3000000000320142
 30
0.0
  0
VERTEX
  5
7EA
  8
6
 10
-11.000000000007271
 20
4.0000000000291029
 30
0.0
  0
VERTEX
  5
7EB
  8
6
 10
-12.000000000007271
 20
4.000000000014551
 30
0.0
 42
0.4142135623730949
  0
VERTEX
  5
7EC
  8
6
 10
-13.000000000007271
 20
3.0000000000291029
 30
0.0
  0
VERTEX
  5
7ED
  8
6
 10
-13.000000000007271
 20
0.0000000000291038
 30
0.0
  0
VERTEX
  5
7EE
  8
6
 10
-13.00000000000454
 20
-2.6999999999825368
 30
0.0
 42
0.4142135623730951
  0
VERTEX
  5
7EF
  8
6
 10
-12.70000000000436
 20
-2.9999999999708962
 30
0.0
  0
VERTEX
  5
7F0
  8
6
 10
-8.0000000000072742
 20
-2.9999999999708962
 30
0.0
  0
VERTEX
  5
7F1
  8
6
 10
-8.0000000000072742
 20
-14.999999999970891
 30
0.0
  0
VERTEX
  5
7F2
  8
6
 10
-12.70000000000436
 20
-14.99999999997385
 30
0.0
 42
0.4142135623730949
  0
VERTEX
  5
7F3
  8
6
 10
-13.000000000007271
 20
-15.299999999973799
 30
0.0
  0
VERTEX
  5
7F4
  8
6
 10
-13.000000000007271
 20
-15.999999999985439
 30
0.0
 42
0.4142135623730951
  0
VERTEX
  5
7F5
  8
6
 10
-12.0
 20
-16.999999999970889
 30
0.0
  0
VERTEX
  5
7F6
  8
6
 10
-6.0
 20
-16.999999999970889
 30
0.0
  0
SEQEND
  5
7F7
  8
6
  0
DIMENSION
  5
2D3
  8
1
  2
*D5
 10
-4.0
 20
-25.97484628966777
 30
0.0
 11
-8.4999999999949978
 21
-23.187840832641839
 31
0.0
 70
     0
 13
-12.99999999998999
 23
-16.999999999979991
 33
0.0
 14
-4.0
 24
-16.999999999970889
 34
0.0
  0
TEXT
  5
2D4
  8
1
 10
-24.081588243639992
 20
20.928681737611502
 30
0.0
 40
2.5
  1
HEBGO 145/745/535
  7
BESCHLAG
  0
DIMENSION
  5
2D5
  8
1
  2
*D6
 10
-20.940510797481689
 20
4.0000000000000009
 30
0.0
 11
-23.697673144002831
 21
-6.4999999999899973
 31
0.0
 70
     0
 13
-12.99999999998999
 23
-16.999999999979991
 33
0.0
 14
-13.00000000029558
 24
4.0
 34
0.0
 50
270.0
  0
POLYLINE
  5
2D6
  8
5
  6
MITTE
 66
     1
 10
0.0
 20
0.0
 30
0.0
1001
ACAD
1000
ASC_BOUNDS
1002
{
1070
    19
1005
4B6
1005
4B6
1002
}
  0
VERTEX
  5
7F8
  8
5
  6
MITTE
 10
-6.0
 20
-9.4999999999708962
 30
0.0
  0
VERTEX
  5
7F9
  8
5
  6
MITTE
 10
-27.673453984531079
 20
-9.4999999999708962
 30
0.0
  0
SEQEND
  5
7FA
  8
5
  6
MITTE
  0
POLYLINE
  5
2D7
  8
5
 66
     1
 10
0.0
 20
0.0
 30
0.0
  0
VERTEX
  5
7FB
  8
5
 10
0.0
 20
-31.331880657455251
 30
0.0
  0
VERTEX
  5
7FC
  8
5
 10
0.0
 20
0.0
 30
0.0
  0
SEQEND
  5
7FD
  8
5
  0
POLYLINE
  5
2D8
  8
5
 66
     1
 10
0.0
 20
0.0
 30
0.0
  0
VERTEX
  5
7FE
  8
5
 10
0.0
 20
0.0
 30
0.0
  0
VERTEX
  5
7FF
  8
5
 10
20.317735318658372
 20
0.0
 30
0.0
  0
SEQEND
  5
800
  8
5
  0
POLYLINE
  5
3BA
  8
6
 66
     1
 10
0.0
 20
0.0
 30
0.0
 70
     1
  0
VERTEX
  5
801
  8
6
 10
7.8297253037735572
 20
1.780268856034922
 30
0.0
 42
-0.131335928731573
  0
VERTEX
  5
802
  8
6
 10
8.8326818464147436
 20
1.128174905509354
 30
0.0
 42
0.2905080179712449
  0
VERTEX
  5
803
  8
6
 10
9.5443810462256806
 20
1.1360804662491539
 30
0.0
 42
0.4841024204986858
  0
VERTEX
  5
804
  8
6
 10
9.5443810462256806
 20
2.8515928642956392
 30
0.0
 42
0.3365200073652254
  0
VERTEX
  5
805
  8
6
 10
8.3898466841360442
 20
2.8515928642956392
 30
0.0
 42
-0.0464717474098966
  0
VERTEX
  5
806
  8
6
 10
7.7097785424361973
 20
2.1400900318475351
 30
0.0
 42
-0.2276788024688995
  0
VERTEX
  5
807
  8
6
 10
7.1370265344125983
 20
1.9257786488076361
 30
0.0
 42
0.0881493731529968
  0
VERTEX
  5
808
  8
6
 10
6.1914867941186449
 20
1.8475832986972589
 30
0.0
 42
0.9079906797104758
  0
VERTEX
  5
809
  8
6
 10
6.2100841806432072
 20
1.6676302236759279
 30
0.0
 42
0.0938506730575352
  0
VERTEX
  5
80A
  8
6
 10
7.110472539458442
 20
1.823412106210867
 30
0.0
 42
-0.0743472234199958
  0
SEQEND
  5
80B
  8
6
  0
POLYLINE
  5
3C1
  8
6
 66
     1
 10
0.0
 20
0.0
 30
0.0
 70
     1
1001
ACAD
1000
ASC_BOUNDS
1002
{
1070
    19
1005
4B6
1002
}
  0
VERTEX
  5
80C
  8
6
 10
-2.7979553893160301
 20
-0.6482615182145537
 30
0.0
 42
0.0087027996012148
  0
VERTEX
  5
80D
  8
6
 10
-2.4709909527646232
 20
0.5634167852135761
 30
0.0
 42
-0.2565028777810548
  0
VERTEX
  5
80E
  8
6
 10
-1.838488184159359
 20
1.3345002881670771
 30
0.0
  0
VERTEX
  5
80F
  8
6
 10
6.9302050194469302
 20
2.7235210584830152
 30
0.0
 42
-0.970674292010473
  0
VERTEX
  5
810
  8
6
 10
7.061696203759765
 20
2.4934751162049902
 30
0.0
 42
-0.0539236430511081
  0
VERTEX
  5
811
  8
6
 10
6.225169426887077
 20
2.470045427383297
 30
0.0
 42
0.2097854334997801
  0
VERTEX
  5
812
  8
6
 10
5.8309044140896731
 20
2.3386600209083781
 30
0.0
 42
0.0037459924523558
  0
VERTEX
  5
813
  8
6
 10
5.3709285948866627
 20
1.916349860917534
 30
0.0
 42
0.5038940228095087
  0
VERTEX
  5
814
  8
6
 10
5.5568532892971234
 20
1.303078552846159
 30
0.0
 42
0.0516576595180739
  0
VERTEX
  5
815
  8
6
 10
6.2033513506203226
 20
1.0803356626137199
 30
0.0
 42
0.0974092805433745
  0
VERTEX
  5
816
  8
6
 10
6.9479885588943944
 20
1.10926817216989
 30
0.0
 42
-0.0809376437970051
  0
VERTEX
  5
817
  8
6
 10
7.6708076909012561
 20
1.1468068691225419
 30
0.0
 42
-1.309168719340182
  0
VERTEX
  5
818
  8
6
 10
7.6716688779856659
 20
1.0182597202268651
 30
0.0
  0
VERTEX
  5
819
  8
6
 10
-0.6671075798840321
 20
0.8020735809130883
 30
0.0
 42
0.9335774872744833
  0
VERTEX
  5
81A
  8
6
 10
-0.5821064617721277
 20
-0.0370813779715036
 30
0.0
  0
VERTEX
  5
81B
  8
6
 10
9.5222559137823737
 20
-0.0372017745605717
 30
0.0
 42
0.7884178280848461
  0
VERTEX
  5
81C
  8
6
 10
9.6836349454592892
 20
4.0000000000291029
 30
0.0
 42
0.0284459105672782
  0
VERTEX
  5
81D
  8
6
 10
0.1934378425198702
 20
3.4873998245094522
 30
0.0
 42
-0.1384777996430798
  0
VERTEX
  5
81E
  8
6
 10
-0.7421355622063857
 20
3.573051153991968
 30
0.0
  0
VERTEX
  5
81F
  8
6
 10
-1.343579188805051
 20
3.888006133464045
 30
0.0
 42
0.1185554568446651
  0
VERTEX
  5
820
  8
6
 10
-1.7658220870894179
 20
4.0000000000291029
 30
0.0
  0
VERTEX
  5
821
  8
6
 10
-10.45303456651436
 20
4.0000000000291029
 30
0.0
 42
0.2573152806763547
  0
VERTEX
  5
822
  8
6
 10
-11.038004568217721
 20
2.7891242529026381
 30
0.0
 42
0.3967050536942419
  0
VERTEX
  5
823
  8
6
 10
-7.952549009682115
 20
0.0106572496523541
 30
0.0
 42
0.8586600924389674
  0
VERTEX
  5
824
  8
6
 10
-7.9495955337906699
 20
0.6588040058943534
 30
0.0
 42
-0.1417999230343901
  0
VERTEX
  5
825
  8
6
 10
-9.3853640602619635
 20
1.4787387534212251
 30
0.0
 42
-0.611068708960492
  0
VERTEX
  5
826
  8
6
 10
-9.2638120978112966
 20
1.9820425641549939
 30
0.0
  0
VERTEX
  5
827
  8
6
 10
-7.6961394914987968
 20
1.916349860917534
 30
0.0
 42
-0.2706354936411275
  0
VERTEX
  5
828
  8
6
 10
-7.1798400492207293
 20
1.343884978834921
 30
0.0
 42
0.2601836308907449
  0
VERTEX
  5
829
  8
6
 10
-5.9219470210928193
 20
-0.0168922763783712
 30
0.0
  0
VERTEX
  5
82A
  8
6
 10
-5.0928642205321921
 20
-0.0190609922279919
 30
0.0
 42
0.7279916134161134
  0
VERTEX
  5
82B
  8
6
 10
-5.0096301139433299
 20
0.6228532032556587
 30
0.0
 42
-0.1859347738816371
  0
VERTEX
  5
82C
  8
6
 10
-6.0064323685232921
 20
1.193730256743037
 30
0.0
 42
-0.5700359986762457
  0
VERTEX
  5
82D
  8
6
 10
-5.6309418967507554
 20
1.9351191765346121
 30
0.0
  0
VERTEX
  5
82E
  8
6
 10
-3.9224603199322701
 20
1.5315783978793429
 30
0.0
 42
-0.272477741764751
  0
VERTEX
  5
82F
  8
6
 10
-3.6971660891786078
 20
1.315730972550113
 30
0.0
 42
-0.0857690881438546
  0
VERTEX
  5
830
  8
6
 10
-3.80981316096404
 20
0.2083398396188159
 30
0.0
 42
0.0942144671397656
  0
VERTEX
  5
831
  8
6
 10
-3.9833343376908479
 20
-1.4825580278468351
 30
0.0
 42
0.4988373399297799
  0
VERTEX
  5
832
  8
6
 10
-3.3192213475526842
 20
-1.567741440455279
 30
0.0
 42
0.1329095744484323
  0
SEQEND
  5
833
  8
6
  0
INSERT
  5
4B6
  8
2
  6
CONTINUOUS
  2
*X8
 10
0.0
 20
0.0
 30
0.0
1001
ACAD
1000
HATCH
1002
{
1070
    19
1000
_USER
1040
1.5
1040
0.7853981633974483
1000
ASC_BOUNDS
1070
     2
1070
     1
1070
     2
1005
2D2
1005
2D6
1070
     1
1070
     4
1005
2D6
1005
2D1
1005
3C1
1005
2D2
1000
ASC_SEEDPOINT
1011
-6.7685310927952278
1021
0.0
1031
0.0
1021
-7.0042345173967533
1031
0.0
1000
R14_HATCH_DATA
1000
4B6
1011
1.0
1021
0.0
1031
0.0
1021
0.0
1031
0.0
1011
0.0
1021
0.0
1031
0.0
1021
1.0
1031
0.0
1011
0.0
1021
0.0
1031
0.0
1021
0.0
1031
1.0
1040
0.0
1010
0.0
1020
0.0
1030
1.0
1000
_USER
1070
     0
1070
     1
1071
        2
1071
        7
1070
     1
1070
     1
1071
       31
1040
-6.0000000000072751
1040
-1.9999999999708959
1040
0.0
1040
-4.3000000000180298
1040
-1.999999999982492
1040
0.4142135623750932
1040
-4.0000000000072751
1040
-1.6999999999737829
1040
0.0
1040
-4.0000000000072751
1040
-0.6999999999679853
1040
0.0
1040
-4.5000000000072751
1040
0.0000000000291037
1040
0.0
1040
-5.0000000000072751
1040
-0.6999999999679856
1040
0.0
1040
-5.4871216477393769
1040
-0.0180296931458776
1040
0.0
1040
-5.5128303174386968
1040
-0.0179624443748117
1040
0.0
1040
-6.0000000000072751
1040
-0.6999999999679851
1040
0.0
1040
-6.5000000000072751
1040
0.0000000000291024
1040
0.0
1040
-7.0000000000072742
1040
-0.6999999999679857
1040
0.0
1040
-7.5000000000072751
1040
0.0000000000291037
1040
0.0
1040
-8.0000000000072742
1040
-0.6999999999679856
1040
0.0
1040
-8.5000000000072742
1040
0.0000000000291031
1040
0.0
1040
-9.0000000000072742
1040
-0.6999999999679841
1040
0.0
1040
-9.5000000000072777
1040
0.0000000000291031
1040
0.0
1040
-10.000000000007271
1040
-0.6999999999825377
1040
-0.3275382217184255
1040
-10.953939201425939
1040
0.0000000000291038
1040
0.0
1040
-11.000000000007271
1040
0.0000000000291038
1040
0.0
1040
-11.000000000007271
1040
2.499744299016375
1040
-0.0241079499894578
1040
-11.038004568217721
1040
2.789124252902599
1040
-0.0736124349041056
1040
-11.000000000007271
1040
3.1953221648317558
1040
0.0
1040
-11.000000000007271
1040
4.0000000000291029
1040
0.0
1040
-12.0000000000291
1040
4.000000000014551
1040
0.4142135623688328
1040
-13.000000000007271
1040
3.000000000021827
1040
0.0
1040
-13.000000000007271
1040
0.0000000000291038
1040
0.0
1040
-13.00000000000454
1040
-2.6999999999769289
1040
0.4142135623727991
1040
-12.70000000001027
1040
-2.9999999999708962
1040
0.0
1040
-8.0000000000072742
1040
-2.9999999999708962
1040
0.0
1040
-8.0000000000072742
1040
-9.4999999999708944
1040
0.0
1040
-6.0000000000036371
1040
-9.4999999999708962
1040
0.0
1071
        4
1005
2D2
1005
3C1
1005
2D1
1005
2D6
1071
        7
1070
     1
1070
     1
1071
        8
1040
-6.0000000000036371
1040
-9.4999999999708962
1040
0.0
1040
-8.0000000000072742
1040
-9.4999999999708944
1040
0.0
1040
-8.0000000000072742
1040
-14.999999999970891
1040
0.0
1040
-12.70000000000603
1040
-14.99999999997385
1040
0.4142135623729109
1040
-13.000000000007271
1040
-15.299999999975279
1040
0.0
1040
-13.000000000007271
1040
-15.999999999974531
1040
0.4142135623730951
1040
-12.00000000001091
1040
-16.999999999970889
1040
0.0
1040
-6.0
1040
-16.999999999970889
1040
0.0
1071
        2
1005
2D6
1005
2D2
1070
     0
1070
     0
1040
0.7853981633974483
1040
1.5
1070
     0
1070
     1
1040
0.7853981633974483
1040
0.0
1040
0.0
1040
-1.060660171779821
1040
1.060660171779821
1070
     0
1040
0.0680770102553418
1071
        2
1040
-6.7685310927952278
1040
-7.0042345173967533
1040
0.0
1040
-6.7685310927952278
1040
-11.56539421452654
1040
0.0
1002
}
  0
POLYLINE
  8
1
  5
84C
  66
     1
 10
0.000000
 20
0.000000
 30
0.000000
  70
     8
  0
VERTEX
  8
1
  5
84D
 10
-4.97142
 20
-12.0105
 30
0.000000
  70
    32
  0
VERTEX
  8
1
  5
84E
 10
4.33494
 20
-8.90993
 30
0.000000
  70
    32
  0
VERTEX
  8
1
  5
84F
 10
5.46986
 20
-8.90993
 30
0.000000
  70
    32
  0
SEQEND
  8
1
  5
850
  0
TEXT
  5
739
  8
1
 10
6.3375310346342753
 20
-9.194035965543577
 30
0.0
 40
2.0
  1
745 Aufschäumstreifen
  7
BESCHLAG
  0
POLYLINE
  8
1
  5
851
  66
     1
 10
0.000000
 20
0.000000
 30
0.000000
  70
     8
  0
VERTEX
  8
1
  5
852
 10
-2.39893
 20
2.50912
 30
0.000000
  70
    32
  0
VERTEX
  8
1
  5
853
 10
-2.39893
 20
7.04649
 30
0.000000
  70
    32
  0
VERTEX
  8
1
  5
854
 10
-0.961363
 20
7.04649
 30
0.000000
  70
    32
  0
SEQEND
  8
1
  5
855
  0
TEXT
  5
73B
  8
1
 10
-0.0773248019535238
 20
6.7882996318730688
 30
0.0
 40
2.0
  1
535 Dichtung
  7
BESCHLAG
  0
VIEWPORT
  5
22
 67
     1
  8
0
 10
210.0
 20
170.2366863905325
 30
0.0
 40
420.0
 41
340.47337278106511
 68
     1
 69
     1
1001
ACAD
1000
MVIEW
1002
{
1070
    16
1010
0.0
1020
0.0
1030
0.0
1010
0.0
1020
0.0
1030
1.0
1040
0.0
1040
340.47337278106511
1040
210.0
1040
170.2366863905325
1040
50.0
1040
0.0
1040
0.0
1070
     0
1070
   100
1070
     1
1070
     1
1070
     0
1070
     0
1070
     0
1070
     0
1040
0.0
1040
0.0
1040
0.0
1040
5.0
1040
5.0
1040
10.0
1040
10.0
1070
     0
1002
{
1002
}
1002
}
  0
ENDSEC
  0
EOF
