  0
SECTION
  2
HEADER
  9
$ACADVER
  1
AC1015
  9
$ACADMAINTVER
 70
    13
  9
$DWGCODEPAGE
  3
ANSI_1252
  9
$INSBASE
 10
0.0
 20
0.0
 30
0.0
  9
$EXTMIN
 10
-28.31268226531403
 20
-25.06256019121792
 30
-0.0015258207003583
  9
$EXTMAX
 10
16.20483452710891
 20
4.005432657438177
 30
0.0000000349246037
  9
$LIMMIN
 10
-150.0
 20
-150.0
  9
$LIMMAX
 10
150.0
 20
150.0
  9
$ORTHOMODE
 70
     0
  9
$REGENMODE
 70
     1
  9
$FILLMODE
 70
     1
  9
$QTEXTMODE
 70
     0
  9
$MIRRTEXT
 70
     0
  9
$LTSCALE
 40
3.0
  9
$ATTMODE
 70
     1
  9
$TEXTSIZE
 40
3.5
  9
$TRACEWID
 40
1.0
  9
$TEXTSTYLE
  7
Beschlag
  9
$CLAYER
  8
0
  9
$CELTYPE
  6
BYLAYER
  9
$CECOLOR
 62
   256
  9
$CELTSCALE
 40
1.0
  9
$DISPSILH
 70
     1
  9
$DIMSCALE
 40
1.0
  9
$DIMASZ
 40
2.0
  9
$DIMEXO
 40
2.0
  9
$DIMDLI
 40
0.0
  9
$DIMRND
 40
0.0
  9
$DIMDLE
 40
1.0
  9
$DIMEXE
 40
1.0
  9
$DIMTP
 40
0.0
  9
$DIMTM
 40
0.0
  9
$DIMTXT
 40
3.5
  9
$DIMCEN
 40
0.0
  9
$DIMTSZ
 40
0.0
  9
$DIMTOL
 70
     0
  9
$DIMLIM
 70
     0
  9
$DIMTIH
 70
     0
  9
$DIMTOH
 70
     0
  9
$DIMSE1
 70
     0
  9
$DIMSE2
 70
     0
  9
$DIMTAD
 70
     1
  9
$DIMZIN
 70
     8
  9
$DIMBLK
  1

  9
$DIMASO
 70
     1
  9
$DIMSHO
 70
     1
  9
$DIMPOST
  1

  9
$DIMAPOST
  1

  9
$DIMALT
 70
     0
  9
$DIMALTD
 70
     2
  9
$DIMALTF
 40
0.039370078740157
  9
$DIMLFAC
 40
1.0
  9
$DIMTOFL
 70
     1
  9
$DIMTVP
 40
0.0
  9
$DIMTIX
 70
     1
  9
$DIMSOXD
 70
     0
  9
$DIMSAH
 70
     1
  9
$DIMBLK1
  1
Oblique
  9
$DIMBLK2
  1
Oblique
  9
$DIMSTYLE
  2
OPO-SSTRICH
  9
$DIMCLRD
 70
   256
  9
$DIMCLRE
 70
   256
  9
$DIMCLRT
 70
   256
  9
$DIMTFAC
 40
0.7114285714285716
  9
$DIMGAP
 40
1.0
  9
$DIMJUST
 70
     0
  9
$DIMSD1
 70
     0
  9
$DIMSD2
 70
     0
  9
$DIMTOLJ
 70
     1
  9
$DIMTZIN
 70
     8
  9
$DIMALTZ
 70
     8
  9
$DIMALTTZ
 70
     8
  9
$DIMUPT
 70
     0
  9
$DIMDEC
 70
     1
  9
$DIMTDEC
 70
     1
  9
$DIMALTU
 70
     2
  9
$DIMALTTD
 70
     2
  9
$DIMTXSTY
  7
Beschlag
  9
$DIMAUNIT
 70
     0
  9
$DIMADEC
 70
     1
  9
$DIMALTRND
 40
0.0
  9
$DIMAZIN
 70
     2
  9
$DIMDSEP
 70
    46
  9
$DIMATFIT
 70
     3
  9
$DIMFRAC
 70
     0
  9
$DIMLDRBLK
  1
Oblique
  9
$DIMLUNIT
 70
     2
  9
$DIMLWD
 70
    -2
  9
$DIMLWE
 70
    -2
  9
$DIMTMOVE
 70
     2
  9
$LUNITS
 70
     2
  9
$LUPREC
 70
     1
  9
$SKETCHINC
 40
1.0
  9
$FILLETRAD
 40
0.5
  9
$AUNITS
 70
     0
  9
$AUPREC
 70
     1
  9
$MENU
  1
D:\ACL_CGWG\CGTAB13
  9
$ELEVATION
 40
0.0
  9
$PELEVATION
 40
0.0
  9
$THICKNESS
 40
0.0
  9
$LIMCHECK
 70
     0
  9
$CHAMFERA
 40
1.0
  9
$CHAMFERB
 40
1.0
  9
$CHAMFERC
 40
1.0
  9
$CHAMFERD
 40
0.7853981633974483
  9
$SKPOLY
 70
     0
  9
$TDCREATE
 40
2451739.903443101
  9
$TDUCREATE
 40
2451739.861776435
  9
$TDUPDATE
 40
2452243.469661180
  9
$TDUUPDATE
 40
2452243.427994513
  9
$TDINDWG
 40
0.0445054745
  9
$TDUSRTIMER
 40
0.0445054745
  9
$USRTIMER
 70
     1
  9
$ANGBASE
 50
0.0
  9
$ANGDIR
 70
     0
  9
$PDMODE
 70
    35
  9
$PDSIZE
 40
5.0
  9
$PLINEWID
 40
0.0
  9
$SPLFRAME
 70
     0
  9
$SPLINETYPE
 70
     6
  9
$SPLINESEGS
 70
     8
  9
$HANDSEED
  5
6A
  9
$SURFTAB1
 70
    12
  9
$SURFTAB2
 70
    12
  9
$SURFTYPE
 70
     6
  9
$SURFU
 70
    12
  9
$SURFV
 70
    12
  9
$UCSBASE
  2

  9
$UCSNAME
  2

  9
$UCSORG
 10
0.0
 20
0.0
 30
0.0
  9
$UCSXDIR
 10
1.0
 20
0.0
 30
0.0
  9
$UCSYDIR
 10
0.0
 20
1.0
 30
0.0
  9
$UCSORTHOREF
  2

  9
$UCSORTHOVIEW
 70
     0
  9
$UCSORGTOP
 10
0.0
 20
0.0
 30
0.0
  9
$UCSORGBOTTOM
 10
0.0
 20
0.0
 30
0.0
  9
$UCSORGLEFT
 10
0.0
 20
0.0
 30
0.0
  9
$UCSORGRIGHT
 10
0.0
 20
0.0
 30
0.0
  9
$UCSORGFRONT
 10
0.0
 20
0.0
 30
0.0
  9
$UCSORGBACK
 10
0.0
 20
0.0
 30
0.0
  9
$PUCSBASE
  2

  9
$PUCSNAME
  2

  9
$PUCSORG
 10
0.0
 20
0.0
 30
0.0
  9
$PUCSXDIR
 10
1.0
 20
0.0
 30
0.0
  9
$PUCSYDIR
 10
0.0
 20
1.0
 30
0.0
  9
$PUCSORTHOREF
  2

  9
$PUCSORTHOVIEW
 70
     0
  9
$PUCSORGTOP
 10
0.0
 20
0.0
 30
0.0
  9
$PUCSORGBOTTOM
 10
0.0
 20
0.0
 30
0.0
  9
$PUCSORGLEFT
 10
0.0
 20
0.0
 30
0.0
  9
$PUCSORGRIGHT
 10
0.0
 20
0.0
 30
0.0
  9
$PUCSORGFRONT
 10
0.0
 20
0.0
 30
0.0
  9
$PUCSORGBACK
 10
0.0
 20
0.0
 30
0.0
  9
$USERI1
 70
     0
  9
$USERI2
 70
     0
  9
$USERI3
 70
     0
  9
$USERI4
 70
     0
  9
$USERI5
 70
     0
  9
$USERR1
 40
0.0
  9
$USERR2
 40
0.0
  9
$USERR3
 40
0.0
  9
$USERR4
 40
0.0
  9
$USERR5
 40
0.0
  9
$WORLDVIEW
 70
     1
  9
$SHADEDGE
 70
     3
  9
$SHADEDIF
 70
    70
  9
$TILEMODE
 70
     1
  9
$MAXACTVP
 70
    48
  9
$PINSBASE
 10
0.0
 20
0.0
 30
0.0
  9
$PLIMCHECK
 70
     0
  9
$PEXTMIN
 10
1.000000000000000E+20
 20
1.000000000000000E+20
 30
1.000000000000000E+20
  9
$PEXTMAX
 10
-1.000000000000000E+20
 20
-1.000000000000000E+20
 30
-1.000000000000000E+20
  9
$PLIMMIN
 10
0.0
 20
0.0
  9
$PLIMMAX
 10
420.0
 20
297.0
  9
$UNITMODE
 70
     0
  9
$VISRETAIN
 70
     1
  9
$PLINEGEN
 70
     0
  9
$PSLTSCALE
 70
     1
  9
$TREEDEPTH
 70
  3020
  9
$CMLSTYLE
  2
STANDARD
  9
$CMLJUST
 70
     0
  9
$CMLSCALE
 40
1.0
  9
$PROXYGRAPHICS
 70
     1
  9
$MEASUREMENT
 70
     1
  9
$CELWEIGHT
370
    -1
  9
$ENDCAPS
280
     0
  9
$JOINSTYLE
280
     0
  9
$LWDISPLAY
290
     0
  9
$INSUNITS
 70
     0
  9
$HYPERLINKBASE
  1

  9
$STYLESHEET
  1

  9
$XEDIT
290
     1
  9
$CEPSNTYPE
380
     0
  9
$PSTYLEMODE
290
     1
  9
$FINGERPRINTGUID
  2
{DEF6964E-5F8B-11D3-8AEE-0008C71A8CF4}
  9
$VERSIONGUID
  2
{D7BC0788-A9B1-4B60-B378-44A352E3F35A}
  9
$EXTNAMES
290
     1
  9
$PSVPSCALE
 40
0.0
  9
$OLESTARTUP
290
     0
  0
ENDSEC
  0
SECTION
  2
CLASSES
  0
CLASS
  1
ACDBDICTIONARYWDFLT
  2
AcDbDictionaryWithDefault
  3
AutoCAD 2000
 90
        0
280
     0
281
     0
  0
CLASS
  1
ACDBPLACEHOLDER
  2
AcDbPlaceHolder
  3
AutoCAD 2000
 90
        0
280
     0
281
     0
  0
CLASS
  1
LAYOUT
  2
AcDbLayout
  3
AutoCAD 2000
 90
        0
280
     0
281
     0
  0
CLASS
  1
DICTIONARYVAR
  2
AcDbDictionaryVar
  3
AutoCAD 2000
 90
        0
280
     0
281
     0
  0
CLASS
  1
LONG_TRANSACTION
  2
AcDbLongTransaction
  3
AutoCAD 2000
 90
    32768
280
     0
281
     0
  0
CLASS
  1
LWPOLYLINE
  2
AcDbPolyline
  3
AutoCAD 2000
 90
    32768
280
     0
281
     1
  0
CLASS
  1
HATCH
  2
AcDbHatch
  3
AutoCAD 2000
 90
    32768
280
     0
281
     1
  0
CLASS
  1
XRECORD
  2
AcDbXrecord
  3
AutoCAD 2000
 90
    32768
280
     0
281
     0
  0
CLASS
  1
PLOTSETTINGS
  2
AcDbPlotSettings
  3
AutoCAD 2000
 90
    32768
280
     0
281
     0
  0
CLASS
  1
LONG_TRANSACTION
  2
AcDbLongTransaction
  3
AutoCAD 2000
 90
    32768
280
     0
281
     0
  0
CLASS
  1
LWPOLYLINE
  2
AcDbPolyline
  3
AutoCAD 2000
 90
    32768
280
     0
281
     1
  0
CLASS
  1
HATCH
  2
AcDbHatch
  3
AutoCAD 2000
 90
    32768
280
     0
281
     1
  0
CLASS
  1
XRECORD
  2
AcDbXrecord
  3
AutoCAD 2000
 90
    32768
280
     0
281
     0
  0
CLASS
  1
LONG_TRANSACTION
  2
AcDbLongTransaction
  3
AutoCAD 2000
 90
    32768
280
     0
281
     0
  0
CLASS
  1
LWPOLYLINE
  2
AcDbPolyline
  3
AutoCAD 2000
 90
    32768
280
     0
281
     1
  0
CLASS
  1
HATCH
  2
AcDbHatch
  3
AutoCAD 2000
 90
    32768
280
     0
281
     1
  0
CLASS
  1
XRECORD
  2
AcDbXrecord
  3
AutoCAD 2000
 90
    32768
280
     0
281
     0
  0
CLASS
  1
LONG_TRANSACTION
  2
AcDbLongTransaction
  3
AutoCAD 2000
 90
    32768
280
     0
281
     0
  0
CLASS
  1
LWPOLYLINE
  2
AcDbPolyline
  3
AutoCAD 2000
 90
    32768
280
     0
281
     1
  0
CLASS
  1
HATCH
  2
AcDbHatch
  3
AutoCAD 2000
 90
    32768
280
     0
281
     1
  0
CLASS
  1
XRECORD
  2
AcDbXrecord
  3
AutoCAD 2000
 90
    32768
280
     0
281
     0
  0
CLASS
  1
LONG_TRANSACTION
  2
AcDbLongTransaction
  3
AutoCAD 2000
 90
    32768
280
     0
281
     0
  0
CLASS
  1
LWPOLYLINE
  2
AcDbPolyline
  3
AutoCAD 2000
 90
    32768
280
     0
281
     1
  0
CLASS
  1
HATCH
  2
AcDbHatch
  3
AutoCAD 2000
 90
    32768
280
     0
281
     1
  0
CLASS
  1
XRECORD
  2
AcDbXrecord
  3
AutoCAD 2000
 90
    32768
280
     0
281
     0
  0
CLASS
  1
LONG_TRANSACTION
  2
AcDbLongTransaction
  3
AutoCAD 2000
 90
    32768
280
     0
281
     0
  0
CLASS
  1
LWPOLYLINE
  2
AcDbPolyline
  3
AutoCAD 2000
 90
    32768
280
     0
281
     1
  0
CLASS
  1
HATCH
  2
AcDbHatch
  3
AutoCAD 2000
 90
    32768
280
     0
281
     1
  0
CLASS
  1
XRECORD
  2
AcDbXrecord
  3
AutoCAD 2000
 90
    32768
280
     0
281
     0
  0
CLASS
  1
LONG_TRANSACTION
  2
AcDbLongTransaction
  3
AutoCAD 2000
 90
    32768
280
     0
281
     0
  0
CLASS
  1
LWPOLYLINE
  2
AcDbPolyline
  3
AutoCAD 2000
 90
    32768
280
     0
281
     1
  0
CLASS
  1
HATCH
  2
AcDbHatch
  3
AutoCAD 2000
 90
    32768
280
     0
281
     1
  0
CLASS
  1
XRECORD
  2
AcDbXrecord
  3
AutoCAD 2000
 90
    32768
280
     0
281
     0
  0
CLASS
  1
SORTENTSTABLE
  2
AcDbSortentsTable
  3
AutoCAD 2000
 90
        0
280
     0
281
     0
  0
ENDSEC
  0
SECTION
  2
TABLES
  0
TABLE
  2
VPORT
  5
1F
330
0
100
AcDbSymbolTable
 70
     2
  0
VPORT
  5
69
330
1F
100
AcDbSymbolTableRecord
100
AcDbViewportTableRecord
  2
*Active
 70
     0
 10
0.0
 20
0.0
 11
1.0
 21
1.0
 12
-6.053923869102563
 22
-10.52856376688987
 13
0.0
 23
0.0
 14
0.25
 24
0.25
 15
10.0
 25
10.0
 16
0.0
 26
0.0
 36
1.0
 17
0.0
 27
0.0
 37
0.0
 40
29.29508654278622
 41
1.581486310299869
 42
50.0
 43
0.0
 44
0.0
 50
0.0
 51
0.0
 71
     0
 72
   800
 73
     1
 74
     1
 75
     0
 76
     0
 77
     0
 78
     0
281
     0
 65
     1
110
0.0
120
0.0
130
0.0
111
1.0
121
0.0
131
0.0
112
0.0
122
1.0
132
0.0
 79
     0
146
0.0
  0
ENDTAB
  0
TABLE
  2
LTYPE
  5
1A
330
0
100
AcDbSymbolTable
 70
     2
  0
LTYPE
  5
1B
330
1A
100
AcDbSymbolTableRecord
100
AcDbLinetypeTableRecord
  2
BYBLOCK
 70
     0
  3

 72
    65
 73
     0
 40
0.0
  0
LTYPE
  5
1C
330
1A
100
AcDbSymbolTableRecord
100
AcDbLinetypeTableRecord
  2
BYLAYER
 70
     0
  3

 72
    65
 73
     0
 40
0.0
  0
LTYPE
  5
B
330
1A
100
AcDbSymbolTableRecord
100
AcDbLinetypeTableRecord
  2
CONTINUOUS
 70
     0
  3
_______________________________________________
 72
    65
 73
     2
 40
1.0
 49
1.0
 74
     0
 49
0.0
 74
     0
  0
LTYPE
  5
3F
330
1A
100
AcDbSymbolTableRecord
100
AcDbLinetypeTableRecord
  2
STRICHPUNKT
 70
     0
  3
__ . __ . __ . __ . __ . __ . __ . __ . __ . __
 72
    65
 73
     4
 40
1.0
 49
0.5
 74
     0
 49
-0.25
 74
     0
 49
0.0
 74
     0
 49
-0.25
 74
     0
  0
ENDTAB
  0
TABLE
  2
LAYER
  5
15
330
0
100
AcDbSymbolTable
 70
     6
  0
LAYER
  5
7
330
15
100
AcDbSymbolTableRecord
100
AcDbLayerTableRecord
  2
0
 70
     0
 62
    30
  6
CONTINUOUS
370
    -3
390
8
  0
LAYER
  5
39
330
15
100
AcDbSymbolTableRecord
100
AcDbLayerTableRecord
  2
1
 70
     0
 62
     2
  6
CONTINUOUS
370
    -3
390
8
  0
LAYER
  5
60
330
15
100
AcDbSymbolTableRecord
100
AcDbLayerTableRecord
  2
2
 70
     0
 62
     9
  6
CONTINUOUS
370
    -3
390
8
  0
LAYER
  5
2F
330
15
100
AcDbSymbolTableRecord
100
AcDbLayerTableRecord
  2
5
 70
     0
 62
     1
  6
CONTINUOUS
370
    -3
390
8
  0
LAYER
  5
3B
330
15
100
AcDbSymbolTableRecord
100
AcDbLayerTableRecord
  2
6
 70
     0
 62
     3
  6
CONTINUOUS
370
    35
390
8
  0
LAYER
  5
4D
330
15
100
AcDbSymbolTableRecord
100
AcDbLayerTableRecord
  2
Defpoints
 70
     0
 62
     7
  6
CONTINUOUS
290
     0
370
    -3
390
8
  0
ENDTAB
  0
TABLE
  2
STYLE
  5
16
330
0
100
AcDbSymbolTable
 70
     2
  0
STYLE
  5
17
330
16
100
AcDbSymbolTableRecord
100
AcDbTextStyleTableRecord
  2
STANDARD
 70
     0
 40
0.0
 41
1.0
 50
0.0
 71
     0
 42
2.5
  3
ARIAL.TTF
  4

1001
ACAD
1000
Arial
1071
       34
  0
STYLE
  5
24
330
16
100
AcDbSymbolTableRecord
100
AcDbTextStyleTableRecord
  2
Beschlag
 70
     0
 40
0.0
 41
1.0
 50
0.0
 71
     0
 42
3.5
  3
ARIAL.TTF
  4

1001
ACAD
1000
Arial
1071
       34
  0
ENDTAB
  0
TABLE
  2
VIEW
  5
1D
330
0
100
AcDbSymbolTable
 70
     0
  0
ENDTAB
  0
TABLE
  2
UCS
  5
1E
330
0
100
AcDbSymbolTable
 70
     0
  0
ENDTAB
  0
TABLE
  2
APPID
  5
21
330
0
100
AcDbSymbolTable
 70
     1
  0
APPID
  5
18
330
21
100
AcDbSymbolTableRecord
100
AcDbRegAppTableRecord
  2
ACAD
 70
     0
  0
ENDTAB
  0
TABLE
  2
DIMSTYLE
  5
22
330
0
100
AcDbSymbolTable
 70
     1
100
AcDbDimStyleTable
 71
     1
340
23
  0
DIMSTYLE
105
23
102
{ACAD_REACTORS
330
44
330
52
102
}
330
22
100
AcDbSymbolTableRecord
100
AcDbDimStyleTableRecord
  2
OPO-SSTRICH
 70
     0
 41
2.0
 42
2.0
 43
0.0
 44
1.0
 46
1.0
 73
     0
 74
     0
 77
     1
 78
     8
 79
     2
140
3.5
141
0.0
143
0.039370078740157
146
0.7114285714285716
147
1.0
172
     1
173
     1
174
     1
176
   256
177
   256
178
   256
179
     1
271
     1
272
     1
279
     2
284
     8
285
     8
286
     8
340
24
341
25
343
25
344
25
  0
ENDTAB
  0
TABLE
  2
BLOCK_RECORD
  5
1
330
0
100
AcDbSymbolTable
 70
     4
  0
BLOCK_RECORD
  5
2
102
{ACAD_XDICTIONARY
360
3
102
}
330
1
100
AcDbSymbolTableRecord
100
AcDbBlockTableRecord
  2
*MODEL_SPACE
340
D
  0
BLOCK_RECORD
  5
F
102
{ACAD_XDICTIONARY
360
10
102
}
330
1
100
AcDbSymbolTableRecord
100
AcDbBlockTableRecord
  2
*PAPER_SPACE
340
14
  0
BLOCK_RECORD
  5
25
330
1
100
AcDbSymbolTableRecord
100
AcDbBlockTableRecord
  2
_Oblique
340
0
102
{BLKREFS
331
57
331
58
331
49
331
4A
102
}
  0
BLOCK_RECORD
  5
30
330
1
100
AcDbSymbolTableRecord
100
AcDbBlockTableRecord
  2
NullPunkt
340
0
102
{BLKREFS
331
2E
102
}
  0
BLOCK_RECORD
  5
45
330
1
100
AcDbSymbolTableRecord
100
AcDbBlockTableRecord
  2
*D2
340
0
  0
BLOCK_RECORD
  5
53
330
1
100
AcDbSymbolTableRecord
100
AcDbBlockTableRecord
  2
*D3
340
0
  0
ENDTAB
  0
ENDSEC
  0
SECTION
  2
BLOCKS
  0
BLOCK
  5
6
330
2
100
AcDbEntity
  8
0
100
AcDbBlockBegin
  2
*MODEL_SPACE
 70
     0
 10
0.0
 20
0.0
 30
0.0
  3
*MODEL_SPACE
  1

  0
ENDBLK
  5
C
330
2
100
AcDbEntity
  8
0
100
AcDbBlockEnd
  0
BLOCK
  5
12
330
F
100
AcDbEntity
 67
     1
  8
0
100
AcDbBlockBegin
  2
*PAPER_SPACE
 70
     0
 10
0.0
 20
0.0
 30
0.0
  3
*PAPER_SPACE
  1

  0
ENDBLK
  5
13
330
F
100
AcDbEntity
 67
     1
  8
0
100
AcDbBlockEnd
  0
BLOCK
  5
27
330
25
100
AcDbEntity
  8
0
100
AcDbBlockBegin
  2
_Oblique
 70
     0
 10
0.0
 20
0.0
 30
0.0
  3
_Oblique
  1

  0
LINE
  5
26
330
25
100
AcDbEntity
  8
0
 62
     0
370
    -2
100
AcDbLine
 10
-0.5
 20
-0.5
 30
0.0
 11
0.5
 21
0.5
 31
0.0
  0
ENDBLK
  5
28
330
25
100
AcDbEntity
  8
0
100
AcDbBlockEnd
  0
BLOCK
  5
36
330
30
100
AcDbEntity
  8
0
100
AcDbBlockBegin
  2
NullPunkt
 70
     0
 10
0.0
 20
0.0
 30
0.0
  3
NullPunkt
  1

  0
SOLID
  5
31
330
30
100
AcDbEntity
  8
5
100
AcDbTrace
 10
0.0
 20
0.0
 30
0.0
 11
2.0
 21
0.0
 31
0.0
 12
0.0
 22
-2.0
 32
0.0
 13
0.0
 23
-2.0
 33
0.0
  0
SOLID
  5
32
330
30
100
AcDbEntity
  8
5
100
AcDbTrace
 10
0.0
 20
0.0
 30
0.0
 11
-2.0
 21
0.0
 31
0.0
 12
0.0
 22
2.0
 32
0.0
 13
0.0
 23
2.0
 33
0.0
  0
LWPOLYLINE
  5
33
330
30
100
AcDbEntity
  8
5
100
AcDbPolyline
 90
        2
 70
     0
 43
0.0
 10
0.0
 20
2.0
 10
0.0
 20
-2.0
  0
LWPOLYLINE
  5
34
330
30
100
AcDbEntity
  8
5
100
AcDbPolyline
 90
        2
 70
     0
 43
0.0
 10
-2.0
 20
0.0
 10
2.0
 20
0.0
  0
CIRCLE
  5
35
330
30
100
AcDbEntity
  8
5
100
AcDbCircle
 10
0.0
 20
0.0
 30
0.0
 40
2.0
  0
ENDBLK
  5
37
330
30
100
AcDbEntity
  8
0
100
AcDbBlockEnd
  0
BLOCK
  5
50
330
45
100
AcDbEntity
  8
0
100
AcDbBlockBegin
  2
*D2
 70
     1
 10
0.0
 20
0.0
 30
0.0
  3
*D2
  1

  0
LINE
  5
46
330
45
100
AcDbEntity
  8
1
370
    -2
100
AcDbLine
 10
-3.896126879187078
 20
37.23348771560782
 30
0.0
 11
-12.89612687918707
 21
37.23348771560782
 31
0.0
  0
LINE
  5
47
330
45
100
AcDbEntity
  8
1
370
    -2
100
AcDbLine
 10
-3.896126879187079
 20
28.73348771560782
 30
0.0
 11
-12.89612687918707
 21
28.73348771560782
 31
0.0
  0
LINE
  5
48
330
45
100
AcDbEntity
  8
1
370
    -2
100
AcDbLine
 10
-11.89612687918707
 20
38.23348771560782
 30
0.0
 11
-11.89612687918708
 21
27.73348771560782
 31
0.0
  0
INSERT
  5
49
330
45
100
AcDbEntity
  8
1
370
    -2
100
AcDbBlockReference
  2
_Oblique
 10
-11.89612687918707
 20
37.23348771560782
 30
0.0
 41
2.0
 42
2.0
 43
2.0
 50
90.0
  0
INSERT
  5
4A
330
45
100
AcDbEntity
  8
1
370
    -2
100
AcDbBlockReference
  2
_Oblique
 10
-11.89612687918707
 20
28.73348771560782
 30
0.0
 41
2.0
 42
2.0
 43
2.0
 50
270.0
  0
MTEXT
  5
4B
330
45
100
AcDbEntity
  8
1
100
AcDbMText
 10
-14.683132336213
 20
32.98348771560782
 30
0.0
 40
3.5
 41
0.0
 71
     5
 72
     1
  1
\A1;8.5
  7
Beschlag
 11
0.0000000000000001
 21
1.0
 31
0.0
 73
     1
 44
1.0
  0
POINT
  5
4C
330
45
100
AcDbEntity
  8
Defpoints
 62
     0
100
AcDbPoint
 10
-1.896126879187079
 20
37.23348771560782
 30
0.0
  0
POINT
  5
4E
330
45
100
AcDbEntity
  8
Defpoints
 62
     0
100
AcDbPoint
 10
-1.896126879187079
 20
28.73348771560782
 30
0.0
  0
POINT
  5
4F
330
45
100
AcDbEntity
  8
Defpoints
 62
     0
100
AcDbPoint
 10
-11.89612687918707
 20
28.73348771560782
 30
0.0
  0
ENDBLK
  5
51
330
45
100
AcDbEntity
  8
0
100
AcDbBlockEnd
  0
BLOCK
  5
5D
330
53
100
AcDbEntity
  8
0
100
AcDbBlockBegin
  2
*D3
 70
     1
 10
0.0
 20
0.0
 30
0.0
  3
*D3
  1

  0
LINE
  5
54
330
53
100
AcDbEntity
  8
1
370
    -2
100
AcDbLine
 10
26.10387312081292
 20
26.73348771560782
 30
0.0
 11
26.10387312081292
 21
16.98348771560782
 31
0.0
  0
LINE
  5
55
330
53
100
AcDbEntity
  8
1
370
    -2
100
AcDbLine
 10
-1.896126879187079
 20
26.73348771560782
 30
0.0
 11
-1.89612687918708
 21
16.98348771560782
 31
0.0
  0
LINE
  5
56
330
53
100
AcDbEntity
  8
1
370
    -2
100
AcDbLine
 10
27.10387312081292
 20
17.98348771560782
 30
0.0
 11
-2.89612687918708
 21
17.98348771560782
 31
0.0
  0
INSERT
  5
57
330
53
100
AcDbEntity
  8
1
370
    -2
100
AcDbBlockReference
  2
_Oblique
 10
26.10387312081292
 20
17.98348771560782
 30
0.0
 41
2.0
 42
2.0
 43
2.0
  0
INSERT
  5
58
330
53
100
AcDbEntity
  8
1
370
    -2
100
AcDbBlockReference
  2
_Oblique
 10
-1.89612687918708
 20
17.98348771560782
 30
0.0
 41
2.0
 42
2.0
 43
2.0
 50
180.0
  0
MTEXT
  5
59
330
53
100
AcDbEntity
  8
1
100
AcDbMText
 10
12.10387312081292
 20
20.77049317263374
 30
0.0
 40
3.5
 41
0.0
 71
     5
 72
     1
  1
\A1;28
  7
Beschlag
 73
     1
 44
1.0
  0
POINT
  5
5A
330
53
100
AcDbEntity
  8
Defpoints
 62
     0
100
AcDbPoint
 10
26.10387312081292
 20
28.73348771560782
 30
0.0
  0
POINT
  5
5B
330
53
100
AcDbEntity
  8
Defpoints
 62
     0
100
AcDbPoint
 10
-1.896126879187079
 20
28.73348771560782
 30
0.0
  0
POINT
  5
5C
330
53
100
AcDbEntity
  8
Defpoints
 62
     0
100
AcDbPoint
 10
-1.89612687918708
 20
17.98348771560782
 30
0.0
  0
ENDBLK
  5
5E
330
53
100
AcDbEntity
  8
0
100
AcDbBlockEnd
  0
ENDSEC
  0
SECTION
  2
ENTITIES
  0
INSERT
  5
2E
330
2
100
AcDbEntity
  8
5
100
AcDbBlockReference
  2
NullPunkt
 10
0.0
 20
0.0
 30
0.0
 50
90.0
  0
TEXT
  5
38
330
2
100
AcDbEntity
  8
1
100
AcDbText
 10
-17.68215523624474
 20
-24.30615632952441
 30
0.0
 40
2.49999995
  1
Hebgo 147/627
100
AcDbText
  0
LWPOLYLINE
  5
3A
102
{ACAD_REACTORS
330
61
102
}
330
2
100
AcDbEntity
  8
6
100
AcDbPolyline
 90
        8
 70
     1
 43
0.0
 10
10.6733982218268
 20
-3.976486563728471
 10
8.338815886255851
 20
-3.976486563728471
 42
0.3542222137672995
 10
7.860815369965568
 20
-4.454355184687102
 10
7.864279136904308
 20
-5.306207908359453
 42
0.343655940181943
 10
8.394236257830584
 20
-5.76329962945908
 10
10.82234042644058
 20
-5.76329962945908
 42
0.2923726044221553
 10
11.24145682935629
 20
-5.250802854701898
 10
11.24145682935629
 20
-4.620570345659757
 42
0.345210202999001
  0
LWPOLYLINE
  5
3C
330
2
100
AcDbEntity
  8
6
100
AcDbPolyline
 90
        6
 70
     0
 43
0.0
 10
-3.176166442186172
 20
-2.771017698410105
 10
-2.5
 20
-3.476380421708199
 10
-2.5
 20
-3.676380421708245
 10
-8.299999999999954
 20
-3.676380421708245
 10
-8.299999999999954
 20
-3.476380421708199
 10
-7.52506811701437
 20
-2.771017698410105
 42
0.142709741532141
  0
LWPOLYLINE
  5
3D
330
2
100
AcDbEntity
  8
6
100
AcDbPolyline
 90
        9
 70
     1
 43
0.0
 10
-1.927382269254962
 20
-3.726380421708199
 10
-1.499999999999772
 20
-2.505952090684331
 10
-2.506393037037241
 20
-1.897276441030498
 10
-2.506393037037241
 20
0.0000000000004547
 10
-8.093606962962667
 20
0.0000000000004547
 10
-8.093606962962667
 20
-1.897276441030498
 10
-9.100000000000136
 20
-2.505952090684331
 10
-8.672617730744946
 20
-3.726380421708199
 10
-5.299999999999954
 20
-3.726380421708199
  0
LINE
  5
3E
330
2
100
AcDbEntity
  8
6
  6
STRICHPUNKT
100
AcDbLine
 10
-5.299999999999954
 20
-4.297380421708339
 30
0.0
 11
-5.299999999999956
 21
3.987821378373496
 31
0.0
  0
LWPOLYLINE
  5
40
330
2
100
AcDbEntity
  8
6
100
AcDbPolyline
 90
        3
 70
     0
 43
0.0
 10
-7.137228201438631
 20
-2.417995936032411
 10
-6.727999999999951
 20
-2.045506011492079
 42
0.0337004454472373
 10
-6.422078023043241
 20
-1.608629117180271
 42
-3.223428038561326
  0
LWPOLYLINE
  5
41
330
2
100
AcDbEntity
  8
6
100
AcDbPolyline
 90
        3
 70
     0
 43
0.0
 10
-4.182684151720764
 20
-1.608629117180271
 42
0.0347698152739638
 10
-3.871816296422025
 20
-2.04533028621131
 10
-3.514575974185561
 20
-2.417995936032411
  0
LWPOLYLINE
  5
42
102
{ACAD_REACTORS
330
61
102
}
330
2
100
AcDbEntity
  8
6
100
AcDbPolyline
 90
       56
 70
     1
 43
0.0
 10
-9.299999999999954
 20
-2.00414518843263
 10
-8.599999999999909
 20
-1.599999999999909
 10
-9.099999999999909
 20
0.0
 10
-9.424999999999954
 20
-0.375
 10
-9.799999999999954
 20
0.0
 10
-10.17499999999995
 20
-0.375
 10
-10.54999999999995
 20
0.0
 10
-10.92499999999995
 20
-0.375
 10
-11.29999999999995
 20
0.0
 10
-11.67499999999995
 20
-0.375
 10
-12.04999999999995
 20
0.0
 10
-12.42499999999995
 20
-0.375
 10
-12.79999999999995
 20
0.0
 10
-12.79999999999995
 20
-7.0
 42
0.4142135623730951
 10
-11.29999999999995
 20
-8.5
 10
13.70000000000004
 20
-8.5
 42
0.4142135623730951
 10
15.20000000000004
 20
-7.0
 10
15.20000000000004
 20
-4.964285714285715
 42
0.4142135623730951
 10
14.02142857142861
 20
-3.785714285714284
 10
13.4714285714284
 20
-3.785714285714284
 42
0.4142135623730951
 10
13.23571428571433
 20
-4.021428571428359
 10
13.23571428571433
 20
-5.102150096772838
 42
0.6493282691940441
 10
13.3668472289131
 20
-5.160551779692141
 10
14.02142857142861
 20
-4.571428571428569
 10
14.02142857142861
 20
-6.849999999999713
 42
-0.4142135623730951
 10
13.70714285714282
 20
-7.164285714285497
 10
5.692857142856901
 20
-7.164285714285497
 42
-0.4142135623730951
 10
5.378571428571472
 20
-6.849999999999713
 10
5.378571428571472
 20
-4.571428571428569
 10
6.033152771086633
 20
-5.160551779692141
 42
0.6493282691940441
 10
6.16428571428576
 20
-5.102150096772838
 10
6.16428571428576
 20
-4.021428571428359
 42
0.4142135623730951
 10
5.928571428571331
 20
-3.785714285714284
 10
4.700000000000049
 20
-3.785714285714284
 42
0.4142135623730951
 10
4.200000000000049
 20
-4.285714285714284
 10
4.200000000000045
 20
-6.25
 42
-0.4142135623730951
 10
3.700000000000045
 20
-6.75
 10
0.5
 20
-6.75
 42
-0.4142135623730951
 10
0.0
 20
-6.25
 10
0.0
 20
0.0
 10
-0.375
 20
-0.375
 10
-0.75
 20
0.0
 10
-1.125
 20
-0.375
 10
-1.5
 20
0.0
 10
-2.0
 20
-1.599999999999909
 10
-1.299999999999954
 20
-2.00414518843263
 10
-1.299999999999954
 20
-6.25
 42
-0.4142135623730951
 10
-1.799999999999954
 20
-6.75
 10
-4.87780662587329
 20
-6.75
 10
-5.299999999999954
 20
-7.172193374126436
 10
-5.722193374126618
 20
-6.75
 10
-10.79999999999995
 20
-6.75
 42
-0.4142135623730951
 10
-11.29999999999995
 20
-6.25
 10
-11.29999999999995
 20
-3.5
 42
-0.4142135623730951
 10
-10.79999999999995
 20
-3.0
 10
-9.299999999999954
 20
-3.0
  0
LWPOLYLINE
  5
43
102
{ACAD_REACTORS
330
61
102
}
330
2
100
AcDbEntity
  8
6
100
AcDbPolyline
 90
       24
 70
     1
 43
0.0
 10
12.90407202320408
 20
-4.003865439226828
 10
12.90407202320408
 20
-4.003865439226785
 42
-0.2926708623625712
 10
13.04357847578839
 20
-3.785946828790663
 10
14.5248537778351
 20
-3.782024748833904
 42
0.4725495945331585
 10
14.70893615646861
 20
-3.550594743731807
 42
0.1497715981737393
 10
14.62174462360361
 20
-3.149624543166027
 42
0.166727617403925
 10
13.82040408545242
 20
-1.885745875955478
 42
0.2410818707451505
 10
4.603779993984215
 20
-0.5484550065287266
 42
1.013427136496432
 10
5.029467633078258
 20
-1.331200102449642
 42
-0.2069492292547811
 10
11.49695073592079
 20
-2.299194470005147
 42
-1.20870009822915
 10
11.64274275428478
 20
-2.795370223746644
 10
6.423225654354933
 20
-2.720342116601059
 42
0.264033326694127
 10
5.081871625586817
 20
-3.564137902939087
 42
0.4546962762195842
 10
5.23355515992306
 20
-3.784954145421977
 10
6.309227736385082
 20
-3.786951166263946
 42
-0.4253575510205589
 10
6.497121871301487
 20
-4.003865439226828
 10
6.497121871301487
 20
-5.132683744168971
 10
5.760353654266268
 20
-5.616463014331685
 42
0.4340228066750173
 10
5.76907280755276
 20
-5.88232369774554
 10
6.591193232456816
 20
-6.75
 10
12.81000066204875
 20
-6.75
 10
13.6321210869528
 20
-5.88232369774554
 42
0.4340228066750173
 10
13.6408402402393
 20
-5.616463014331685
 10
12.90407202320408
 20
-5.132683744168971
  0
DIMENSION
  5
44
330
2
100
AcDbEntity
  8
1
100
AcDbDimension
  2
*D2
 10
-22.79999999999995
 20
-8.499999999999996
 30
0.0
 11
-25.58700545702588
 21
-4.25
 31
0.0
 12
-10.90387312081287
 22
-37.23348771560782
 32
0.0
 71
     5
 42
8.5
  3
OPO-SSTRICH
100
AcDbAlignedDimension
 13
-12.79999999999995
 23
0.0
 33
0.0
 14
-12.79999999999995
 24
-8.5
 34
0.0
 50
90.0
100
AcDbRotatedDimension
  0
DIMENSION
  5
52
330
2
100
AcDbEntity
  8
1
100
AcDbDimension
  2
*D3
 10
-12.79999999999995
 20
-19.25
 30
0.0
 11
1.200000000000045
 21
-16.46299454297408
 31
0.0
 12
-10.90387312081287
 22
-37.23348771560782
 32
0.0
 71
     5
 42
28.0
  3
OPO-SSTRICH
100
AcDbAlignedDimension
 13
15.20000000000004
 23
-8.5
 33
0.0
 14
-12.79999999999995
 24
-8.5
 34
0.0
100
AcDbRotatedDimension
  0
HATCH
  5
5F
330
2
100
AcDbEntity
  8
2
100
AcDbHatch
 10
0.0
 20
0.0
 30
0.0
210
0.0
220
0.0
230
1.0
  2
_USER
 70
     0
 71
     0
 91
        1
 92
        7
 72
     1
 73
     1
 93
       54
 10
15.20000000000004
 20
-7.0
 42
0.0
 10
15.20000000000004
 20
-4.964285714285708
 42
0.4142135623730942
 10
14.02142857142861
 20
-3.785714285714284
 42
0.0
 10
13.4714285714284
 20
-3.785714285714284
 42
0.4142135623730951
 10
13.23571428571433
 20
-4.021428571428359
 42
0.0
 10
13.23571428571433
 20
-5.10215009677281
 42
0.6493282691939184
 10
13.36684722891305
 20
-5.160551779692177
 42
0.0
 10
14.02142857142861
 20
-4.571428571428569
 42
0.0
 10
14.02142857142861
 20
-6.84999999999971
 42
-0.4142135623730951
 10
13.70714285714282
 20
-7.164285714285497
 42
0.0
 10
5.692857142857079
 20
-7.164285714285497
 42
-0.4142135623730902
 10
5.378571428571472
 20
-6.849999999999894
 42
0.0
 10
5.378571428571472
 20
-4.571428571428569
 42
0.0
 10
6.033152771086719
 20
-5.160551779692212
 42
0.6493282691940158
 10
6.16428571428576
 20
-5.102150096772732
 42
0.0
 10
6.16428571428576
 20
-4.021428571428536
 42
0.3941552729691535
 10
5.944814717477711
 20
-3.786274621737511
 42
0.0
 10
5.642996087884156
 20
-3.785714285714284
 42
0.0
 10
4.700000000000049
 20
-3.785714285714284
 42
0.4142135623730951
 10
4.200000000000049
 20
-4.285714285714284
 42
0.0
 10
4.200000000000045
 20
-6.25
 42
-0.4142135623730951
 10
3.700000000000045
 20
-6.75
 42
0.0
 10
0.5
 20
-6.75
 42
-0.4142135623730951
 10
0.0
 20
-6.25
 42
0.0
 10
0.0
 20
-2.0
 42
-0.2823483091321998
 10
-1.783085406075441
 20
-0.9058732994413603
 42
0.0
 10
-1.999999999999998
 20
-1.599999999999909
 42
0.0
 10
-1.299999999999954
 20
-2.00414518843263
 42
0.0
 10
-1.299999999999954
 20
-6.25
 42
-0.4142135623730951
 10
-1.799999999999954
 20
-6.75
 42
0.0
 10
-4.877806625873286
 20
-6.75
 42
0.0
 10
-5.299999999999952
 20
-7.172193374126436
 42
0.0
 10
-5.722193374126622
 20
-6.75
 42
0.0
 10
-10.79999999999995
 20
-6.75
 42
-0.4142135623730951
 10
-11.29999999999995
 20
-6.25
 42
0.0
 10
-11.29999999999995
 20
-3.5
 42
-0.4142135623730951
 10
-10.79999999999995
 20
-3.0
 42
0.0
 10
-9.299999999999954
 20
-3.0
 42
0.0
 10
-9.299999999999954
 20
-2.00414518843263
 42
0.0
 10
-8.599999999999909
 20
-1.599999999999909
 42
0.0
 10
-9.09999999999991
 20
0.0
 42
0.0
 10
-9.424999999999952
 20
-0.375
 42
0.0
 10
-9.799999999999956
 20
0.0
 42
0.0
 10
-10.17499999999995
 20
-0.375
 42
0.0
 10
-10.54999999999995
 20
0.0
 42
0.0
 10
-10.92499999999995
 20
-0.375
 42
0.0
 10
-11.29999999999995
 20
0.0
 42
0.0
 10
-11.67499999999995
 20
-0.375
 42
0.0
 10
-12.04999999999995
 20
0.0
 42
0.0
 10
-12.42499999999995
 20
-0.375
 42
0.0
 10
-12.79999999999995
 20
0.0
 42
0.0
 10
-12.79999999999995
 20
-7.0
 42
0.4142135623730951
 10
-11.29999999999995
 20
-8.5
 42
0.0
 10
13.70000000000004
 20
-8.5
 42
0.4142135623730951
 97
        0
 75
     0
 76
     0
 52
45.0
 41
1.0
 77
     0
 78
     1
 53
45.0
 43
-0.896126879187534
 44
25.43348771560832
 45
-0.7071067811865475
 46
0.7071067811865476
 79
     0
 47
0.0381146087828533
 98
        1
 10
-5.261897469110351
 20
-7.918854397502713
  0
HATCH
  5
61
330
2
100
AcDbEntity
  8
2
100
AcDbHatch
 10
0.0
 20
0.0
 30
0.0
210
0.0
220
0.0
230
1.0
  2
SOLID
 70
     1
 71
     1
 91
        2
 92
        7
 72
     1
 73
     1
 93
       26
 10
13.82040408545246
 20
-1.885745875955507
 42
0.2410818707451512
 10
4.603779993984231
 20
-0.5484550065287195
 42
1.013427136496462
 10
5.029467633078263
 20
-1.331200102449642
 42
-0.2069492292547808
 10
11.49695073592079
 20
-2.299194470005147
 42
-1.208700098229144
 10
11.64274275428478
 20
-2.795370223746644
 42
0.0
 10
6.42322565435494
 20
-2.720342116601059
 42
0.2640333266941284
 10
5.081871625586817
 20
-3.564137902939087
 42
0.4546962762195811
 10
5.23355515992306
 20
-3.784954145421977
 42
0.0
 10
5.642996087887119
 20
-3.785714285714284
 42
0.0
 10
5.928571428571508
 20
-3.785714285714284
 42
-0.0172431034369806
 10
5.944814717477711
 20
-3.786274621737511
 42
0.0
 10
6.289014817701911
 20
-3.786913640328293
 42
-0.4556637253512037
 10
6.497121871301487
 20
-4.003865439226828
 42
0.0
 10
6.497121871301487
 20
-5.132683744168971
 42
0.0
 10
5.760353654266268
 20
-5.616463014331685
 42
0.3796378930242017
 10
5.745733985431417
 20
-5.857691609472603
 42
0.0
 10
6.591193232456816
 20
-6.75
 42
0.0
 10
12.81000066204875
 20
-6.75
 42
0.0
 10
13.65545990907414
 20
-5.85769160947261
 42
0.3796378930242104
 10
13.6408402402393
 20
-5.616463014331685
 42
0.0
 10
12.90407202320408
 20
-5.132683744168971
 42
0.0
 10
12.90407202320408
 20
-4.003865439226828
 42
-0.2926708623626184
 10
13.04357847578839
 20
-3.785946828790663
 42
0.0
 10
14.5248537778351
 20
-3.782024748833904
 42
0.4725495945331514
 10
14.70893615646861
 20
-3.550594743731807
 42
0.1497715981737409
 10
14.62174462360361
 20
-3.149624543166027
 42
0.1667276174039201
 97
        2
330
43
330
42
 92
       22
 72
     1
 73
     1
 93
        8
 10
10.6733982218268
 20
-3.976486563728471
 42
-0.3452102029990027
 10
11.24145682935629
 20
-4.620570345659764
 42
0.0
 10
11.24145682935629
 20
-5.250802854701895
 42
-0.2923726044221561
 10
10.82234042644058
 20
-5.76329962945908
 42
0.0
 10
8.394236257830584
 20
-5.76329962945908
 42
-0.3436559401819437
 10
7.864279136904308
 20
-5.306207908359453
 42
0.0
 10
7.860815369965568
 20
-4.454355184687102
 42
-0.3542222137672983
 10
8.338815886255847
 20
-3.976486563728471
 42
0.0
 97
        1
330
3A
 75
     0
 76
     1
 47
0.0381146087828533
 98
        2
 10
7.398213985718143
 20
-5.97500945556888
 10
7.398213985718143
 20
-5.97500945556888
  0
ENDSEC
  0
SECTION
  2
OBJECTS
  0
DICTIONARY
  5
A
330
0
100
AcDbDictionary
281
     1
  3
ACAD_GROUP
350
2A
  3
ACAD_LAYOUT
350
E
  3
ACAD_MLINESTYLE
350
2B
  3
ACAD_PLOTSETTINGS
350
2C
  3
ACAD_PLOTSTYLENAME
350
9
  3
AcDbVariableDictionary
350
63
  0
DICTIONARY
  5
3
330
2
100
AcDbDictionary
280
     1
281
     1
  3
ACAD_LAYOUTSELFREF
360
4
  3
ACAD_SORTENTS
360
5
  0
DICTIONARY
  5
10
330
F
100
AcDbDictionary
280
     1
281
     1
  3
ACAD_LAYOUTSELFREF
360
11
  0
DICTIONARY
  5
2A
102
{ACAD_REACTORS
330
A
102
}
330
A
100
AcDbDictionary
281
     1
  0
DICTIONARY
  5
E
102
{ACAD_REACTORS
330
A
102
}
330
A
100
AcDbDictionary
281
     1
  3
Layout1
350
14
  3
Model
350
D
  0
DICTIONARY
  5
2B
102
{ACAD_REACTORS
330
A
102
}
330
A
100
AcDbDictionary
281
     1
  3
STANDARD
350
2D
  0
DICTIONARY
  5
2C
102
{ACAD_REACTORS
330
A
102
}
330
A
100
AcDbDictionary
281
     1
  0
ACDBDICTIONARYWDFLT
  5
9
102
{ACAD_REACTORS
330
A
102
}
330
A
100
AcDbDictionary
281
     1
  3
Normal
350
8
100
AcDbDictionaryWithDefault
340
8
  0
DICTIONARY
  5
63
102
{ACAD_REACTORS
330
A
102
}
330
A
100
AcDbDictionary
281
     1
  3
DIMASSOC
350
65
  3
HIDETEXT
350
64
  0
XRECORD
  5
4
102
{ACAD_REACTORS
330
3
102
}
330
3
100
AcDbXrecord
280
     1
340
2
  0
SORTENTSTABLE
  5
5
102
{ACAD_REACTORS
330
3
102
}
330
3
100
AcDbSortentsTable
330
2
  0
XRECORD
  5
11
102
{ACAD_REACTORS
330
10
102
}
330
10
100
AcDbXrecord
280
     1
340
F
  0
LAYOUT
  5
14
102
{ACAD_REACTORS
330
E
102
}
330
E
100
AcDbPlotSettings
  1

  2
D:\AC2000\ACAD2000\plotters\DesignJet 650C test A3.pc3
  4

  6

 40
0.0
 41
0.0
 42
0.0
 43
0.0
 44
0.0
 45
0.0
 46
0.0
 47
0.0
 48
0.0
 49
0.0
140
0.0
141
0.0
142
1.0
143
1.0
 70
   688
 72
     0
 73
     0
 74
     5
  7
Hebgo Laser.ctb
 75
    16
147
1.0
148
0.0
149
0.0
100
AcDbLayout
  1
Layout1
 70
     1
 71
     1
 10
0.0
 20
0.0
 11
420.0
 21
297.0
 12
0.0
 22
0.0
 32
0.0
 14
1.000000000000000E+20
 24
1.000000000000000E+20
 34
1.000000000000000E+20
 15
-1.000000000000000E+20
 25
-1.000000000000000E+20
 35
-1.000000000000000E+20
146
0.0
 13
0.0
 23
0.0
 33
0.0
 16
1.0
 26
0.0
 36
0.0
 17
0.0
 27
1.0
 37
0.0
 76
     0
330
F
  0
LAYOUT
  5
D
102
{ACAD_REACTORS
330
E
102
}
330
E
100
AcDbPlotSettings
  1

  2
2 Xerox N24.pc3
  4
A4
  6

 40
7.143749713897705
 41
6.170062541961669
 42
7.736404418945312
 43
7.14373779296875
 44
209.9733276367187
 45
296.9683227539062
 46
53.03
 47
112.78
 48
0.0
 49
0.0
140
0.0
141
0.0
142
1.0
143
0.5
 70
 28340
 72
     1
 73
     0
 74
     1
  7
Hebgo Laser.ctb
 75
    27
147
2.0
148
16.50237951719009
149
13.25225744309398
100
AcDbLayout
  1
Model
 70
     1
 71
     0
 10
0.0
 20
0.0
 11
12.0
 21
9.0
 12
0.0
 22
0.0
 32
0.0
 14
0.0
 24
0.0
 34
0.0
 15
0.0
 25
0.0
 35
0.0
146
0.0
 13
0.0
 23
0.0
 33
0.0
 16
1.0
 26
0.0
 36
0.0
 17
0.0
 27
1.0
 37
0.0
 76
     0
330
2
  0
MLINESTYLE
  5
2D
102
{ACAD_REACTORS
330
2B
102
}
330
2B
100
AcDbMlineStyle
  2
STANDARD
 70
     0
  3

 62
     0
 51
90.0
 52
90.0
 71
     2
 49
0.5
 62
   256
  6
BYLAYER
 49
-0.5
 62
   256
  6
BYLAYER
  0
ACDBPLACEHOLDER
  5
8
102
{ACAD_REACTORS
330
9
102
}
330
9
  0
DICTIONARYVAR
  5
65
102
{ACAD_REACTORS
330
63
102
}
330
63
100
DictionaryVariables
280
     0
  1
1
  0
DICTIONARYVAR
  5
64
102
{ACAD_REACTORS
330
63
102
}
330
63
100
DictionaryVariables
280
     0
  1
1
  0
ENDSEC
  0
EOF
