  0
SECTION
  2
HEADER
  9
$ACADVER
  1
AC1009
  9
$INSBASE
 10
0.0
 20
0.0
 30
0.0
  9
$EXTMIN
 10
-23.162840950725119
 20
-13.13781652499199
 30
-0.0000000000112498
  9
$EXTMAX
 10
32.45544489758958
 20
9.7732549297778633
 30
0.0000000000002956
  9
$LIMMIN
 10
-150.0
 20
-150.0
  9
$LIMMAX
 10
150.0
 20
150.0
  9
$ORTHOMODE
 70
     0
  9
$REGENMODE
 70
     1
  9
$FILLMODE
 70
     1
  9
$QTEXTMODE
 70
     0
  9
$MIRRTEXT
 70
     0
  9
$DRAGMODE
 70
     2
  9
$LTSCALE
 40
3.0
  9
$OSMODE
 70
   111
  9
$ATTMODE
 70
     1
  9
$TEXTSIZE
 40
3.5
  9
$TRACEWID
 40
1.0
  9
$TEXTSTYLE
  7
BESCHLAG
  9
$CLAYER
  8
0
  9
$CELTYPE
  6
BYLAYER
  9
$CECOLOR
 62
   256
  9
$DIMSCALE
 40
1.0
  9
$DIMASZ
 40
2.0
  9
$DIMEXO
 40
2.0
  9
$DIMDLI
 40
0.0
  9
$DIMRND
 40
0.0
  9
$DIMDLE
 40
1.0
  9
$DIMEXE
 40
1.0
  9
$DIMTP
 40
0.0
  9
$DIMTM
 40
0.0
  9
$DIMTXT
 40
3.5
  9
$DIMCEN
 40
0.0
  9
$DIMTSZ
 40
0.0
  9
$DIMTOL
 70
     0
  9
$DIMLIM
 70
     0
  9
$DIMTIH
 70
     0
  9
$DIMTOH
 70
     0
  9
$DIMSE1
 70
     0
  9
$DIMSE2
 70
     0
  9
$DIMTAD
 70
     1
  9
$DIMZIN
 70
     8
  9
$DIMBLK
  1

  9
$DIMASO
 70
     1
  9
$DIMSHO
 70
     1
  9
$DIMPOST
  1

  9
$DIMAPOST
  1

  9
$DIMALT
 70
     0
  9
$DIMALTD
 70
     2
  9
$DIMALTF
 40
0.039370078740157
  9
$DIMLFAC
 40
1.0
  9
$DIMTOFL
 70
     1
  9
$DIMTVP
 40
0.0
  9
$DIMTIX
 70
     1
  9
$DIMSOXD
 70
     0
  9
$DIMSAH
 70
     1
  9
$DIMBLK1
  1
OBLIQUE
  9
$DIMBLK2
  1
OBLIQUE
  9
$DIMSTYLE
  2
OPO-SSTRICH
  9
$DIMCLRD
 70
   256
  9
$DIMCLRE
 70
   256
  9
$DIMCLRT
 70
   256
  9
$DIMTFAC
 40
0.7114285714285716
  9
$DIMGAP
 40
1.0
  9
$LUNITS
 70
     2
  9
$LUPREC
 70
     1
  9
$SKETCHINC
 40
1.0
  9
$FILLETRAD
 40
0.0
  9
$AUNITS
 70
     0
  9
$AUPREC
 70
     1
  9
$MENU
  1
D:\ACL_CGWG\CGTAB13
  9
$ELEVATION
 40
0.0
  9
$PELEVATION
 40
0.0
  9
$THICKNESS
 40
0.0
  9
$LIMCHECK
 70
     0
  9
$BLIPMODE
 70
     0
  9
$CHAMFERA
 40
1.0
  9
$CHAMFERB
 40
1.0
  9
$SKPOLY
 70
     0
  9
$TDCREATE
 40
2451739.868414884
  9
$TDUPDATE
 40
2452087.6075802888
  9
$TDINDWG
 40
0.0008252546
  9
$TDUSRTIMER
 40
0.0008252546
  9
$USRTIMER
 70
     1
  9
$ANGBASE
 50
0.0
  9
$ANGDIR
 70
     0
  9
$PDMODE
 70
    35
  9
$PDSIZE
 40
5.0
  9
$PLINEWID
 40
0.0
  9
$COORDS
 70
     1
  9
$SPLFRAME
 70
     0
  9
$SPLINETYPE
 70
     6
  9
$SPLINESEGS
 70
     8
  9
$ATTDIA
 70
     1
  9
$ATTREQ
 70
     1
  9
$HANDLING
 70
-16383
  9
$HANDSEED
  5
401
  9
$SURFTAB1
 70
    12
  9
$SURFTAB2
 70
    12
  9
$SURFTYPE
 70
     6
  9
$SURFU
 70
    12
  9
$SURFV
 70
    12
  9
$UCSNAME
  2

  9
$UCSORG
 10
0.0
 20
0.0
 30
0.0
  9
$UCSXDIR
 10
1.0
 20
0.0
 30
0.0
  9
$UCSYDIR
 10
0.0
 20
1.0
 30
0.0
  9
$PUCSNAME
  2

  9
$PUCSORG
 10
0.0
 20
0.0
 30
0.0
  9
$PUCSXDIR
 10
1.0
 20
0.0
 30
0.0
  9
$PUCSYDIR
 10
0.0
 20
1.0
 30
0.0
  9
$USERI1
 70
     0
  9
$USERI2
 70
     0
  9
$USERI3
 70
     0
  9
$USERI4
 70
     0
  9
$USERI5
 70
     0
  9
$USERR1
 40
0.0
  9
$USERR2
 40
0.0
  9
$USERR3
 40
0.0
  9
$USERR4
 40
0.0
  9
$USERR5
 40
0.0
  9
$WORLDVIEW
 70
     1
  9
$SHADEDGE
 70
     3
  9
$SHADEDIF
 70
    70
  9
$TILEMODE
 70
     1
  9
$MAXACTVP
 70
    48
  9
$PLIMCHECK
 70
     0
  9
$PEXTMIN
 10
1.0000000000000000E+020
 20
1.0000000000000000E+020
 30
1.0000000000000000E+020
  9
$PEXTMAX
 10
-1.0000000000000000E+020
 20
-1.0000000000000000E+020
 30
-1.0000000000000000E+020
  9
$PLIMMIN
 10
0.0
 20
0.0
  9
$PLIMMAX
 10
420.0
 20
297.0
  9
$UNITMODE
 70
     0
  9
$VISRETAIN
 70
     1
  9
$PLINEGEN
 70
     0
  9
$PSLTSCALE
 70
     1
  0
ENDSEC
  0
SECTION
  2
TABLES
  0
TABLE
  2
VPORT
 70
     2
  0
VPORT
  2
*ACTIVE
 70
     0
 10
0.0
 20
0.0
 11
1.0
 21
1.0
 12
4.6463019734322328
 22
-1.6822807976070631
 13
0.0
 23
0.0
 14
0.5
 24
0.5
 15
10.0
 25
10.0
 16
0.0
 26
0.0
 36
1.0
 17
0.0
 27
0.0
 37
0.0
 40
34.783868523352318
 41
1.6070460704607039
 42
50.0
 43
0.0
 44
0.0
 50
0.0
 51
0.0
 71
     0
 72
   800
 73
     1
 74
     1
 75
     0
 76
     0
 77
     0
 78
     0
  0
ENDTAB
  0
TABLE
  2
LTYPE
 70
     2
  0
LTYPE
  2
CONTINUOUS
 70
     0
  3
_______________________________________________
 72
    65
 73
     2
 40
1.0
 49
1.0
 49
0.0
  0
LTYPE
  2
STRICHPUNKT
 70
     0
  3
__ . __ . __ . __ . __ . __ . __ . __ . __ . __
 72
    65
 73
     4
 40
1.0
 49
0.5
 49
-0.25
 49
0.0
 49
-0.25
  0
ENDTAB
  0
TABLE
  2
LAYER
 70
     7
  0
LAYER
  2
0
 70
     0
 62
    30
  6
CONTINUOUS
  0
LAYER
  2
1
 70
     0
 62
     2
  6
CONTINUOUS
  0
LAYER
  2
2
 70
     0
 62
     9
  6
CONTINUOUS
  0
LAYER
  2
4
 70
     1
 62
     4
  6
CONTINUOUS
  0
LAYER
  2
5
 70
     0
 62
     1
  6
CONTINUOUS
  0
LAYER
  2
6
 70
     0
 62
     3
  6
CONTINUOUS
  0
LAYER
  2
DEFPOINTS
 70
     0
 62
     7
  6
CONTINUOUS
  0
ENDTAB
  0
TABLE
  2
STYLE
 70
     2
  0
STYLE
  2
STANDARD
 70
     0
 40
0.0
 41
1.0
 50
0.0
 71
     0
 42
2.5
  3
txt
  4

  0
STYLE
  2
BESCHLAG
 70
     0
 40
0.0
 41
1.0
 50
0.0
 71
     0
 42
3.5
  3
txt
  4

  0
ENDTAB
  0
TABLE
  2
VIEW
 70
     0
  0
ENDTAB
  0
TABLE
  2
UCS
 70
     0
  0
ENDTAB
  0
TABLE
  2
APPID
 70
     1
  0
APPID
  2
ACAD
 70
     0
  0
ENDTAB
  0
TABLE
  2
DIMSTYLE
 70
     1
  0
DIMSTYLE
  2
OPO-SSTRICH
 70
     0
  3

  4

  5

  6
OBLIQUE
  7
OBLIQUE
 40
1.0
 41
2.0
 42
2.0
 43
0.0
 44
1.0
 45
0.0
 46
1.0
 47
0.0
 48
0.0
140
3.5
141
0.0
142
0.0
143
0.039370078740157
144
1.0
145
0.0
146
0.7114285714285716
147
1.0
 71
     0
 72
     0
 73
     0
 74
     0
 75
     0
 76
     0
 77
     1
 78
     8
170
     0
171
     2
172
     1
173
     1
174
     1
175
     0
176
   256
177
   256
178
   256
  0
ENDTAB
  0
ENDSEC
  0
SECTION
  2
BLOCKS
  0
BLOCK
  8
0
  2
$MODEL_SPACE
 70
     0
 10
0.0
 20
0.0
 30
0.0
  3
$MODEL_SPACE
  1

  0
ENDBLK
  5
1C
  8
0
  0
BLOCK
 67
     1
  8
0
  2
$PAPER_SPACE
 70
     0
 10
0.0
 20
0.0
 30
0.0
  3
$PAPER_SPACE
  1

  0
ENDBLK
  5
19
 67
     1
  8
0
  0
BLOCK
  8
0
  2
_OBLIQUE
 70
     0
 10
0.0
 20
0.0
 30
0.0
  3
_OBLIQUE
  1

  0
LINE
  5
204
  8
0
 62
     0
 10
-0.5
 20
-0.5
 30
0.0
 11
0.5
 21
0.5
 31
0.0
  0
ENDBLK
  5
206
  8
0
  0
BLOCK
  8
0
  2
NULLPUNKT
 70
     0
 10
0.0
 20
0.0
 30
0.0
  3
NULLPUNKT
  1

  0
SOLID
  5
254
  8
5
 10
0.0
 20
0.0
 30
0.0
 11
2.0
 21
0.0
 31
0.0
 12
0.0
 22
-2.0
 32
0.0
 13
0.0
 23
-2.0
 33
0.0
  0
SOLID
  5
255
  8
5
 10
0.0
 20
0.0
 30
0.0
 11
-2.0
 21
0.0
 31
0.0
 12
0.0
 22
2.0
 32
0.0
 13
0.0
 23
2.0
 33
0.0
  0
POLYLINE
  5
256
  8
5
 66
     1
 10
0.0
 20
0.0
 30
0.0
  0
VERTEX
  5
3A2
  8
5
 10
0.0
 20
2.0
 30
0.0
  0
VERTEX
  5
3A3
  8
5
 10
0.0
 20
-2.0
 30
0.0
  0
SEQEND
  5
3A4
  8
5
  0
POLYLINE
  5
257
  8
5
 66
     1
 10
0.0
 20
0.0
 30
0.0
  0
VERTEX
  5
3A5
  8
5
 10
-2.0
 20
0.0
 30
0.0
  0
VERTEX
  5
3A6
  8
5
 10
2.0
 20
0.0
 30
0.0
  0
SEQEND
  5
3A7
  8
5
  0
CIRCLE
  5
258
  8
5
 10
0.0
 20
0.0
 30
0.0
 40
2.0
  0
ENDBLK
  5
25A
  8
0
  0
BLOCK
  8
0
  2
*X2
 70
     1
 10
0.0
 20
0.0
 30
0.0
  3
*X2
  1

  0
LINE
  5
284
  8
0
 62
     0
 10
868.85504391306131
 20
156.0914084770215
 30
0.0
 11
872.25081702341004
 21
159.48718158737029
 31
0.0
  0
LINE
  5
285
  8
0
 62
     0
 10
865.45054632133588
 20
154.3839671601439
 30
0.0
 11
866.724060465202
 21
155.65748130400999
 31
0.0
  0
LINE
  5
286
  8
0
 62
     0
 10
867.15798763821363
 20
156.0914084770215
 30
0.0
 11
870.64418674455885
 21
159.5776075833667
 31
0.0
  0
LINE
  5
287
  8
0
 62
     0
 10
865.18268526682425
 20
155.81316238047989
 30
0.0
 11
868.95119512429233
 21
159.581672237948
 31
0.0
  0
LINE
  5
288
  8
0
 62
     0
 10
863.18456615466937
 20
155.51209954317281
 30
0.0
 11
867.15622574833571
 21
159.4837591368389
 31
0.0
  0
LINE
  5
289
  8
0
 62
     0
 10
859.10854650876161
 20
153.13313617211259
 30
0.0
 11
860.80906457915773
 21
154.8336542425088
 31
0.0
  0
LINE
  5
28A
  8
0
 62
     0
 10
861.03869135997229
 20
155.0632810233233
 30
0.0
 11
865.23690701665964
 21
159.26149668001051
 31
0.0
  0
LINE
  5
28B
  8
0
 62
     0
 10
858.69821086760817
 20
154.419856805807
 30
0.0
 11
863.15915354175127
 21
158.8807994799499
 31
0.0
  0
LINE
  5
28C
  8
0
 62
     0
 10
856.08035381087893
 20
153.49905602392539
 30
0.0
 11
860.86616523910084
 21
158.28486745214721
 31
0.0
  0
LINE
  5
28D
  8
0
 62
     0
 10
852.80480389391516
 20
151.9205623818093
 30
0.0
 11
858.24877207288262
 21
157.36453056077681
 31
0.0
  0
LINE
  5
28E
  8
0
 62
     0
 10
850.87020926731543
 20
151.68302403005711
 30
0.0
 11
855.03189319443686
 21
155.8447079571788
 31
0.0
  0
LINE
  5
28F
  8
0
 62
     0
 10
870.55210018790888
 20
156.0914084770215
 30
0.0
 11
873.78248624570404
 21
159.32179453481649
 31
0.0
  0
LINE
  5
290
  8
0
 62
     0
 10
872.24915646275667
 20
156.0914084770215
 30
0.0
 11
875.24780246207195
 21
159.09005447633669
 31
0.0
  0
LINE
  5
291
  8
0
 62
     0
 10
872.72406046520211
 20
154.86925620461909
 30
0.0
 11
876.65343654814194
 21
158.79863228755889
 31
0.0
  0
LINE
  5
292
  8
0
 62
     0
 10
873.92082407679857
 20
154.3689635413678
 30
0.0
 11
874.28101627458875
 21
154.72915573915819
 31
0.0
  0
LINE
  5
293
  8
0
 62
     0
 10
875.23308604349666
 20
155.68122550806589
 30
0.0
 11
878.00466383196476
 21
158.45280329653411
 31
0.0
  0
LINE
  5
294
  8
0
 62
     0
 10
876.68352969105263
 20
155.4346128807743
 30
0.0
 11
879.30572216386315
 21
158.05680535358471
 31
0.0
  0
LINE
  5
295
  8
0
 62
     0
 10
878.08550267455405
 20
155.13952958942801
 30
0.0
 11
880.56005702285245
 21
157.61408393772641
 31
0.0
  0
LINE
  5
296
  8
0
 62
     0
 10
878.28948807336042
 20
153.64645871338649
 30
0.0
 11
881.77049417010642
 21
157.12746481013269
 31
0.0
  0
LINE
  5
297
  8
0
 62
     0
 10
879.64546766339765
 20
153.30538202857599
 30
0.0
 11
880.66048257707564
 21
154.32039694225409
 31
0.0
  0
LINE
  5
298
  8
0
 62
     0
 10
880.75756569728128
 20
154.41748006245979
 30
0.0
 11
882.93936416550798
 21
156.5992785306866
 31
0.0
  0
LINE
  5
299
  8
0
 62
     0
 10
882.03308040832485
 20
153.9959384986557
 30
0.0
 11
884.06859390451154
 21
156.0314519948424
 31
0.0
  0
LINE
  5
29A
  8
0
 62
     0
 10
883.27117792872309
 20
153.53697974420621
 30
0.0
 11
885.15977492991544
 21
155.42557674539839
 31
0.0
  0
LINE
  5
29B
  8
0
 62
     0
 10
884.47364684191723
 20
153.04239238255249
 30
0.0
 11
886.21421496740186
 21
154.78296050803701
 31
0.0
  0
LINE
  5
29C
  8
0
 62
     0
 10
885.22323701758921
 20
152.09492628337679
 30
0.0
 11
887.23297704409856
 21
154.10466630988631
 31
0.0
  0
LINE
  5
29D
  8
0
 62
     0
 10
886.73470799246888
 20
151.9093409834087
 30
0.0
 11
888.21690918860349
 21
153.39154217954339
 31
0.0
  0
LINE
  5
29E
  8
0
 62
     0
 10
888.24617896734844
 20
151.72375568344069
 30
0.0
 11
889.16666679905381
 21
152.644243515146
 31
0.0
  0
ENDBLK
  5
2A0
  8
0
  0
BLOCK
  8
0
  2
*D3
 70
     1
 10
0.0
 20
0.0
 30
0.0
  3
*D3
  1

  0
LINE
  5
2D3
  8
1
 10
2.0
 20
-0.0000000000000006
 30
0.0
 11
32.434049139089893
 21
-0.0000000000000092
 31
0.0
  0
LINE
  5
2D4
  8
1
 10
2.0
 20
8.0
 30
0.0
 11
32.434049139089893
 21
7.9999999999999911
 31
0.0
  0
LINE
  5
2D5
  8
1
 10
31.43404913908989
 20
-1.000000000000008
 30
0.0
 11
31.43404913908989
 21
8.9999999999999911
 31
0.0
  0
INSERT
  5
2D6
  8
1
  2
_OBLIQUE
 10
31.43404913908989
 20
-0.0000000000000089
 30
0.0
 41
2.0
 42
2.0
 43
2.0
 50
270.0
  0
INSERT
  5
2D7
  8
1
  2
_OBLIQUE
 10
31.43404913908989
 20
7.9999999999999911
 30
0.0
 41
2.0
 42
2.0
 43
2.0
 50
90.0
  0
TEXT
  5
2D8
  8
0
 10
30.367200571559192
 20
2.648703956343788
 30
0.0
 40
3.5
  1
8
 50
90.0
  7
BESCHLAG
  0
POINT
  5
2D9
  8
DEFPOINTS
 62
     0
 10
0.0
 20
0.0
 30
0.0
  0
POINT
  5
2DA
  8
DEFPOINTS
 62
     0
 10
0.0
 20
8.0
 30
0.0
  0
POINT
  5
2DB
  8
DEFPOINTS
 62
     0
 10
31.43404913908989
 20
7.9999999999999911
 30
0.0
  0
ENDBLK
  5
2C6
  8
0
  0
BLOCK
  8
0
  2
*D4
 70
     1
 10
0.0
 20
0.0
 30
0.0
  3
*D4
  1

  0
LINE
  5
2DC
  8
1
 10
-20.0
 20
-2.0
 30
0.0
 11
-20.0
 21
-13.123207828052269
 31
0.0
  0
LINE
  5
2DD
  8
1
 10
20.0
 20
-2.0
 30
0.0
 11
20.0
 21
-13.123207828052269
 31
0.0
  0
LINE
  5
2DE
  8
1
 10
-21.0
 20
-12.123207828052269
 30
0.0
 11
21.0
 21
-12.123207828052269
 31
0.0
  0
INSERT
  5
2DF
  8
1
  2
_OBLIQUE
 10
-20.0
 20
-12.123207828052269
 30
0.0
 41
2.0
 42
2.0
 43
2.0
 50
180.0
  0
INSERT
  5
2E0
  8
1
  2
_OBLIQUE
 10
20.0
 20
-12.123207828052269
 30
0.0
 41
2.0
 42
2.0
 43
2.0
  0
TEXT
  5
2E1
  8
0
 10
-2.6333560709413368
 20
-11.056359260521569
 30
0.0
 40
3.5
  1
40
  7
BESCHLAG
  0
POINT
  5
2E2
  8
DEFPOINTS
 62
     0
 10
-20.0
 20
0.0
 30
0.0
  0
POINT
  5
2E3
  8
DEFPOINTS
 62
     0
 10
20.0
 20
0.0
 30
0.0
  0
POINT
  5
2E4
  8
DEFPOINTS
 62
     0
 10
20.0
 20
-12.123207828052269
 30
0.0
  0
ENDBLK
  5
2D2
  8
0
  0
ENDSEC
  0
SECTION
  2
ENTITIES
  0
INSERT
  5
25B
  8
5
  2
NULLPUNKT
 10
0.0
 20
0.0
 30
0.0
  0
INSERT
  5
2B1
  8
2
  2
*X2
 10
-869.72406046520211
 20
-151.5914084770215
 30
0.0
1001
ACAD
1000
HATCH
1002
{
1070
    16
1000
_U,I
1040
1.1999999999999991
1040
0.7853981633974483
1070
     0
1002
}
  0
POLYLINE
  5
2B2
  8
5
 66
     1
 10
0.0
 20
0.0
 30
0.0
  0
VERTEX
  5
3A8
  8
5
 10
7.0921789804590381
 20
3.817680612398362
 30
0.0
  0
VERTEX
  5
3A9
  8
5
 10
6.9963335226241261
 20
3.5121027962995859
 30
0.0
  0
VERTEX
  5
3AA
  8
5
 10
7.2161313917804364
 20
3.274060496488914
 30
0.0
  0
VERTEX
  5
3AB
  8
5
 10
7.0787549157157619
 20
2.9353032713299849
 30
0.0
  0
VERTEX
  5
3AC
  8
5
 10
7.1611819244913022
 20
2.688104684383688
 30
0.0
  0
VERTEX
  5
3AD
  8
5
 10
7.2252849565918487
 20
2.550768843636205
 30
0.0
  0
VERTEX
  5
3AE
  8
5
 10
7.2619216785740264
 20
2.312726543825419
 30
0.0
  0
VERTEX
  5
3AF
  8
5
 10
7.2069722112848922
 20
2.0472111494656242
 30
0.0
  0
VERTEX
  5
3B0
  8
5
 10
7.1978130307893471
 20
1.7176144445847961
 30
0.0
  0
VERTEX
  5
3B1
  8
5
 10
7.2893936043765271
 20
1.552813975573144
 30
0.0
  0
VERTEX
  5
3B2
  8
5
 10
7.2527624980784822
 20
1.168279547879137
 30
0.0
  0
VERTEX
  5
3B3
  8
5
 10
7.106232457202168
 20
1.003479078867485
 30
0.0
  0
VERTEX
  5
3B4
  8
5
 10
6.8955937685414019
 20
0.7654325459143366
 30
0.0
  0
VERTEX
  5
3B5
  8
5
 10
6.5567433999956393
 20
0.6097883640380815
 30
0.0
  0
VERTEX
  5
3B6
  8
5
 10
6.3003200402251869
 20
0.2069413620731666
 30
0.0
  0
VERTEX
  5
3B7
  8
5
 10
6.217898647133552
 20
0.1428558184095436
 30
0.0
  0
VERTEX
  5
3B8
  8
5
 10
6.0713686062574652
 20
-0.0127883634665977
 30
0.0
  0
SEQEND
  5
3B9
  8
5
  0
DIMENSION
  5
2B3
  8
1
  2
*D3
 10
31.43404913908989
 20
7.9999999999999911
 30
0.0
 11
28.64704368206397
 21
3.999999999999996
 31
0.0
 70
     0
 13
0.0
 23
0.0
 33
0.0
 14
0.0
 24
8.0
 34
0.0
 50
90.0
  0
LINE
  5
2B4
  8
6
  6
STRICHPUNKT
 10
0.0
 20
-8.7332231135864031
 30
0.0
 11
0.0
 21
9.172548426604294
 31
0.0
  0
TEXT
  5
2B5
  8
1
 10
1.84699982678785
 20
-5.3796108598629626
 30
0.0
 40
2.4999999499999999
  1
Hebgo 150
  0
LINE
  5
2B6
  8
5
 10
-23.158709519788768
 20
0.0
 30
0.0
 11
23.473544677587139
 21
0.0
 31
0.0
  0
POLYLINE
  5
2B7
  8
4
 66
     1
 10
0.0
 20
0.0
 30
0.0
 70
     1
  0
VERTEX
  5
3BA
  8
4
 10
0.0
 20
8.0
 30
0.0
 42
-0.1794072134821898
  0
VERTEX
  5
3BB
  8
4
 10
20.0
 20
0.5850467439890963
 30
0.0
  0
VERTEX
  5
3BC
  8
4
 10
20.0
 20
0.0
 30
0.0
  0
VERTEX
  5
3BD
  8
4
 10
14.744025817330559
 20
0.0
 30
0.0
 42
0.0919580586768789
  0
VERTEX
  5
3BE
  8
4
 10
0.0
 20
3.1804487806492712
 30
0.0
 42
0.0919580586768789
  0
VERTEX
  5
3BF
  8
4
 10
-14.744025817330559
 20
0.0
 30
0.0
  0
VERTEX
  5
3C0
  8
4
 10
-20.0
 20
0.0
 30
0.0
  0
VERTEX
  5
3C1
  8
4
 10
-20.0
 20
0.5850467439890963
 30
0.0
 42
-0.1794072134821898
  0
SEQEND
  5
3C2
  8
4
  0
POLYLINE
  5
2B8
  8
6
 66
     1
 10
0.0
 20
0.0
 30
0.0
 70
     1
  0
VERTEX
  5
3C3
  8
6
 10
-19.548070757797628
 20
0.0063761092017103
 30
0.0
  0
VERTEX
  5
3C4
  8
6
 10
-15.29056706258234
 20
0.5291318309612052
 30
0.0
 42
0.5773502691896362
  0
VERTEX
  5
3C5
  8
6
 10
-15.01986059592536
 20
1.1668763008785841
 30
0.0
  0
VERTEX
  5
3C6
  8
6
 10
-15.113703582643209
 20
1.2914101504482001
 30
0.0
 42
-0.0302471990696337
  0
VERTEX
  5
3C7
  8
6
 10
-10.901977060282659
 20
2.866654273027506
 30
0.0
  0
VERTEX
  5
3C8
  8
6
 10
-11.11285952406979
 20
2.023824798664918
 30
0.0
 42
0.5656814143818428
  0
VERTEX
  5
3C9
  8
6
 10
-10.628481645543159
 20
1.538509702052806
 30
0.0
  0
VERTEX
  5
3CA
  8
6
 10
-8.6220978475075754
 20
2.0364032776185459
 30
0.0
 42
0.5656814143818464
  0
VERTEX
  5
3CB
  8
6
 10
-8.4208102171678547
 20
2.6918694949613382
 30
0.0
  0
VERTEX
  5
3CC
  8
6
 10
-9.0425027797255098
 20
3.3842506293071888
 30
0.0
 42
-0.0336658869615029
  0
VERTEX
  5
3CD
  8
6
 10
-4.1179565938186888
 20
4.271373162102349
 30
0.0
  0
VERTEX
  5
3CE
  8
6
 10
-4.5255038873951881
 20
3.3354408979477048
 30
0.0
 42
0.5722720441955119
  0
VERTEX
  5
3CF
  8
6
 10
-4.1197683988816598
 20
2.777651521888628
 30
0.0
  0
VERTEX
  5
3D0
  8
6
 10
-3.1805018053523781
 20
2.869659826136512
 30
0.0
 42
0.3858944160849527
  0
VERTEX
  5
3D1
  8
6
 10
-3.0
 20
3.0687071079704529
 30
0.0
  0
VERTEX
  5
3D2
  8
6
 10
-3.0
 20
4.2999999999999536
 30
0.0
 42
-0.4142135623730936
  0
VERTEX
  5
3D3
  8
6
 10
-2.800000000000181
 20
4.5
 30
0.0
  0
VERTEX
  5
3D4
  8
6
 10
-0.8242640687121821
 20
4.5
 30
0.0
 42
0.198912367379658
  0
VERTEX
  5
3D5
  8
6
 10
-0.6121320343559092
 20
4.5878679656439081
 30
0.0
  0
VERTEX
  5
3D6
  8
6
 10
-0.2121320343562729
 20
4.987867965643999
 30
0.0
 42
-0.414213562373098
  0
VERTEX
  5
3D7
  8
6
 10
0.2121320343558182
 20
4.987867965643999
 30
0.0
  0
VERTEX
  5
3D8
  8
6
 10
0.6121320343559092
 20
4.5878679656439081
 30
0.0
 42
0.1989123673796542
  0
VERTEX
  5
3D9
  8
6
 10
0.8242640687117273
 20
4.5
 30
0.0
  0
VERTEX
  5
3DA
  8
6
 10
2.7999999999997272
 20
4.5
 30
0.0
 42
-0.4142135623730951
  0
VERTEX
  5
3DB
  8
6
 10
3.0
 20
4.2999999999999536
 30
0.0
  0
VERTEX
  5
3DC
  8
6
 10
3.0
 20
3.0687071079704529
 30
0.0
 42
0.3858944160849491
  0
VERTEX
  5
3DD
  8
6
 10
3.1805018053523781
 20
2.869659826136512
 30
0.0
  0
VERTEX
  5
3DE
  8
6
 10
4.1197683988812051
 20
2.777651521888628
 30
0.0
 42
0.5722720441955119
  0
VERTEX
  5
3DF
  8
6
 10
4.5255038873947342
 20
3.3354408979477048
 30
0.0
  0
VERTEX
  5
3E0
  8
6
 10
4.1179565938186888
 20
4.271373162102349
 30
0.0
 42
-0.0336658869615029
  0
VERTEX
  5
3E1
  8
6
 10
9.042502779725055
 20
3.3842506293071888
 30
0.0
  0
VERTEX
  5
3E2
  8
6
 10
8.4208102171678547
 20
2.6918694949613382
 30
0.0
 42
0.5656814143818441
  0
VERTEX
  5
3E3
  8
6
 10
8.6220978475075754
 20
2.0364032776185459
 30
0.0
  0
VERTEX
  5
3E4
  8
6
 10
10.628481645543159
 20
1.538509702052806
 30
0.0
 42
0.5656814143818451
  0
VERTEX
  5
3E5
  8
6
 10
11.11285952406979
 20
2.023824798664918
 30
0.0
  0
VERTEX
  5
3E6
  8
6
 10
10.901977060282199
 20
2.866654273027506
 30
0.0
 42
-0.0302471990696337
  0
VERTEX
  5
3E7
  8
6
 10
15.113703582643209
 20
1.2914101504482001
 30
0.0
  0
VERTEX
  5
3E8
  8
6
 10
15.01986059592536
 20
1.1668763008785841
 30
0.0
 42
0.5773502691896355
  0
VERTEX
  5
3E9
  8
6
 10
15.29056706258188
 20
0.5291318309612052
 30
0.0
  0
VERTEX
  5
3EA
  8
6
 10
19.548070757797628
 20
0.0063761092017103
 30
0.0
 42
0.7444961185359761
  0
VERTEX
  5
3EB
  8
6
 10
19.85569324410471
 20
0.7083271269237912
 30
0.0
 42
0.1778112959347516
  0
VERTEX
  5
3EC
  8
6
 10
0.0
 20
8.0
 30
0.0
 42
0.1778112959347514
  0
VERTEX
  5
3ED
  8
6
 10
-19.855693244105169
 20
0.7083271269239049
 30
0.0
 42
0.7444961185359902
  0
SEQEND
  5
3EE
  8
6
  0
DIMENSION
  5
2B9
  8
1
  2
*D4
 10
20.0
 20
-12.123207828052269
 30
0.0
 11
0.0000000000000002
 21
-9.3362023710263529
 31
0.0
 70
     0
 13
-20.0
 23
0.0
 33
0.0
 14
20.0
 24
0.0
 34
0.0
  0
POLYLINE
  5
2BA
  8
5
 66
     1
 10
0.0
 20
0.0
 30
0.0
  0
VERTEX
  5
3EF
  8
5
 10
-7.0921789804588107
 20
3.817680612398362
 30
0.0
  0
VERTEX
  5
3F0
  8
5
 10
-6.9963335226238987
 20
3.5121027962995859
 30
0.0
  0
VERTEX
  5
3F1
  8
5
 10
-7.216131391780209
 20
3.274060496488914
 30
0.0
  0
VERTEX
  5
3F2
  8
5
 10
-7.0787549157155354
 20
2.9353032713299849
 30
0.0
  0
VERTEX
  5
3F3
  8
5
 10
-7.1611819244910739
 20
2.688104684383688
 30
0.0
  0
VERTEX
  5
3F4
  8
5
 10
-7.2252849565916222
 20
2.550768843636205
 30
0.0
  0
VERTEX
  5
3F5
  8
5
 10
-7.2619216785737981
 20
2.312726543825419
 30
0.0
  0
VERTEX
  5
3F6
  8
5
 10
-7.2069722112846639
 20
2.0472111494656242
 30
0.0
  0
VERTEX
  5
3F7
  8
5
 10
-7.1978130307891197
 20
1.7176144445847961
 30
0.0
  0
VERTEX
  5
3F8
  8
5
 10
-7.2893936043762997
 20
1.552813975573144
 30
0.0
  0
VERTEX
  5
3F9
  8
5
 10
-7.2527624980782539
 20
1.168279547879137
 30
0.0
  0
VERTEX
  5
3FA
  8
5
 10
-7.1062324572019397
 20
1.003479078867485
 30
0.0
  0
VERTEX
  5
3FB
  8
5
 10
-6.8955937685414019
 20
0.7654325459143366
 30
0.0
  0
VERTEX
  5
3FC
  8
5
 10
-6.556743399995411
 20
0.6097883640380815
 30
0.0
  0
VERTEX
  5
3FD
  8
5
 10
-6.3003200402249604
 20
0.2069413620731666
 30
0.0
  0
VERTEX
  5
3FE
  8
5
 10
-6.2178986471333237
 20
0.1428558184095436
 30
0.0
  0
VERTEX
  5
3FF
  8
5
 10
-6.071368606257237
 20
-0.0127883634665977
 30
0.0
  0
SEQEND
  5
400
  8
5
  0
VIEWPORT
  5
22
 67
     1
  8
0
 10
210.0
 20
170.2366863905325
 30
0.0
 40
420.0
 41
340.47337278106511
 68
     1
 69
     1
1001
ACAD
1000
MVIEW
1002
{
1070
    16
1010
0.0
1020
0.0
1030
0.0
1010
0.0
1020
0.0
1030
1.0
1040
0.0
1040
340.47337278106511
1040
210.0
1040
170.2366863905325
1040
50.0
1040
0.0
1040
0.0
1070
     0
1070
   100
1070
     1
1070
     1
1070
     0
1070
     0
1070
     0
1070
     0
1040
0.0
1040
0.0
1040
0.0
1040
5.0
1040
5.0
1040
10.0
1040
10.0
1070
     0
1002
{
1002
}
1002
}
  0
ENDSEC
  0
EOF
