  0
SECTION
  2
HEADER
  9
$ACADVER
  1
AC1009
  9
$INSBASE
 10
0.0
 20
0.0
 30
0.0
  9
$EXTMIN
 10
-39.985655911715753
 20
-10.002135368997751
 30
-0.0000000000112498
  9
$EXTMAX
 10
18.97430474517671
 20
80.451965949558712
 30
0.0000000000002956
  9
$LIMMIN
 10
-150.0
 20
-150.0
  9
$LIMMAX
 10
150.0
 20
150.0
  9
$ORTHOMODE
 70
     0
  9
$REGENMODE
 70
     1
  9
$FILLMODE
 70
     1
  9
$QTEXTMODE
 70
     0
  9
$MIRRTEXT
 70
     0
  9
$DRAGMODE
 70
     2
  9
$LTSCALE
 40
3.0
  9
$OSMODE
 70
   111
  9
$ATTMODE
 70
     1
  9
$TEXTSIZE
 40
3.5
  9
$TRACEWID
 40
1.0
  9
$TEXTSTYLE
  7
BESCHLAG
  9
$CLAYER
  8
0
  9
$CELTYPE
  6
BYLAYER
  9
$CECOLOR
 62
   256
  9
$DIMSCALE
 40
1.0
  9
$DIMASZ
 40
2.0
  9
$DIMEXO
 40
2.0
  9
$DIMDLI
 40
0.0
  9
$DIMRND
 40
0.0
  9
$DIMDLE
 40
1.0
  9
$DIMEXE
 40
1.0
  9
$DIMTP
 40
0.0
  9
$DIMTM
 40
0.0
  9
$DIMTXT
 40
3.5
  9
$DIMCEN
 40
0.0
  9
$DIMTSZ
 40
0.0
  9
$DIMTOL
 70
     0
  9
$DIMLIM
 70
     0
  9
$DIMTIH
 70
     0
  9
$DIMTOH
 70
     0
  9
$DIMSE1
 70
     0
  9
$DIMSE2
 70
     0
  9
$DIMTAD
 70
     1
  9
$DIMZIN
 70
     8
  9
$DIMBLK
  1

  9
$DIMASO
 70
     1
  9
$DIMSHO
 70
     1
  9
$DIMPOST
  1

  9
$DIMAPOST
  1

  9
$DIMALT
 70
     0
  9
$DIMALTD
 70
     2
  9
$DIMALTF
 40
0.039370078740157
  9
$DIMLFAC
 40
1.0
  9
$DIMTOFL
 70
     1
  9
$DIMTVP
 40
0.0
  9
$DIMTIX
 70
     1
  9
$DIMSOXD
 70
     0
  9
$DIMSAH
 70
     1
  9
$DIMBLK1
  1
OBLIQUE
  9
$DIMBLK2
  1
OBLIQUE
  9
$DIMSTYLE
  2
OPO-SSTRICH
  9
$DIMCLRD
 70
   256
  9
$DIMCLRE
 70
   256
  9
$DIMCLRT
 70
   256
  9
$DIMTFAC
 40
0.7114285714285716
  9
$DIMGAP
 40
1.0
  9
$LUNITS
 70
     2
  9
$LUPREC
 70
     1
  9
$SKETCHINC
 40
1.0
  9
$FILLETRAD
 40
0.0
  9
$AUNITS
 70
     0
  9
$AUPREC
 70
     1
  9
$MENU
  1
D:\ACL_CGWG\CGTAB13
  9
$ELEVATION
 40
0.0
  9
$PELEVATION
 40
0.0
  9
$THICKNESS
 40
0.0
  9
$LIMCHECK
 70
     0
  9
$BLIPMODE
 70
     0
  9
$CHAMFERA
 40
1.0
  9
$CHAMFERB
 40
1.0
  9
$SKPOLY
 70
     0
  9
$TDCREATE
 40
2451739.8661281019
  9
$TDUPDATE
 40
2452087.6097505321
  9
$TDINDWG
 40
0.0010692708
  9
$TDUSRTIMER
 40
0.0010692708
  9
$USRTIMER
 70
     1
  9
$ANGBASE
 50
0.0
  9
$ANGDIR
 70
     0
  9
$PDMODE
 70
    35
  9
$PDSIZE
 40
5.0
  9
$PLINEWID
 40
0.0
  9
$COORDS
 70
     1
  9
$SPLFRAME
 70
     0
  9
$SPLINETYPE
 70
     6
  9
$SPLINESEGS
 70
     8
  9
$ATTDIA
 70
     1
  9
$ATTREQ
 70
     1
  9
$HANDLING
 70
-16383
  9
$HANDSEED
  5
4CB
  9
$SURFTAB1
 70
    12
  9
$SURFTAB2
 70
    12
  9
$SURFTYPE
 70
     6
  9
$SURFU
 70
    12
  9
$SURFV
 70
    12
  9
$UCSNAME
  2

  9
$UCSORG
 10
0.0
 20
0.0
 30
0.0
  9
$UCSXDIR
 10
1.0
 20
0.0
 30
0.0
  9
$UCSYDIR
 10
0.0
 20
1.0
 30
0.0
  9
$PUCSNAME
  2

  9
$PUCSORG
 10
0.0
 20
0.0
 30
0.0
  9
$PUCSXDIR
 10
1.0
 20
0.0
 30
0.0
  9
$PUCSYDIR
 10
0.0
 20
1.0
 30
0.0
  9
$USERI1
 70
     0
  9
$USERI2
 70
     0
  9
$USERI3
 70
     0
  9
$USERI4
 70
     0
  9
$USERI5
 70
     0
  9
$USERR1
 40
0.0
  9
$USERR2
 40
0.0
  9
$USERR3
 40
0.0
  9
$USERR4
 40
0.0
  9
$USERR5
 40
0.0
  9
$WORLDVIEW
 70
     1
  9
$SHADEDGE
 70
     3
  9
$SHADEDIF
 70
    70
  9
$TILEMODE
 70
     1
  9
$MAXACTVP
 70
    48
  9
$PLIMCHECK
 70
     0
  9
$PEXTMIN
 10
1.0000000000000000E+020
 20
1.0000000000000000E+020
 30
1.0000000000000000E+020
  9
$PEXTMAX
 10
-1.0000000000000000E+020
 20
-1.0000000000000000E+020
 30
-1.0000000000000000E+020
  9
$PLIMMIN
 10
0.0
 20
0.0
  9
$PLIMMAX
 10
420.0
 20
297.0
  9
$UNITMODE
 70
     0
  9
$VISRETAIN
 70
     1
  9
$PLINEGEN
 70
     0
  9
$PSLTSCALE
 70
     1
  0
ENDSEC
  0
SECTION
  2
TABLES
  0
TABLE
  2
VPORT
 70
     2
  0
VPORT
  2
*ACTIVE
 70
     0
 10
0.0
 20
0.0
 11
1.0
 21
1.0
 12
-10.505675583269509
 22
35.224915290280478
 13
0.0
 23
0.0
 14
0.5
 24
0.5
 15
10.0
 25
10.0
 16
0.0
 26
0.0
 36
1.0
 17
0.0
 27
0.0
 37
0.0
 40
91.188505388801843
 41
1.6070460704607039
 42
50.0
 43
0.0
 44
0.0
 50
0.0
 51
0.0
 71
     0
 72
   800
 73
     1
 74
     1
 75
     0
 76
     0
 77
     0
 78
     0
  0
ENDTAB
  0
TABLE
  2
LTYPE
 70
     2
  0
LTYPE
  2
CONTINUOUS
 70
     0
  3
_______________________________________________
 72
    65
 73
     2
 40
1.0
 49
1.0
 49
0.0
  0
LTYPE
  2
STRICHPUNKT
 70
     0
  3
__ . __ . __ . __ . __ . __ . __ . __ . __ . __
 72
    65
 73
     4
 40
1.0
 49
0.5
 49
-0.25
 49
0.0
 49
-0.25
  0
ENDTAB
  0
TABLE
  2
LAYER
 70
     7
  0
LAYER
  2
0
 70
     0
 62
    30
  6
CONTINUOUS
  0
LAYER
  2
1
 70
     0
 62
     2
  6
CONTINUOUS
  0
LAYER
  2
2
 70
     0
 62
     9
  6
CONTINUOUS
  0
LAYER
  2
4
 70
     1
 62
     4
  6
CONTINUOUS
  0
LAYER
  2
5
 70
     0
 62
     1
  6
CONTINUOUS
  0
LAYER
  2
6
 70
     0
 62
     3
  6
CONTINUOUS
  0
LAYER
  2
DEFPOINTS
 70
     0
 62
     7
  6
CONTINUOUS
  0
ENDTAB
  0
TABLE
  2
STYLE
 70
     2
  0
STYLE
  2
STANDARD
 70
     0
 40
0.0
 41
1.0
 50
0.0
 71
     0
 42
2.5
  3
txt
  4

  0
STYLE
  2
BESCHLAG
 70
     0
 40
0.0
 41
1.0
 50
0.0
 71
     0
 42
3.5
  3
txt
  4

  0
ENDTAB
  0
TABLE
  2
VIEW
 70
     0
  0
ENDTAB
  0
TABLE
  2
UCS
 70
     0
  0
ENDTAB
  0
TABLE
  2
APPID
 70
     1
  0
APPID
  2
ACAD
 70
     0
  0
ENDTAB
  0
TABLE
  2
DIMSTYLE
 70
     1
  0
DIMSTYLE
  2
OPO-SSTRICH
 70
     0
  3

  4

  5

  6
OBLIQUE
  7
OBLIQUE
 40
1.0
 41
2.0
 42
2.0
 43
0.0
 44
1.0
 45
0.0
 46
1.0
 47
0.0
 48
0.0
140
3.5
141
0.0
142
0.0
143
0.039370078740157
144
1.0
145
0.0
146
0.7114285714285716
147
1.0
 71
     0
 72
     0
 73
     0
 74
     0
 75
     0
 76
     0
 77
     1
 78
     8
170
     0
171
     2
172
     1
173
     1
174
     1
175
     0
176
   256
177
   256
178
   256
  0
ENDTAB
  0
ENDSEC
  0
SECTION
  2
BLOCKS
  0
BLOCK
  8
0
  2
$MODEL_SPACE
 70
     0
 10
0.0
 20
0.0
 30
0.0
  3
$MODEL_SPACE
  1

  0
ENDBLK
  5
1C
  8
0
  0
BLOCK
 67
     1
  8
0
  2
$PAPER_SPACE
 70
     0
 10
0.0
 20
0.0
 30
0.0
  3
$PAPER_SPACE
  1

  0
ENDBLK
  5
19
 67
     1
  8
0
  0
BLOCK
  8
0
  2
_OBLIQUE
 70
     0
 10
0.0
 20
0.0
 30
0.0
  3
_OBLIQUE
  1

  0
LINE
  5
204
  8
0
 62
     0
 10
-0.5
 20
-0.5
 30
0.0
 11
0.5
 21
0.5
 31
0.0
  0
ENDBLK
  5
206
  8
0
  0
BLOCK
  8
0
  2
NULLPUNKT
 70
     0
 10
0.0
 20
0.0
 30
0.0
  3
NULLPUNKT
  1

  0
SOLID
  5
254
  8
5
 10
0.0
 20
0.0
 30
0.0
 11
2.0
 21
0.0
 31
0.0
 12
0.0
 22
-2.0
 32
0.0
 13
0.0
 23
-2.0
 33
0.0
  0
SOLID
  5
255
  8
5
 10
0.0
 20
0.0
 30
0.0
 11
-2.0
 21
0.0
 31
0.0
 12
0.0
 22
2.0
 32
0.0
 13
0.0
 23
2.0
 33
0.0
  0
POLYLINE
  5
256
  8
5
 66
     1
 10
0.0
 20
0.0
 30
0.0
  0
VERTEX
  5
3D1
  8
5
 10
0.0
 20
2.0
 30
0.0
  0
VERTEX
  5
3D2
  8
5
 10
0.0
 20
-2.0
 30
0.0
  0
SEQEND
  5
3D3
  8
5
  0
POLYLINE
  5
257
  8
5
 66
     1
 10
0.0
 20
0.0
 30
0.0
  0
VERTEX
  5
3D4
  8
5
 10
-2.0
 20
0.0
 30
0.0
  0
VERTEX
  5
3D5
  8
5
 10
2.0
 20
0.0
 30
0.0
  0
SEQEND
  5
3D6
  8
5
  0
CIRCLE
  5
258
  8
5
 10
0.0
 20
0.0
 30
0.0
 40
2.0
  0
ENDBLK
  5
25A
  8
0
  0
BLOCK
  8
0
  2
*X2
 70
     1
 10
0.0
 20
0.0
 30
0.0
  3
*X2
  1

  0
LINE
  5
26C
  8
0
 62
     0
 10
579.13599465389609
 20
32.683874152932383
 30
0.0
 11
580.6359946538962
 21
34.183874152932312
 31
0.0
  0
LINE
  5
26D
  8
0
 62
     0
 10
594.97958287570634
 20
48.527462374742441
 30
0.0
 11
596.47958287570634
 21
50.027462374742441
 31
0.0
  0
LINE
  5
26E
  8
0
 62
     0
 10
585.47958287570634
 20
39.027462374742441
 30
0.0
 11
586.97958287570634
 21
40.527462374742441
 31
0.0
  0
LINE
  5
26F
  8
0
 62
     0
 10
579.13599465389609
 20
34.380930427780079
 30
0.0
 11
580.6359946538962
 21
35.880930427780008
 31
0.0
  0
LINE
  5
270
  8
0
 62
     0
 10
593.28252660085855
 20
48.527462374742441
 30
0.0
 11
594.78252660085855
 21
50.027462374742441
 31
0.0
  0
LINE
  5
271
  8
0
 62
     0
 10
583.78252660085855
 20
39.027462374742441
 30
0.0
 11
585.28252660085855
 21
40.527462374742441
 31
0.0
  0
LINE
  5
272
  8
0
 62
     0
 10
579.13599465389609
 20
36.077986702627861
 30
0.0
 11
580.6359946538962
 21
37.57798670262779
 31
0.0
  0
LINE
  5
273
  8
0
 62
     0
 10
591.58547032601075
 20
48.527462374742441
 30
0.0
 11
593.08547032601075
 21
50.027462374742441
 31
0.0
  0
LINE
  5
274
  8
0
 62
     0
 10
582.08547032601075
 20
39.027462374742441
 30
0.0
 11
583.58547032601086
 21
40.527462374742441
 31
0.0
  0
LINE
  5
275
  8
0
 62
     0
 10
579.13599465389609
 20
37.77504297747555
 30
0.0
 11
581.91348383120101
 21
40.55253215478043
 31
0.0
  0
LINE
  5
276
  8
0
 62
     0
 10
589.88841405116295
 20
48.527462374742441
 30
0.0
 11
591.38841405116318
 21
50.027462374742441
 31
0.0
  0
LINE
  5
277
  8
0
 62
     0
 10
579.13599465389609
 20
39.472099252323247
 30
0.0
 11
581.13744880002321
 21
41.473553398450328
 31
0.0
  0
LINE
  5
278
  8
0
 62
     0
 10
588.19135777631527
 20
48.527462374742441
 30
0.0
 11
589.6913577763155
 21
50.027462374742441
 31
0.0
  0
LINE
  5
279
  8
0
 62
     0
 10
579.13599465389609
 20
41.169155527170943
 30
0.0
 11
581.1359946538962
 21
43.169155527170943
 31
0.0
  0
LINE
  5
27A
  8
0
 62
     0
 10
586.49430150146759
 20
48.527462374742441
 30
0.0
 11
587.9943015014677
 21
50.027462374742441
 31
0.0
  0
LINE
  5
27B
  8
0
 62
     0
 10
579.13599465389609
 20
42.866211802018647
 30
0.0
 11
580.73035481313696
 21
44.460571961259319
 31
0.0
  0
LINE
  5
27C
  8
0
 62
     0
 10
584.79724522661991
 20
48.527462374742441
 30
0.0
 11
586.29724522662002
 21
50.027462374742441
 31
0.0
  0
LINE
  5
27D
  8
0
 62
     0
 10
579.13599465389609
 20
44.563268076866422
 30
0.0
 11
581.1359946538962
 21
46.563268076866372
 31
0.0
  0
LINE
  5
27E
  8
0
 62
     0
 10
583.10018895177222
 20
48.527462374742441
 30
0.0
 11
584.60018895177211
 21
50.027462374742441
 31
0.0
  0
LINE
  5
27F
  8
0
 62
     0
 10
579.13599465389609
 20
46.260324351714132
 30
0.0
 11
582.90313267692454
 21
50.027462374742441
 31
0.0
  0
LINE
  5
280
  8
0
 62
     0
 10
579.13599465389609
 20
47.957380626561829
 30
0.0
 11
581.27392525909761
 21
50.095311231763233
 31
0.0
  0
LINE
  5
281
  8
0
 62
     0
 10
579.13599465389609
 20
49.654436901409518
 30
0.0
 11
580.6359946538962
 21
51.154436901409511
 31
0.0
  0
LINE
  5
282
  8
0
 62
     0
 10
589.5632688161644
 20
60.08171106367778
 30
0.0
 11
590.28599465389595
 21
60.804436901409332
 31
0.0
  0
LINE
  5
283
  8
0
 62
     0
 10
579.13599465389609
 20
51.351493176257222
 30
0.0
 11
580.6359946538962
 21
52.851493176257208
 31
0.0
  0
LINE
  5
284
  8
0
 62
     0
 10
598.01237659292519
 20
70.227875115286182
 30
0.0
 11
599.06042838875351
 21
71.275926911114624
 31
0.0
  0
LINE
  5
285
  8
0
 62
     0
 10
588.78599465389607
 20
61.001493176257092
 30
0.0
 11
592.27583860323784
 21
64.491337125598861
 31
0.0
  0
LINE
  5
286
  8
0
 62
     0
 10
579.13599465389609
 20
53.048549451104989
 30
0.0
 11
580.6359946538962
 21
54.548549451104989
 31
0.0
  0
LINE
  5
287
  8
0
 62
     0
 10
596.95520609211997
 20
70.867760889328821
 30
0.0
 11
597.9638864583959
 21
71.876441255604661
 31
0.0
  0
LINE
  5
288
  8
0
 62
     0
 10
588.33905643225194
 20
62.251611229460693
 30
0.0
 11
589.56524997391648
 21
63.477804771125342
 31
0.0
  0
LINE
  5
289
  8
0
 62
     0
 10
590.78565225751322
 20
64.698207054721991
 30
0.0
 11
592.01149457908639
 21
65.924049376295187
 31
0.0
  0
LINE
  5
28A
  8
0
 62
     0
 10
579.13599465389609
 20
54.7456057259527
 30
0.0
 11
580.6359946538962
 21
56.245605725952679
 31
0.0
  0
LINE
  5
28B
  8
0
 62
     0
 10
596.22422034132171
 20
71.833831413378149
 30
0.0
 11
597.41354175454035
 21
73.023152826596899
 31
0.0
  0
LINE
  5
28C
  8
0
 62
     0
 10
587.39365138990195
 20
63.003262461958428
 30
0.0
 11
588.46812204997684
 21
64.077733122033294
 31
0.0
  0
LINE
  5
28D
  8
0
 62
     0
 10
579.13599465389609
 20
56.442662000800389
 30
0.0
 11
580.6359946538962
 21
57.942662000800389
 31
0.0
  0
LINE
  5
28E
  8
0
 62
     0
 10
595.23855828153989
 20
72.545225628444115
 30
0.0
 11
599.04321533208281
 21
76.349882678987015
 31
0.0
  0
LINE
  5
28F
  8
0
 62
     0
 10
586.84660666972047
 20
64.153274016624792
 30
0.0
 11
589.53599465389607
 21
66.842662000800246
 31
0.0
  0
LINE
  5
290
  8
0
 62
     0
 10
579.13599465389609
 20
58.1397182756481
 30
0.0
 11
580.6359946538962
 21
59.639718275648079
 31
0.0
  0
LINE
  5
291
  8
0
 62
     0
 10
591.22328002359836
 20
70.227003645350393
 30
0.0
 11
595.3213562349523
 21
74.325079856704107
 31
0.0
  0
LINE
  5
292
  8
0
 62
     0
 10
587.24525490368239
 20
66.248978525434325
 30
0.0
 11
589.53599465389607
 21
68.539718275647957
 31
0.0
  0
LINE
  5
293
  8
0
 62
     0
 10
579.13599465389609
 20
59.83677455049579
 30
0.0
 11
580.6359946538962
 21
61.336774550495782
 31
0.0
  0
LINE
  5
294
  8
0
 62
     0
 10
587.14784945768804
 20
67.848629354287596
 30
0.0
 11
591.30607797701077
 21
72.006857873610343
 31
0.0
  0
LINE
  5
295
  8
0
 62
     0
 10
579.13599465389609
 20
61.533830825343493
 30
0.0
 11
580.6359946538962
 21
63.033830825343479
 31
0.0
  0
LINE
  5
296
  8
0
 62
     0
 10
583.19272350771587
 20
65.590559679163178
 30
0.0
 11
587.29079971906935
 21
69.688635890516622
 31
0.0
  0
LINE
  5
297
  8
0
 62
     0
 10
579.13599465389609
 20
63.230887100191268
 30
0.0
 11
583.27552146112782
 21
67.370413907422758
 31
0.0
  0
LINE
  5
298
  8
0
 62
     0
 10
579.13599465389609
 20
30.986817878084679
 30
0.0
 11
580.6359946538962
 21
32.486817878084608
 31
0.0
  0
LINE
  5
299
  8
0
 62
     0
 10
596.0396556400292
 20
47.89047886421762
 30
0.0
 11
598.17663915055402
 21
50.027462374742441
 31
0.0
  0
LINE
  5
29A
  8
0
 62
     0
 10
587.17663915055402
 20
39.027462374742441
 30
0.0
 11
588.67663915055402
 21
40.527462374742441
 31
0.0
  0
LINE
  5
29B
  8
0
 62
     0
 10
579.13599465389609
 20
29.289761603236979
 30
0.0
 11
580.6359946538962
 21
30.789761603236919
 31
0.0
  0
LINE
  5
29C
  8
0
 62
     0
 10
597.32388616620483
 20
47.477653115545579
 30
0.0
 11
598.84829957366276
 21
49.00206652300362
 31
0.0
  0
LINE
  5
29D
  8
0
 62
     0
 10
588.87369542540159
 20
39.027462374742441
 30
0.0
 11
590.37369542540171
 21
40.527462374742441
 31
0.0
  0
LINE
  5
29E
  8
0
 62
     0
 10
579.13599465389609
 20
27.59270532838929
 30
0.0
 11
580.6359946538962
 21
29.092705328389219
 31
0.0
  0
LINE
  5
29F
  8
0
 62
     0
 10
590.57075170024928
 20
39.027462374742441
 30
0.0
 11
592.07075170024939
 21
40.527462374742441
 31
0.0
  0
LINE
  5
2A0
  8
0
 62
     0
 10
579.13599465389609
 20
25.895649053541511
 30
0.0
 11
580.6359946538962
 21
27.39564905354144
 31
0.0
  0
LINE
  5
2A1
  8
0
 62
     0
 10
592.26780797509718
 20
39.027462374742441
 30
0.0
 11
593.76780797509718
 21
40.527462374742441
 31
0.0
  0
LINE
  5
2A2
  8
0
 62
     0
 10
579.13599465389609
 20
24.198592778693811
 30
0.0
 11
580.6359946538962
 21
25.69859277869374
 31
0.0
  0
LINE
  5
2A3
  8
0
 62
     0
 10
595.95469962359255
 20
41.017297748390106
 30
0.0
 11
596.80937686313928
 21
41.871974987937001
 31
0.0
  0
LINE
  5
2A4
  8
0
 62
     0
 10
593.96486424994475
 20
39.027462374742441
 30
0.0
 11
595.46486424994475
 21
40.527462374742441
 31
0.0
  0
LINE
  5
2A5
  8
0
 62
     0
 10
579.13599465389609
 20
22.501536503846111
 30
0.0
 11
580.6359946538962
 21
24.00153650384604
 31
0.0
  0
LINE
  5
2A6
  8
0
 62
     0
 10
595.66192052479255
 20
39.027462374742441
 30
0.0
 11
597.88839018999897
 21
41.253932039948928
 31
0.0
  0
LINE
  5
2A7
  8
0
 62
     0
 10
579.13599465389609
 20
20.804480228998411
 30
0.0
 11
580.6359946538962
 21
22.30448022899834
 31
0.0
  0
LINE
  5
2A8
  8
0
 62
     0
 10
597.35897679964023
 20
39.027462374742441
 30
0.0
 11
598.96740351685867
 21
40.635889091960863
 31
0.0
  0
LINE
  5
2A9
  8
0
 62
     0
 10
579.13599465389609
 20
19.107423954150718
 30
0.0
 11
580.6359946538962
 21
20.60742395415064
 31
0.0
  0
LINE
  5
2AA
  8
0
 62
     0
 10
599.07264923248533
 20
39.044078532739782
 30
0.0
 11
599.12243980155336
 21
39.093869101807812
 31
0.0
  0
LINE
  5
2AB
  8
0
 62
     0
 10
579.13599465389609
 20
17.41036767930294
 30
0.0
 11
580.6359946538962
 21
18.910367679302869
 31
0.0
  0
LINE
  5
2AC
  8
0
 62
     0
 10
579.13599465389609
 20
15.71331140445524
 30
0.0
 11
580.78958755459951
 21
17.366904305158499
 31
0.0
  0
LINE
  5
2AD
  8
0
 62
     0
 10
579.13599465389609
 20
14.01625512960754
 30
0.0
 11
582.34720189903123
 21
17.22746237474248
 31
0.0
  0
LINE
  5
2AE
  8
0
 62
     0
 10
587.41541066605544
 20
22.295671141766739
 30
0.0
 11
589.59653542108651
 21
24.476795896797789
 31
0.0
  0
LINE
  5
2AF
  8
0
 62
     0
 10
583.13599465389632
 20
18.016255129607519
 30
0.0
 11
585.34720189903123
 21
20.22746237474248
 31
0.0
  0
LINE
  5
2B0
  8
0
 62
     0
 10
579.13599465389609
 20
12.31919885475984
 30
0.0
 11
580.6359946538962
 21
13.81919885475979
 31
0.0
  0
LINE
  5
2B1
  8
0
 62
     0
 10
589.77181260928705
 20
22.95501681015071
 30
0.0
 11
590.92038296248529
 21
24.103587163349019
 31
0.0
  0
LINE
  5
2B2
  8
0
 62
     0
 10
582.54425817387892
 20
15.72746237474248
 30
0.0
 11
584.6359946538962
 21
17.819198854759762
 31
0.0
  0
LINE
  5
2B3
  8
0
 62
     0
 10
585.54425817387892
 20
18.72746237474248
 30
0.0
 11
587.04425817387892
 21
20.22746237474248
 31
0.0
  0
LINE
  5
2B4
  8
0
 62
     0
 10
579.13599465389609
 20
10.62214257991214
 30
0.0
 11
580.6359946538962
 21
12.122142579912101
 31
0.0
  0
LINE
  5
2B5
  8
0
 62
     0
 10
590.69913650468391
 20
22.185284430699831
 30
0.0
 11
591.80095185998221
 21
23.287099785998119
 31
0.0
  0
LINE
  5
2B6
  8
0
 62
     0
 10
583.13599465389609
 20
14.622142579912079
 30
0.0
 11
584.6359946538962
 21
16.122142579912062
 31
0.0
  0
LINE
  5
2B7
  8
0
 62
     0
 10
587.2413144487266
 20
18.72746237474248
 30
0.0
 11
589.07817259793865
 21
20.56432052395461
 31
0.0
  0
LINE
  5
2B8
  8
0
 62
     0
 10
579.13599465389609
 20
8.9250863050643687
 30
0.0
 11
580.6359946538962
 21
10.425086305064321
 31
0.0
  0
LINE
  5
2B9
  8
0
 62
     0
 10
588.03599465389595
 20
17.825086305064222
 30
0.0
 11
592.2663645958196
 21
22.055456246987742
 31
0.0
  0
LINE
  5
2BA
  8
0
 62
     0
 10
583.13599465389609
 20
12.925086305064299
 30
0.0
 11
584.6359946538962
 21
14.42508630506428
 31
0.0
  0
LINE
  5
2BB
  8
0
 62
     0
 10
579.13599465389609
 20
7.2280300302166713
 30
0.0
 11
580.6359946538962
 21
8.7280300302166225
 31
0.0
  0
LINE
  5
2BC
  8
0
 62
     0
 10
590.63542699842208
 20
18.72746237474248
 30
0.0
 11
592.14028664010561
 21
20.232322016426039
 31
0.0
  0
LINE
  5
2BD
  8
0
 62
     0
 10
584.46506751974937
 20
12.55710289606993
 30
0.0
 11
585.10635413256875
 21
13.198389508889139
 31
0.0
  0
LINE
  5
2BE
  8
0
 62
     0
 10
588.03599465389595
 20
16.128030030216522
 30
0.0
 11
589.53599465389618
 21
17.628030030216671
 31
0.0
  0
LINE
  5
2BF
  8
0
 62
     0
 10
580.13248327326971
 20
6.5274623747424396
 30
0.0
 11
580.6359946538962
 21
7.0309737553689251
 31
0.0
  0
LINE
  5
2C0
  8
0
 62
     0
 10
597.6359946538962
 20
24.030973755368969
 30
0.0
 11
599.01136835966679
 21
25.40634746113955
 31
0.0
  0
LINE
  5
2C1
  8
0
 62
     0
 10
588.03599465389595
 20
14.43097375536883
 30
0.0
 11
589.53599465389607
 21
15.93097375536891
 31
0.0
  0
LINE
  5
2C2
  8
0
 62
     0
 10
592.33248327326964
 20
18.72746237474248
 30
0.0
 11
593.83248327326964
 21
20.22746237474248
 31
0.0
  0
LINE
  5
2C3
  8
0
 62
     0
 10
587.96352736652932
 20
12.6614501931543
 30
0.0
 11
589.53599465389607
 21
14.23391748052115
 31
0.0
  0
LINE
  5
2C4
  8
0
 62
     0
 10
597.6359946538962
 20
22.333917480521269
 30
0.0
 11
598.81806870277535
 21
23.51599152940048
 31
0.0
  0
LINE
  5
2C5
  8
0
 62
     0
 10
594.02953954811744
 20
18.72746237474248
 30
0.0
 11
595.52953954811744
 21
20.22746237474248
 31
0.0
  0
LINE
  5
2C6
  8
0
 62
     0
 10
595.72659582296524
 20
18.72746237474248
 30
0.0
 11
597.22659582296524
 21
20.22746237474248
 31
0.0
  0
LINE
  5
2C7
  8
0
 62
     0
 10
597.6359946538962
 20
20.636861205673569
 30
0.0
 11
598.65088061083543
 21
21.6517471626127
 31
0.0
  0
LINE
  5
2C8
  8
0
 62
     0
 10
597.42365209781292
 20
18.72746237474248
 30
0.0
 11
599.06954057592122
 21
20.373350852850749
 31
0.0
  0
ENDBLK
  5
2CA
  8
0
  0
BLOCK
  8
0
  2
*D3
 70
     1
 10
0.0
 20
0.0
 30
0.0
  3
*D3
  1

  0
LINE
  5
30B
  8
1
 10
-20.589999999999911
 20
4.7139631775862654
 30
0.0
 11
-35.556975899967021
 21
4.7139631775862689
 31
0.0
  0
LINE
  5
30C
  8
1
 10
-14.80000000000018
 20
-2.2860368224136769
 30
0.0
 11
-35.556975899967021
 21
-2.2860368224136711
 31
0.0
  0
LINE
  5
30D
  8
1
 10
-34.556975899967021
 20
5.7139631775862689
 30
0.0
 11
-34.556975899967021
 21
-3.2860368224136711
 31
0.0
  0
INSERT
  5
30E
  8
1
  2
_OBLIQUE
 10
-34.556975899967021
 20
4.7139631775862689
 30
0.0
 41
2.0
 42
2.0
 43
2.0
 50
90.0
  0
INSERT
  5
30F
  8
1
  2
_OBLIQUE
 10
-34.556975899967021
 20
-2.2860368224136711
 30
0.0
 41
2.0
 42
2.0
 43
2.0
 50
270.0
  0
TEXT
  5
310
  8
0
 10
-35.556975899967021
 20
-0.1504638346920148
 30
0.0
 40
3.5
  1
7
 50
90.0
  7
BESCHLAG
  0
POINT
  5
311
  8
DEFPOINTS
 62
     0
 10
-18.589999999999911
 20
4.7139631775862654
 30
0.0
  0
POINT
  5
312
  8
DEFPOINTS
 62
     0
 10
-12.80000000000018
 20
-2.2860368224136769
 30
0.0
  0
POINT
  5
313
  8
DEFPOINTS
 62
     0
 10
-34.556975899967021
 20
-2.2860368224136711
 30
0.0
  0
ENDBLK
  5
30A
  8
0
  0
ENDSEC
  0
SECTION
  2
ENTITIES
  0
INSERT
  5
25B
  8
5
  2
NULLPUNKT
 10
0.0
 20
0.0
 30
0.0
  0
DIMENSION
  5
2EE
  8
1
  2
*D3
 10
-34.556975899967021
 20
-2.2860368224136711
 30
0.0
 11
-37.306975899967028
 21
1.2139631775862929
 31
0.0
 70
     0
 13
-18.589999999999911
 23
4.7139631775862654
 33
0.0
 14
-12.80000000000018
 24
-2.2860368224136769
 34
0.0
 50
90.0
  0
LINE
  5
2EF
  8
5
 10
10.0
 20
-9.9999999999999432
 30
0.0
 11
-39.590029481627191
 21
-9.9999999999999432
 31
0.0
  0
POLYLINE
  5
2F0
  8
6
 66
     1
 10
0.0
 20
0.0
 30
0.0
 70
     1
  0
VERTEX
  5
3D7
  8
6
 10
-12.799999999999949
 20
16.089166960745271
 30
0.0
 42
-0.2073828153970596
  0
VERTEX
  5
3D8
  8
6
 10
-12.1640465277735
 20
15.780857757477291
 30
0.0
  0
VERTEX
  5
3D9
  8
6
 10
-11.34441517125628
 20
14.706053768367269
 30
0.0
  0
VERTEX
  5
3DA
  8
6
 10
-11.34441517125628
 20
13.97710258841709
 30
0.0
  0
VERTEX
  5
3DB
  8
6
 10
-11.56262866425072
 20
13.97710258841709
 30
0.0
  0
VERTEX
  5
3DC
  8
6
 10
-11.887287869170221
 20
14.360200959207299
 30
0.0
 42
0.6764201413968999
  0
VERTEX
  5
3DD
  8
6
 10
-11.99905565023959
 20
14.322955216284861
 30
0.0
  0
VERTEX
  5
3DE
  8
6
 10
-11.99905565023959
 20
13.73234515999866
 30
0.0
  0
VERTEX
  5
3DF
  8
6
 10
-11.34441517125628
 20
12.907619342027941
 30
0.0
  0
VERTEX
  5
3E0
  8
6
 10
-11.34441517125628
 20
12.008402038212241
 30
0.0
  0
VERTEX
  5
3E1
  8
6
 10
-11.49876142949733
 20
12.008402038212241
 30
0.0
  0
VERTEX
  5
3E2
  8
6
 10
-11.77552008810062
 20
12.545804123413291
 30
0.0
 42
0.5723913899065157
  0
VERTEX
  5
3E3
  8
6
 10
-11.87132094023081
 20
12.55112486613416
 30
0.0
  0
VERTEX
  5
3E4
  8
6
 10
-12.068245435141529
 20
12.3223300284626
 30
0.0
  0
VERTEX
  5
3E5
  8
6
 10
-12.068245435141529
 20
11.554775046244799
 30
0.0
 42
0.2577988718047752
  0
VERTEX
  5
3E6
  8
6
 10
-11.59061179548848
 20
10.81767587280774
 30
0.0
 42
0.2462846780726563
  0
VERTEX
  5
3E7
  8
6
 10
-10.260820344468581
 20
10.713963177586599
 30
0.0
 42
-0.62659610262694
  0
VERTEX
  5
3E8
  8
6
 10
-10.16401635842362
 20
10.26104540043149
 30
0.0
 42
0.10275819236416
  0
VERTEX
  5
3E9
  8
6
 10
-10.49702218585912
 20
9.8119985728342272
 30
0.0
 42
-0.1232972087155195
  0
VERTEX
  5
3EA
  8
6
 10
-11.80213139583088
 20
9.129842880041906
 30
0.0
 42
0.8478405637352606
  0
VERTEX
  5
3EB
  8
6
 10
-11.865998871086269
 20
8.2465879856810034
 30
0.0
 42
0.1440216621515446
  0
VERTEX
  5
3EC
  8
6
 10
-7.7367028492867567
 20
-1.104102023371353
 30
0.0
 42
-3.6810156484747871
  0
VERTEX
  5
3ED
  8
6
 10
-8.3501222444849645
 20
-1.9513988928086401
 30
0.0
 42
-0.1698115084339826
  0
VERTEX
  5
3EE
  8
6
 10
-13.56391377312775
 20
8.3062816827138022
 30
0.0
 42
0.776864196328741
  0
VERTEX
  5
3EF
  8
6
 10
-13.56391377312775
 20
9.1141828658599024
 30
0.0
 42
-0.0112631829542201
  0
VERTEX
  5
3F0
  8
6
 10
-13.797868604169251
 20
9.129842880041906
 30
0.0
 42
-0.1232972087155195
  0
VERTEX
  5
3F1
  8
6
 10
-15.10297781414101
 20
9.8119985728342272
 30
0.0
 42
0.10275819236416
  0
VERTEX
  5
3F2
  8
6
 10
-15.435983641576509
 20
10.26104540043149
 30
0.0
 42
-0.6265961026269356
  0
VERTEX
  5
3F3
  8
6
 10
-15.33917965553155
 20
10.713963177586599
 30
0.0
 42
0.2462846780726563
  0
VERTEX
  5
3F4
  8
6
 10
-14.00938820451165
 20
10.81767587280774
 30
0.0
 42
0.2577988718047752
  0
VERTEX
  5
3F5
  8
6
 10
-13.5317545648586
 20
11.554775046244799
 30
0.0
  0
VERTEX
  5
3F6
  8
6
 10
-13.5317545648586
 20
12.3223300284626
 30
0.0
  0
VERTEX
  5
3F7
  8
6
 10
-13.728679059769309
 20
12.55112486613416
 30
0.0
 42
0.5723913899065157
  0
VERTEX
  5
3F8
  8
6
 10
-13.824479911899511
 20
12.545804123413291
 30
0.0
  0
VERTEX
  5
3F9
  8
6
 10
-14.101238570502799
 20
12.008402038212241
 30
0.0
  0
VERTEX
  5
3FA
  8
6
 10
-14.255584828743849
 20
12.008402038212241
 30
0.0
  0
VERTEX
  5
3FB
  8
6
 10
-14.255584828743849
 20
12.907619342027941
 30
0.0
  0
VERTEX
  5
3FC
  8
6
 10
-13.60094434976053
 20
13.73234515999866
 30
0.0
  0
VERTEX
  5
3FD
  8
6
 10
-13.60094434976053
 20
14.322955216284861
 30
0.0
 42
0.6764201413968999
  0
VERTEX
  5
3FE
  8
6
 10
-13.71271213082991
 20
14.360200959207299
 30
0.0
  0
VERTEX
  5
3FF
  8
6
 10
-14.037371335749411
 20
13.97710258841709
 30
0.0
  0
VERTEX
  5
400
  8
6
 10
-14.255584828743849
 20
13.97710258841709
 30
0.0
  0
VERTEX
  5
401
  8
6
 10
-14.255584828743849
 20
14.706053768367269
 30
0.0
  0
VERTEX
  5
402
  8
6
 10
-13.43595347222662
 20
15.780857757477291
 30
0.0
 42
-0.2073828153970596
  0
SEQEND
  5
403
  8
6
  0
POLYLINE
  5
2F1
  8
5
 66
     1
 10
0.0
 20
0.0
 30
0.0
  0
VERTEX
  5
404
  8
5
 10
0.0
 20
80.445597908669015
 30
0.0
  0
VERTEX
  5
405
  8
5
 10
0.0
 20
0.0
 30
0.0
  0
VERTEX
  5
406
  8
5
 10
10.0
 20
0.0
 30
0.0
  0
SEQEND
  5
407
  8
5
  0
POLYLINE
  5
2F2
  8
5
 66
     1
 10
0.0
 20
0.0
 30
0.0
 70
     1
  0
VERTEX
  5
408
  8
5
 10
-32.799999999999947
 20
-9.9999999999999432
 30
0.0
  0
VERTEX
  5
409
  8
5
 10
7.2000000000000446
 20
-9.9999999999999432
 30
0.0
 42
0.385698158879318
  0
SEQEND
  5
40A
  8
5
  0
POLYLINE
  5
2F3
  8
6
 66
     1
 10
0.0
 20
0.0
 30
0.0
  0
VERTEX
  5
40B
  8
6
 10
-3.8062503216355021
 20
40.590129619772711
 30
0.0
  0
VERTEX
  5
40C
  8
6
 10
-4.5116130449335961
 20
39.913963177586531
 30
0.0
  0
VERTEX
  5
40D
  8
6
 10
-4.7116130449336424
 20
39.913963177586531
 30
0.0
  0
VERTEX
  5
40E
  8
6
 10
-4.7116130449336424
 20
45.713963177586493
 30
0.0
  0
VERTEX
  5
40F
  8
6
 10
-4.5116130449335961
 20
45.713963177586493
 30
0.0
  0
VERTEX
  5
410
  8
6
 10
-3.8062503216355021
 20
44.939031294600909
 30
0.0
 42
0.142709741532141
  0
SEQEND
  5
411
  8
6
  0
POLYLINE
  5
2F4
  8
6
 66
     1
 10
0.0
 20
0.0
 30
0.0
 70
     1
  0
VERTEX
  5
412
  8
6
 10
-4.7616130449335961
 20
39.341345446841501
 30
0.0
  0
VERTEX
  5
413
  8
6
 10
-3.5411847139097281
 20
38.913963177586311
 30
0.0
  0
VERTEX
  5
414
  8
6
 10
-2.9325090642558962
 20
39.92035621462378
 30
0.0
  0
VERTEX
  5
415
  8
6
 10
0.0
 20
39.92035621462378
 30
0.0
  0
VERTEX
  5
416
  8
6
 10
0.0
 20
45.507570140549198
 30
0.0
  0
VERTEX
  5
417
  8
6
 10
-2.9325090642558962
 20
45.507570140549198
 30
0.0
  0
VERTEX
  5
418
  8
6
 10
-3.5411847139097281
 20
46.513963177586668
 30
0.0
  0
VERTEX
  5
419
  8
6
 10
-4.7616130449335961
 20
46.086580908331477
 30
0.0
  0
VERTEX
  5
41A
  8
6
 10
-4.7616130449335961
 20
42.713963177586493
 30
0.0
  0
SEQEND
  5
41B
  8
6
  0
INSERT
  5
2F5
  8
2
  2
*X2
 10
-599.13599465389609
 20
-1.81349919715592
 30
0.0
1001
ACAD
1000
HATCH
1002
{
1070
    16
1000
_U,I
1040
1.1999999999999991
1040
0.7853981633974483
1070
     0
1002
}
  0
POLYLINE
  5
2F6
  8
4
 66
     1
 10
0.0
 20
0.0
 30
0.0
 70
     1
  0
VERTEX
  5
41C
  8
4
 10
-20.0
 20
4.7139631775862654
 30
0.0
  0
VERTEX
  5
41D
  8
4
 10
-20.0
 20
63.166957793793927
 30
0.0
  0
VERTEX
  5
41E
  8
4
 10
0.0
 20
74.713963177586265
 30
0.0
  0
VERTEX
  5
41F
  8
4
 10
0.0
 20
4.7139631775862654
 30
0.0
  0
SEQEND
  5
420
  8
4
  0
POLYLINE
  5
2F7
  8
6
 66
     1
 10
0.0
 20
0.0
 30
0.0
 70
     1
  0
VERTEX
  5
421
  8
6
 10
-10.48559322033906
 20
60.310460796544703
 30
0.0
 42
-0.6258301644315236
  0
VERTEX
  5
422
  8
6
 10
-11.100000000000129
 20
65.218849291909692
 30
0.0
  0
VERTEX
  5
423
  8
6
 10
-11.0999999999999
 20
65.360888816714564
 30
0.0
 42
0.577350269189626
  0
VERTEX
  5
424
  8
6
 10
-12.14999999999986
 20
65.96710659936366
 30
0.0
  0
VERTEX
  5
425
  8
6
 10
-18.0
 20
62.589607524604382
 30
0.0
 42
0.2679491924311245
  0
VERTEX
  5
426
  8
6
 10
-18.5
 20
61.723582120819849
 30
0.0
  0
VERTEX
  5
427
  8
6
 10
-18.5
 20
49.213963177586493
 30
0.0
 42
0.4142135623730951
  0
VERTEX
  5
428
  8
6
 10
-17.5
 20
48.213963177586493
 30
0.0
  0
VERTEX
  5
429
  8
6
 10
-0.1269386943454265
 20
48.213963177586493
 30
0.0
 42
-0.6681786368568687
  0
VERTEX
  5
42A
  8
6
 10
-0.03501481252124
 20
47.99203929630221
 30
0.0
  0
VERTEX
  5
42B
  8
6
 10
-0.4216695745656125
 20
47.605384531985912
 30
0.0
 42
0.4142135627202392
  0
VERTEX
  5
42C
  8
6
 10
-0.4216695745803918
 20
47.322541819343527
 30
0.0
  0
VERTEX
  5
42D
  8
6
 10
-0.0585786438391551
 20
46.959450890909238
 30
0.0
 42
-0.4931454261992676
  0
VERTEX
  5
42E
  8
6
 10
-0.1000000000001364
 20
46.64482445383851
 30
0.0
  0
VERTEX
  5
42F
  8
6
 10
-2.4251234357873268
 20
45.313027981155301
 30
0.0
 42
-0.4132091454310479
  0
VERTEX
  5
430
  8
6
 10
-2.697733747297888
 20
45.386575093199319
 30
0.0
  0
VERTEX
  5
431
  8
6
 10
-3.4063665882188161
 20
46.613963177586363
 30
0.0
 42
0.2679491924311262
  0
VERTEX
  5
432
  8
6
 10
-3.5795716689756309
 20
46.713963177586493
 30
0.0
  0
VERTEX
  5
433
  8
6
 10
-17.0
 20
46.713963177586493
 30
0.0
 42
0.4142135623730951
  0
VERTEX
  5
434
  8
6
 10
-18.0
 20
45.713963177586493
 30
0.0
  0
VERTEX
  5
435
  8
6
 10
-18.0
 20
43.296805890061023
 30
0.0
 42
-0.198912367379658
  0
VERTEX
  5
436
  8
6
 10
-18.05857864376275
 20
43.155384533823728
 30
0.0
  0
VERTEX
  5
437
  8
6
 10
-18.358578643762709
 20
42.855384531589827
 30
0.0
 42
0.4142135623730962
  0
VERTEX
  5
438
  8
6
 10
-18.358578643762709
 20
42.572541819115031
 30
0.0
  0
VERTEX
  5
439
  8
6
 10
-18.05857864420318
 20
42.272541821424731
 30
0.0
 42
-0.1989123681892413
  0
VERTEX
  5
43A
  8
6
 10
-18.0
 20
42.131120464746793
 30
0.0
  0
VERTEX
  5
43B
  8
6
 10
-18.0
 20
39.713963177586493
 30
0.0
 42
0.4142135623730951
  0
VERTEX
  5
43C
  8
6
 10
-17.0
 20
38.713963177586493
 30
0.0
  0
VERTEX
  5
43D
  8
6
 10
-3.5795716689756309
 20
38.713963177586493
 30
0.0
 42
0.2679491924311262
  0
VERTEX
  5
43E
  8
6
 10
-3.4063665882188161
 20
38.813963177586402
 30
0.0
  0
VERTEX
  5
43F
  8
6
 10
-2.697733747297888
 20
40.041351261973432
 30
0.0
 42
-0.4132091454310479
  0
VERTEX
  5
440
  8
6
 10
-2.4251234357873268
 20
40.114898374017677
 30
0.0
  0
VERTEX
  5
441
  8
6
 10
-0.1000000000001364
 20
38.783101901334241
 30
0.0
 42
-0.4931454261992676
  0
VERTEX
  5
442
  8
6
 10
-0.0585786438391551
 20
38.46847546426374
 30
0.0
  0
VERTEX
  5
443
  8
6
 10
-0.4216695745803918
 20
38.105384535829209
 30
0.0
 42
0.4142135627202392
  0
VERTEX
  5
444
  8
6
 10
-0.4216695745656125
 20
37.822541823187059
 30
0.0
  0
VERTEX
  5
445
  8
6
 10
-0.03501481252124
 20
37.435887058870541
 30
0.0
 42
-0.6681786368568687
  0
VERTEX
  5
446
  8
6
 10
-0.1269386943454265
 20
37.213963177586493
 30
0.0
  0
VERTEX
  5
447
  8
6
 10
-17.5
 20
37.213963177586493
 30
0.0
 42
0.4142135623730956
  0
VERTEX
  5
448
  8
6
 10
-18.5
 20
36.213963177586493
 30
0.0
  0
VERTEX
  5
449
  8
6
 10
-18.5
 20
15.913963177586529
 30
0.0
 42
0.4142135623730951
  0
VERTEX
  5
44A
  8
6
 10
-18.0
 20
15.413963177586529
 30
0.0
  0
VERTEX
  5
44B
  8
6
 10
-16.5
 20
15.413963177586529
 30
0.0
 42
0.4142135623730971
  0
VERTEX
  5
44C
  8
6
 10
-16.0
 20
15.913963177586529
 30
0.0
  0
VERTEX
  5
44D
  8
6
 10
-16.0
 20
17.463963177586489
 30
0.0
 42
-0.4142135623730951
  0
VERTEX
  5
44E
  8
6
 10
-15.049999999999949
 20
18.413963177586531
 30
0.0
  0
VERTEX
  5
44F
  8
6
 10
-11.13727922061366
 20
18.413963177586531
 30
0.0
 42
0.1989123673796601
  0
VERTEX
  5
450
  8
6
 10
-11.07363961030682
 20
18.44032356727962
 30
0.0
  0
VERTEX
  5
451
  8
6
 10
-10.61550480057962
 20
18.898458377007039
 30
0.0
 42
-0.3742420918651766
  0
VERTEX
  5
452
  8
6
 10
-10.35352021063977
 20
18.9166130423996
 30
0.0
 42
2.910137834726485
  0
VERTEX
  5
453
  8
6
 10
-10.75124271227264
 20
20.40093362580614
 30
0.0
 42
-0.3742420918651923
  0
VERTEX
  5
454
  8
6
 10
-10.987205355256711
 20
20.285663732263622
 30
0.0
  0
VERTEX
  5
455
  8
6
 10
-12.055523281497919
 20
20.571918657859658
 30
0.0
 42
-0.437400690340917
  0
VERTEX
  5
456
  8
6
 10
-12.192289627181481
 20
20.831859952178771
 30
0.0
 42
-1.059771986950611
  0
VERTEX
  5
457
  8
6
 10
-7.1314205178725842
 20
18.702098770806739
 30
0.0
 42
0.5551486701290861
  0
VERTEX
  5
458
  8
6
 10
-6.951887464626906
 20
18.413963177586531
 30
0.0
  0
VERTEX
  5
459
  8
6
 10
-1.5899999999999179
 20
18.413963177586531
 30
0.0
 42
0.4142135623730943
  0
VERTEX
  5
45A
  8
6
 10
-1.5
 20
18.503963177586449
 30
0.0
  0
VERTEX
  5
45B
  8
6
 10
-1.5
 20
22.855768954813811
 30
0.0
 42
-0.4142135623730951
  0
VERTEX
  5
45C
  8
6
 10
-0.5499999999999546
 20
23.80576895481385
 30
0.0
  0
VERTEX
  5
45D
  8
6
 10
-0.5
 20
23.80576895481385
 30
0.0
  0
VERTEX
  5
45E
  8
6
 10
-0.0585786437627576
 20
23.555384501474691
 30
0.0
 42
-0.198912367379662
  0
VERTEX
  5
45F
  8
6
 10
0.0
 20
23.413963145237169
 30
0.0
 42
-0.198912367379662
  0
VERTEX
  5
460
  8
6
 10
-0.0585786437627576
 20
23.272541788999881
 30
0.0
  0
VERTEX
  5
461
  8
6
 10
-0.4414213562372425
 20
23.055384503963062
 30
0.0
 42
0.1989123673796251
  0
VERTEX
  5
462
  8
6
 10
-0.5
 20
22.91396314772577
 30
0.0
 42
0.1989123673796251
  0
VERTEX
  5
463
  8
6
 10
-0.4414213562372425
 20
22.772541791488489
 30
0.0
  0
VERTEX
  5
464
  8
6
 10
-0.0585786437627576
 20
22.555384506451439
 30
0.0
 42
-0.198912367379662
  0
VERTEX
  5
465
  8
6
 10
0.0
 20
22.413963150214158
 30
0.0
 42
-0.198912367379662
  0
VERTEX
  5
466
  8
6
 10
-0.0585786437627576
 20
22.27254179397687
 30
0.0
  0
VERTEX
  5
467
  8
6
 10
-0.4414213562372425
 20
22.05538450893982
 30
0.0
 42
0.1989123673796251
  0
VERTEX
  5
468
  8
6
 10
-0.5
 20
21.913963152702529
 30
0.0
 42
0.1989123673796251
  0
VERTEX
  5
469
  8
6
 10
-0.4414213562372425
 20
21.772541796465241
 30
0.0
  0
VERTEX
  5
46A
  8
6
 10
-0.0585786437627576
 20
21.555384511428201
 30
0.0
 42
-0.198912367379662
  0
VERTEX
  5
46B
  8
6
 10
0.0
 20
21.41396315519091
 30
0.0
 42
-0.198912367379662
  0
VERTEX
  5
46C
  8
6
 10
-0.0585786437627576
 20
21.272541798953618
 30
0.0
  0
VERTEX
  5
46D
  8
6
 10
-0.4414213562372425
 20
21.055384513916572
 30
0.0
 42
0.1989123673796251
  0
VERTEX
  5
46E
  8
6
 10
-0.5
 20
20.913963157679291
 30
0.0
 42
0.1989123673796251
  0
VERTEX
  5
46F
  8
6
 10
-0.4414213562372425
 20
20.772541801441999
 30
0.0
  0
VERTEX
  5
470
  8
6
 10
-0.0585786437627576
 20
20.555384516404949
 30
0.0
 42
-0.198912367379662
  0
VERTEX
  5
471
  8
6
 10
0.0
 20
20.413963160167661
 30
0.0
 42
-0.198912367379662
  0
VERTEX
  5
472
  8
6
 10
-0.0585786437627576
 20
20.27254180393037
 30
0.0
  0
VERTEX
  5
473
  8
6
 10
-0.4414213562372425
 20
20.05538451889333
 30
0.0
 42
0.1989123673796251
  0
VERTEX
  5
474
  8
6
 10
-0.5
 20
19.913963162656039
 30
0.0
 42
0.1989123673796251
  0
VERTEX
  5
475
  8
6
 10
-0.4414213562372425
 20
19.772541806418751
 30
0.0
  0
VERTEX
  5
476
  8
6
 10
-0.0585786437627576
 20
19.555384521381711
 30
0.0
 42
-0.198912367379662
  0
VERTEX
  5
477
  8
6
 10
0.0
 20
19.41396316514442
 30
0.0
 42
-0.198912367379662
  0
VERTEX
  5
478
  8
6
 10
-0.0585786437627576
 20
19.272541808907128
 30
0.0
  0
VERTEX
  5
479
  8
6
 10
-0.4414213562372425
 20
19.055384523870082
 30
0.0
 42
0.1989123673796251
  0
VERTEX
  5
47A
  8
6
 10
-0.5
 20
18.913963167632801
 30
0.0
 42
0.1989123673796251
  0
VERTEX
  5
47B
  8
6
 10
-0.4414213562372425
 20
18.772541811395509
 30
0.0
  0
VERTEX
  5
47C
  8
6
 10
-0.0585786437627576
 20
18.55538452635869
 30
0.0
 42
-0.198912367379662
  0
VERTEX
  5
47D
  8
6
 10
0.0
 20
18.413963170121171
 30
0.0
 42
-0.198912367379662
  0
VERTEX
  5
47E
  8
6
 10
-0.0585786437627576
 20
18.27254181388389
 30
0.0
  0
VERTEX
  5
47F
  8
6
 10
-0.4414213562372425
 20
18.055384528847071
 30
0.0
 42
0.1989123673796251
  0
VERTEX
  5
480
  8
6
 10
-0.5
 20
17.91396317260978
 30
0.0
 42
0.1989123673796251
  0
VERTEX
  5
481
  8
6
 10
-0.4414213562372425
 20
17.772541816372492
 30
0.0
  0
VERTEX
  5
482
  8
6
 10
-0.0585786437627576
 20
17.555384531335442
 30
0.0
 42
-0.198912367379662
  0
VERTEX
  5
483
  8
6
 10
0.0
 20
17.413963175098161
 30
0.0
 42
-0.198912367379662
  0
VERTEX
  5
484
  8
6
 10
-0.0585786437627576
 20
17.272541818860638
 30
0.0
  0
VERTEX
  5
485
  8
6
 10
-0.4414213562372425
 20
17.055384533823819
 30
0.0
 42
0.1989123673796251
  0
VERTEX
  5
486
  8
6
 10
-0.5
 20
16.913963177586531
 30
0.0
  0
VERTEX
  5
487
  8
6
 10
-9.5099999999999891
 20
16.913963177586531
 30
0.0
 42
0.4142135623730956
  0
VERTEX
  5
488
  8
6
 10
-9.5999999999999091
 20
16.823963177586389
 30
0.0
  0
VERTEX
  5
489
  8
6
 10
-9.6000000000001364
 20
10.803963177586409
 30
0.0
 42
-0.4142135623730951
  0
VERTEX
  5
48A
  8
6
 10
-9.6900000000000546
 20
10.713963177586489
 30
0.0
  0
VERTEX
  5
48B
  8
6
 10
-10.70000000000004
 20
10.713963177586489
 30
0.0
 42
-0.4142135623730951
  0
VERTEX
  5
48C
  8
6
 10
-11.600000000000129
 20
11.613963177586349
 30
0.0
  0
VERTEX
  5
48D
  8
6
 10
-11.600000000000129
 20
11.62396317758634
 30
0.0
 42
-0.4142135623730951
  0
VERTEX
  5
48E
  8
6
 10
-11.509999999999989
 20
11.713963177586489
 30
0.0
  0
VERTEX
  5
48F
  8
6
 10
-11.100000000000129
 20
11.713963177586489
 30
0.0
  0
VERTEX
  5
490
  8
6
 10
-11.100000000000129
 20
16.913963177586531
 30
0.0
  0
VERTEX
  5
491
  8
6
 10
-14.5
 20
16.913963177586531
 30
0.0
  0
VERTEX
  5
492
  8
6
 10
-14.5
 20
11.713963177586489
 30
0.0
  0
VERTEX
  5
493
  8
6
 10
-14.089999999999909
 20
11.713963177586489
 30
0.0
 42
-0.4142135623730951
  0
VERTEX
  5
494
  8
6
 10
-14.0
 20
11.62396317758634
 30
0.0
  0
VERTEX
  5
495
  8
6
 10
-14.0
 20
11.613963177586349
 30
0.0
 42
-0.4142135623730951
  0
VERTEX
  5
496
  8
6
 10
-14.900000000000089
 20
10.713963177586489
 30
0.0
  0
VERTEX
  5
497
  8
6
 10
-15.91000000000008
 20
10.713963177586489
 30
0.0
 42
-0.4142135623730951
  0
VERTEX
  5
498
  8
6
 10
-16.0
 20
10.803963177586409
 30
0.0
  0
VERTEX
  5
499
  8
6
 10
-16.0
 20
13.413963177586529
 30
0.0
 42
0.4142135623730951
  0
VERTEX
  5
49A
  8
6
 10
-16.5
 20
13.913963177586529
 30
0.0
  0
VERTEX
  5
49B
  8
6
 10
-18.0
 20
13.913963177586529
 30
0.0
 42
0.414213562373093
  0
VERTEX
  5
49C
  8
6
 10
-18.5
 20
13.413963177586529
 30
0.0
  0
VERTEX
  5
49D
  8
6
 10
-18.5
 20
4.80396317758641
 30
0.0
 42
-0.4142135623730941
  0
VERTEX
  5
49E
  8
6
 10
-18.589999999999911
 20
4.7139631775864919
 30
0.0
  0
VERTEX
  5
49F
  8
6
 10
-19.910000000000078
 20
4.7139631775864919
 30
0.0
 42
-0.4142135623730951
  0
VERTEX
  5
4A0
  8
6
 10
-20.0
 20
4.80396317758641
 30
0.0
  0
VERTEX
  5
4A1
  8
6
 10
-20.0
 20
61.434906986225087
 30
0.0
 42
-0.2679491924311224
  0
VERTEX
  5
4A2
  8
6
 10
-18.5
 20
64.03298319757846
 30
0.0
  0
VERTEX
  5
4A3
  8
6
 10
-0.2999999999999545
 20
74.540758096829677
 30
0.0
 42
-0.5773502691896129
  0
VERTEX
  5
4A4
  8
6
 10
0.0
 20
74.367553016072634
 30
0.0
  0
VERTEX
  5
4A5
  8
6
 10
0.0
 20
73.607640586898924
 30
0.0
 42
-0.3534884879630113
  0
VERTEX
  5
4A6
  8
6
 10
-0.1579795664981702
 20
73.412104699736574
 30
0.0
 42
0.8079313152740247
  0
VERTEX
  5
4A7
  8
6
 10
-0.1579795664981702
 20
69.501386956491842
 30
0.0
 42
-0.3534884879630113
  0
VERTEX
  5
4A8
  8
6
 10
0.0
 20
69.305851069329492
 30
0.0
  0
VERTEX
  5
4A9
  8
6
 10
0.0
 20
68.42052761887976
 30
0.0
 42
-0.4335667118375687
  0
VERTEX
  5
4AA
  8
6
 10
-0.213114754098342
 20
68.220958074046621
 30
0.0
 42
-0.3398860975834932
  0
VERTEX
  5
4AB
  8
6
 10
-3.18863780173433
 20
70.835402146857632
 30
0.0
 42
0.5141979049360717
  0
VERTEX
  5
4AC
  8
6
 10
-3.4848616664564811
 20
70.969926548800231
 30
0.0
  0
VERTEX
  5
4AD
  8
6
 10
-9.5499999999999545
 20
67.468217299256594
 30
0.0
 42
0.2679491924311228
  0
VERTEX
  5
4AE
  8
6
 10
-9.6000000000001364
 20
67.381614758878186
 30
0.0
  0
VERTEX
  5
4AF
  8
6
 10
-9.6000000000001364
 20
64.350103839220992
 30
0.0
 42
-0.3742420918651691
  0
VERTEX
  5
4B0
  8
6
 10
-9.7724137931033965
 20
64.152015472099023
 30
0.0
 42
2.9101378347264499
  0
VERTEX
  5
4B1
  8
6
 10
-8.4416083651867666
 20
63.383674600052238
 30
0.0
 42
-0.3742420918651645
  0
VERTEX
  5
4B2
  8
6
 10
-8.3562657036168275
 20
63.632033508403758
 30
0.0
  0
VERTEX
  5
4B3
  8
6
 10
-7.3984380544713977
 20
64.185035559474954
 30
0.0
 42
-0.4374006903409171
  0
VERTEX
  5
4B4
  8
6
 10
-7.1179233920768183
 20
64.097937718022649
 30
0.0
 42
-0.4489753641201027
  0
VERTEX
  5
4B5
  8
6
 10
-8.7144067796609761
 20
60.310460796544703
 30
0.0
 42
0.3211323993548997
  0
VERTEX
  5
4B6
  8
6
 10
-8.8500000000001364
 20
60.121115168832603
 30
0.0
  0
VERTEX
  5
4B7
  8
6
 10
-8.8500000000001364
 20
58.368211866521733
 30
0.0
 42
-0.4142135623730951
  0
VERTEX
  5
4B8
  8
6
 10
-8.9500000000000455
 20
58.268211866521817
 30
0.0
  0
VERTEX
  5
4B9
  8
6
 10
-10.25
 20
58.268211866521817
 30
0.0
 42
-0.4142135623730951
  0
VERTEX
  5
4BA
  8
6
 10
-10.350000000000129
 20
58.368211866521733
 30
0.0
  0
VERTEX
  5
4BB
  8
6
 10
-10.350000000000129
 20
60.121115168832603
 30
0.0
 42
0.3211323993548997
  0
SEQEND
  5
4BC
  8
6
  0
LINE
  5
2F8
  8
6
  6
STRICHPUNKT
 10
-5.3326130449336233
 20
42.713963177586493
 30
0.0
 11
14.96861957829128
 21
42.713963177586493
 31
0.0
  0
POLYLINE
  5
2F9
  8
6
 66
     1
 10
0.0
 20
0.0
 30
0.0
  0
VERTEX
  5
4BD
  8
6
 10
-3.4532285592578091
 20
44.551191379025163
 30
0.0
  0
VERTEX
  5
4BE
  8
6
 10
-3.0807386347174761
 20
44.14196317758649
 30
0.0
 42
0.0337004454472373
  0
VERTEX
  5
4BF
  8
6
 10
-2.6438617404056681
 20
43.836041200629779
 30
0.0
 42
-3.2234280385613259
  0
SEQEND
  5
4C0
  8
6
  0
POLYLINE
  5
2FA
  8
6
 66
     1
 10
0.0
 20
0.0
 30
0.0
  0
VERTEX
  5
4C1
  8
6
 10
-2.6438617404056681
 20
41.596647329307302
 30
0.0
 42
0.0347698152739638
  0
VERTEX
  5
4C2
  8
6
 10
-3.0805629094367069
 20
41.285779474008557
 30
0.0
  0
VERTEX
  5
4C3
  8
6
 10
-3.4532285592578091
 20
40.9285391517721
 30
0.0
  0
SEQEND
  5
4C4
  8
6
  0
POLYLINE
  5
2FB
  8
6
 66
     1
 10
0.0
 20
0.0
 30
0.0
  0
VERTEX
  5
4C5
  8
6
 10
-0.0000000000001137
 20
42.142617519400851
 30
0.0
 42
0.0716230936514669
  0
VERTEX
  5
4C6
  8
6
 10
-1.066181442512061
 20
41.872331062002267
 30
0.0
  0
SEQEND
  5
4C7
  8
6
  0
POLYLINE
  5
2FC
  8
6
 66
     1
 10
0.0
 20
0.0
 30
0.0
  0
VERTEX
  5
4C8
  8
6
 10
-1.066181442512061
 20
43.562700381485108
 30
0.0
 42
0.0698020145797582
  0
VERTEX
  5
4C9
  8
6
 10
-0.0000000000001137
 20
43.289738227634238
 30
0.0
 42
-3.2234280385613259
  0
SEQEND
  5
4CA
  8
6
  0
TEXT
  5
2FD
  8
1
 10
-33.211834010858979
 20
76.605001041048524
 30
0.0
 40
2.4999999499999999
  1
Hebgo 157/656
  0
TEXT
  5
2FE
  8
1
 10
1.877421601705918
 20
45.248314999260913
 30
0.0
 40
2.4999999499999999
  1
Hebgo 901
  0
VIEWPORT
  5
22
 67
     1
  8
0
 10
210.0
 20
170.2366863905325
 30
0.0
 40
420.0
 41
340.47337278106511
 68
     1
 69
     1
1001
ACAD
1000
MVIEW
1002
{
1070
    16
1010
0.0
1020
0.0
1030
0.0
1010
0.0
1020
0.0
1030
1.0
1040
0.0
1040
340.47337278106511
1040
210.0
1040
170.2366863905325
1040
50.0
1040
0.0
1040
0.0
1070
     0
1070
   100
1070
     1
1070
     1
1070
     0
1070
     0
1070
     0
1070
     0
1040
0.0
1040
0.0
1040
0.0
1040
5.0
1040
5.0
1040
10.0
1040
10.0
1070
     0
1002
{
1002
}
1002
}
  0
ENDSEC
  0
EOF
