  0
SECTION
  2
HEADER
  9
$ACADVER
  1
AC1009
  9
$INSBASE
 10
0.0
 20
0.0
 30
0.0
  9
$EXTMIN
 10
-44.105528963386853
 20
-15.01464758186443
 30
-0.0000000000112498
  9
$EXTMAX
 10
18.379211971046509
 20
81.871033334023195
 30
0.0000000000002956
  9
$LIMMIN
 10
-150.0
 20
-150.0
  9
$LIMMAX
 10
150.0
 20
150.0
  9
$ORTHOMODE
 70
     0
  9
$REGENMODE
 70
     1
  9
$FILLMODE
 70
     1
  9
$QTEXTMODE
 70
     0
  9
$MIRRTEXT
 70
     0
  9
$DRAGMODE
 70
     2
  9
$LTSCALE
 40
3.0
  9
$OSMODE
 70
   111
  9
$ATTMODE
 70
     1
  9
$TEXTSIZE
 40
3.5
  9
$TRACEWID
 40
1.0
  9
$TEXTSTYLE
  7
BESCHLAG
  9
$CLAYER
  8
0
  9
$CELTYPE
  6
BYLAYER
  9
$CECOLOR
 62
   256
  9
$DIMSCALE
 40
1.0
  9
$DIMASZ
 40
2.0
  9
$DIMEXO
 40
2.0
  9
$DIMDLI
 40
0.0
  9
$DIMRND
 40
0.0
  9
$DIMDLE
 40
1.0
  9
$DIMEXE
 40
1.0
  9
$DIMTP
 40
0.0
  9
$DIMTM
 40
0.0
  9
$DIMTXT
 40
3.5
  9
$DIMCEN
 40
0.0
  9
$DIMTSZ
 40
0.0
  9
$DIMTOL
 70
     0
  9
$DIMLIM
 70
     0
  9
$DIMTIH
 70
     0
  9
$DIMTOH
 70
     0
  9
$DIMSE1
 70
     0
  9
$DIMSE2
 70
     0
  9
$DIMTAD
 70
     1
  9
$DIMZIN
 70
     8
  9
$DIMBLK
  1

  9
$DIMASO
 70
     1
  9
$DIMSHO
 70
     1
  9
$DIMPOST
  1

  9
$DIMAPOST
  1

  9
$DIMALT
 70
     0
  9
$DIMALTD
 70
     2
  9
$DIMALTF
 40
0.039370078740157
  9
$DIMLFAC
 40
1.0
  9
$DIMTOFL
 70
     1
  9
$DIMTVP
 40
0.0
  9
$DIMTIX
 70
     1
  9
$DIMSOXD
 70
     0
  9
$DIMSAH
 70
     1
  9
$DIMBLK1
  1
OBLIQUE
  9
$DIMBLK2
  1
OBLIQUE
  9
$DIMSTYLE
  2
OPO-SSTRICH
  9
$DIMCLRD
 70
   256
  9
$DIMCLRE
 70
   256
  9
$DIMCLRT
 70
   256
  9
$DIMTFAC
 40
0.7114285714285716
  9
$DIMGAP
 40
1.0
  9
$LUNITS
 70
     2
  9
$LUPREC
 70
     1
  9
$SKETCHINC
 40
1.0
  9
$FILLETRAD
 40
0.0
  9
$AUNITS
 70
     0
  9
$AUPREC
 70
     1
  9
$MENU
  1
D:\ACL_CGWG\CGTAB13
  9
$ELEVATION
 40
0.0
  9
$PELEVATION
 40
0.0
  9
$THICKNESS
 40
0.0
  9
$LIMCHECK
 70
     0
  9
$BLIPMODE
 70
     0
  9
$CHAMFERA
 40
1.0
  9
$CHAMFERB
 40
1.0
  9
$SKPOLY
 70
     0
  9
$TDCREATE
 40
2451739.8673305442
  9
$TDUPDATE
 40
2452087.6106367591
  9
$TDINDWG
 40
0.0007622454
  9
$TDUSRTIMER
 40
0.0007622454
  9
$USRTIMER
 70
     1
  9
$ANGBASE
 50
0.0
  9
$ANGDIR
 70
     0
  9
$PDMODE
 70
    35
  9
$PDSIZE
 40
5.0
  9
$PLINEWID
 40
0.0
  9
$COORDS
 70
     1
  9
$SPLFRAME
 70
     0
  9
$SPLINETYPE
 70
     6
  9
$SPLINESEGS
 70
     8
  9
$ATTDIA
 70
     1
  9
$ATTREQ
 70
     1
  9
$HANDLING
 70
-16383
  9
$HANDSEED
  5
4D6
  9
$SURFTAB1
 70
    12
  9
$SURFTAB2
 70
    12
  9
$SURFTYPE
 70
     6
  9
$SURFU
 70
    12
  9
$SURFV
 70
    12
  9
$UCSNAME
  2

  9
$UCSORG
 10
0.0
 20
0.0
 30
0.0
  9
$UCSXDIR
 10
1.0
 20
0.0
 30
0.0
  9
$UCSYDIR
 10
0.0
 20
1.0
 30
0.0
  9
$PUCSNAME
  2

  9
$PUCSORG
 10
0.0
 20
0.0
 30
0.0
  9
$PUCSXDIR
 10
1.0
 20
0.0
 30
0.0
  9
$PUCSYDIR
 10
0.0
 20
1.0
 30
0.0
  9
$USERI1
 70
     0
  9
$USERI2
 70
     0
  9
$USERI3
 70
     0
  9
$USERI4
 70
     0
  9
$USERI5
 70
     0
  9
$USERR1
 40
0.0
  9
$USERR2
 40
0.0
  9
$USERR3
 40
0.0
  9
$USERR4
 40
0.0
  9
$USERR5
 40
0.0
  9
$WORLDVIEW
 70
     1
  9
$SHADEDGE
 70
     3
  9
$SHADEDIF
 70
    70
  9
$TILEMODE
 70
     1
  9
$MAXACTVP
 70
    48
  9
$PLIMCHECK
 70
     0
  9
$PEXTMIN
 10
1.0000000000000000E+020
 20
1.0000000000000000E+020
 30
1.0000000000000000E+020
  9
$PEXTMAX
 10
-1.0000000000000000E+020
 20
-1.0000000000000000E+020
 30
-1.0000000000000000E+020
  9
$PLIMMIN
 10
0.0
 20
0.0
  9
$PLIMMAX
 10
420.0
 20
297.0
  9
$UNITMODE
 70
     0
  9
$VISRETAIN
 70
     1
  9
$PLINEGEN
 70
     0
  9
$PSLTSCALE
 70
     1
  0
ENDSEC
  0
SECTION
  2
TABLES
  0
TABLE
  2
VPORT
 70
     2
  0
VPORT
  2
*ACTIVE
 70
     0
 10
0.0
 20
0.0
 11
1.0
 21
1.0
 12
-12.86315849617017
 22
33.428192876079372
 13
0.0
 23
0.0
 14
0.5
 24
0.5
 15
10.0
 25
10.0
 16
0.0
 26
0.0
 36
1.0
 17
0.0
 27
0.0
 37
0.0
 40
97.672303494365735
 41
1.6070460704607039
 42
50.0
 43
0.0
 44
0.0
 50
0.0
 51
0.0
 71
     0
 72
   800
 73
     1
 74
     1
 75
     0
 76
     0
 77
     0
 78
     0
  0
ENDTAB
  0
TABLE
  2
LTYPE
 70
     2
  0
LTYPE
  2
CONTINUOUS
 70
     0
  3
_______________________________________________
 72
    65
 73
     2
 40
1.0
 49
1.0
 49
0.0
  0
LTYPE
  2
STRICHPUNKT
 70
     0
  3
__ . __ . __ . __ . __ . __ . __ . __ . __ . __
 72
    65
 73
     4
 40
1.0
 49
0.5
 49
-0.25
 49
0.0
 49
-0.25
  0
ENDTAB
  0
TABLE
  2
LAYER
 70
     7
  0
LAYER
  2
0
 70
     0
 62
    30
  6
CONTINUOUS
  0
LAYER
  2
1
 70
     0
 62
     2
  6
CONTINUOUS
  0
LAYER
  2
2
 70
     0
 62
     9
  6
CONTINUOUS
  0
LAYER
  2
4
 70
     1
 62
     4
  6
CONTINUOUS
  0
LAYER
  2
5
 70
     0
 62
     1
  6
CONTINUOUS
  0
LAYER
  2
6
 70
     0
 62
     3
  6
CONTINUOUS
  0
LAYER
  2
DEFPOINTS
 70
     0
 62
     7
  6
CONTINUOUS
  0
ENDTAB
  0
TABLE
  2
STYLE
 70
     2
  0
STYLE
  2
STANDARD
 70
     0
 40
0.0
 41
1.0
 50
0.0
 71
     0
 42
2.5
  3
txt
  4

  0
STYLE
  2
BESCHLAG
 70
     0
 40
0.0
 41
1.0
 50
0.0
 71
     0
 42
3.5
  3
txt
  4

  0
ENDTAB
  0
TABLE
  2
VIEW
 70
     0
  0
ENDTAB
  0
TABLE
  2
UCS
 70
     0
  0
ENDTAB
  0
TABLE
  2
APPID
 70
     1
  0
APPID
  2
ACAD
 70
     0
  0
ENDTAB
  0
TABLE
  2
DIMSTYLE
 70
     1
  0
DIMSTYLE
  2
OPO-SSTRICH
 70
     0
  3

  4

  5

  6
OBLIQUE
  7
OBLIQUE
 40
1.0
 41
2.0
 42
2.0
 43
0.0
 44
1.0
 45
0.0
 46
1.0
 47
0.0
 48
0.0
140
3.5
141
0.0
142
0.0
143
0.039370078740157
144
1.0
145
0.0
146
0.7114285714285716
147
1.0
 71
     0
 72
     0
 73
     0
 74
     0
 75
     0
 76
     0
 77
     1
 78
     8
170
     0
171
     2
172
     1
173
     1
174
     1
175
     0
176
   256
177
   256
178
   256
  0
ENDTAB
  0
ENDSEC
  0
SECTION
  2
BLOCKS
  0
BLOCK
  8
0
  2
$MODEL_SPACE
 70
     0
 10
0.0
 20
0.0
 30
0.0
  3
$MODEL_SPACE
  1

  0
ENDBLK
  5
1C
  8
0
  0
BLOCK
 67
     1
  8
0
  2
$PAPER_SPACE
 70
     0
 10
0.0
 20
0.0
 30
0.0
  3
$PAPER_SPACE
  1

  0
ENDBLK
  5
19
 67
     1
  8
0
  0
BLOCK
  8
0
  2
_OBLIQUE
 70
     0
 10
0.0
 20
0.0
 30
0.0
  3
_OBLIQUE
  1

  0
LINE
  5
204
  8
0
 62
     0
 10
-0.5
 20
-0.5
 30
0.0
 11
0.5
 21
0.5
 31
0.0
  0
ENDBLK
  5
206
  8
0
  0
BLOCK
  8
0
  2
NULLPUNKT
 70
     0
 10
0.0
 20
0.0
 30
0.0
  3
NULLPUNKT
  1

  0
SOLID
  5
254
  8
5
 10
0.0
 20
0.0
 30
0.0
 11
2.0
 21
0.0
 31
0.0
 12
0.0
 22
-2.0
 32
0.0
 13
0.0
 23
-2.0
 33
0.0
  0
SOLID
  5
255
  8
5
 10
0.0
 20
0.0
 30
0.0
 11
-2.0
 21
0.0
 31
0.0
 12
0.0
 22
2.0
 32
0.0
 13
0.0
 23
2.0
 33
0.0
  0
POLYLINE
  5
256
  8
5
 66
     1
 10
0.0
 20
0.0
 30
0.0
  0
VERTEX
  5
3DC
  8
5
 10
0.0
 20
2.0
 30
0.0
  0
VERTEX
  5
3DD
  8
5
 10
0.0
 20
-2.0
 30
0.0
  0
SEQEND
  5
3DE
  8
5
  0
POLYLINE
  5
257
  8
5
 66
     1
 10
0.0
 20
0.0
 30
0.0
  0
VERTEX
  5
3DF
  8
5
 10
-2.0
 20
0.0
 30
0.0
  0
VERTEX
  5
3E0
  8
5
 10
2.0
 20
0.0
 30
0.0
  0
SEQEND
  5
3E1
  8
5
  0
CIRCLE
  5
258
  8
5
 10
0.0
 20
0.0
 30
0.0
 40
2.0
  0
ENDBLK
  5
25A
  8
0
  0
BLOCK
  8
0
  2
*X2
 70
     1
 10
0.0
 20
0.0
 30
0.0
  3
*X2
  1

  0
LINE
  5
26C
  8
0
 62
     0
 10
772.18339814571402
 20
118.81673232934411
 30
0.0
 11
773.68339814571391
 21
120.31673232934411
 31
0.0
  0
LINE
  5
26D
  8
0
 62
     0
 10
788.06238110277957
 20
134.69571528640981
 30
0.0
 11
789.56238110277968
 21
136.19571528640981
 31
0.0
  0
LINE
  5
26E
  8
0
 62
     0
 10
778.56238110277968
 20
125.19571528640979
 30
0.0
 11
780.06238110277957
 21
126.69571528640989
 31
0.0
  0
LINE
  5
26F
  8
0
 62
     0
 10
772.18339814571402
 20
120.5137886041918
 30
0.0
 11
773.68339814571391
 21
122.0137886041918
 31
0.0
  0
LINE
  5
270
  8
0
 62
     0
 10
786.36532482793189
 20
134.69571528640981
 30
0.0
 11
787.865324827932
 21
136.19571528640981
 31
0.0
  0
LINE
  5
271
  8
0
 62
     0
 10
776.865324827932
 20
125.19571528640979
 30
0.0
 11
778.36532482793189
 21
126.69571528640989
 31
0.0
  0
LINE
  5
272
  8
0
 62
     0
 10
772.18339814571402
 20
122.2108448790395
 30
0.0
 11
773.68339814571391
 21
123.7108448790395
 31
0.0
  0
LINE
  5
273
  8
0
 62
     0
 10
784.66826855308432
 20
134.69571528640981
 30
0.0
 11
786.16826855308432
 21
136.19571528640981
 31
0.0
  0
LINE
  5
274
  8
0
 62
     0
 10
775.16826855308432
 20
125.19571528640979
 30
0.0
 11
776.66826855308432
 21
126.69571528640989
 31
0.0
  0
LINE
  5
275
  8
0
 62
     0
 10
772.18339814571402
 20
123.9079011538872
 30
0.0
 11
774.9900767869774
 21
126.7145797951507
 31
0.0
  0
LINE
  5
276
  8
0
 62
     0
 10
782.97121227823664
 20
134.69571528640981
 30
0.0
 11
784.47121227823664
 21
136.19571528640981
 31
0.0
  0
LINE
  5
277
  8
0
 62
     0
 10
772.18339814571402
 20
125.60495742873501
 30
0.0
 11
774.1871871174518
 21
127.6087464004729
 31
0.0
  0
LINE
  5
278
  8
0
 62
     0
 10
781.27415600338884
 20
134.69571528640981
 30
0.0
 11
782.77415600338884
 21
136.19571528640981
 31
0.0
  0
LINE
  5
279
  8
0
 62
     0
 10
772.18339814571402
 20
127.3020137035827
 30
0.0
 11
774.18339814571391
 21
129.30201370358259
 31
0.0
  0
LINE
  5
27A
  8
0
 62
     0
 10
779.57709972854116
 20
134.69571528640981
 30
0.0
 11
781.07709972854116
 21
136.19571528640981
 31
0.0
  0
LINE
  5
27B
  8
0
 62
     0
 10
772.18339814571402
 20
128.99906997843041
 30
0.0
 11
773.78844805033339
 21
130.6041198830498
 31
0.0
  0
LINE
  5
27C
  8
0
 62
     0
 10
777.88004345369336
 20
134.69571528640981
 30
0.0
 11
779.38004345369325
 21
136.19571528640981
 31
0.0
  0
LINE
  5
27D
  8
0
 62
     0
 10
772.18339814571402
 20
130.69612625327809
 30
0.0
 11
774.18339814571402
 21
132.69612625327801
 31
0.0
  0
LINE
  5
27E
  8
0
 62
     0
 10
776.18298717884568
 20
134.69571528640981
 30
0.0
 11
777.68298717884556
 21
136.19571528640981
 31
0.0
  0
LINE
  5
27F
  8
0
 62
     0
 10
772.18339814571402
 20
132.39318252812581
 30
0.0
 11
775.98593090399788
 21
136.19571528640981
 31
0.0
  0
LINE
  5
280
  8
0
 62
     0
 10
772.18339814571402
 20
134.09023880297349
 30
0.0
 11
774.34711404275095
 21
136.2539547000105
 31
0.0
  0
LINE
  5
281
  8
0
 62
     0
 10
772.18339814571402
 20
135.78729507782131
 30
0.0
 11
773.68339814571391
 21
137.2872950778212
 31
0.0
  0
LINE
  5
282
  8
0
 62
     0
 10
782.64606704323785
 20
146.2499639753452
 30
0.0
 11
783.33339814571389
 21
146.93729507782109
 31
0.0
  0
LINE
  5
283
  8
0
 62
     0
 10
772.18339814571402
 20
137.48435135266891
 30
0.0
 11
773.68339814571391
 21
138.9843513526688
 31
0.0
  0
LINE
  5
284
  8
0
 62
     0
 10
791.0857363296933
 20
156.3866895366483
 30
0.0
 11
792.12643606780284
 21
157.42738927475779
 31
0.0
  0
LINE
  5
285
  8
0
 62
     0
 10
781.83339814571377
 20
147.13435135266889
 30
0.0
 11
785.31959700179482
 21
150.62055020874979
 31
0.0
  0
LINE
  5
286
  8
0
 62
     0
 10
772.18339814571402
 20
139.18140762751671
 30
0.0
 11
773.68339814571391
 21
140.68140762751651
 31
0.0
  0
LINE
  5
287
  8
0
 62
     0
 10
790.02125788647231
 20
157.019267368275
 30
0.0
 11
791.02884445247321
 21
158.02685393427581
 31
0.0
  0
LINE
  5
288
  8
0
 62
     0
 10
781.41041568393814
 20
148.40842516574079
 30
0.0
 11
782.64945228439342
 21
149.6474617661961
 31
0.0
  0
LINE
  5
289
  8
0
 62
     0
 10
783.83165166592767
 20
150.82966114773041
 30
0.0
 11
785.07068826637885
 21
152.06869774818159
 31
0.0
  0
LINE
  5
28A
  8
0
 62
     0
 10
772.18339814571402
 20
140.8784639023643
 30
0.0
 11
773.68339814571391
 21
142.37846390236419
 31
0.0
  0
LINE
  5
28B
  8
0
 62
     0
 10
789.28343554071319
 20
157.97850129736369
 30
0.0
 11
790.46508667838032
 21
159.16015243503071
 31
0.0
  0
LINE
  5
28C
  8
0
 62
     0
 10
780.45692025543099
 20
149.15198601208149
 30
0.0
 11
781.52910676511158
 21
150.22417252176211
 31
0.0
  0
LINE
  5
28D
  8
0
 62
     0
 10
772.18339814571402
 20
142.5755201772121
 30
0.0
 11
773.68339814571391
 21
144.07552017721201
 31
0.0
  0
LINE
  5
28E
  8
0
 62
     0
 10
788.36970661613259
 20
158.76182864763081
 30
0.0
 11
792.11110323531159
 21
162.50322526680981
 31
0.0
  0
LINE
  5
28F
  8
0
 62
     0
 10
779.90037278827776
 20
150.29249481977601
 30
0.0
 11
782.58339814571389
 21
152.9755201772121
 31
0.0
  0
LINE
  5
290
  8
0
 62
     0
 10
772.18339814571402
 20
144.27257645205981
 30
0.0
 11
773.68339814571391
 21
145.7725764520597
 31
0.0
  0
LINE
  5
291
  8
0
 62
     0
 10
784.35442835819129
 20
156.4436066645371
 30
0.0
 11
788.452504569545
 21
160.5416828758909
 31
0.0
  0
LINE
  5
292
  8
0
 62
     0
 10
780.23120045122982
 20
152.3203787575757
 30
0.0
 11
782.58339814571389
 21
154.67257645205979
 31
0.0
  0
LINE
  5
293
  8
0
 62
     0
 10
772.18339814571402
 20
145.96963272690749
 30
0.0
 11
773.68339814571391
 21
147.46963272690741
 31
0.0
  0
LINE
  5
294
  8
0
 62
     0
 10
780.24197050876001
 20
154.02820508995359
 30
0.0
 11
784.43722631160369
 21
158.22346089279719
 31
0.0
  0
LINE
  5
295
  8
0
 62
     0
 10
772.18339814571402
 20
147.6666890017552
 30
0.0
 11
773.68339814571391
 21
149.16668900175509
 31
0.0
  0
LINE
  5
296
  8
0
 62
     0
 10
776.32387184230879
 20
151.80716269835
 30
0.0
 11
780.42194805366216
 21
155.90523890970351
 31
0.0
  0
LINE
  5
297
  8
0
 62
     0
 10
772.18339814571402
 20
149.36374527660291
 30
0.0
 11
776.40666979572086
 21
153.58701692660981
 31
0.0
  0
LINE
  5
298
  8
0
 62
     0
 10
772.18339814571402
 20
117.1196760544964
 30
0.0
 11
773.68339814571391
 21
118.6196760544964
 31
0.0
  0
LINE
  5
299
  8
0
 62
     0
 10
789.10001450411062
 20
134.0362924128932
 30
0.0
 11
791.25943737762725
 21
136.19571528640981
 31
0.0
  0
LINE
  5
29A
  8
0
 62
     0
 10
780.25943737762725
 20
125.19571528640979
 30
0.0
 11
781.75943737762736
 21
126.69571528640989
 31
0.0
  0
LINE
  5
29B
  8
0
 62
     0
 10
772.18339814571402
 20
115.4226197796486
 30
0.0
 11
773.68339814571391
 21
116.9226197796486
 31
0.0
  0
LINE
  5
29C
  8
0
 62
     0
 10
790.45413964750571
 20
133.69336128144039
 30
0.0
 11
791.91340043316461
 21
135.15262206709929
 31
0.0
  0
LINE
  5
29D
  8
0
 62
     0
 10
781.95649365247505
 20
125.19571528640979
 30
0.0
 11
783.45649365247505
 21
126.69571528640989
 31
0.0
  0
LINE
  5
29E
  8
0
 62
     0
 10
772.18339814571402
 20
113.7255635048009
 30
0.0
 11
773.68339814571391
 21
115.2255635048009
 31
0.0
  0
LINE
  5
29F
  8
0
 62
     0
 10
783.65354992732284
 20
125.19571528640979
 30
0.0
 11
785.15354992732296
 21
126.69571528640989
 31
0.0
  0
LINE
  5
2A0
  8
0
 62
     0
 10
772.18339814571402
 20
112.02850722995331
 30
0.0
 11
773.68339814571391
 21
113.52850722995321
 31
0.0
  0
LINE
  5
2A1
  8
0
 62
     0
 10
785.35060620217052
 20
125.19571528640979
 30
0.0
 11
786.85060620217064
 21
126.69571528640989
 31
0.0
  0
LINE
  5
2A2
  8
0
 62
     0
 10
772.18339814571402
 20
110.3314509551055
 30
0.0
 11
773.68339814571391
 21
111.8314509551055
 31
0.0
  0
LINE
  5
2A3
  8
0
 62
     0
 10
788.9537530078909
 20
127.1018058172826
 30
0.0
 11
789.87928484794736
 21
128.0273376573391
 31
0.0
  0
LINE
  5
2A4
  8
0
 62
     0
 10
787.04766247701821
 20
125.19571528640979
 30
0.0
 11
788.54766247701832
 21
126.69571528640989
 31
0.0
  0
LINE
  5
2A5
  8
0
 62
     0
 10
772.18339814571402
 20
108.6343946802578
 30
0.0
 11
773.68339814571391
 21
110.1343946802578
 31
0.0
  0
LINE
  5
2A6
  8
0
 62
     0
 10
788.744718751866
 20
125.19571528640979
 30
0.0
 11
790.95829817480706
 21
127.409294709351
 31
0.0
  0
LINE
  5
2A7
  8
0
 62
     0
 10
772.18339814571402
 20
106.9373384054101
 30
0.0
 11
773.68339814571391
 21
108.4373384054101
 31
0.0
  0
LINE
  5
2A8
  8
0
 62
     0
 10
790.44177502671357
 20
125.19571528640979
 30
0.0
 11
792.03731150166675
 21
126.791251761363
 31
0.0
  0
LINE
  5
2A9
  8
0
 62
     0
 10
772.18339814571402
 20
105.24028213056241
 30
0.0
 11
773.68339814571391
 21
106.74028213056231
 31
0.0
  0
LINE
  5
2AA
  8
0
 62
     0
 10
772.18339814571402
 20
103.5432258557147
 30
0.0
 11
773.68339814571391
 21
105.0432258557146
 31
0.0
  0
LINE
  5
2AB
  8
0
 62
     0
 10
772.18339814571402
 20
101.846169580867
 30
0.0
 11
773.85548657048355
 21
103.5182580056366
 31
0.0
  0
LINE
  5
2AC
  8
0
 62
     0
 10
772.18339814571402
 20
100.1491133060193
 30
0.0
 11
775.43000012610457
 21
103.3957152864099
 31
0.0
  0
LINE
  5
2AD
  8
0
 62
     0
 10
780.49072910546477
 20
108.4564442657702
 30
0.0
 11
782.67836004392063
 21
110.6440752042259
 31
0.0
  0
LINE
  5
2AE
  8
0
 62
     0
 10
776.18339814571402
 20
104.1491133060192
 30
0.0
 11
778.43000012610469
 21
106.3957152864099
 31
0.0
  0
LINE
  5
2AF
  8
0
 62
     0
 10
772.18339814571402
 20
98.45205703117162
 30
0.0
 11
773.68339814571391
 21
99.952057031171591
 31
0.0
  0
LINE
  5
2B0
  8
0
 62
     0
 10
782.8485997350424
 20
109.1172586205001
 30
0.0
 11
783.99006217771876
 21
110.25872106317649
 31
0.0
  0
LINE
  5
2B1
  8
0
 62
     0
 10
775.62705640095226
 20
101.8957152864099
 30
0.0
 11
777.68339814571391
 21
103.95205703117151
 31
0.0
  0
LINE
  5
2B2
  8
0
 62
     0
 10
778.62705640095226
 20
104.8957152864099
 30
0.0
 11
780.12705640095237
 21
106.3957152864099
 31
0.0
  0
LINE
  5
2B3
  8
0
 62
     0
 10
772.18339814571402
 20
96.755000756323852
 30
0.0
 11
773.68339814571391
 21
98.255000756323824
 31
0.0
  0
LINE
  5
2B4
  8
0
 62
     0
 10
783.75630478384937
 20
108.3279073944592
 30
0.0
 11
784.86270420425944
 21
109.4343068148693
 31
0.0
  0
LINE
  5
2B5
  8
0
 62
     0
 10
776.1833981457138
 20
100.7550007563237
 30
0.0
 11
777.68339814571391
 21
102.2550007563238
 31
0.0
  0
LINE
  5
2B6
  8
0
 62
     0
 10
780.32411267580005
 20
104.8957152864099
 30
0.0
 11
782.15120603766456
 21
106.72280864827439
 31
0.0
  0
LINE
  5
2B7
  8
0
 62
     0
 10
772.18339814571402
 20
95.057944481476142
 30
0.0
 11
773.68339814571391
 21
96.557944481476113
 31
0.0
  0
LINE
  5
2B8
  8
0
 62
     0
 10
781.08339814571389
 20
103.95794448147601
 30
0.0
 11
785.31739686923572
 21
108.1919432049978
 31
0.0
  0
LINE
  5
2B9
  8
0
 62
     0
 10
776.1833981457138
 20
99.057944481476085
 30
0.0
 11
777.68339814571391
 21
100.5579444814761
 31
0.0
  0
LINE
  5
2BA
  8
0
 62
     0
 10
772.18339814571402
 20
93.360888206628445
 30
0.0
 11
773.68339814571391
 21
94.860888206628417
 31
0.0
  0
LINE
  5
2BB
  8
0
 62
     0
 10
783.71822522549553
 20
104.8957152864099
 30
0.0
 11
785.21863980384205
 21
106.3961298647564
 31
0.0
  0
LINE
  5
2BC
  8
0
 62
     0
 10
777.56264181425104
 20
98.740131875165531
 30
0.0
 11
778.13898155695824
 21
99.316471617872708
 31
0.0
  0
LINE
  5
2BD
  8
0
 62
     0
 10
781.08339814571389
 20
102.26088820662829
 30
0.0
 11
782.58339814571377
 21
103.76088820662829
 31
0.0
  0
LINE
  5
2BE
  8
0
 62
     0
 10
773.21528150034305
 20
92.695715286409865
 30
0.0
 11
773.68339814571391
 21
93.16383193178072
 31
0.0
  0
LINE
  5
2BF
  8
0
 62
     0
 10
790.68339814571357
 20
110.16383193178051
 30
0.0
 11
792.08135621233237
 21
111.56178999839921
 31
0.0
  0
LINE
  5
2C0
  8
0
 62
     0
 10
781.08339814571389
 20
100.5638319317806
 30
0.0
 11
782.58339814571377
 21
102.0638319317806
 31
0.0
  0
LINE
  5
2C1
  8
0
 62
     0
 10
785.4152815003431
 20
104.8957152864099
 30
0.0
 11
786.91528150034321
 21
106.3957152864099
 31
0.0
  0
LINE
  5
2C2
  8
0
 62
     0
 10
781.03309183855447
 20
98.816469349773655
 30
0.0
 11
782.58339814571377
 21
100.3667756569329
 31
0.0
  0
LINE
  5
2C3
  8
0
 62
     0
 10
790.68339814571357
 20
108.4667756569328
 30
0.0
 11
791.88805655544115
 21
109.6714340666601
 31
0.0
  0
LINE
  5
2C4
  8
0
 62
     0
 10
787.11233777519078
 20
104.8957152864099
 30
0.0
 11
788.61233777519089
 21
106.3957152864099
 31
0.0
  0
LINE
  5
2C5
  8
0
 62
     0
 10
788.80939405003869
 20
104.8957152864099
 30
0.0
 11
790.30939405003869
 21
106.3957152864099
 31
0.0
  0
LINE
  5
2C6
  8
0
 62
     0
 10
790.68339814571357
 20
106.769719382085
 30
0.0
 11
791.70990122645708
 21
107.7962224628283
 31
0.0
  0
LINE
  5
2C7
  8
0
 62
     0
 10
790.50645032488637
 20
104.8957152864099
 30
0.0
 11
792.1358751071474
 21
106.52514006867089
 31
0.0
  0
ENDBLK
  5
2C9
  8
0
  0
BLOCK
  8
0
  2
*D3
 70
     1
 10
0.0
 20
0.0
 30
0.0
  3
*D3
  1

  0
LINE
  5
316
  8
1
 10
-20.589999999999801
 20
5.7139631775862654
 30
0.0
 11
-39.596966309916411
 21
5.7139631775862698
 31
0.0
  0
LINE
  5
317
  8
1
 10
-14.79999999999972
 20
-7.2860368224137328
 30
0.0
 11
-39.596966309916411
 21
-7.2860368224137257
 31
0.0
  0
LINE
  5
318
  8
1
 10
-38.596966309916411
 20
6.7139631775862698
 30
0.0
 11
-38.596966309916411
 21
-8.2860368224137257
 31
0.0
  0
INSERT
  5
319
  8
1
  2
_OBLIQUE
 10
-38.596966309916411
 20
5.7139631775862698
 30
0.0
 41
2.0
 42
2.0
 43
2.0
 50
90.0
  0
INSERT
  5
31A
  8
1
  2
_OBLIQUE
 10
-38.596966309916411
 20
-7.2860368224137257
 30
0.0
 41
2.0
 42
2.0
 43
2.0
 50
270.0
  0
TEXT
  5
31B
  8
0
 10
-39.666202326287483
 20
-3.6605252262336521
 30
0.0
 40
3.5
  1
13
 50
90.0
  7
BESCHLAG
  0
POINT
  5
31C
  8
DEFPOINTS
 62
     0
 10
-18.589999999999801
 20
5.7139631775862654
 30
0.0
  0
POINT
  5
31D
  8
DEFPOINTS
 62
     0
 10
-12.79999999999972
 20
-7.2860368224137337
 30
0.0
  0
POINT
  5
31E
  8
DEFPOINTS
 62
     0
 10
-38.596966309916411
 20
-7.2860368224137257
 30
0.0
  0
ENDBLK
  5
315
  8
0
  0
ENDSEC
  0
SECTION
  2
ENTITIES
  0
INSERT
  5
25B
  8
5
  2
NULLPUNKT
 10
0.0
 20
0.0
 30
0.0
  0
POLYLINE
  5
2F3
  8
6
 66
     1
 10
0.0
 20
0.0
 30
0.0
  0
VERTEX
  5
3E2
  8
6
 10
-11.470809913679661
 20
-7.0591032060932539
 30
0.0
 42
-0.0180664712111431
  0
VERTEX
  5
3E3
  8
6
 10
-13.49327308531565
 20
13.17726562333109
 30
0.0
 42
0.1324695894867593
  0
VERTEX
  5
3E4
  8
6
 10
-13.85495422460008
 20
15.34366911250685
 30
0.0
 42
-0.5867084866790316
  0
VERTEX
  5
3E5
  8
6
 10
-12.79999999999972
 20
17.231366390338732
 30
0.0
 42
-0.5867084866791127
  0
VERTEX
  5
3E6
  8
6
 10
-11.745045775399831
 20
15.34366911250663
 30
0.0
 42
0.132607238862008
  0
VERTEX
  5
3E7
  8
6
 10
-12.106503042341499
 20
13.17499440124106
 30
0.0
 42
0.0613697108295767
  0
VERTEX
  5
3E8
  8
6
 10
-9.1308099136795136
 20
-7.0591032060932539
 30
0.0
  0
SEQEND
  5
3E9
  8
6
  0
POLYLINE
  5
2F4
  8
6
 66
     1
 10
0.0
 20
0.0
 30
0.0
  0
VERTEX
  5
3EA
  8
6
 10
-10.95080991367967
 20
-7.0591032060932539
 30
0.0
 42
-0.0291558466228751
  0
VERTEX
  5
3EB
  8
6
 10
-13.21330755761573
 20
13.16339628375067
 30
0.0
 42
0.1327522819770013
  0
VERTEX
  5
3EC
  8
6
 10
-13.60806915669945
 20
15.476979223844181
 30
0.0
 42
-0.5922717439205512
  0
VERTEX
  5
3ED
  8
6
 10
-12.79999999999972
 20
16.951366390338759
 30
0.0
 42
-0.5922717439206635
  0
VERTEX
  5
3EE
  8
6
 10
-11.99193084330045
 20
15.47697922384395
 30
0.0
 42
0.1328113523651923
  0
VERTEX
  5
3EF
  8
6
 10
-12.38659329935035
 20
13.16235666196803
 30
0.0
 42
0.0506083937020611
  0
VERTEX
  5
3F0
  8
6
 10
-9.6508099136794954
 20
-7.0591032060932539
 30
0.0
  0
SEQEND
  5
3F1
  8
6
  0
POLYLINE
  5
2F5
  8
6
 66
     1
 10
0.0
 20
0.0
 30
0.0
  0
VERTEX
  5
3F2
  8
6
 10
-10.523249114099711
 20
-7.0591032060932539
 30
0.0
 42
-0.0311247307414695
  0
VERTEX
  5
3F3
  8
6
 10
-12.9333310487982
 20
13.15003888259343
 30
0.0
 42
0.1331579098238507
  0
VERTEX
  5
3F4
  8
6
 10
-13.36270188165053
 20
15.61337869841258
 30
0.0
 42
-0.600780471392009
  0
VERTEX
  5
3F5
  8
6
 10
-12.79999999999972
 20
16.67136639033879
 30
0.0
 42
-0.600780471392009
  0
VERTEX
  5
3F6
  8
6
 10
-12.23729811834891
 20
15.61337869841258
 30
0.0
 42
0.1331579098238511
  0
VERTEX
  5
3F7
  8
6
 10
-12.66666895120124
 20
13.150038882593201
 30
0.0
 42
0.0473982759467404
  0
VERTEX
  5
3F8
  8
6
 10
-10.082010173377171
 20
-7.0591032060932539
 30
0.0
  0
SEQEND
  5
3F9
  8
6
  0
DIMENSION
  5
2F6
  8
1
  2
*D3
 10
-38.596966309916411
 20
-7.2860368224137257
 30
0.0
 11
-41.385165491362521
 21
-0.7860368224137341
 31
0.0
 70
     0
 13
-18.589999999999801
 23
5.7139631775862654
 33
0.0
 14
-12.79999999999972
 24
-7.2860368224137337
 34
0.0
 50
90.0
  0
POLYLINE
  5
2F7
  8
5
 66
     1
 10
0.0
 20
0.0
 30
0.0
 70
     1
  0
VERTEX
  5
3FA
  8
5
 10
-32.799999999999613
 20
-15.0
 30
0.0
  0
VERTEX
  5
3FB
  8
5
 10
7.200000000000272
 20
-15.0
 30
0.0
 42
0.385698158879318
  0
SEQEND
  5
3FC
  8
5
  0
LINE
  5
2F8
  8
5
 10
10.000000000000449
 20
-15.0
 30
0.0
 11
-39.590029481627077
 21
-15.0
 31
0.0
  0
POLYLINE
  5
2F9
  8
4
 66
     1
 10
0.0
 20
0.0
 30
0.0
 70
     1
  0
VERTEX
  5
3FD
  8
4
 10
-19.999999999999879
 20
5.7139631775862654
 30
0.0
  0
VERTEX
  5
3FE
  8
4
 10
-19.999999999999879
 20
64.166957793793927
 30
0.0
  0
VERTEX
  5
3FF
  8
4
 10
0.0
 20
75.713963177586265
 30
0.0
  0
VERTEX
  5
400
  8
4
 10
0.0
 20
5.7139631775862654
 30
0.0
  0
SEQEND
  5
401
  8
4
  0
POLYLINE
  5
2FA
  8
5
 66
     1
 10
0.0
 20
0.0
 30
0.0
  0
VERTEX
  5
402
  8
5
 10
0.0
 20
81.849142613226604
 30
0.0
  0
VERTEX
  5
403
  8
5
 10
0.0
 20
0.0
 30
0.0
  0
VERTEX
  5
404
  8
5
 10
10.0
 20
0.0
 30
0.0
  0
SEQEND
  5
405
  8
5
  0
INSERT
  5
2FB
  8
2
  2
*X2
 10
-792.1833981457138
 20
-86.981752108823343
 30
0.0
1001
ACAD
1000
HATCH
1002
{
1070
    16
1000
_U,I
1040
1.1999999999999991
1040
0.7853981633974483
1070
     0
1002
}
  0
POLYLINE
  5
2FC
  8
6
 66
     1
 10
0.0
 20
0.0
 30
0.0
 70
     1
  0
VERTEX
  5
406
  8
6
 10
-10.48559322033906
 20
61.31046079654471
 30
0.0
 42
-0.6258301644315236
  0
VERTEX
  5
407
  8
6
 10
-11.0999999999999
 20
66.218849291909692
 30
0.0
  0
VERTEX
  5
408
  8
6
 10
-11.0999999999999
 20
66.360888816714578
 30
0.0
 42
0.577350269189626
  0
VERTEX
  5
409
  8
6
 10
-12.149999999999631
 20
66.96710659936366
 30
0.0
  0
VERTEX
  5
40A
  8
6
 10
-17.999999999999879
 20
63.589607524604389
 30
0.0
 42
0.2679491924311245
  0
VERTEX
  5
40B
  8
6
 10
-18.499999999999879
 20
62.723582120819863
 30
0.0
  0
VERTEX
  5
40C
  8
6
 10
-18.499999999999879
 20
50.213963177586493
 30
0.0
 42
0.4142135623730951
  0
VERTEX
  5
40D
  8
6
 10
-17.499999999999879
 20
49.213963177586493
 30
0.0
  0
VERTEX
  5
40E
  8
6
 10
-0.1269386943454265
 20
49.213963177586493
 30
0.0
 42
-0.6681786368568687
  0
VERTEX
  5
40F
  8
6
 10
-0.03501481252124
 20
48.99203929630221
 30
0.0
  0
VERTEX
  5
410
  8
6
 10
-0.4216695745653852
 20
48.605384531985919
 30
0.0
 42
0.4142135627202392
  0
VERTEX
  5
411
  8
6
 10
-0.4216695745803918
 20
48.322541819343542
 30
0.0
  0
VERTEX
  5
412
  8
6
 10
-0.0585786438391551
 20
47.959450890909231
 30
0.0
 42
-0.4931454261992676
  0
VERTEX
  5
413
  8
6
 10
-0.0999999999999091
 20
47.644824453838503
 30
0.0
  0
VERTEX
  5
414
  8
6
 10
-2.425123435787099
 20
46.313027981155287
 30
0.0
 42
-0.4132091454310479
  0
VERTEX
  5
415
  8
6
 10
-2.697733747297661
 20
46.386575093199333
 30
0.0
  0
VERTEX
  5
416
  8
6
 10
-3.4063665882185878
 20
47.613963177586349
 30
0.0
 42
0.2679491924311262
  0
VERTEX
  5
417
  8
6
 10
-3.579571668975404
 20
47.713963177586493
 30
0.0
  0
VERTEX
  5
418
  8
6
 10
-16.999999999999879
 20
47.713963177586493
 30
0.0
 42
0.4142135623730951
  0
VERTEX
  5
419
  8
6
 10
-17.999999999999879
 20
46.713963177586493
 30
0.0
  0
VERTEX
  5
41A
  8
6
 10
-17.999999999999879
 20
44.296805890061023
 30
0.0
 42
-0.198912367379658
  0
VERTEX
  5
41B
  8
6
 10
-18.05857864376264
 20
44.155384533823742
 30
0.0
  0
VERTEX
  5
41C
  8
6
 10
-18.358578643762598
 20
43.855384531589827
 30
0.0
 42
0.4142135623730962
  0
VERTEX
  5
41D
  8
6
 10
-18.358578643762598
 20
43.572541819115017
 30
0.0
  0
VERTEX
  5
41E
  8
6
 10
-18.05857864420306
 20
43.272541821424738
 30
0.0
 42
-0.1989123681892413
  0
VERTEX
  5
41F
  8
6
 10
-17.999999999999879
 20
43.1311204647468
 30
0.0
  0
VERTEX
  5
420
  8
6
 10
-17.999999999999879
 20
40.713963177586493
 30
0.0
 42
0.4142135623730951
  0
VERTEX
  5
421
  8
6
 10
-16.999999999999879
 20
39.713963177586493
 30
0.0
  0
VERTEX
  5
422
  8
6
 10
-3.579571668975404
 20
39.713963177586493
 30
0.0
 42
0.2679491924311262
  0
VERTEX
  5
423
  8
6
 10
-3.4063665882185878
 20
39.813963177586402
 30
0.0
  0
VERTEX
  5
424
  8
6
 10
-2.697733747297661
 20
41.041351261973432
 30
0.0
 42
-0.4132091454310479
  0
VERTEX
  5
425
  8
6
 10
-2.425123435787099
 20
41.114898374017677
 30
0.0
  0
VERTEX
  5
426
  8
6
 10
-0.0999999999999091
 20
39.783101901334248
 30
0.0
 42
-0.4931454261992676
  0
VERTEX
  5
427
  8
6
 10
-0.0585786438391551
 20
39.46847546426374
 30
0.0
  0
VERTEX
  5
428
  8
6
 10
-0.4216695745803918
 20
39.105384535829209
 30
0.0
 42
0.4142135627202392
  0
VERTEX
  5
429
  8
6
 10
-0.4216695745653852
 20
38.822541823187059
 30
0.0
  0
VERTEX
  5
42A
  8
6
 10
-0.03501481252124
 20
38.435887058870549
 30
0.0
 42
-0.6681786368568687
  0
VERTEX
  5
42B
  8
6
 10
-0.1269386943454265
 20
38.213963177586493
 30
0.0
  0
VERTEX
  5
42C
  8
6
 10
-17.499999999999879
 20
38.213963177586493
 30
0.0
 42
0.4142135623730956
  0
VERTEX
  5
42D
  8
6
 10
-18.499999999999879
 20
37.213963177586493
 30
0.0
  0
VERTEX
  5
42E
  8
6
 10
-18.499999999999879
 20
16.913963177586531
 30
0.0
 42
0.4142135623730951
  0
VERTEX
  5
42F
  8
6
 10
-17.999999999999879
 20
16.413963177586531
 30
0.0
  0
VERTEX
  5
430
  8
6
 10
-16.499999999999879
 20
16.413963177586531
 30
0.0
 42
0.4142135623730971
  0
VERTEX
  5
431
  8
6
 10
-15.999999999999879
 20
16.913963177586531
 30
0.0
  0
VERTEX
  5
432
  8
6
 10
-15.999999999999879
 20
18.463963177586489
 30
0.0
 42
-0.4142135623730951
  0
VERTEX
  5
433
  8
6
 10
-15.049999999999841
 20
19.413963177586531
 30
0.0
  0
VERTEX
  5
434
  8
6
 10
-11.137279220613429
 20
19.413963177586531
 30
0.0
 42
0.1989123673796601
  0
VERTEX
  5
435
  8
6
 10
-11.0736396103066
 20
19.440323567279609
 30
0.0
  0
VERTEX
  5
436
  8
6
 10
-10.6155048005794
 20
19.898458377007039
 30
0.0
 42
-0.3742420918651766
  0
VERTEX
  5
437
  8
6
 10
-10.353520210639539
 20
19.9166130423996
 30
0.0
 42
2.910137834726485
  0
VERTEX
  5
438
  8
6
 10
-10.751242712272409
 20
21.40093362580614
 30
0.0
 42
-0.3742420918651923
  0
VERTEX
  5
439
  8
6
 10
-10.987205355256711
 20
21.285663732263622
 30
0.0
  0
VERTEX
  5
43A
  8
6
 10
-12.05552328149769
 20
21.571918657859658
 30
0.0
 42
-0.437400690340917
  0
VERTEX
  5
43B
  8
6
 10
-12.19228962718125
 20
21.831859952178771
 30
0.0
 42
-1.059771986950611
  0
VERTEX
  5
43C
  8
6
 10
-7.131420517872356
 20
19.702098770806739
 30
0.0
 42
0.5551486701290861
  0
VERTEX
  5
43D
  8
6
 10
-6.951887464626906
 20
19.413963177586531
 30
0.0
  0
VERTEX
  5
43E
  8
6
 10
-1.5899999999996901
 20
19.413963177586531
 30
0.0
 42
0.4142135623730943
  0
VERTEX
  5
43F
  8
6
 10
-1.5
 20
19.503963177586449
 30
0.0
  0
VERTEX
  5
440
  8
6
 10
-1.5
 20
23.855768954813811
 30
0.0
 42
-0.4142135623730951
  0
VERTEX
  5
441
  8
6
 10
-0.5499999999997272
 20
24.80576895481386
 30
0.0
  0
VERTEX
  5
442
  8
6
 10
-0.5
 20
24.80576895481386
 30
0.0
  0
VERTEX
  5
443
  8
6
 10
-0.0585786437627576
 20
24.555384501474691
 30
0.0
 42
-0.198912367379662
  0
VERTEX
  5
444
  8
6
 10
0.0
 20
24.413963145237169
 30
0.0
 42
-0.198912367379662
  0
VERTEX
  5
445
  8
6
 10
-0.0585786437627576
 20
24.272541788999892
 30
0.0
  0
VERTEX
  5
446
  8
6
 10
-0.4414213562372425
 20
24.055384503963062
 30
0.0
 42
0.1989123673796251
  0
VERTEX
  5
447
  8
6
 10
-0.5
 20
23.913963147725781
 30
0.0
 42
0.1989123673796251
  0
VERTEX
  5
448
  8
6
 10
-0.4414213562372425
 20
23.772541791488489
 30
0.0
  0
VERTEX
  5
449
  8
6
 10
-0.0585786437627576
 20
23.555384506451439
 30
0.0
 42
-0.198912367379662
  0
VERTEX
  5
44A
  8
6
 10
0.0
 20
23.413963150214158
 30
0.0
 42
-0.198912367379662
  0
VERTEX
  5
44B
  8
6
 10
-0.0585786437627576
 20
23.27254179397687
 30
0.0
  0
VERTEX
  5
44C
  8
6
 10
-0.4414213562372425
 20
23.05538450893982
 30
0.0
 42
0.1989123673796251
  0
VERTEX
  5
44D
  8
6
 10
-0.5
 20
22.913963152702529
 30
0.0
 42
0.1989123673796251
  0
VERTEX
  5
44E
  8
6
 10
-0.4414213562372425
 20
22.772541796465241
 30
0.0
  0
VERTEX
  5
44F
  8
6
 10
-0.0585786437627576
 20
22.555384511428201
 30
0.0
 42
-0.198912367379662
  0
VERTEX
  5
450
  8
6
 10
0.0
 20
22.41396315519091
 30
0.0
 42
-0.198912367379662
  0
VERTEX
  5
451
  8
6
 10
-0.0585786437627576
 20
22.272541798953618
 30
0.0
  0
VERTEX
  5
452
  8
6
 10
-0.4414213562372425
 20
22.055384513916579
 30
0.0
 42
0.1989123673796251
  0
VERTEX
  5
453
  8
6
 10
-0.5
 20
21.913963157679291
 30
0.0
 42
0.1989123673796251
  0
VERTEX
  5
454
  8
6
 10
-0.4414213562372425
 20
21.772541801441999
 30
0.0
  0
VERTEX
  5
455
  8
6
 10
-0.0585786437627576
 20
21.555384516404949
 30
0.0
 42
-0.198912367379662
  0
VERTEX
  5
456
  8
6
 10
0.0
 20
21.413963160167661
 30
0.0
 42
-0.198912367379662
  0
VERTEX
  5
457
  8
6
 10
-0.0585786437627576
 20
21.27254180393038
 30
0.0
  0
VERTEX
  5
458
  8
6
 10
-0.4414213562372425
 20
21.05538451889333
 30
0.0
 42
0.1989123673796251
  0
VERTEX
  5
459
  8
6
 10
-0.5
 20
20.913963162656039
 30
0.0
 42
0.1989123673796251
  0
VERTEX
  5
45A
  8
6
 10
-0.4414213562372425
 20
20.772541806418761
 30
0.0
  0
VERTEX
  5
45B
  8
6
 10
-0.0585786437627576
 20
20.555384521381711
 30
0.0
 42
-0.198912367379662
  0
VERTEX
  5
45C
  8
6
 10
0.0
 20
20.41396316514442
 30
0.0
 42
-0.198912367379662
  0
VERTEX
  5
45D
  8
6
 10
-0.0585786437627576
 20
20.272541808907128
 30
0.0
  0
VERTEX
  5
45E
  8
6
 10
-0.4414213562372425
 20
20.055384523870082
 30
0.0
 42
0.1989123673796251
  0
VERTEX
  5
45F
  8
6
 10
-0.5
 20
19.913963167632801
 30
0.0
 42
0.1989123673796251
  0
VERTEX
  5
460
  8
6
 10
-0.4414213562372425
 20
19.772541811395509
 30
0.0
  0
VERTEX
  5
461
  8
6
 10
-0.0585786437627576
 20
19.55538452635869
 30
0.0
 42
-0.198912367379662
  0
VERTEX
  5
462
  8
6
 10
0.0
 20
19.413963170121178
 30
0.0
 42
-0.198912367379662
  0
VERTEX
  5
463
  8
6
 10
-0.0585786437627576
 20
19.27254181388389
 30
0.0
  0
VERTEX
  5
464
  8
6
 10
-0.4414213562372425
 20
19.055384528847071
 30
0.0
 42
0.1989123673796251
  0
VERTEX
  5
465
  8
6
 10
-0.5
 20
18.91396317260978
 30
0.0
 42
0.1989123673796251
  0
VERTEX
  5
466
  8
6
 10
-0.4414213562372425
 20
18.772541816372492
 30
0.0
  0
VERTEX
  5
467
  8
6
 10
-0.0585786437627576
 20
18.555384531335449
 30
0.0
 42
-0.198912367379662
  0
VERTEX
  5
468
  8
6
 10
0.0
 20
18.413963175098161
 30
0.0
 42
-0.198912367379662
  0
VERTEX
  5
469
  8
6
 10
-0.0585786437627576
 20
18.272541818860638
 30
0.0
  0
VERTEX
  5
46A
  8
6
 10
-0.4414213562372425
 20
18.055384533823819
 30
0.0
 42
0.1989123673796251
  0
VERTEX
  5
46B
  8
6
 10
-0.5
 20
17.913963177586531
 30
0.0
  0
VERTEX
  5
46C
  8
6
 10
-9.5099999999997635
 20
17.913963177586531
 30
0.0
 42
0.4142135623730956
  0
VERTEX
  5
46D
  8
6
 10
-9.5999999999999091
 20
17.823963177586389
 30
0.0
  0
VERTEX
  5
46E
  8
6
 10
-9.5999999999999091
 20
11.803963177586409
 30
0.0
 42
-0.4142135623730951
  0
VERTEX
  5
46F
  8
6
 10
-9.6900000000000546
 20
11.713963177586489
 30
0.0
  0
VERTEX
  5
470
  8
6
 10
-10.699999999999809
 20
11.713963177586489
 30
0.0
 42
-0.4142135623730951
  0
VERTEX
  5
471
  8
6
 10
-11.599999999999911
 20
12.613963177586349
 30
0.0
  0
VERTEX
  5
472
  8
6
 10
-11.599999999999911
 20
12.62396317758634
 30
0.0
 42
-0.4142135623730951
  0
VERTEX
  5
473
  8
6
 10
-11.50999999999976
 20
12.713963177586489
 30
0.0
  0
VERTEX
  5
474
  8
6
 10
-11.0999999999999
 20
12.713963177586489
 30
0.0
  0
VERTEX
  5
475
  8
6
 10
-11.0999999999999
 20
17.913963177586531
 30
0.0
  0
VERTEX
  5
476
  8
6
 10
-14.499999999999879
 20
17.913963177586531
 30
0.0
  0
VERTEX
  5
477
  8
6
 10
-14.499999999999879
 20
12.713963177586489
 30
0.0
  0
VERTEX
  5
478
  8
6
 10
-14.089999999999799
 20
12.713963177586489
 30
0.0
 42
-0.4142135623730951
  0
VERTEX
  5
479
  8
6
 10
-14.0
 20
12.62396317758634
 30
0.0
  0
VERTEX
  5
47A
  8
6
 10
-14.0
 20
12.613963177586349
 30
0.0
 42
-0.4142135623730951
  0
VERTEX
  5
47B
  8
6
 10
-14.89999999999997
 20
11.713963177586489
 30
0.0
  0
VERTEX
  5
47C
  8
6
 10
-15.909999999999959
 20
11.713963177586489
 30
0.0
 42
-0.4142135623730951
  0
VERTEX
  5
47D
  8
6
 10
-15.999999999999879
 20
11.803963177586409
 30
0.0
  0
VERTEX
  5
47E
  8
6
 10
-15.999999999999879
 20
14.413963177586529
 30
0.0
 42
0.4142135623730951
  0
VERTEX
  5
47F
  8
6
 10
-16.499999999999879
 20
14.913963177586529
 30
0.0
  0
VERTEX
  5
480
  8
6
 10
-17.999999999999879
 20
14.913963177586529
 30
0.0
 42
0.414213562373093
  0
VERTEX
  5
481
  8
6
 10
-18.499999999999879
 20
14.413963177586529
 30
0.0
  0
VERTEX
  5
482
  8
6
 10
-18.499999999999879
 20
5.80396317758641
 30
0.0
 42
-0.4142135623730941
  0
VERTEX
  5
483
  8
6
 10
-18.589999999999801
 20
5.7139631775864919
 30
0.0
  0
VERTEX
  5
484
  8
6
 10
-19.909999999999961
 20
5.7139631775864919
 30
0.0
 42
-0.4142135623730951
  0
VERTEX
  5
485
  8
6
 10
-19.999999999999879
 20
5.80396317758641
 30
0.0
  0
VERTEX
  5
486
  8
6
 10
-19.999999999999879
 20
62.43490698622508
 30
0.0
 42
-0.2679491924311224
  0
VERTEX
  5
487
  8
6
 10
-18.499999999999879
 20
65.03298319757846
 30
0.0
  0
VERTEX
  5
488
  8
6
 10
-0.2999999999997271
 20
75.540758096829677
 30
0.0
 42
-0.5773502691896129
  0
VERTEX
  5
489
  8
6
 10
0.0
 20
75.367553016072634
 30
0.0
  0
VERTEX
  5
48A
  8
6
 10
0.0
 20
74.607640586898924
 30
0.0
 42
-0.3534884879630113
  0
VERTEX
  5
48B
  8
6
 10
-0.1579795664979429
 20
74.412104699736574
 30
0.0
 42
0.8079313152740247
  0
VERTEX
  5
48C
  8
6
 10
-0.1579795664979429
 20
70.501386956491842
 30
0.0
 42
-0.3534884879630113
  0
VERTEX
  5
48D
  8
6
 10
0.0
 20
70.305851069329492
 30
0.0
  0
VERTEX
  5
48E
  8
6
 10
0.0
 20
69.42052761887976
 30
0.0
 42
-0.4335667118375687
  0
VERTEX
  5
48F
  8
6
 10
-0.2131147540981146
 20
69.220958074046621
 30
0.0
 42
-0.3398860975834932
  0
VERTEX
  5
490
  8
6
 10
-3.18863780173433
 20
71.835402146857632
 30
0.0
 42
0.5141979049360717
  0
VERTEX
  5
491
  8
6
 10
-3.4848616664562542
 20
71.969926548800231
 30
0.0
  0
VERTEX
  5
492
  8
6
 10
-9.5499999999997272
 20
68.468217299256594
 30
0.0
 42
0.2679491924311228
  0
VERTEX
  5
493
  8
6
 10
-9.5999999999999091
 20
68.381614758878186
 30
0.0
  0
VERTEX
  5
494
  8
6
 10
-9.5999999999999091
 20
65.350103839220992
 30
0.0
 42
-0.3742420918651691
  0
VERTEX
  5
495
  8
6
 10
-9.7724137931031692
 20
65.152015472099038
 30
0.0
 42
2.9101378347264499
  0
VERTEX
  5
496
  8
6
 10
-8.4416083651867666
 20
64.383674600052245
 30
0.0
 42
-0.3742420918651645
  0
VERTEX
  5
497
  8
6
 10
-8.3562657036168275
 20
64.632033508403765
 30
0.0
  0
VERTEX
  5
498
  8
6
 10
-7.3984380544711712
 20
65.185035559474954
 30
0.0
 42
-0.4374006903409171
  0
VERTEX
  5
499
  8
6
 10
-7.1179233920765901
 20
65.097937718022635
 30
0.0
 42
-0.4489753641201027
  0
VERTEX
  5
49A
  8
6
 10
-8.7144067796607487
 20
61.31046079654471
 30
0.0
 42
0.3211323993548997
  0
VERTEX
  5
49B
  8
6
 10
-8.8499999999999091
 20
61.121115168832603
 30
0.0
  0
VERTEX
  5
49C
  8
6
 10
-8.8499999999999091
 20
59.368211866521733
 30
0.0
 42
-0.4142135623730951
  0
VERTEX
  5
49D
  8
6
 10
-8.9499999999998181
 20
59.268211866521817
 30
0.0
  0
VERTEX
  5
49E
  8
6
 10
-10.25
 20
59.268211866521817
 30
0.0
 42
-0.4142135623730951
  0
VERTEX
  5
49F
  8
6
 10
-10.349999999999911
 20
59.368211866521733
 30
0.0
  0
VERTEX
  5
4A0
  8
6
 10
-10.349999999999911
 20
61.121115168832603
 30
0.0
 42
0.3211323993548997
  0
SEQEND
  5
4A1
  8
6
  0
CIRCLE
  5
2FD
  8
6
 10
-12.79999999999972
 20
15.99273308730562
 30
0.0
 40
0.5425533030331441
  0
POLYLINE
  5
2FE
  8
6
 66
     1
 10
0.0
 20
0.0
 30
0.0
 70
     1
  0
VERTEX
  5
4A2
  8
6
 10
-13.645396920398071
 20
12.94089679390685
 30
0.0
  0
VERTEX
  5
4A3
  8
6
 10
-13.95472108093781
 20
12.94089679390685
 30
0.0
 42
-0.4142135623730951
  0
VERTEX
  5
4A4
  8
6
 10
-14.37052108093814
 20
13.356696793907069
 30
0.0
  0
VERTEX
  5
4A5
  8
6
 10
-14.37052108093814
 20
17.29816317758673
 30
0.0
 42
-0.4142135623730951
  0
VERTEX
  5
4A6
  8
6
 10
-13.95472108093781
 20
17.71396317758672
 30
0.0
  0
VERTEX
  5
4A7
  8
6
 10
-11.64527891906163
 20
17.71396317758672
 30
0.0
 42
-0.4142135623730951
  0
VERTEX
  5
4A8
  8
6
 10
-11.229478919061419
 20
17.29816317758673
 30
0.0
  0
VERTEX
  5
4A9
  8
6
 10
-11.229478919061419
 20
13.356696793907069
 30
0.0
 42
-0.4142135623730951
  0
VERTEX
  5
4AA
  8
6
 10
-11.64527891906163
 20
12.94089679390685
 30
0.0
  0
VERTEX
  5
4AB
  8
6
 10
-11.95460307960138
 20
12.94089679390685
 30
0.0
  0
VERTEX
  5
4AC
  8
6
 10
-11.95460307960138
 20
13.356696793907069
 30
0.0
  0
VERTEX
  5
4AD
  8
6
 10
-11.75867891906136
 20
13.356696793907069
 30
0.0
 42
0.4142135623730945
  0
VERTEX
  5
4AE
  8
6
 10
-11.64527891906163
 20
13.470096793907031
 30
0.0
  0
VERTEX
  5
4AF
  8
6
 10
-11.64527891906163
 20
17.18476317758677
 30
0.0
 42
0.4142135623730948
  0
VERTEX
  5
4B0
  8
6
 10
-11.75867891906136
 20
17.29816317758673
 30
0.0
  0
VERTEX
  5
4B1
  8
6
 10
-13.84132108093808
 20
17.29816317758673
 30
0.0
 42
0.4142135623730951
  0
VERTEX
  5
4B2
  8
6
 10
-13.95472108093827
 20
17.18476317758677
 30
0.0
  0
VERTEX
  5
4B3
  8
6
 10
-13.95472108093781
 20
13.470096793907031
 30
0.0
 42
0.4142135623730955
  0
VERTEX
  5
4B4
  8
6
 10
-13.84132108093808
 20
13.356696793907069
 30
0.0
  0
VERTEX
  5
4B5
  8
6
 10
-13.645396920398071
 20
13.356696793907069
 30
0.0
  0
SEQEND
  5
4B6
  8
6
  0
POINT
  5
2FF
  8
5
 10
-12.79999999999972
 20
11.71396317758672
 30
0.0
  0
POINT
  5
300
  8
5
 10
-12.79999999999972
 20
11.71396317758672
 30
0.0
  0
LINE
  5
301
  8
6
  6
STRICHPUNKT
 10
-5.3326130449335087
 20
43.713963177586493
 30
0.0
 11
14.96861957829139
 21
43.713963177586493
 31
0.0
  0
TEXT
  5
302
  8
1
 10
1.2874528781621839
 20
46.697903467465487
 30
0.0
 40
2.4999999499999999
  1
Hebgo 901
  0
POLYLINE
  5
303
  8
6
 66
     1
 10
0.0
 20
0.0
 30
0.0
  0
VERTEX
  5
4B7
  8
6
 10
-3.806250321635388
 20
41.590129619772704
 30
0.0
  0
VERTEX
  5
4B8
  8
6
 10
-4.5116130449334833
 20
40.913963177586531
 30
0.0
  0
VERTEX
  5
4B9
  8
6
 10
-4.7116130449335278
 20
40.913963177586531
 30
0.0
  0
VERTEX
  5
4BA
  8
6
 10
-4.7116130449335278
 20
46.713963177586493
 30
0.0
  0
VERTEX
  5
4BB
  8
6
 10
-4.5116130449334833
 20
46.713963177586493
 30
0.0
  0
VERTEX
  5
4BC
  8
6
 10
-3.806250321635388
 20
45.939031294600902
 30
0.0
 42
0.142709741532141
  0
SEQEND
  5
4BD
  8
6
  0
POLYLINE
  5
304
  8
6
 66
     1
 10
0.0
 20
0.0
 30
0.0
 70
     1
  0
VERTEX
  5
4BE
  8
6
 10
-4.7616130449334833
 20
40.341345446841501
 30
0.0
  0
VERTEX
  5
4BF
  8
6
 10
-3.5411847139096149
 20
39.913963177586311
 30
0.0
  0
VERTEX
  5
4C0
  8
6
 10
-2.9325090642557821
 20
40.92035621462378
 30
0.0
  0
VERTEX
  5
4C1
  8
6
 10
0.0000000000001137
 20
40.92035621462378
 30
0.0
  0
VERTEX
  5
4C2
  8
6
 10
0.0000000000001137
 20
46.507570140549198
 30
0.0
  0
VERTEX
  5
4C3
  8
6
 10
-2.9325090642557821
 20
46.507570140549198
 30
0.0
  0
VERTEX
  5
4C4
  8
6
 10
-3.5411847139096149
 20
47.513963177586668
 30
0.0
  0
VERTEX
  5
4C5
  8
6
 10
-4.7616130449334833
 20
47.086580908331477
 30
0.0
  0
VERTEX
  5
4C6
  8
6
 10
-4.7616130449334833
 20
43.713963177586493
 30
0.0
  0
SEQEND
  5
4C7
  8
6
  0
POLYLINE
  5
305
  8
6
 66
     1
 10
0.0
 20
0.0
 30
0.0
  0
VERTEX
  5
4C8
  8
6
 10
-3.453228559257695
 20
45.55119137902517
 30
0.0
  0
VERTEX
  5
4C9
  8
6
 10
-3.0807386347173629
 20
45.141963177586483
 30
0.0
 42
0.0337004454472373
  0
VERTEX
  5
4CA
  8
6
 10
-2.643861740405554
 20
44.836041200629772
 30
0.0
 42
-3.2234280385613259
  0
SEQEND
  5
4CB
  8
6
  0
POLYLINE
  5
306
  8
6
 66
     1
 10
0.0
 20
0.0
 30
0.0
  0
VERTEX
  5
4CC
  8
6
 10
-2.643861740405554
 20
42.596647329307302
 30
0.0
 42
0.0347698152739638
  0
VERTEX
  5
4CD
  8
6
 10
-3.0805629094365941
 20
42.285779474008557
 30
0.0
  0
VERTEX
  5
4CE
  8
6
 10
-3.453228559257695
 20
41.928539151772092
 30
0.0
  0
SEQEND
  5
4CF
  8
6
  0
POLYLINE
  5
307
  8
6
 66
     1
 10
0.0
 20
0.0
 30
0.0
  0
VERTEX
  5
4D0
  8
6
 10
0.0
 20
43.142617519400858
 30
0.0
 42
0.0716230936514669
  0
VERTEX
  5
4D1
  8
6
 10
-1.0661814425119469
 20
42.872331062002267
 30
0.0
  0
SEQEND
  5
4D2
  8
6
  0
POLYLINE
  5
308
  8
6
 66
     1
 10
0.0
 20
0.0
 30
0.0
  0
VERTEX
  5
4D3
  8
6
 10
-1.0661814425119469
 20
44.562700381485108
 30
0.0
 42
0.0698020145797582
  0
VERTEX
  5
4D4
  8
6
 10
0.0
 20
44.289738227634238
 30
0.0
 42
-3.2234280385613259
  0
SEQEND
  5
4D5
  8
6
  0
TEXT
  5
309
  8
1
 10
-32.391550628354253
 20
78.167412148814833
 30
0.0
 40
2.4999999499999999
  1
Hebgo 157/757
  0
VIEWPORT
  5
22
 67
     1
  8
0
 10
210.0
 20
170.2366863905325
 30
0.0
 40
420.0
 41
340.47337278106511
 68
     1
 69
     1
1001
ACAD
1000
MVIEW
1002
{
1070
    16
1010
0.0
1020
0.0
1030
0.0
1010
0.0
1020
0.0
1030
1.0
1040
0.0
1040
340.47337278106511
1040
210.0
1040
170.2366863905325
1040
50.0
1040
0.0
1040
0.0
1070
     0
1070
   100
1070
     1
1070
     1
1070
     0
1070
     0
1070
     0
1070
     0
1040
0.0
1040
0.0
1040
0.0
1040
5.0
1040
5.0
1040
10.0
1040
10.0
1070
     0
1002
{
1002
}
1002
}
  0
ENDSEC
  0
EOF
