  0
SECTION
  2
HEADER
  9
$ACADVER
  1
AC1009
  9
$INSBASE
 10
0.0
 20
0.0
 30
0.0
  9
$EXTMIN
 10
-89.0
 20
-17.050471313595828
 30
0.0
  9
$EXTMAX
 10
2.0
 20
22.336533332755948
 30
0.0
  9
$LIMMIN
 10
-150.0
 20
-150.0
  9
$LIMMAX
 10
150.0
 20
150.0
  9
$ORTHOMODE
 70
     0
  9
$REGENMODE
 70
     1
  9
$FILLMODE
 70
     1
  9
$QTEXTMODE
 70
     0
  9
$MIRRTEXT
 70
     0
  9
$DRAGMODE
 70
     2
  9
$LTSCALE
 40
4.0
  9
$OSMODE
 70
   111
  9
$ATTMODE
 70
     1
  9
$TEXTSIZE
 40
3.5
  9
$TRACEWID
 40
1.0
  9
$TEXTSTYLE
  7
BESCHLAG
  9
$CLAYER
  8
0
  9
$CELTYPE
  6
BYLAYER
  9
$CECOLOR
 62
   256
  9
$DIMSCALE
 40
1.0
  9
$DIMASZ
 40
2.0
  9
$DIMEXO
 40
2.0
  9
$DIMDLI
 40
0.0
  9
$DIMRND
 40
0.0
  9
$DIMDLE
 40
1.0
  9
$DIMEXE
 40
1.0
  9
$DIMTP
 40
0.0
  9
$DIMTM
 40
0.0
  9
$DIMTXT
 40
3.5
  9
$DIMCEN
 40
0.0
  9
$DIMTSZ
 40
0.0
  9
$DIMTOL
 70
     0
  9
$DIMLIM
 70
     0
  9
$DIMTIH
 70
     0
  9
$DIMTOH
 70
     0
  9
$DIMSE1
 70
     0
  9
$DIMSE2
 70
     0
  9
$DIMTAD
 70
     1
  9
$DIMZIN
 70
     8
  9
$DIMBLK
  1

  9
$DIMASO
 70
     1
  9
$DIMSHO
 70
     1
  9
$DIMPOST
  1

  9
$DIMAPOST
  1

  9
$DIMALT
 70
     0
  9
$DIMALTD
 70
     2
  9
$DIMALTF
 40
0.039370078740157
  9
$DIMLFAC
 40
1.0
  9
$DIMTOFL
 70
     1
  9
$DIMTVP
 40
0.0
  9
$DIMTIX
 70
     1
  9
$DIMSOXD
 70
     0
  9
$DIMSAH
 70
     1
  9
$DIMBLK1
  1
OBLIQUE
  9
$DIMBLK2
  1
OBLIQUE
  9
$DIMSTYLE
  2
OPO-SSTRICH
  9
$DIMCLRD
 70
   256
  9
$DIMCLRE
 70
   256
  9
$DIMCLRT
 70
   256
  9
$DIMTFAC
 40
0.7114285714285716
  9
$DIMGAP
 40
1.0
  9
$LUNITS
 70
     2
  9
$LUPREC
 70
     1
  9
$SKETCHINC
 40
1.0
  9
$FILLETRAD
 40
0.0
  9
$AUNITS
 70
     0
  9
$AUPREC
 70
     1
  9
$MENU
  1
D:\ACL_CGWG\CGTAB13
  9
$ELEVATION
 40
0.0
  9
$PELEVATION
 40
0.0
  9
$THICKNESS
 40
0.0
  9
$LIMCHECK
 70
     0
  9
$BLIPMODE
 70
     0
  9
$CHAMFERA
 40
1.0
  9
$CHAMFERB
 40
1.0
  9
$SKPOLY
 70
     0
  9
$TDCREATE
 40
2451739.8734698612
  9
$TDUPDATE
 40
2452087.6150210761
  9
$TDINDWG
 40
0.0025672338
  9
$TDUSRTIMER
 40
0.0025672338
  9
$USRTIMER
 70
     1
  9
$ANGBASE
 50
0.0
  9
$ANGDIR
 70
     0
  9
$PDMODE
 70
    35
  9
$PDSIZE
 40
5.0
  9
$PLINEWID
 40
0.0
  9
$COORDS
 70
     1
  9
$SPLFRAME
 70
     0
  9
$SPLINETYPE
 70
     6
  9
$SPLINESEGS
 70
     8
  9
$ATTDIA
 70
     1
  9
$ATTREQ
 70
     1
  9
$HANDLING
 70
-16383
  9
$HANDSEED
  5
4C6
  9
$SURFTAB1
 70
    12
  9
$SURFTAB2
 70
    12
  9
$SURFTYPE
 70
     6
  9
$SURFU
 70
    12
  9
$SURFV
 70
    12
  9
$UCSNAME
  2

  9
$UCSORG
 10
0.0
 20
0.0
 30
0.0
  9
$UCSXDIR
 10
1.0
 20
0.0
 30
0.0
  9
$UCSYDIR
 10
0.0
 20
1.0
 30
0.0
  9
$PUCSNAME
  2

  9
$PUCSORG
 10
0.0
 20
0.0
 30
0.0
  9
$PUCSXDIR
 10
1.0
 20
0.0
 30
0.0
  9
$PUCSYDIR
 10
0.0
 20
1.0
 30
0.0
  9
$USERI1
 70
     0
  9
$USERI2
 70
     0
  9
$USERI3
 70
     0
  9
$USERI4
 70
     0
  9
$USERI5
 70
     0
  9
$USERR1
 40
0.0
  9
$USERR2
 40
0.0
  9
$USERR3
 40
0.0
  9
$USERR4
 40
0.0
  9
$USERR5
 40
0.0
  9
$WORLDVIEW
 70
     1
  9
$SHADEDGE
 70
     3
  9
$SHADEDIF
 70
    70
  9
$TILEMODE
 70
     1
  9
$MAXACTVP
 70
    48
  9
$PLIMCHECK
 70
     0
  9
$PEXTMIN
 10
1.0000000000000000E+020
 20
1.0000000000000000E+020
 30
1.0000000000000000E+020
  9
$PEXTMAX
 10
-1.0000000000000000E+020
 20
-1.0000000000000000E+020
 30
-1.0000000000000000E+020
  9
$PLIMMIN
 10
0.0
 20
0.0
  9
$PLIMMAX
 10
420.0
 20
297.0
  9
$UNITMODE
 70
     0
  9
$VISRETAIN
 70
     1
  9
$PLINEGEN
 70
     0
  9
$PSLTSCALE
 70
     1
  0
ENDSEC
  0
SECTION
  2
TABLES
  0
TABLE
  2
VPORT
 70
     2
  0
VPORT
  2
*ACTIVE
 70
     0
 10
0.0
 20
0.0
 11
1.0
 21
1.0
 12
-43.498992272069422
 22
3.6105172614880869
 13
0.0
 23
0.0
 14
0.5
 24
0.5
 15
10.0
 25
10.0
 16
0.0
 26
0.0
 36
1.0
 17
0.0
 27
0.0
 37
0.0
 40
56.962718393304847
 41
1.6070460704607039
 42
50.0
 43
0.0
 44
0.0
 50
0.0
 51
0.0
 71
     0
 72
   800
 73
     1
 74
     1
 75
     0
 76
     0
 77
     0
 78
     0
  0
ENDTAB
  0
TABLE
  2
LTYPE
 70
     2
  0
LTYPE
  2
CONTINUOUS
 70
     0
  3
_______________________________________________
 72
    65
 73
     2
 40
1.0
 49
1.0
 49
0.0
  0
LTYPE
  2
STRICHPUNKT
 70
     0
  3
__ . __ . __ . __ . __ . __ . __ . __ . __ . __
 72
    65
 73
     4
 40
1.0
 49
0.5
 49
-0.25
 49
0.0
 49
-0.25
  0
ENDTAB
  0
TABLE
  2
LAYER
 70
     7
  0
LAYER
  2
0
 70
     0
 62
    30
  6
CONTINUOUS
  0
LAYER
  2
1
 70
     0
 62
     2
  6
CONTINUOUS
  0
LAYER
  2
2
 70
     0
 62
     9
  6
CONTINUOUS
  0
LAYER
  2
4
 70
     1
 62
     4
  6
CONTINUOUS
  0
LAYER
  2
5
 70
     0
 62
     1
  6
CONTINUOUS
  0
LAYER
  2
6
 70
     0
 62
     3
  6
CONTINUOUS
  0
LAYER
  2
DEFPOINTS
 70
     0
 62
     7
  6
CONTINUOUS
  0
ENDTAB
  0
TABLE
  2
STYLE
 70
     2
  0
STYLE
  2
STANDARD
 70
     0
 40
0.0
 41
1.0
 50
0.0
 71
     0
 42
2.5
  3
txt
  4

  0
STYLE
  2
BESCHLAG
 70
     0
 40
0.0
 41
1.0
 50
0.0
 71
     0
 42
3.5
  3
txt
  4

  0
ENDTAB
  0
TABLE
  2
VIEW
 70
     0
  0
ENDTAB
  0
TABLE
  2
UCS
 70
     0
  0
ENDTAB
  0
TABLE
  2
APPID
 70
     1
  0
APPID
  2
ACAD
 70
     0
  0
ENDTAB
  0
TABLE
  2
DIMSTYLE
 70
     1
  0
DIMSTYLE
  2
OPO-SSTRICH
 70
     0
  3

  4

  5

  6
OBLIQUE
  7
OBLIQUE
 40
1.0
 41
2.0
 42
2.0
 43
0.0
 44
1.0
 45
0.0
 46
1.0
 47
0.0
 48
0.0
140
3.5
141
0.0
142
0.0
143
0.039370078740157
144
1.0
145
0.0
146
0.7114285714285716
147
1.0
 71
     0
 72
     0
 73
     0
 74
     0
 75
     0
 76
     0
 77
     1
 78
     8
170
     0
171
     2
172
     1
173
     1
174
     1
175
     0
176
   256
177
   256
178
   256
  0
ENDTAB
  0
ENDSEC
  0
SECTION
  2
BLOCKS
  0
BLOCK
  8
0
  2
$MODEL_SPACE
 70
     0
 10
0.0
 20
0.0
 30
0.0
  3
$MODEL_SPACE
  1

  0
ENDBLK
  5
1C
  8
0
  0
BLOCK
 67
     1
  8
0
  2
$PAPER_SPACE
 70
     0
 10
0.0
 20
0.0
 30
0.0
  3
$PAPER_SPACE
  1

  0
ENDBLK
  5
19
 67
     1
  8
0
  0
BLOCK
  8
0
  2
_OBLIQUE
 70
     0
 10
0.0
 20
0.0
 30
0.0
  3
_OBLIQUE
  1

  0
LINE
  5
204
  8
0
 62
     0
 10
-0.5
 20
-0.5
 30
0.0
 11
0.5
 21
0.5
 31
0.0
  0
ENDBLK
  5
206
  8
0
  0
BLOCK
  8
0
  2
NULLPUNKT
 70
     0
 10
0.0
 20
0.0
 30
0.0
  3
NULLPUNKT
  1

  0
SOLID
  5
254
  8
5
 10
0.0
 20
0.0
 30
0.0
 11
2.0
 21
0.0
 31
0.0
 12
0.0
 22
-2.0
 32
0.0
 13
0.0
 23
-2.0
 33
0.0
  0
SOLID
  5
255
  8
5
 10
0.0
 20
0.0
 30
0.0
 11
-2.0
 21
0.0
 31
0.0
 12
0.0
 22
2.0
 32
0.0
 13
0.0
 23
2.0
 33
0.0
  0
POLYLINE
  5
256
  8
5
 66
     1
 10
0.0
 20
0.0
 30
0.0
  0
VERTEX
  5
41B
  8
5
 10
0.0
 20
2.0
 30
0.0
  0
VERTEX
  5
41C
  8
5
 10
0.0
 20
-2.0
 30
0.0
  0
SEQEND
  5
41D
  8
5
  0
POLYLINE
  5
257
  8
5
 66
     1
 10
0.0
 20
0.0
 30
0.0
  0
VERTEX
  5
41E
  8
5
 10
-2.0
 20
0.0
 30
0.0
  0
VERTEX
  5
41F
  8
5
 10
2.0
 20
0.0
 30
0.0
  0
SEQEND
  5
420
  8
5
  0
CIRCLE
  5
258
  8
5
 10
0.0
 20
0.0
 30
0.0
 40
2.0
  0
ENDBLK
  5
25A
  8
0
  0
BLOCK
  8
0
  2
*X2
 70
     1
 10
0.0
 20
0.0
 30
0.0
  3
*X2
  1

  0
LINE
  5
292
  8
0
 62
     0
 10
416.93552973551868
 20
-226.24879843176481
 30
0.0
 11
419.15301575126438
 21
-224.03131241601909
 31
0.0
  0
LINE
  5
293
  8
0
 62
     0
 10
415.03856469863649
 20
-226.44870719379921
 30
0.0
 11
417.26572156803581
 21
-224.22155032439991
 31
0.0
  0
LINE
  5
294
  8
0
 62
     0
 10
413.14159966175441
 20
-226.64861595583369
 30
0.0
 11
415.37842738480731
 21
-224.41178823278071
 31
0.0
  0
LINE
  5
295
  8
0
 62
     0
 10
411.24463462487222
 20
-226.84852471786809
 30
0.0
 11
413.4911332015788
 21
-224.6020261411615
 31
0.0
  0
LINE
  5
296
  8
0
 62
     0
 10
409.34766958799008
 20
-227.04843347990251
 30
0.0
 11
411.6038390183503
 21
-224.7922640495423
 31
0.0
  0
LINE
  5
297
  8
0
 62
     0
 10
407.450704551108
 20
-227.24834224193691
 30
0.0
 11
409.71654483512179
 21
-224.98250195792309
 31
0.0
  0
LINE
  5
298
  8
0
 62
     0
 10
405.55373951422592
 20
-227.44825100397131
 30
0.0
 11
407.82925065189329
 21
-225.17273986630391
 31
0.0
  0
LINE
  5
299
  8
0
 62
     0
 10
403.65677447734379
 20
-227.6481597660057
 30
0.0
 11
405.94195646866478
 21
-225.36297777468471
 31
0.0
  0
LINE
  5
29A
  8
0
 62
     0
 10
401.75980944046171
 20
-227.8480685280401
 30
0.0
 11
404.05466228543622
 21
-225.5532156830655
 31
0.0
  0
LINE
  5
29B
  8
0
 62
     0
 10
399.86284440357952
 20
-228.0479772900745
 30
0.0
 11
402.16736810220777
 21
-225.74345359144621
 31
0.0
  0
LINE
  5
29C
  8
0
 62
     0
 10
397.96587936669738
 20
-228.2478860521089
 30
0.0
 11
400.28007391897933
 21
-225.93369149982701
 31
0.0
  0
LINE
  5
29D
  8
0
 62
     0
 10
396.0689143298153
 20
-228.44779481414341
 30
0.0
 11
398.39277973575082
 21
-226.1239294082078
 31
0.0
  0
LINE
  5
29E
  8
0
 62
     0
 10
394.17194929293322
 20
-228.6477035761778
 30
0.0
 11
396.50548555252232
 21
-226.31416731658859
 31
0.0
  0
LINE
  5
29F
  8
0
 62
     0
 10
392.27498425605103
 20
-228.8476123382122
 30
0.0
 11
394.6181913692937
 21
-226.50440522496939
 31
0.0
  0
LINE
  5
2A0
  8
0
 62
     0
 10
390.37801921916889
 20
-229.0475211002466
 30
0.0
 11
392.73089718606531
 21
-226.69464313335021
 31
0.0
  0
LINE
  5
2A1
  8
0
 62
     0
 10
388.48105418228681
 20
-229.247429862281
 30
0.0
 11
391.0434614209837
 21
-226.68502262358399
 31
0.0
  0
LINE
  5
2A2
  8
0
 62
     0
 10
386.58408914540468
 20
-229.44733862431539
 30
0.0
 11
389.09025748238929
 21
-226.94117028733081
 31
0.0
  0
LINE
  5
2A3
  8
0
 62
     0
 10
384.6871241085226
 20
-229.64724738634979
 30
0.0
 11
387.13705354379471
 21
-227.19731795107759
 31
0.0
  0
LINE
  5
2A4
  8
0
 62
     0
 10
382.7901590716404
 20
-229.84715614838419
 30
0.0
 11
385.18384960520018
 21
-227.4534656148243
 31
0.0
  0
LINE
  5
2A5
  8
0
 62
     0
 10
385.97290462603848
 20
-226.6644105939861
 30
0.0
 11
386.19050034503653
 21
-226.44681487498809
 31
0.0
  0
LINE
  5
2A6
  8
0
 62
     0
 10
376.03196996817758
 20
-234.9082889769993
 30
0.0
 11
377.2786978276514
 21
-233.66156111752539
 31
0.0
  0
LINE
  5
2A7
  8
0
 62
     0
 10
383.75562980808712
 20
-227.18462913708979
 30
0.0
 11
384.23729640644211
 21
-226.70296253873479
 31
0.0
  0
LINE
  5
2A8
  8
0
 62
     0
 10
380.8262389956642
 20
-230.11401994951271
 30
0.0
 11
383.23064566660548
 21
-227.7096132785714
 31
0.0
  0
LINE
  5
2A9
  8
0
 62
     0
 10
375.16486058978791
 20
-234.07834208054129
 30
0.0
 11
381.2732686954563
 21
-227.9699339748729
 31
0.0
  0
LINE
  5
2AA
  8
0
 62
     0
 10
381.53835499013343
 20
-227.70484768019571
 30
0.0
 11
382.28409246784747
 21
-226.9591102024817
 31
0.0
  0
LINE
  5
2AB
  8
0
 62
     0
 10
375.98218652820282
 20
-231.5639598672787
 30
0.0
 11
379.1140561491805
 21
-228.43209024630099
 31
0.0
  0
LINE
  5
2AC
  8
0
 62
     0
 10
379.79969972109001
 20
-227.74644667439151
 30
0.0
 11
380.24873660912692
 21
-227.29740978635459
 31
0.0
  0
LINE
  5
2AD
  8
0
 62
     0
 10
376.13566006833679
 20
-229.71343005229701
 30
0.0
 11
376.21818874316898
 21
-229.6309013774648
 31
0.0
  0
LINE
  5
2AE
  8
0
 62
     0
 10
418.83249477240071
 20
-226.04888966973041
 30
0.0
 11
421.04030993449288
 21
-223.8410745076383
 31
0.0
  0
LINE
  5
2AF
  8
0
 62
     0
 10
420.72945980928279
 20
-225.84898090769599
 30
0.0
 11
422.92760411772139
 21
-223.6508365992575
 31
0.0
  0
LINE
  5
2B0
  8
0
 62
     0
 10
422.62642484616498
 20
-225.64907214566159
 30
0.0
 11
424.81489830094989
 21
-223.46059869087671
 31
0.0
  0
LINE
  5
2B1
  8
0
 62
     0
 10
433.27077328513531
 20
-215.00472370669141
 30
0.0
 11
433.86720801482733
 21
-214.4082889769993
 31
0.0
  0
LINE
  5
2B2
  8
0
 62
     0
 10
424.52338988304717
 20
-225.44916338362719
 30
0.0
 11
426.7021924841784
 21
-223.270360782496
 31
0.0
  0
LINE
  5
2B3
  8
0
 62
     0
 10
433.62940347400252
 20
-216.34314979267191
 30
0.0
 11
435.56426428967501
 21
-214.4082889769993
 31
0.0
  0
LINE
  5
2B4
  8
0
 62
     0
 10
426.42035491992931
 20
-225.2492546215928
 30
0.0
 11
428.5894866674069
 21
-223.0801228741152
 31
0.0
  0
LINE
  5
2B5
  8
0
 62
     0
 10
433.98803366286978
 20
-217.6815758786523
 30
0.0
 11
437.2613205645228
 21
-214.4082889769993
 31
0.0
  0
LINE
  5
2B6
  8
0
 62
     0
 10
428.31731995681128
 20
-225.0493458595584
 30
0.0
 11
430.47678085063541
 21
-222.88988496573441
 31
0.0
  0
LINE
  5
2B7
  8
0
 62
     0
 10
434.34666385173688
 20
-219.0200019646328
 30
0.0
 11
438.53466796017341
 21
-214.8319978561963
 31
0.0
  0
LINE
  5
2B8
  8
0
 62
     0
 10
430.21428499369341
 20
-224.849437097524
 30
0.0
 11
432.36407503386391
 21
-222.69964705735359
 31
0.0
  0
LINE
  5
2B9
  8
0
 62
     0
 10
437.65543311421811
 20
-217.4082889769993
 30
0.0
 11
440.65543311421811
 21
-214.4082889769993
 31
0.0
  0
LINE
  5
2BA
  8
0
 62
     0
 10
434.69370546578892
 20
-220.37001662542849
 30
0.0
 11
436.61095908097673
 21
-218.4527630102408
 31
0.0
  0
LINE
  5
2BB
  8
0
 62
     0
 10
432.11125003057572
 20
-224.64952833548961
 30
0.0
 11
436.61095908097673
 21
-220.14981928508851
 31
0.0
  0
LINE
  5
2BC
  8
0
 62
     0
 10
439.35248938906591
 20
-217.4082889769993
 30
0.0
 11
442.35248938906591
 21
-214.4082889769993
 31
0.0
  0
LINE
  5
2BD
  8
0
 62
     0
 10
427.11095908097673
 20
-231.34687555993619
 30
0.0
 11
428.04954566391359
 21
-230.4082889769993
 31
0.0
  0
LINE
  5
2BE
  8
0
 62
     0
 10
440.99015020009068
 20
-217.46768444082221
 30
0.0
 11
444.04954566391359
 21
-214.4082889769993
 31
0.0
  0
LINE
  5
2BF
  8
0
 62
     0
 10
434.0082150674578
 20
-224.4496195734551
 30
0.0
 11
436.61095908097673
 21
-221.84687555993619
 31
0.0
  0
LINE
  5
2C0
  8
0
 62
     0
 10
428.178780509869
 20
-231.9761104058916
 30
0.0
 11
429.74660193876127
 21
-230.4082889769993
 31
0.0
  0
LINE
  5
2C1
  8
0
 62
     0
 10
444.24660193876127
 20
-215.90828897699919
 30
0.0
 11
445.74660193876127
 21
-214.4082889769993
 31
0.0
  0
LINE
  5
2C2
  8
0
 62
     0
 10
434.61095908097673
 20
-225.5439318347839
 30
0.0
 11
436.61095908097673
 21
-223.5439318347839
 31
0.0
  0
LINE
  5
2C3
  8
0
 62
     0
 10
441.11095908097673
 20
-219.0439318347839
 30
0.0
 11
443.11095908097673
 21
-217.04393183478399
 31
0.0
  0
LINE
  5
2C4
  8
0
 62
     0
 10
429.5273086472929
 20
-232.32463854331539
 30
0.0
 11
431.44365821360901
 21
-230.4082889769993
 31
0.0
  0
LINE
  5
2C5
  8
0
 62
     0
 10
445.61095908097661
 20
-216.24098810963159
 30
0.0
 11
447.11095908097673
 21
-214.74098810963159
 31
0.0
  0
LINE
  5
2C6
  8
0
 62
     0
 10
434.61095908097673
 20
-227.24098810963159
 30
0.0
 11
436.61095908097673
 21
-225.24098810963159
 31
0.0
  0
LINE
  5
2C7
  8
0
 62
     0
 10
441.11095908097673
 20
-220.74098810963159
 30
0.0
 11
443.11095908097673
 21
-218.74098810963159
 31
0.0
  0
LINE
  5
2C8
  8
0
 62
     0
 10
431.37583678471668
 20
-232.17316668073931
 30
0.0
 11
436.61095908097673
 21
-226.9380443844793
 31
0.0
  0
LINE
  5
2C9
  8
0
 62
     0
 10
445.71422711118771
 20
-217.8347763542682
 30
0.0
 11
447.11095908097673
 21
-216.4380443844793
 31
0.0
  0
LINE
  5
2CA
  8
0
 62
     0
 10
441.11095908097673
 20
-222.4380443844793
 30
0.0
 11
443.11095908097673
 21
-220.43804438447941
 31
0.0
  0
LINE
  5
2CB
  8
0
 62
     0
 10
441.11095908097673
 20
-224.13510065932701
 30
0.0
 11
443.11095908097673
 21
-222.13510065932709
 31
0.0
  0
LINE
  5
2CC
  8
0
 62
     0
 10
441.11095908097673
 20
-225.8321569341748
 30
0.0
 11
443.11095908097673
 21
-223.8321569341748
 31
0.0
  0
LINE
  5
2CD
  8
0
 62
     0
 10
441.11095908097673
 20
-227.52921320902249
 30
0.0
 11
443.11095908097673
 21
-225.52921320902249
 31
0.0
  0
LINE
  5
2CE
  8
0
 62
     0
 10
441.5199493344121
 20
-228.81727923043471
 30
0.0
 11
443.11095908097673
 21
-227.22626948387031
 31
0.0
  0
LINE
  5
2CF
  8
0
 62
     0
 10
442.368477471836
 20
-229.6658073678586
 30
0.0
 11
444.12599586269522
 21
-227.9082889769993
 31
0.0
  0
LINE
  5
2D0
  8
0
 62
     0
 10
445.61095908097661
 20
-226.42332575871791
 30
0.0
 11
446.1258844728269
 21
-225.90840036686771
 31
0.0
  0
LINE
  5
2D1
  8
0
 62
     0
 10
443.21700560925979
 20
-230.5143355052825
 30
0.0
 11
447.07793184841972
 21
-226.65340926612259
 31
0.0
  0
LINE
  5
2D2
  8
0
 62
     0
 10
444.06553374668368
 20
-231.36286364270629
 30
0.0
 11
447.11095908097673
 21
-228.31743830841339
 31
0.0
  0
LINE
  5
2D3
  8
0
 62
     0
 10
444.91406188410758
 20
-232.21139178013021
 30
0.0
 11
447.11095908097673
 21
-230.01449458326101
 31
0.0
  0
LINE
  5
2D4
  8
0
 62
     0
 10
446.76259002153142
 20
-232.05991991755411
 30
0.0
 11
448.41422096208618
 21
-230.4082889769993
 31
0.0
  0
LINE
  5
2D5
  8
0
 62
     0
 10
448.61095908097673
 20
-231.9082889769993
 30
0.0
 11
450.1112772369338
 21
-230.4082889769993
 31
0.0
  0
LINE
  5
2D6
  8
0
 62
     0
 10
449.95964629637922
 20
-232.25697619240171
 30
0.0
 11
451.80833351178148
 21
-230.4082889769993
 31
0.0
  0
LINE
  5
2D7
  8
0
 62
     0
 10
451.808174433803
 20
-232.10550432982561
 30
0.0
 11
453.50538978662928
 21
-230.4082889769993
 31
0.0
  0
LINE
  5
2D8
  8
0
 62
     0
 10
453.6567025712269
 20
-231.9540324672495
 30
0.0
 11
455.20244606147702
 21
-230.4082889769993
 31
0.0
  0
LINE
  5
2D9
  8
0
 62
     0
 10
455.00523070865069
 20
-232.30256060467329
 30
0.0
 11
456.8995023363247
 21
-230.4082889769993
 31
0.0
  0
LINE
  5
2DA
  8
0
 62
     0
 10
456.85375884607453
 20
-232.15108874209719
 30
0.0
 11
458.59655861117238
 21
-230.4082889769993
 31
0.0
  0
LINE
  5
2DB
  8
0
 62
     0
 10
458.70228698349842
 20
-231.999616879521
 30
0.0
 11
460.29361488602012
 21
-230.4082889769993
 31
0.0
  0
LINE
  5
2DC
  8
0
 62
     0
 10
460.05081512092232
 20
-232.3481450169449
 30
0.0
 11
461.99067116086781
 21
-230.4082889769993
 31
0.0
  0
LINE
  5
2DD
  8
0
 62
     0
 10
461.89934325834622
 20
-232.1966731543688
 30
0.0
 11
463.11095908097673
 21
-230.9850573317382
 31
0.0
  0
ENDBLK
  5
2DF
  8
0
  0
BLOCK
  8
0
  2
*D3
 70
     1
 10
0.0
 20
0.0
 30
0.0
  3
*D3
  1

  0
LINE
  5
33A
  8
1
 10
-16.0
 20
-2.0000000000001128
 30
0.0
 11
-16.0
 21
-14.18579270309135
 31
0.0
  0
LINE
  5
33B
  8
1
 10
-88.0
 20
-4.5047511154183431
 30
0.0
 11
-88.0
 21
-14.18579270309135
 31
0.0
  0
LINE
  5
33C
  8
1
 10
-15.0
 20
-13.18579270309135
 30
0.0
 11
-89.0
 21
-13.18579270309135
 31
0.0
  0
INSERT
  5
33D
  8
1
  2
_OBLIQUE
 10
-16.0
 20
-13.18579270309135
 30
0.0
 41
2.0
 42
2.0
 43
2.0
  0
INSERT
  5
33E
  8
1
  2
_OBLIQUE
 10
-88.0
 20
-13.18579270309135
 30
0.0
 41
2.0
 42
2.0
 43
2.0
 50
180.0
  0
TEXT
  5
33F
  8
0
 10
-54.706173260572989
 20
-12.178630356570199
 30
0.0
 40
3.5
  1
72
  7
BESCHLAG
  0
POINT
  5
340
  8
DEFPOINTS
 62
     0
 10
-16.0
 20
-0.0000000000001137
 30
0.0
  0
POINT
  5
341
  8
DEFPOINTS
 62
     0
 10
-88.0
 20
-2.5047511154183431
 30
0.0
  0
POINT
  5
342
  8
DEFPOINTS
 62
     0
 10
-88.0
 20
-13.18579270309135
 30
0.0
  0
ENDBLK
  5
315
  8
0
  0
BLOCK
  8
0
  2
*D4
 70
     1
 10
0.0
 20
0.0
 30
0.0
  3
*D4
  1

  0
LINE
  5
343
  8
1
 10
-11.0
 20
6.0
 30
0.0
 11
-11.0
 21
-14.18579270309146
 31
0.0
  0
LINE
  5
344
  8
1
 10
-0.0000000000000001
 20
-2.0
 30
0.0
 11
-0.0000000000000009
 21
-14.18579270309146
 31
0.0
  0
LINE
  5
345
  8
1
 10
-12.0
 20
-13.18579270309146
 30
0.0
 11
0.9999999999999992
 21
-13.18579270309146
 31
0.0
  0
INSERT
  5
346
  8
1
  2
_OBLIQUE
 10
-11.0
 20
-13.18579270309146
 30
0.0
 41
2.0
 42
2.0
 43
2.0
 50
180.0
  0
INSERT
  5
347
  8
1
  2
_OBLIQUE
 10
-0.0000000000000008
 20
-13.18579270309146
 30
0.0
 41
2.0
 42
2.0
 43
2.0
  0
TEXT
  5
348
  8
0
 10
-8.0366643929058679
 20
-12.17863035657032
 30
0.0
 40
3.5
  1
11
  7
BESCHLAG
  0
POINT
  5
349
  8
DEFPOINTS
 62
     0
 10
-11.0
 20
8.0
 30
0.0
  0
POINT
  5
34A
  8
DEFPOINTS
 62
     0
 10
0.0
 20
0.0
 30
0.0
  0
POINT
  5
34B
  8
DEFPOINTS
 62
     0
 10
-0.0000000000000008
 20
-13.18579270309146
 30
0.0
  0
ENDBLK
  5
321
  8
0
  0
BLOCK
  8
0
  2
*D5
 70
     1
 10
0.0
 20
0.0
 30
0.0
  3
*D5
  1

  0
LINE
  5
34C
  8
1
 10
-16.0
 20
0.0
 30
0.0
 11
-16.0
 21
-14.18579270309146
 31
0.0
  0
LINE
  5
34D
  8
1
 10
-11.0
 20
6.0
 30
0.0
 11
-11.0
 21
-14.18579270309146
 31
0.0
  0
LINE
  5
34E
  8
1
 10
-17.0
 20
-13.18579270309146
 30
0.0
 11
-10.0
 21
-13.18579270309146
 31
0.0
  0
INSERT
  5
34F
  8
1
  2
_OBLIQUE
 10
-16.0
 20
-13.18579270309146
 30
0.0
 41
2.0
 42
2.0
 43
2.0
 50
180.0
  0
INSERT
  5
350
  8
1
  2
_OBLIQUE
 10
-11.0
 20
-13.18579270309146
 30
0.0
 41
2.0
 42
2.0
 43
2.0
  0
TEXT
  5
351
  8
0
 10
-14.86323328785811
 20
-12.12610648208191
 30
0.0
 40
3.5
  1
5
  7
BESCHLAG
  0
POINT
  5
352
  8
DEFPOINTS
 62
     0
 10
-16.0
 20
2.0
 30
0.0
  0
POINT
  5
353
  8
DEFPOINTS
 62
     0
 10
-11.0
 20
8.0
 30
0.0
  0
POINT
  5
354
  8
DEFPOINTS
 62
     0
 10
-11.0
 20
-13.18579270309146
 30
0.0
  0
ENDBLK
  5
32D
  8
0
  0
BLOCK
  8
0
  2
*D6
 70
     1
 10
0.0
 20
0.0
 30
0.0
  3
*D6
  1

  0
LINE
  5
355
  8
1
 10
-2.0
 20
0.0000000000000006
 30
0.0
 11
-37.761845017963431
 21
0.0000000000000107
 31
0.0
  0
LINE
  5
356
  8
1
 10
-31.981286809595069
 20
18.00000000000011
 30
0.0
 11
-37.761845017963417
 21
18.00000000000011
 31
0.0
  0
LINE
  5
357
  8
1
 10
-36.761845017963431
 20
-0.9999999999999895
 30
0.0
 11
-36.761845017963417
 21
19.00000000000011
 31
0.0
  0
TEXT
  5
358
  8
0
 10
-38.811373207963697
 20
9.8870746707939539
 30
0.0
 40
3.5
  1
18
 50
90.0
  7
BESCHLAG
  0
INSERT
  5
359
  8
1
  2
_OBLIQUE
 10
-36.761845017963431
 20
0.0000000000000104
 30
0.0
 41
2.0
 42
2.0
 43
2.0
 50
270.0
  0
INSERT
  5
35A
  8
1
  2
_OBLIQUE
 10
-36.761845017963417
 20
18.00000000000011
 30
0.0
 41
2.0
 42
2.0
 43
2.0
 50
90.0
  0
POINT
  5
35B
  8
DEFPOINTS
 62
     0
 10
0.0
 20
0.0
 30
0.0
  0
POINT
  5
35C
  8
DEFPOINTS
 62
     0
 10
-29.981286809595069
 20
18.00000000000011
 30
0.0
  0
POINT
  5
35D
  8
DEFPOINTS
 62
     0
 10
-36.761845017963417
 20
18.00000000000011
 30
0.0
  0
ENDBLK
  5
339
  8
0
  0
ENDSEC
  0
SECTION
  2
ENTITIES
  0
INSERT
  5
25B
  8
5
  2
NULLPUNKT
 10
0.0
 20
0.0
 30
0.0
  0
DIMENSION
  5
2FE
  8
1
  2
*D3
 10
-88.0
 20
-13.18579270309135
 30
0.0
 11
-52.0
 21
-10.428630356570199
 31
0.0
 70
     0
 13
-16.0
 23
-0.0000000000001137
 33
0.0
 14
-88.0
 24
-2.5047511154183431
 34
0.0
  0
INSERT
  5
2FF
  8
2
  2
*X2
 10
-463.11095908097673
 20
232.4082889769993
 30
0.0
1001
ACAD
1000
HATCH
1002
{
1070
    16
1000
_U,I
1040
1.1999999999999991
1040
0.7853981633974483
1070
     0
1002
}
  0
DIMENSION
  5
300
  8
1
  2
*D4
 10
-0.0000000000000008
 20
-13.18579270309146
 30
0.0
 11
-5.5
 21
-10.42863035657032
 31
0.0
 70
     0
 13
-11.0
 23
8.0
 33
0.0
 14
0.0
 24
0.0
 34
0.0
  0
DIMENSION
  5
301
  8
1
  2
*D5
 10
-11.0
 20
-13.18579270309146
 30
0.0
 11
-13.5
 21
-10.40594959258669
 31
0.0
 70
     0
 13
-16.0
 23
2.0
 33
0.0
 14
-11.0
 24
8.0
 34
0.0
  0
POLYLINE
  5
302
  8
5
 66
     1
 10
0.0
 20
0.0
 30
0.0
  0
VERTEX
  5
421
  8
5
 10
1.0
 20
-7.0
 30
0.0
  0
VERTEX
  5
422
  8
5
 10
1.0
 20
8.0
 30
0.0
  0
VERTEX
  5
423
  8
5
 10
-11.0
 20
8.0
 30
0.0
  0
VERTEX
  5
424
  8
5
 10
-11.0
 20
22.336533332755948
 30
0.0
  0
SEQEND
  5
425
  8
5
  0
POLYLINE
  5
303
  8
6
 66
     1
 10
0.0
 20
0.0
 30
0.0
 70
     1
  0
VERTEX
  5
426
  8
6
 10
-19.83143126904724
 20
7.7830728871906549
 30
0.0
 42
0.6415838065530063
  0
VERTEX
  5
427
  8
6
 10
-19.448854964488419
 20
13.15864502827605
 30
0.0
 42
-0.5157822426877657
  0
VERTEX
  5
428
  8
6
 10
-19.53536022954858
 20
14.469001768247949
 30
0.0
  0
VERTEX
  5
429
  8
6
 10
-18.16870364459805
 20
15.265999290917421
 30
0.0
  0
VERTEX
  5
42A
  8
6
 10
-17.5
 20
15.265999290917421
 30
0.0
  0
VERTEX
  5
42B
  8
6
 10
-17.5
 20
14.431856299901369
 30
0.0
  0
VERTEX
  5
42C
  8
6
 10
-16.062366928525531
 20
14.431856299901369
 30
0.0
 42
-0.2542712822039416
  0
VERTEX
  5
42D
  8
6
 10
-14.507256919270731
 20
15.37953433917516
 30
0.0
 42
-0.239805045364585
  0
VERTEX
  5
42E
  8
6
 10
-12.28706845604983
 20
14.35229139652972
 30
0.0
 42
-0.0952903634792644
  0
VERTEX
  5
42F
  8
6
 10
-11.356368629293449
 20
12.23006586995654
 30
0.0
 42
-0.0700993617324612
  0
VERTEX
  5
430
  8
6
 10
-11.201425637572351
 20
6.5061118996941332
 30
0.0
 42
-0.9870930961173433
  0
VERTEX
  5
431
  8
6
 10
-11.856723576534931
 20
6.603944537091138
 30
0.0
 42
0.0371998225987245
  0
VERTEX
  5
432
  8
6
 10
-11.99938008102799
 20
11.068304113293941
 30
0.0
 42
0.0985543060514419
  0
VERTEX
  5
433
  8
6
 10
-12.785877317461649
 20
13.021767150187429
 30
0.0
 42
0.1211139390109317
  0
VERTEX
  5
434
  8
6
 10
-13.72393819946546
 20
13.7884528632311
 30
0.0
 42
0.2870603126370058
  0
VERTEX
  5
435
  8
6
 10
-14.69308770933071
 20
13.510930503823939
 30
0.0
 42
0.1002807908351088
  0
VERTEX
  5
436
  8
6
 10
-15.15277430135529
 20
12.258672389619161
 30
0.0
 42
0.0333497571445928
  0
VERTEX
  5
437
  8
6
 10
-15.61435792838096
 20
7.6344215201002044
 30
0.0
 42
-0.4545352424188308
  0
VERTEX
  5
438
  8
6
 10
-16.11639584879731
 20
6.9313744309586118
 30
0.0
  0
VERTEX
  5
439
  8
6
 10
-17.59791578214935
 20
6.359362860272995
 30
0.0
 42
0.3791917245757989
  0
VERTEX
  5
43A
  8
6
 10
-17.76418541657813
 20
5.6843175122476159
 30
0.0
  0
VERTEX
  5
43B
  8
6
 10
-17.50420418767316
 20
4.9733431412339542
 30
0.0
  0
VERTEX
  5
43C
  8
6
 10
-17.91638911203426
 20
4.5775363860320786
 30
0.0
  0
VERTEX
  5
43D
  8
6
 10
-18.094452958489001
 20
4.5676412268733202
 30
0.0
  0
VERTEX
  5
43E
  8
6
 10
-19.83143126904724
 20
5.6049215935674956
 30
0.0
  0
SEQEND
  5
43F
  8
6
  0
DIMENSION
  5
304
  8
1
  2
*D6
 10
-36.761845017963417
 20
18.00000000000011
 30
0.0
 11
-40.531530097458919
 21
12.76514424787444
 31
0.0
 70
   128
 13
0.0
 23
0.0
 33
0.0
 14
-29.981286809595069
 24
18.00000000000011
 34
0.0
 50
90.0
  0
TEXT
  5
305
  8
1
 10
-77.38381253156399
 20
9.8289702493267441
 30
0.0
 40
2.4999999499999999
  1
Hebgo 160/620
  0
POLYLINE
  5
306
  8
5
 66
     1
 10
0.0
 20
0.0
 30
0.0
  0
VERTEX
  5
440
  8
5
 10
0.0
 20
-17.050471313595828
 30
0.0
  0
VERTEX
  5
441
  8
5
 10
0.0
 20
0.0
 30
0.0
  0
VERTEX
  5
442
  8
5
 10
-45.0
 20
0.0
 30
0.0
  0
VERTEX
  5
443
  8
5
 10
-45.0
 20
-4.4984250289921874
 30
0.0
  0
SEQEND
  5
444
  8
5
  0
LINE
  5
307
  8
6
  6
STRICHPUNKT
 10
-24.25
 20
19.045583720597161
 30
0.0
 11
-24.25
 21
-15.4831408309783
 31
0.0
  0
POLYLINE
  5
308
  8
6
 66
     1
 10
0.0
 20
0.0
 30
0.0
  0
VERTEX
  5
445
  8
6
 10
-18.0
 20
0.0
 30
0.0
  0
VERTEX
  5
446
  8
6
 10
-22.0
 20
4.0
 30
0.0
  0
VERTEX
  5
447
  8
6
 10
-22.0
 20
14.70000000000015
 30
0.0
 42
0.4142135623730951
  0
VERTEX
  5
448
  8
6
 10
-22.300000000000178
 20
15.00000000000011
 30
0.0
  0
VERTEX
  5
449
  8
6
 10
-26.200000000000269
 20
15.00000000000011
 30
0.0
 42
0.4142135623730951
  0
VERTEX
  5
44A
  8
6
 10
-26.5
 20
14.70000000000015
 30
0.0
  0
VERTEX
  5
44B
  8
6
 10
-26.5
 20
4.0
 30
0.0
  0
VERTEX
  5
44C
  8
6
 10
-30.5
 20
0.0
 30
0.0
  0
VERTEX
  5
44D
  8
6
 10
-31.0
 20
0.5
 30
0.0
  0
VERTEX
  5
44E
  8
6
 10
-31.5
 20
0.0
 30
0.0
  0
VERTEX
  5
44F
  8
6
 10
-32.0
 20
0.5
 30
0.0
  0
VERTEX
  5
450
  8
6
 10
-32.5
 20
0.0
 30
0.0
  0
VERTEX
  5
451
  8
6
 10
-33.0
 20
0.5
 30
0.0
  0
VERTEX
  5
452
  8
6
 10
-33.5
 20
0.0
 30
0.0
  0
VERTEX
  5
453
  8
6
 10
-34.0
 20
0.5
 30
0.0
  0
VERTEX
  5
454
  8
6
 10
-34.5
 20
0.0
 30
0.0
  0
VERTEX
  5
455
  8
6
 10
-35.0
 20
0.5
 30
0.0
  0
VERTEX
  5
456
  8
6
 10
-35.5
 20
0.0
 30
0.0
  0
VERTEX
  5
457
  8
6
 10
-36.0
 20
0.5
 30
0.0
  0
VERTEX
  5
458
  8
6
 10
-36.0
 20
1.5
 30
0.0
 42
-0.4142135623730951
  0
VERTEX
  5
459
  8
6
 10
-35.5
 20
2.0
 30
0.0
  0
VERTEX
  5
45A
  8
6
 10
-31.328427124746209
 20
2.0
 30
0.0
  0
VERTEX
  5
45B
  8
6
 10
-28.5
 20
4.8284271247459847
 30
0.0
  0
VERTEX
  5
45C
  8
6
 10
-28.5
 20
7.466728171371642
 30
0.0
 42
0.4453114188885447
  0
VERTEX
  5
45D
  8
6
 10
-29.052401562078561
 20
7.9639746658708637
 30
0.0
  0
VERTEX
  5
45E
  8
6
 10
-81.573904551040414
 20
2.4290763211090498
 30
0.0
 42
0.3787463949118454
  0
VERTEX
  5
45F
  8
6
 10
-85.999958980751217
 20
-2.5
 30
0.0
  0
VERTEX
  5
460
  8
6
 10
-88.0
 20
-2.5
 30
0.0
 42
-0.1447160856908663
  0
VERTEX
  5
461
  8
6
 10
-86.854242912643713
 20
1.2999535373680819
 30
0.0
  0
VERTEX
  5
462
  8
6
 10
-86.982157777837074
 20
2.773891113284662
 30
0.0
  0
VERTEX
  5
463
  8
6
 10
-85.490272154277591
 20
2.8322478305976801
 30
0.0
  0
VERTEX
  5
464
  8
6
 10
-85.175066989069364
 20
4.2863078473646956
 30
0.0
  0
VERTEX
  5
465
  8
6
 10
-83.732782536819741
 20
3.9066785803643138
 30
0.0
  0
VERTEX
  5
466
  8
6
 10
-83.007413551216345
 20
5.2061856374939453
 30
0.0
  0
VERTEX
  5
467
  8
6
 10
-81.80342535321688
 20
4.4158627216484092
 30
0.0
  0
VERTEX
  5
468
  8
6
 10
-81.800336451999115
 20
4.4162195627689007
 30
0.0
  0
VERTEX
  5
469
  8
6
 10
-80.921703652817541
 20
5.5243731641269269
 30
0.0
  0
VERTEX
  5
46A
  8
6
 10
-79.813550051459515
 20
4.6457403649453681
 30
0.0
  0
VERTEX
  5
46B
  8
6
 10
-78.934917252277955
 20
5.7538939663033943
 30
0.0
  0
VERTEX
  5
46C
  8
6
 10
-77.826763650919929
 20
4.875261167122062
 30
0.0
  0
VERTEX
  5
46D
  8
6
 10
-76.948130851738824
 20
5.98341476847986
 30
0.0
  0
VERTEX
  5
46E
  8
6
 10
-75.839977250380798
 20
5.1047819692985277
 30
0.0
  0
VERTEX
  5
46F
  8
6
 10
-74.961344451199238
 20
6.2129355706563274
 30
0.0
  0
VERTEX
  5
470
  8
6
 10
-73.853190849841212
 20
5.3343027714749951
 30
0.0
  0
VERTEX
  5
471
  8
6
 10
-72.974558050659653
 20
6.4424563728330213
 30
0.0
  0
VERTEX
  5
472
  8
6
 10
-71.866404449302081
 20
5.5638235736514607
 30
0.0
  0
VERTEX
  5
473
  8
6
 10
-30.196372783726929
 20
9.7641330625832552
 30
0.0
 42
0.4622982271803826
  0
VERTEX
  5
474
  8
6
 10
-28.465103273800651
 20
12.271687433451801
 30
0.0
  0
VERTEX
  5
475
  8
6
 10
-29.898810136034619
 20
17.6223542864692
 30
0.0
 42
-0.4931454260313036
  0
VERTEX
  5
476
  8
6
 10
-29.609032388147622
 20
18.00000000000011
 30
0.0
  0
VERTEX
  5
477
  8
6
 10
-25.124264068711909
 20
18.00000000000011
 30
0.0
 42
-0.198912367379658
  0
VERTEX
  5
478
  8
6
 10
-24.912132034356091
 20
17.91213203435597
 30
0.0
  0
VERTEX
  5
479
  8
6
 10
-24.462132034356269
 20
17.462132034355928
 30
0.0
 42
0.4142135623730951
  0
VERTEX
  5
47A
  8
6
 10
-24.037867965644178
 20
17.462132034355928
 30
0.0
  0
VERTEX
  5
47B
  8
6
 10
-23.587867965643909
 20
17.91213203435597
 30
0.0
 42
-0.198912367379658
  0
VERTEX
  5
47C
  8
6
 10
-23.375735931288091
 20
18.00000000000011
 30
0.0
  0
VERTEX
  5
47D
  8
6
 10
-16.300000000000178
 20
18.00000000000011
 30
0.0
 42
-0.4142135623730951
  0
VERTEX
  5
47E
  8
6
 10
-16.0
 20
17.700000000000159
 30
0.0
  0
VERTEX
  5
47F
  8
6
 10
-16.0
 20
15.50000000000011
 30
0.0
 42
-0.4142135623730951
  0
VERTEX
  5
480
  8
6
 10
-17.0
 20
14.50000000000011
 30
0.0
  0
VERTEX
  5
481
  8
6
 10
-17.200000000000269
 20
14.50000000000011
 30
0.0
 42
-0.4142135623730951
  0
VERTEX
  5
482
  8
6
 10
-17.5
 20
14.800000000000059
 30
0.0
  0
VERTEX
  5
483
  8
6
 10
-17.5
 20
16.200000000000159
 30
0.0
 42
0.4142135623730951
  0
VERTEX
  5
484
  8
6
 10
-17.800000000000178
 20
16.50000000000011
 30
0.0
  0
VERTEX
  5
485
  8
6
 10
-19.700000000000269
 20
16.50000000000011
 30
0.0
 42
0.4142135623730951
  0
VERTEX
  5
486
  8
6
 10
-20.0
 20
16.200000000000159
 30
0.0
  0
VERTEX
  5
487
  8
6
 10
-20.0
 20
4.7999999999999536
 30
0.0
 42
0.4142135623730951
  0
VERTEX
  5
488
  8
6
 10
-19.700000000000269
 20
4.5
 30
0.0
  0
VERTEX
  5
489
  8
6
 10
-17.800000000000178
 20
4.5
 30
0.0
 42
0.4142135623730951
  0
VERTEX
  5
48A
  8
6
 10
-17.5
 20
4.7999999999999536
 30
0.0
  0
VERTEX
  5
48B
  8
6
 10
-17.5
 20
6.2000000000000446
 30
0.0
 42
-0.4142135623730951
  0
VERTEX
  5
48C
  8
6
 10
-17.200000000000269
 20
6.5
 30
0.0
  0
VERTEX
  5
48D
  8
6
 10
-17.0
 20
6.5
 30
0.0
 42
-0.4142135623730951
  0
VERTEX
  5
48E
  8
6
 10
-16.0
 20
5.5
 30
0.0
  0
VERTEX
  5
48F
  8
6
 10
-16.0
 20
2.2999999999999541
 30
0.0
 42
0.4142135623730951
  0
VERTEX
  5
490
  8
6
 10
-15.700000000000269
 20
2.0
 30
0.0
  0
VERTEX
  5
491
  8
6
 10
-0.5
 20
2.0
 30
0.0
 42
-0.4142135623731076
  0
VERTEX
  5
492
  8
6
 10
0.0
 20
1.5
 30
0.0
  0
VERTEX
  5
493
  8
6
 10
0.0
 20
0.0
 30
0.0
  0
VERTEX
  5
494
  8
6
 10
-0.5
 20
0.5
 30
0.0
  0
VERTEX
  5
495
  8
6
 10
-1.0
 20
0.0
 30
0.0
  0
VERTEX
  5
496
  8
6
 10
-1.5
 20
0.5
 30
0.0
  0
VERTEX
  5
497
  8
6
 10
-2.0
 20
0.0
 30
0.0
  0
VERTEX
  5
498
  8
6
 10
-2.5
 20
0.5
 30
0.0
  0
VERTEX
  5
499
  8
6
 10
-3.0
 20
0.0
 30
0.0
  0
VERTEX
  5
49A
  8
6
 10
-3.5
 20
0.5
 30
0.0
  0
VERTEX
  5
49B
  8
6
 10
-4.0
 20
0.0
 30
0.0
  0
VERTEX
  5
49C
  8
6
 10
-4.5
 20
0.5
 30
0.0
  0
VERTEX
  5
49D
  8
6
 10
-5.0
 20
-0.0000000000002274
 30
0.0
  0
VERTEX
  5
49E
  8
6
 10
-5.5
 20
0.5
 30
0.0
  0
VERTEX
  5
49F
  8
6
 10
-6.0
 20
0.0
 30
0.0
  0
VERTEX
  5
4A0
  8
6
 10
-6.5
 20
0.5
 30
0.0
  0
VERTEX
  5
4A1
  8
6
 10
-7.0
 20
0.0
 30
0.0
  0
VERTEX
  5
4A2
  8
6
 10
-7.5
 20
0.5
 30
0.0
  0
VERTEX
  5
4A3
  8
6
 10
-8.0
 20
0.0
 30
0.0
  0
VERTEX
  5
4A4
  8
6
 10
-8.5
 20
0.5
 30
0.0
  0
VERTEX
  5
4A5
  8
6
 10
-9.0
 20
0.0
 30
0.0
  0
VERTEX
  5
4A6
  8
6
 10
-9.5
 20
0.5
 30
0.0
  0
VERTEX
  5
4A7
  8
6
 10
-10.0
 20
-0.0000000000002274
 30
0.0
  0
VERTEX
  5
4A8
  8
6
 10
-10.5
 20
0.5
 30
0.0
  0
VERTEX
  5
4A9
  8
6
 10
-11.0
 20
0.0
 30
0.0
  0
VERTEX
  5
4AA
  8
6
 10
-11.5
 20
0.5
 30
0.0
  0
VERTEX
  5
4AB
  8
6
 10
-12.0
 20
0.0
 30
0.0
  0
VERTEX
  5
4AC
  8
6
 10
-12.5
 20
0.5
 30
0.0
  0
VERTEX
  5
4AD
  8
6
 10
-13.0
 20
0.0
 30
0.0
  0
VERTEX
  5
4AE
  8
6
 10
-13.5
 20
0.5
 30
0.0
  0
VERTEX
  5
4AF
  8
6
 10
-14.0
 20
0.0
 30
0.0
  0
VERTEX
  5
4B0
  8
6
 10
-14.5
 20
0.5
 30
0.0
  0
VERTEX
  5
4B1
  8
6
 10
-15.0
 20
0.0
 30
0.0
  0
VERTEX
  5
4B2
  8
6
 10
-15.5
 20
0.5
 30
0.0
  0
VERTEX
  5
4B3
  8
6
 10
-16.0
 20
-0.0000000000002274
 30
0.0
  0
VERTEX
  5
4B4
  8
6
 10
-16.5
 20
0.5
 30
0.0
  0
VERTEX
  5
4B5
  8
6
 10
-17.0
 20
0.0
 30
0.0
  0
VERTEX
  5
4B6
  8
6
 10
-17.5
 20
0.5
 30
0.0
  0
VERTEX
  5
4B7
  8
6
 10
-18.0
 20
0.0
 30
0.0
  0
VERTEX
  5
4B8
  8
6
 10
-18.5
 20
0.5
 30
0.0
  0
SEQEND
  5
4B9
  8
6
  0
POLYLINE
  5
309
  8
4
 66
     1
 10
0.0
 20
0.0
 30
0.0
  0
VERTEX
  5
4BA
  8
4
 10
-85.999958980751217
 20
-2.5
 30
0.0
  0
VERTEX
  5
4BB
  8
4
 10
-88.0
 20
-2.5
 30
0.0
  0
VERTEX
  5
4BC
  8
4
 10
-88.0
 20
3.8404849038040529
 30
0.0
  0
VERTEX
  5
4BD
  8
4
 10
-27.818439235986261
 20
10.024165049860921
 30
0.0
  0
VERTEX
  5
4BE
  8
4
 10
-29.981286809595069
 20
18.00000000000011
 30
0.0
  0
VERTEX
  5
4BF
  8
4
 10
-16.0
 20
18.00000000000011
 30
0.0
  0
VERTEX
  5
4C0
  8
4
 10
-16.0
 20
2.0
 30
0.0
  0
VERTEX
  5
4C1
  8
4
 10
0.0
 20
2.0
 30
0.0
  0
VERTEX
  5
4C2
  8
4
 10
0.0
 20
-0.0000000000002274
 30
0.0
  0
VERTEX
  5
4C3
  8
4
 10
-36.0
 20
-0.0000000000002274
 30
0.0
  0
VERTEX
  5
4C4
  8
4
 10
-36.0
 20
2.0
 30
0.0
  0
SEQEND
  5
4C5
  8
4
  0
VIEWPORT
  5
22
 67
     1
  8
0
 10
210.0
 20
170.2366863905325
 30
0.0
 40
420.0
 41
340.47337278106511
 68
     1
 69
     1
1001
ACAD
1000
MVIEW
1002
{
1070
    16
1010
0.0
1020
0.0
1030
0.0
1010
0.0
1020
0.0
1030
1.0
1040
0.0
1040
340.47337278106511
1040
210.0
1040
170.2366863905325
1040
50.0
1040
0.0
1040
0.0
1070
     0
1070
   100
1070
     1
1070
     1
1070
     0
1070
     0
1070
     0
1070
     0
1040
0.0
1040
0.0
1040
0.0
1040
5.0
1040
5.0
1040
10.0
1040
10.0
1070
     0
1002
{
1002
}
1002
}
  0
ENDSEC
  0
EOF
