  0
SECTION
  2
HEADER
  9
$ACADVER
  1
AC1009
  9
$INSBASE
 10
0.0
 20
0.0
 30
0.0
  9
$EXTMIN
 10
-134.02908866662449
 20
-15.859470512911679
 30
0.0
  9
$EXTMAX
 10
7.8132825182092338
 20
24.0
 30
0.0
  9
$LIMMIN
 10
-150.0
 20
-150.0
  9
$LIMMAX
 10
150.0
 20
150.0
  9
$ORTHOMODE
 70
     0
  9
$REGENMODE
 70
     1
  9
$FILLMODE
 70
     1
  9
$QTEXTMODE
 70
     0
  9
$MIRRTEXT
 70
     0
  9
$DRAGMODE
 70
     2
  9
$LTSCALE
 40
4.0
  9
$OSMODE
 70
   111
  9
$ATTMODE
 70
     1
  9
$TEXTSIZE
 40
3.5
  9
$TRACEWID
 40
1.0
  9
$TEXTSTYLE
  7
BESCHLAG
  9
$CLAYER
  8
0
  9
$CELTYPE
  6
BYLAYER
  9
$CECOLOR
 62
   256
  9
$DIMSCALE
 40
1.0
  9
$DIMASZ
 40
2.0
  9
$DIMEXO
 40
2.0
  9
$DIMDLI
 40
0.0
  9
$DIMRND
 40
0.0
  9
$DIMDLE
 40
1.0
  9
$DIMEXE
 40
1.0
  9
$DIMTP
 40
0.0
  9
$DIMTM
 40
0.0
  9
$DIMTXT
 40
3.5
  9
$DIMCEN
 40
0.0
  9
$DIMTSZ
 40
0.0
  9
$DIMTOL
 70
     0
  9
$DIMLIM
 70
     0
  9
$DIMTIH
 70
     0
  9
$DIMTOH
 70
     0
  9
$DIMSE1
 70
     0
  9
$DIMSE2
 70
     0
  9
$DIMTAD
 70
     1
  9
$DIMZIN
 70
     8
  9
$DIMBLK
  1

  9
$DIMASO
 70
     1
  9
$DIMSHO
 70
     1
  9
$DIMPOST
  1

  9
$DIMAPOST
  1

  9
$DIMALT
 70
     0
  9
$DIMALTD
 70
     2
  9
$DIMALTF
 40
0.039370078740157
  9
$DIMLFAC
 40
1.0
  9
$DIMTOFL
 70
     1
  9
$DIMTVP
 40
0.0
  9
$DIMTIX
 70
     1
  9
$DIMSOXD
 70
     0
  9
$DIMSAH
 70
     1
  9
$DIMBLK1
  1
OBLIQUE
  9
$DIMBLK2
  1
OBLIQUE
  9
$DIMSTYLE
  2
OPO-SSTRICH
  9
$DIMCLRD
 70
   256
  9
$DIMCLRE
 70
   256
  9
$DIMCLRT
 70
   256
  9
$DIMTFAC
 40
0.7114285714285716
  9
$DIMGAP
 40
1.0
  9
$LUNITS
 70
     2
  9
$LUPREC
 70
     1
  9
$SKETCHINC
 40
1.0
  9
$FILLETRAD
 40
0.0
  9
$AUNITS
 70
     0
  9
$AUPREC
 70
     1
  9
$MENU
  1
D:\ACL_CGWG\CGTAB13
  9
$ELEVATION
 40
0.0
  9
$PELEVATION
 40
0.0
  9
$THICKNESS
 40
0.0
  9
$LIMCHECK
 70
     0
  9
$BLIPMODE
 70
     0
  9
$CHAMFERA
 40
1.0
  9
$CHAMFERB
 40
1.0
  9
$SKPOLY
 70
     0
  9
$TDCREATE
 40
2451739.8906479632
  9
$TDUPDATE
 40
2452087.6155787031
  9
$TDINDWG
 40
0.0007678125
  9
$TDUSRTIMER
 40
0.0007678125
  9
$USRTIMER
 70
     1
  9
$ANGBASE
 50
0.0
  9
$ANGDIR
 70
     0
  9
$PDMODE
 70
    35
  9
$PDSIZE
 40
5.0
  9
$PLINEWID
 40
0.0
  9
$COORDS
 70
     1
  9
$SPLFRAME
 70
     0
  9
$SPLINETYPE
 70
     6
  9
$SPLINESEGS
 70
     8
  9
$ATTDIA
 70
     1
  9
$ATTREQ
 70
     1
  9
$HANDLING
 70
-16383
  9
$HANDSEED
  5
560
  9
$SURFTAB1
 70
    12
  9
$SURFTAB2
 70
    12
  9
$SURFTYPE
 70
     6
  9
$SURFU
 70
    12
  9
$SURFV
 70
    12
  9
$UCSNAME
  2

  9
$UCSORG
 10
0.0
 20
0.0
 30
0.0
  9
$UCSXDIR
 10
1.0
 20
0.0
 30
0.0
  9
$UCSYDIR
 10
0.0
 20
1.0
 30
0.0
  9
$PUCSNAME
  2

  9
$PUCSORG
 10
0.0
 20
0.0
 30
0.0
  9
$PUCSXDIR
 10
1.0
 20
0.0
 30
0.0
  9
$PUCSYDIR
 10
0.0
 20
1.0
 30
0.0
  9
$USERI1
 70
     0
  9
$USERI2
 70
     0
  9
$USERI3
 70
     0
  9
$USERI4
 70
     0
  9
$USERI5
 70
     0
  9
$USERR1
 40
0.0
  9
$USERR2
 40
0.0
  9
$USERR3
 40
0.0
  9
$USERR4
 40
0.0
  9
$USERR5
 40
0.0
  9
$WORLDVIEW
 70
     1
  9
$SHADEDGE
 70
     3
  9
$SHADEDIF
 70
    70
  9
$TILEMODE
 70
     1
  9
$MAXACTVP
 70
    48
  9
$PLIMCHECK
 70
     0
  9
$PEXTMIN
 10
1.0000000000000000E+020
 20
1.0000000000000000E+020
 30
1.0000000000000000E+020
  9
$PEXTMAX
 10
-1.0000000000000000E+020
 20
-1.0000000000000000E+020
 30
-1.0000000000000000E+020
  9
$PLIMMIN
 10
0.0
 20
0.0
  9
$PLIMMAX
 10
420.0
 20
297.0
  9
$UNITMODE
 70
     0
  9
$VISRETAIN
 70
     1
  9
$PLINEGEN
 70
     0
  9
$PSLTSCALE
 70
     1
  0
ENDSEC
  0
SECTION
  2
TABLES
  0
TABLE
  2
VPORT
 70
     2
  0
VPORT
  2
*ACTIVE
 70
     0
 10
0.0
 20
0.0
 11
1.0
 21
1.0
 12
-63.102721542938021
 22
5.58102233779816
 13
0.0
 23
0.0
 14
0.5
 24
0.5
 15
10.0
 25
10.0
 16
0.0
 26
0.0
 36
1.0
 17
0.0
 27
0.0
 37
0.0
 40
88.774183828792644
 41
1.6070460704607039
 42
50.0
 43
0.0
 44
0.0
 50
0.0
 51
0.0
 71
     0
 72
   800
 73
     1
 74
     1
 75
     0
 76
     0
 77
     0
 78
     0
  0
ENDTAB
  0
TABLE
  2
LTYPE
 70
     2
  0
LTYPE
  2
CONTINUOUS
 70
     0
  3
_______________________________________________
 72
    65
 73
     2
 40
1.0
 49
1.0
 49
0.0
  0
LTYPE
  2
STRICHPUNKT
 70
     0
  3
__ . __ . __ . __ . __ . __ . __ . __ . __ . __
 72
    65
 73
     4
 40
1.0
 49
0.5
 49
-0.25
 49
0.0
 49
-0.25
  0
ENDTAB
  0
TABLE
  2
LAYER
 70
     7
  0
LAYER
  2
0
 70
     0
 62
    30
  6
CONTINUOUS
  0
LAYER
  2
1
 70
     0
 62
     2
  6
CONTINUOUS
  0
LAYER
  2
2
 70
     0
 62
     9
  6
CONTINUOUS
  0
LAYER
  2
4
 70
     1
 62
     4
  6
CONTINUOUS
  0
LAYER
  2
5
 70
     0
 62
     1
  6
CONTINUOUS
  0
LAYER
  2
6
 70
     0
 62
     3
  6
CONTINUOUS
  0
LAYER
  2
DEFPOINTS
 70
     0
 62
     7
  6
CONTINUOUS
  0
ENDTAB
  0
TABLE
  2
STYLE
 70
     2
  0
STYLE
  2
STANDARD
 70
     0
 40
0.0
 41
1.0
 50
0.0
 71
     0
 42
2.5
  3
txt
  4

  0
STYLE
  2
BESCHLAG
 70
     0
 40
0.0
 41
1.0
 50
0.0
 71
     0
 42
3.5
  3
txt
  4

  0
ENDTAB
  0
TABLE
  2
VIEW
 70
     0
  0
ENDTAB
  0
TABLE
  2
UCS
 70
     0
  0
ENDTAB
  0
TABLE
  2
APPID
 70
     1
  0
APPID
  2
ACAD
 70
     0
  0
ENDTAB
  0
TABLE
  2
DIMSTYLE
 70
     1
  0
DIMSTYLE
  2
OPO-SSTRICH
 70
     0
  3

  4

  5

  6
OBLIQUE
  7
OBLIQUE
 40
1.0
 41
2.0
 42
2.0
 43
0.0
 44
1.0
 45
0.0
 46
1.0
 47
0.0
 48
0.0
140
3.5
141
0.0
142
0.0
143
0.039370078740157
144
1.0
145
0.0
146
0.7114285714285716
147
1.0
 71
     0
 72
     0
 73
     0
 74
     0
 75
     0
 76
     0
 77
     1
 78
     8
170
     0
171
     2
172
     1
173
     1
174
     1
175
     0
176
   256
177
   256
178
   256
  0
ENDTAB
  0
ENDSEC
  0
SECTION
  2
BLOCKS
  0
BLOCK
  8
0
  2
$MODEL_SPACE
 70
     0
 10
0.0
 20
0.0
 30
0.0
  3
$MODEL_SPACE
  1

  0
ENDBLK
  5
1C
  8
0
  0
BLOCK
 67
     1
  8
0
  2
$PAPER_SPACE
 70
     0
 10
0.0
 20
0.0
 30
0.0
  3
$PAPER_SPACE
  1

  0
ENDBLK
  5
19
 67
     1
  8
0
  0
BLOCK
  8
0
  2
_OBLIQUE
 70
     0
 10
0.0
 20
0.0
 30
0.0
  3
_OBLIQUE
  1

  0
LINE
  5
204
  8
0
 62
     0
 10
-0.5
 20
-0.5
 30
0.0
 11
0.5
 21
0.5
 31
0.0
  0
ENDBLK
  5
206
  8
0
  0
BLOCK
  8
0
  2
NULLPUNKT
 70
     0
 10
0.0
 20
0.0
 30
0.0
  3
NULLPUNKT
  1

  0
SOLID
  5
254
  8
5
 10
0.0
 20
0.0
 30
0.0
 11
2.0
 21
0.0
 31
0.0
 12
0.0
 22
-2.0
 32
0.0
 13
0.0
 23
-2.0
 33
0.0
  0
SOLID
  5
255
  8
5
 10
0.0
 20
0.0
 30
0.0
 11
-2.0
 21
0.0
 31
0.0
 12
0.0
 22
2.0
 32
0.0
 13
0.0
 23
2.0
 33
0.0
  0
POLYLINE
  5
256
  8
5
 66
     1
 10
0.0
 20
0.0
 30
0.0
  0
VERTEX
  5
463
  8
5
 10
0.0
 20
2.0
 30
0.0
  0
VERTEX
  5
464
  8
5
 10
0.0
 20
-2.0
 30
0.0
  0
SEQEND
  5
465
  8
5
  0
POLYLINE
  5
257
  8
5
 66
     1
 10
0.0
 20
0.0
 30
0.0
  0
VERTEX
  5
466
  8
5
 10
-2.0
 20
0.0
 30
0.0
  0
VERTEX
  5
467
  8
5
 10
2.0
 20
0.0
 30
0.0
  0
SEQEND
  5
468
  8
5
  0
CIRCLE
  5
258
  8
5
 10
0.0
 20
0.0
 30
0.0
 40
2.0
  0
ENDBLK
  5
25A
  8
0
  0
BLOCK
  8
0
  2
*X2
 70
     1
 10
0.0
 20
0.0
 30
0.0
  3
*X2
  1

  0
LINE
  5
29E
  8
0
 62
     0
 10
1014.212838824672
 20
-151.66482199570689
 30
0.0
 11
1016.489102585669
 21
-149.3885582347101
 31
0.0
  0
LINE
  5
29F
  8
0
 62
     0
 10
1012.294125836175
 20
-151.886478709356
 30
0.0
 11
1014.570389597172
 21
-149.61021494835919
 31
0.0
  0
LINE
  5
2A0
  8
0
 62
     0
 10
1010.375412847678
 20
-152.10813542300511
 30
0.0
 11
1012.847363871863
 21
-149.63618439882049
 31
0.0
  0
LINE
  5
2A1
  8
0
 62
     0
 10
1008.456699859181
 20
-152.32979213665419
 30
0.0
 11
1010.894159933269
 21
-149.89233206256731
 31
0.0
  0
LINE
  5
2A2
  8
0
 62
     0
 10
1006.537986870685
 20
-152.5514488503033
 30
0.0
 11
1008.940955994674
 21
-150.14847972631429
 31
0.0
  0
LINE
  5
2A3
  8
0
 62
     0
 10
1004.6192738821881
 20
-152.7731055639523
 30
0.0
 11
1006.987752056079
 21
-150.40462739006111
 31
0.0
  0
LINE
  5
2A4
  8
0
 62
     0
 10
1007.693767432096
 20
-149.6986120140447
 30
0.0
 11
1007.994402795916
 21
-149.3979766502249
 31
0.0
  0
LINE
  5
2A5
  8
0
 62
     0
 10
1002.700560893691
 20
-152.99476227760141
 30
0.0
 11
1005.034548117485
 21
-150.66077505380781
 31
0.0
  0
LINE
  5
2A6
  8
0
 62
     0
 10
1005.4764926141449
 20
-150.21883055714741
 30
0.0
 11
1006.041198857321
 21
-149.65412431397149
 31
0.0
  0
LINE
  5
2A7
  8
0
 62
     0
 10
1000.781847905194
 20
-153.21641899125049
 30
0.0
 11
1003.0581116661911
 21
-150.94015523025371
 31
0.0
  0
LINE
  5
2A8
  8
0
 62
     0
 10
1003.259217796192
 20
-150.73904910025229
 30
0.0
 11
1004.087994918727
 21
-149.9102719777182
 31
0.0
  0
LINE
  5
2A9
  8
0
 62
     0
 10
998.86313491669785
 20
-153.4380757048996
 30
0.0
 11
1001.139398677695
 21
-151.16181194390279
 31
0.0
  0
LINE
  5
2AA
  8
0
 62
     0
 10
996.944421928201
 20
-153.65973241854871
 30
0.0
 11
999.22068568919804
 21
-151.3834686575519
 31
0.0
  0
LINE
  5
2AB
  8
0
 62
     0
 10
995.02570893970449
 20
-153.8813891321978
 30
0.0
 11
997.3019727007013
 21
-151.60512537120101
 31
0.0
  0
LINE
  5
2AC
  8
0
 62
     0
 10
993.10699595120752
 20
-154.10304584584691
 30
0.0
 11
995.38325971220456
 21
-151.82678208485001
 31
0.0
  0
LINE
  5
2AD
  8
0
 62
     0
 10
991.18828296271056
 20
-154.32470255949599
 30
0.0
 11
993.46454672370749
 21
-152.04843879849921
 31
0.0
  0
LINE
  5
2AE
  8
0
 62
     0
 10
989.26956997421405
 20
-154.5463592731451
 30
0.0
 11
991.54583373521086
 21
-152.2700955121482
 31
0.0
  0
LINE
  5
2AF
  8
0
 62
     0
 10
987.35085698571697
 20
-154.7680159867941
 30
0.0
 11
989.62712074671401
 21
-152.49175222579731
 31
0.0
  0
LINE
  5
2B0
  8
0
 62
     0
 10
985.43214399722035
 20
-154.98967270044321
 30
0.0
 11
987.70840775821728
 21
-152.7134089394464
 31
0.0
  0
LINE
  5
2B1
  8
0
 62
     0
 10
983.5134310087235
 20
-155.21132941409229
 30
0.0
 11
985.78969476972065
 21
-152.93506565309551
 31
0.0
  0
LINE
  5
2B2
  8
0
 62
     0
 10
981.59471802022665
 20
-155.4329861277414
 30
0.0
 11
983.87098178122369
 21
-153.15672236674459
 31
0.0
  0
LINE
  5
2B3
  8
0
 62
     0
 10
979.67600503173014
 20
-155.65464284139051
 30
0.0
 11
981.95226879272695
 21
-153.37837908039359
 31
0.0
  0
LINE
  5
2B4
  8
0
 62
     0
 10
977.75729204323318
 20
-155.87629955503959
 30
0.0
 11
980.03355580422999
 21
-153.6000357940427
 31
0.0
  0
LINE
  5
2B5
  8
0
 62
     0
 10
975.83857905473644
 20
-156.09795626868859
 30
0.0
 11
978.11484281573348
 21
-153.82169250769181
 31
0.0
  0
LINE
  5
2B6
  8
0
 62
     0
 10
973.91986606623948
 20
-156.3196129823377
 30
0.0
 11
976.19612982723663
 21
-154.04334922134089
 31
0.0
  0
LINE
  5
2B7
  8
0
 62
     0
 10
972.00115307774263
 20
-156.54126969598681
 30
0.0
 11
974.27741683873967
 21
-154.26500593499
 31
0.0
  0
LINE
  5
2B8
  8
0
 62
     0
 10
970.08244008924589
 20
-156.7629264096359
 30
0.0
 11
972.35870385024293
 21
-154.486662648639
 31
0.0
  0
LINE
  5
2B9
  8
0
 62
     0
 10
968.16372710074916
 20
-156.98458312328501
 30
0.0
 11
970.43999086174597
 21
-154.70831936228811
 31
0.0
  0
LINE
  5
2BA
  8
0
 62
     0
 10
966.24501411225242
 20
-157.20623983693409
 30
0.0
 11
969.4336493939436
 21
-154.017604555243
 31
0.0
  0
LINE
  5
2BB
  8
0
 62
     0
 10
964.32630112375546
 20
-157.4278965505832
 30
0.0
 11
967.48044545534913
 21
-154.27375221898961
 31
0.0
  0
LINE
  5
2BC
  8
0
 62
     0
 10
962.40758813525861
 20
-157.64955326423231
 30
0.0
 11
965.52724151675443
 21
-154.5298998827364
 31
0.0
  0
LINE
  5
2BD
  8
0
 62
     0
 10
960.48887514676187
 20
-157.87120997788131
 30
0.0
 11
963.57403757815985
 21
-154.78604754648339
 31
0.0
  0
LINE
  5
2BE
  8
0
 62
     0
 10
953.64773312301747
 20
-163.01529572677799
 30
0.0
 11
954.24157347880305
 21
-162.42145537099239
 31
0.0
  0
LINE
  5
2BF
  8
0
 62
     0
 10
958.5697746077833
 20
-158.09325424201231
 30
0.0
 11
961.62083363956538
 21
-155.04219521023009
 31
0.0
  0
LINE
  5
2C0
  8
0
 62
     0
 10
952.20772067320513
 20
-162.7582519017428
 30
0.0
 11
959.66762970097091
 21
-155.29834287397699
 31
0.0
  0
LINE
  5
2C1
  8
0
 62
     0
 10
952.63160849422616
 20
-160.63730780587389
 30
0.0
 11
957.65640261615886
 21
-155.61251368394119
 31
0.0
  0
LINE
  5
2C2
  8
0
 62
     0
 10
953.26824089082265
 20
-158.30361913442979
 30
0.0
 11
953.85532850938171
 21
-157.7165315158708
 31
0.0
  0
LINE
  5
2C3
  8
0
 62
     0
 10
954.93898781119333
 20
-156.6328722140592
 30
0.0
 11
955.27695856094726
 21
-156.2949014643051
 31
0.0
  0
LINE
  5
2C4
  8
0
 62
     0
 10
1016.131551813169
 20
-151.44316528205789
 30
0.0
 11
1018.407815574166
 21
-149.16690152106111
 31
0.0
  0
LINE
  5
2C5
  8
0
 62
     0
 10
1018.050264801666
 20
-151.22150856840869
 30
0.0
 11
1020.326528562663
 21
-148.945244807412
 31
0.0
  0
LINE
  5
2C6
  8
0
 62
     0
 10
1019.9689777901619
 20
-150.9998518547597
 30
0.0
 11
1022.245241551159
 21
-148.72358809376291
 31
0.0
  0
LINE
  5
2C7
  8
0
 62
     0
 10
1021.887690778659
 20
-150.77819514111059
 30
0.0
 11
1024.1639545396561
 21
-148.5019313801138
 31
0.0
  0
LINE
  5
2C8
  8
0
 62
     0
 10
1023.806403767156
 20
-150.5565384274615
 30
0.0
 11
1026.082667528153
 21
-148.28027466646469
 31
0.0
  0
LINE
  5
2C9
  8
0
 62
     0
 10
1025.7251167556531
 20
-150.33488171381239
 30
0.0
 11
1028.00138051665
 21
-148.05861795281561
 31
0.0
  0
LINE
  5
2CA
  8
0
 62
     0
 10
1027.6438297441489
 20
-150.11322500016331
 30
0.0
 11
1029.920093505147
 21
-147.8369612391665
 31
0.0
  0
LINE
  5
2CB
  8
0
 62
     0
 10
1029.5625427326461
 20
-149.8915682865142
 30
0.0
 11
1031.838806493643
 21
-147.61530452551739
 31
0.0
  0
LINE
  5
2CC
  8
0
 62
     0
 10
1031.481255721143
 20
-149.66991157286509
 30
0.0
 11
1033.75751948214
 21
-147.39364781186831
 31
0.0
  0
LINE
  5
2CD
  8
0
 62
     0
 10
1033.39996870964
 20
-149.44825485921601
 30
0.0
 11
1035.6762324706369
 21
-147.17199109821919
 31
0.0
  0
LINE
  5
2CE
  8
0
 62
     0
 10
1035.318681698137
 20
-149.22659814556701
 30
0.0
 11
1037.5949454591339
 21
-146.95033438457011
 31
0.0
  0
LINE
  5
2CF
  8
0
 62
     0
 10
1037.2373946866339
 20
-149.0049414319179
 30
0.0
 11
1039.51365844763
 21
-146.728677670921
 31
0.0
  0
LINE
  5
2D0
  8
0
 62
     0
 10
1039.15610767513
 20
-148.78328471826879
 30
0.0
 11
1041.4323714361269
 21
-146.507020957272
 31
0.0
  0
LINE
  5
2D1
  8
0
 62
     0
 10
1041.074820663627
 20
-148.56162800461971
 30
0.0
 11
1043.3510844246241
 21
-146.28536424362289
 31
0.0
  0
LINE
  5
2D2
  8
0
 62
     0
 10
1052.293728395101
 20
-137.34272027314569
 30
0.0
 11
1052.6211529414691
 21
-137.01529572677799
 31
0.0
  0
LINE
  5
2D3
  8
0
 62
     0
 10
1042.9935336521239
 20
-148.3399712909706
 30
0.0
 11
1045.2697974131211
 21
-146.06370752997381
 31
0.0
  0
LINE
  5
2D4
  8
0
 62
     0
 10
1052.6488169526949
 20
-138.68468799039891
 30
0.0
 11
1054.318209216317
 21
-137.01529572677799
 31
0.0
  0
LINE
  5
2D5
  8
0
 62
     0
 10
1044.9122466406211
 20
-148.1183145773216
 30
0.0
 11
1047.188510401618
 21
-145.8420508163247
 31
0.0
  0
LINE
  5
2D6
  8
0
 62
     0
 10
1053.007447141563
 20
-140.02311407637961
 30
0.0
 11
1056.015265491164
 21
-137.01529572677799
 31
0.0
  0
LINE
  5
2D7
  8
0
 62
     0
 10
1046.8309596291181
 20
-147.8966578636724
 30
0.0
 11
1049.107223390115
 21
-145.62039410267559
 31
0.0
  0
LINE
  5
2D8
  8
0
 62
     0
 10
1053.36607733043
 20
-141.3615401623602
 30
0.0
 11
1057.4569132049101
 21
-137.27070428788051
 31
0.0
  0
LINE
  5
2D9
  8
0
 62
     0
 10
1048.7496726176139
 20
-147.67500115002341
 30
0.0
 11
1051.025936378611
 21
-145.39873738902651
 31
0.0
  0
LINE
  5
2DA
  8
0
 62
     0
 10
1056.40937804086
 20
-140.01529572677799
 30
0.0
 11
1059.40937804086
 21
-137.01529572677799
 31
0.0
  0
LINE
  5
2DB
  8
0
 62
     0
 10
1053.724707519297
 20
-142.69996624834079
 30
0.0
 11
1055.7015046438071
 21
-140.7231691238307
 31
0.0
  0
LINE
  5
2DC
  8
0
 62
     0
 10
1050.6683856061111
 20
-147.45334443637429
 30
0.0
 11
1055.7015046438071
 21
-142.4202253986785
 31
0.0
  0
LINE
  5
2DD
  8
0
 62
     0
 10
1058.1064343157079
 20
-140.01529572677791
 30
0.0
 11
1061.1064343157079
 21
-137.01529572677799
 31
0.0
  0
LINE
  5
2DE
  8
0
 62
     0
 10
1045.2015046438071
 20
-154.61728167352589
 30
0.0
 11
1046.8034905905549
 21
-153.01529572677799
 31
0.0
  0
LINE
  5
2DF
  8
0
 62
     0
 10
1059.8034905905549
 20
-140.01529572677779
 30
0.0
 11
1062.8034905905549
 21
-137.01529572677799
 31
0.0
  0
LINE
  5
2E0
  8
0
 62
     0
 10
1052.5870985946081
 20
-147.23168772272521
 30
0.0
 11
1055.7015046438071
 21
-144.11728167352609
 31
0.0
  0
LINE
  5
2E1
  8
0
 62
     0
 10
1046.601025754605
 20
-154.9148168375759
 30
0.0
 11
1048.5005468654031
 21
-153.01529572677799
 31
0.0
  0
LINE
  5
2E2
  8
0
 62
     0
 10
1063.0005468654031
 20
-138.51529572677799
 30
0.0
 11
1064.5005468654031
 21
-137.01529572677799
 31
0.0
  0
LINE
  5
2E3
  8
0
 62
     0
 10
1053.7015046438071
 20
-147.8143379483738
 30
0.0
 11
1055.7015046438071
 21
-145.81433794837389
 31
0.0
  0
LINE
  5
2E4
  8
0
 62
     0
 10
1060.2015046438071
 20
-141.3143379483738
 30
0.0
 11
1062.2015046438071
 21
-139.3143379483738
 31
0.0
  0
LINE
  5
2E5
  8
0
 62
     0
 10
1064.611676956835
 20
-138.601221910194
 30
0.0
 11
1066.111676956745
 21
-137.1012219102837
 31
0.0
  0
LINE
  5
2E6
  8
0
 62
     0
 10
1048.4515046438071
 20
-154.76529572677799
 30
0.0
 11
1050.197603140251
 21
-153.01529572677799
 31
0.0
  0
LINE
  5
2E7
  8
0
 62
     0
 10
1060.2015046438071
 20
-143.0113942232216
 30
0.0
 11
1062.2015046438071
 21
-141.0113942232216
 31
0.0
  0
LINE
  5
2E8
  8
0
 62
     0
 10
1053.7015046438071
 20
-149.5113942232216
 30
0.0
 11
1055.7015046438071
 21
-147.5113942232216
 31
0.0
  0
LINE
  5
2E9
  8
0
 62
     0
 10
1050.0480820294531
 20
-154.86187311242361
 30
0.0
 11
1055.7015046438071
 21
-149.20845049806931
 31
0.0
  0
LINE
  5
2EA
  8
0
 62
     0
 10
1062.2015046438071
 20
-142.7084504980692
 30
0.0
 11
1066.2015046438071
 21
-138.7084504980692
 31
0.0
  0
LINE
  5
2EB
  8
0
 62
     0
 10
1051.6466101668771
 20
-154.96040124984751
 30
0.0
 11
1055.7015046438071
 21
-150.90550677291699
 31
0.0
  0
LINE
  5
2EC
  8
0
 62
     0
 10
1060.2015046438071
 20
-146.40550677291691
 30
0.0
 11
1062.2015046438071
 21
-144.40550677291699
 31
0.0
  0
LINE
  5
2ED
  8
0
 62
     0
 10
1060.2015046438071
 20
-148.10256304776451
 30
0.0
 11
1062.2015046438071
 21
-146.10256304776459
 31
0.0
  0
LINE
  5
2EE
  8
0
 62
     0
 10
1060.2015046438071
 20
-149.7996193226123
 30
0.0
 11
1062.2015046438071
 21
-147.79961932261239
 31
0.0
  0
LINE
  5
2EF
  8
0
 62
     0
 10
1060.2015046438071
 20
-151.4966755974601
 30
0.0
 11
1062.2015046438071
 21
-149.49667559746021
 31
0.0
  0
LINE
  5
2F0
  8
0
 62
     0
 10
1060.9407227165721
 20
-152.45451379954281
 30
0.0
 11
1062.8799407893371
 21
-150.51529572677799
 31
0.0
  0
LINE
  5
2F1
  8
0
 62
     0
 10
1064.7668275460171
 20
-148.62840897009761
 30
0.0
 11
1064.814617887127
 21
-148.5806186289883
 31
0.0
  0
LINE
  5
2F2
  8
0
 62
     0
 10
1061.789250853996
 20
-153.30304193696671
 30
0.0
 11
1066.0709776031811
 21
-149.02131518778191
 31
0.0
  0
LINE
  5
2F3
  8
0
 62
     0
 10
1062.63777899142
 20
-154.15157007439049
 30
0.0
 11
1066.2015046438071
 21
-150.58784442200309
 31
0.0
  0
LINE
  5
2F4
  8
0
 62
     0
 10
1063.4863071288439
 20
-155.00009821181439
 30
0.0
 11
1066.2015046438071
 21
-152.28490069685091
 31
0.0
  0
LINE
  5
2F5
  8
0
 62
     0
 10
1065.334835266267
 20
-154.84862634923829
 30
0.0
 11
1067.168165888728
 21
-153.01529572677799
 31
0.0
  0
LINE
  5
2F6
  8
0
 62
     0
 10
1066.9333634036909
 20
-154.9471544866621
 30
0.0
 11
1068.865222163575
 21
-153.01529572677799
 31
0.0
  0
LINE
  5
2F7
  8
0
 62
     0
 10
1068.7818915411151
 20
-154.795682624086
 30
0.0
 11
1070.5622784384229
 21
-153.01529572677799
 31
0.0
  0
LINE
  5
2F8
  8
0
 62
     0
 10
1070.3804196785391
 20
-154.89421076150981
 30
0.0
 11
1072.2593347132711
 21
-153.01529572677799
 31
0.0
  0
LINE
  5
2F9
  8
0
 62
     0
 10
1071.978947815963
 20
-154.99273889893371
 30
0.0
 11
1073.9563909881181
 21
-153.01529572677799
 31
0.0
  0
LINE
  5
2FA
  8
0
 62
     0
 10
1073.827475953387
 20
-154.84126703635761
 30
0.0
 11
1075.653447262966
 21
-153.01529572677799
 31
0.0
  0
LINE
  5
2FB
  8
0
 62
     0
 10
1075.4260040908109
 20
-154.93979517378131
 30
0.0
 11
1077.3505035378139
 21
-153.01529572677799
 31
0.0
  0
LINE
  5
2FC
  8
0
 62
     0
 10
1077.274532228234
 20
-154.7883233112052
 30
0.0
 11
1079.047559812662
 21
-153.01529572677799
 31
0.0
  0
LINE
  5
2FD
  8
0
 62
     0
 10
1078.8730603656579
 20
-154.8868514486291
 30
0.0
 11
1080.744616087509
 21
-153.01529572677799
 31
0.0
  0
LINE
  5
2FE
  8
0
 62
     0
 10
1080.4715885030821
 20
-154.985379586053
 30
0.0
 11
1082.154124015083
 21
-153.3028440740527
 31
0.0
  0
ENDBLK
  5
300
  8
0
  0
BLOCK
  8
0
  2
*D3
 70
     1
 10
0.0
 20
0.0
 30
0.0
  3
*D3
  1

  0
LINE
  5
375
  8
1
 10
-30.0
 20
14.0
 30
0.0
 11
-30.0
 21
-14.396217150449949
 31
0.0
  0
LINE
  5
376
  8
1
 10
-129.9998974544007
 20
-10.0
 30
0.0
 11
-129.9998974544007
 21
-14.396217150449949
 31
0.0
  0
LINE
  5
377
  8
1
 10
-29.0
 20
-13.396217150449949
 30
0.0
 11
-130.9998974544007
 21
-13.396217150449949
 31
0.0
  0
INSERT
  5
378
  8
1
  2
_OBLIQUE
 10
-30.0
 20
-13.396217150449949
 30
0.0
 41
2.0
 42
2.0
 43
2.0
  0
INSERT
  5
379
  8
1
  2
_OBLIQUE
 10
-129.9998974544007
 20
-13.396217150449949
 30
0.0
 41
2.0
 42
2.0
 43
2.0
 50
180.0
  0
TEXT
  5
37A
  8
0
 10
-84.228120623516887
 20
-12.32936858291926
 30
0.0
 40
3.5
  1
100
  7
BESCHLAG
  0
POINT
  5
37B
  8
DEFPOINTS
 62
     0
 10
-30.0
 20
16.0
 30
0.0
  0
POINT
  5
37C
  8
DEFPOINTS
 62
     0
 10
-129.9998974544007
 20
-8.0
 30
0.0
  0
POINT
  5
37D
  8
DEFPOINTS
 62
     0
 10
-129.9998974544007
 20
-13.396217150449949
 30
0.0
  0
ENDBLK
  5
340
  8
0
  0
BLOCK
  8
0
  2
*D4
 70
     1
 10
0.0
 20
0.0
 30
0.0
  3
*D4
  1

  0
LINE
  5
37E
  8
1
 10
-16.0
 20
0.0
 30
0.0
 11
-16.0
 21
-14.39621715045018
 31
0.0
  0
LINE
  5
37F
  8
1
 10
-13.0
 20
6.0
 30
0.0
 11
-13.0
 21
-14.39621715045018
 31
0.0
  0
LINE
  5
380
  8
1
 10
-16.0
 20
-13.39621715045018
 30
0.0
 11
-18.0
 21
-13.39621715045018
 31
0.0
  0
LINE
  5
381
  8
1
 10
-13.0
 20
-13.39621715045018
 30
0.0
 11
-11.0
 21
-13.39621715045018
 31
0.0
  0
LINE
  5
382
  8
1
 10
-16.0
 20
-13.39621715045018
 30
0.0
 11
-13.0
 21
-13.39621715045018
 31
0.0
  0
INSERT
  5
383
  8
1
  2
_OBLIQUE
 10
-16.0
 20
-13.39621715045018
 30
0.0
 41
2.0
 42
2.0
 43
2.0
  0
INSERT
  5
384
  8
1
  2
_OBLIQUE
 10
-13.0
 20
-13.39621715045018
 30
0.0
 41
2.0
 42
2.0
 43
2.0
 50
180.0
  0
TEXT
  5
385
  8
0
 10
-15.8512960436562
 20
-12.3269811340791
 30
0.0
 40
3.5
  1
3
  7
BESCHLAG
  0
POINT
  5
386
  8
DEFPOINTS
 62
     0
 10
-16.0
 20
2.0
 30
0.0
  0
POINT
  5
387
  8
DEFPOINTS
 62
     0
 10
-13.0
 20
8.0
 30
0.0
  0
POINT
  5
388
  8
DEFPOINTS
 62
     0
 10
-13.0
 20
-13.39621715045018
 30
0.0
  0
ENDBLK
  5
34E
  8
0
  0
BLOCK
  8
0
  2
*D5
 70
     1
 10
0.0
 20
0.0
 30
0.0
  3
*D5
  1

  0
LINE
  5
389
  8
1
 10
-13.0
 20
6.0
 30
0.0
 11
-13.0
 21
-14.39621715045018
 31
0.0
  0
LINE
  5
38A
  8
1
 10
-0.0000000000000001
 20
-2.0210125378265502
 30
0.0
 11
-0.0000000000000009
 21
-14.39621715045018
 31
0.0
  0
LINE
  5
38B
  8
1
 10
-14.0
 20
-13.39621715045018
 30
0.0
 11
0.9999999999999992
 21
-13.39621715045018
 31
0.0
  0
INSERT
  5
38C
  8
1
  2
_OBLIQUE
 10
-13.0
 20
-13.39621715045018
 30
0.0
 41
2.0
 42
2.0
 43
2.0
 50
180.0
  0
INSERT
  5
38D
  8
1
  2
_OBLIQUE
 10
-0.0000000000000008
 20
-13.39621715045018
 30
0.0
 41
2.0
 42
2.0
 43
2.0
  0
TEXT
  5
38E
  8
0
 10
-9.3744884038199192
 20
-12.3269811340791
 30
0.0
 40
3.5
  1
13
  7
BESCHLAG
  0
POINT
  5
38F
  8
DEFPOINTS
 62
     0
 10
-13.0
 20
8.0
 30
0.0
  0
POINT
  5
390
  8
DEFPOINTS
 62
     0
 10
0.0
 20
-0.0210125378265502
 30
0.0
  0
POINT
  5
391
  8
DEFPOINTS
 62
     0
 10
-0.0000000000000008
 20
-13.39621715045018
 30
0.0
  0
ENDBLK
  5
35A
  8
0
  0
BLOCK
  8
0
  2
*D6
 70
     1
 10
0.0
 20
0.0
 30
0.0
  3
*D6
  1

  0
LINE
  5
392
  8
1
 10
-31.999999999999989
 20
18.0
 30
0.0
 11
-40.959213450556931
 21
18.0
 31
0.0
  0
LINE
  5
393
  8
1
 10
-32.0
 20
0.0000000000000006
 30
0.0
 11
-40.959213450556938
 21
0.0000000000000031
 31
0.0
  0
LINE
  5
394
  8
1
 10
-39.959213450556931
 20
19.0
 30
0.0
 11
-39.959213450556938
 21
15.85090462603417
 31
0.0
  0
LINE
  5
395
  8
1
 10
-39.959213450556938
 20
-0.9999999999999971
 30
0.0
 11
-39.959213450556938
 21
9.6287013518186164
 31
0.0
  0
TEXT
  5
396
  8
0
 10
-40.739056561061723
 20
9.8617334118458935
 30
0.0
 40
3.5
  1
18
 50
90.0
  7
BESCHLAG
  0
INSERT
  5
397
  8
1
  2
_OBLIQUE
 10
-39.959213450556931
 20
18.0
 30
0.0
 41
2.0
 42
2.0
 43
2.0
 50
90.0
  0
INSERT
  5
398
  8
1
  2
_OBLIQUE
 10
-39.959213450556938
 20
0.0000000000000028
 30
0.0
 41
2.0
 42
2.0
 43
2.0
 50
270.0
  0
POINT
  5
399
  8
DEFPOINTS
 62
     0
 10
-30.0
 20
18.0
 30
0.0
  0
POINT
  5
39A
  8
DEFPOINTS
 62
     0
 10
-30.0
 20
0.0
 30
0.0
  0
POINT
  5
39B
  8
DEFPOINTS
 62
     0
 10
-39.959213450556938
 20
0.0000000000000028
 30
0.0
  0
ENDBLK
  5
367
  8
0
  0
BLOCK
  8
0
  2
*D7
 70
     1
 10
0.0
 20
0.0
 30
0.0
  3
*D7
  1

  0
LINE
  5
39C
  8
1
 10
-30.0
 20
16.0
 30
0.0
 11
-30.0
 21
-14.396217150449949
 31
0.0
  0
LINE
  5
39D
  8
1
 10
-16.0
 20
16.0
 30
0.0
 11
-16.0
 21
-14.396217150449949
 31
0.0
  0
LINE
  5
39E
  8
1
 10
-31.0
 20
-13.396217150449949
 30
0.0
 11
-24.024905682707889
 21
-13.396217150449949
 31
0.0
  0
LINE
  5
39F
  8
1
 10
-15.0
 20
-13.396217150449949
 30
0.0
 11
-17.822040744099439
 21
-13.396217150449949
 31
0.0
  0
TEXT
  5
3A0
  8
0
 10
-23.79079927070244
 20
-12.72010182082499
 30
0.0
 40
3.5
  1
14
  7
BESCHLAG
  0
INSERT
  5
3A1
  8
1
  2
_OBLIQUE
 10
-30.0
 20
-13.396217150449949
 30
0.0
 41
2.0
 42
2.0
 43
2.0
 50
180.0
  0
INSERT
  5
3A2
  8
1
  2
_OBLIQUE
 10
-16.0
 20
-13.396217150449949
 30
0.0
 41
2.0
 42
2.0
 43
2.0
  0
POINT
  5
3A3
  8
DEFPOINTS
 62
     0
 10
-30.0
 20
18.0
 30
0.0
  0
POINT
  5
3A4
  8
DEFPOINTS
 62
     0
 10
-16.0
 20
18.0
 30
0.0
  0
POINT
  5
3A5
  8
DEFPOINTS
 62
     0
 10
-16.0
 20
-13.396217150449949
 30
0.0
  0
ENDBLK
  5
374
  8
0
  0
ENDSEC
  0
SECTION
  2
ENTITIES
  0
INSERT
  5
25B
  8
5
  2
NULLPUNKT
 10
0.0
 20
0.0
 30
0.0
  0
DIMENSION
  5
324
  8
1
  2
*D3
 10
-129.9998974544007
 20
-13.396217150449949
 30
0.0
 11
-79.999948727200376
 21
-10.609211693424029
 31
0.0
 70
     0
 13
-30.0
 23
16.0
 33
0.0
 14
-129.9998974544007
 24
-8.0
 34
0.0
  0
INSERT
  5
325
  8
2
  2
*X2
 10
-1082.2015046438071
 20
155.01529572677799
 30
0.0
1001
ACAD
1000
HATCH
1002
{
1070
    16
1000
_U,I
1040
1.1999999999999991
1040
0.7853981633974483
1070
     0
1002
}
  0
POLYLINE
  5
326
  8
6
 66
     1
 10
0.0
 20
0.0
 30
0.0
  0
VERTEX
  5
469
  8
6
 10
-14.973943733844861
 20
10.50476416546098
 30
0.0
 42
-0.0523662851020724
  0
VERTEX
  5
46A
  8
6
 10
-14.561805667837691
 20
13.51054978608863
 30
0.0
 42
0.1698680870516715
  0
VERTEX
  5
46B
  8
6
 10
-14.548495338335661
 20
14.109204401099751
 30
0.0
 42
0.3581952709156561
  0
VERTEX
  5
46C
  8
6
 10
-15.529517965275771
 20
14.304817305722279
 30
0.0
  0
VERTEX
  5
46D
  8
6
 10
-17.038613679052101
 20
13.29137789216588
 30
0.0
 42
0.162990172482064
  0
VERTEX
  5
46E
  8
6
 10
-17.612476819172109
 20
12.117242876091041
 30
0.0
 42
0.0297520103796801
  0
VERTEX
  5
46F
  8
6
 10
-17.704040960494691
 20
10.5
 30
0.0
 42
0.0297520103796801
  0
VERTEX
  5
470
  8
6
 10
-17.558538055167901
 20
8.8867153329974826
 30
0.0
 42
0.162990172482064
  0
VERTEX
  5
471
  8
6
 10
-16.94579763119054
 20
7.7323925391544881
 30
0.0
  0
VERTEX
  5
472
  8
6
 10
-14.9510743255787
 20
6.7698974452425773
 30
0.0
 42
0.5496470159714418
  0
VERTEX
  5
473
  8
6
 10
-14.363111160467261
 20
6.9852588685000683
 30
0.0
 42
0.0587952726232103
  0
VERTEX
  5
474
  8
6
 10
-14.462801082982869
 20
7.580917467460039
 30
0.0
 42
-0.0523662851020724
  0
VERTEX
  5
475
  8
6
 10
-14.9750541358012
 20
10.571268917123231
 30
0.0
  0
SEQEND
  5
476
  8
6
  0
POLYLINE
  5
327
  8
6
 66
     1
 10
0.0
 20
0.0
 30
0.0
 70
     1
  0
VERTEX
  5
477
  8
6
 10
-12.99999999999954
 20
10.5
 30
0.0
 42
0.3348758971066404
  0
VERTEX
  5
478
  8
6
 10
-13.750742219131091
 20
11.724359999999701
 30
0.0
  0
VERTEX
  5
479
  8
6
 10
-13.786663268639581
 20
13.86684112783632
 30
0.0
 42
0.4158738464929489
  0
VERTEX
  5
47A
  8
6
 10
-15.89955925510003
 20
14.98655993448892
 30
0.0
  0
VERTEX
  5
47B
  8
6
 10
-17.091050087086838
 20
14.1554707336345
 30
0.0
 42
-0.9647680298900043
  0
VERTEX
  5
47C
  8
6
 10
-17.864363299476281
 20
14.692684910880409
 30
0.0
  0
VERTEX
  5
47D
  8
6
 10
-17.581205881392631
 20
15.346000647300571
 30
0.0
 42
0.6694204690004703
  0
VERTEX
  5
47E
  8
6
 10
-18.011269297693609
 20
15.98594955336625
 30
0.0
  0
VERTEX
  5
47F
  8
6
 10
-19.831488177781459
 20
15.55903956357974
 30
0.0
 42
0.2464814616015845
  0
VERTEX
  5
480
  8
6
 10
-20.00052045905522
 20
15.259254551122011
 30
0.0
 42
0.0150420667643324
  0
VERTEX
  5
481
  8
6
 10
-20.00052045905522
 20
14.977327331757349
 30
0.0
 42
0.2063969197888626
  0
VERTEX
  5
482
  8
6
 10
-19.828345240806811
 20
14.608892360459089
 30
0.0
  0
VERTEX
  5
483
  8
6
 10
-19.49764115494235
 20
14.17597237046675
 30
0.0
 42
-0.0984306399189399
  0
VERTEX
  5
484
  8
6
 10
-19.179660503262308
 20
13.527832911664509
 30
0.0
  0
VERTEX
  5
485
  8
6
 10
-19.179660503262308
 20
10.5
 30
0.0
  0
VERTEX
  5
486
  8
6
 10
-19.179660503262308
 20
7.4721670883352536
 30
0.0
 42
-0.0984306399189399
  0
VERTEX
  5
487
  8
6
 10
-19.49764115494235
 20
6.8240276295330196
 30
0.0
  0
VERTEX
  5
488
  8
6
 10
-19.828345240806811
 20
6.3911076395406781
 30
0.0
 42
0.2063969197888626
  0
VERTEX
  5
489
  8
6
 10
-20.00052045905522
 20
6.0226726682426479
 30
0.0
 42
0.0150420667643324
  0
VERTEX
  5
48A
  8
6
 10
-20.00052045905522
 20
5.740745448877532
 30
0.0
 42
0.2464814616015845
  0
VERTEX
  5
48B
  8
6
 10
-19.831488177781459
 20
5.4409604364200268
 30
0.0
  0
VERTEX
  5
48C
  8
6
 10
-18.011269297693609
 20
5.0140504466335178
 30
0.0
 42
0.6345177691905591
  0
VERTEX
  5
48D
  8
6
 10
-17.581205881392179
 20
5.6539993526989738
 30
0.0
  0
VERTEX
  5
48E
  8
6
 10
-17.853663127208161
 20
6.2812943604217253
 30
0.0
 42
-0.9846311026449575
  0
VERTEX
  5
48F
  8
6
 10
-17.091050087086838
 20
6.8445292663650434
 30
0.0
  0
VERTEX
  5
490
  8
6
 10
-15.89955925510003
 20
6.013440065510621
 30
0.0
 42
0.4158738464929489
  0
VERTEX
  5
491
  8
6
 10
-13.786663268639581
 20
7.133158872163448
 30
0.0
  0
VERTEX
  5
492
  8
6
 10
-13.750742219131091
 20
9.2756399999998393
 30
0.0
 42
0.3348758971066357
  0
SEQEND
  5
493
  8
6
  0
POINT
  5
328
  8
5
 10
-20.0
 20
10.5
 30
0.0
  0
DIMENSION
  5
329
  8
1
  2
*D4
 10
-13.0
 20
-13.39621715045018
 30
0.0
 11
-14.5
 21
-10.60801796900407
 31
0.0
 70
     0
 13
-16.0
 23
2.0
 33
0.0
 14
-13.0
 24
8.0
 34
0.0
  0
POLYLINE
  5
32A
  8
5
 66
     1
 10
0.0
 20
0.0
 30
0.0
  0
VERTEX
  5
494
  8
5
 10
-35.288490494427599
 20
24.0
 30
0.0
  0
VERTEX
  5
495
  8
5
 10
-13.0
 20
24.0
 30
0.0
  0
VERTEX
  5
496
  8
5
 10
-13.0
 20
8.0
 30
0.0
  0
VERTEX
  5
497
  8
5
 10
7.8132825182092338
 20
8.0
 30
0.0
  0
SEQEND
  5
498
  8
5
  0
DIMENSION
  5
32B
  8
1
  2
*D5
 10
-0.0000000000000008
 20
-13.39621715045018
 30
0.0
 11
-6.5
 21
-10.60801796900407
 31
0.0
 70
     0
 13
-13.0
 23
8.0
 33
0.0
 14
0.0
 24
-0.0210125378265502
 34
0.0
  0
DIMENSION
  5
32C
  8
1
  2
*D6
 10
-39.959213450556938
 20
0.0000000000000028
 30
0.0
 11
-42.459213450556938
 21
12.73980298892638
 31
0.0
 70
   128
 13
-30.0
 23
18.0
 33
0.0
 14
-30.0
 24
0.0
 34
0.0
 50
90.0
  0
POLYLINE
  5
32D
  8
5
 66
     1
 10
0.0
 20
0.0
 30
0.0
  0
VERTEX
  5
499
  8
5
 10
0.0
 20
-11.98615426501919
 30
0.0
  0
VERTEX
  5
49A
  8
5
 10
0.0
 20
0.0
 30
0.0
  0
VERTEX
  5
49B
  8
5
 10
-45.0
 20
0.0
 30
0.0
  0
VERTEX
  5
49C
  8
5
 10
-45.0
 20
-11.98615426501919
 30
0.0
  0
SEQEND
  5
49D
  8
5
  0
POINT
  5
32E
  8
5
 10
-20.0
 20
10.5
 30
0.0
  0
TEXT
  5
32F
  8
1
 10
-100.63563473376411
 20
7.77141386132348
 30
0.0
 40
2.5
  1
Hebgo 161/520
  0
POLYLINE
  5
330
  8
5
 66
     1
 10
0.0
 20
0.0
 30
0.0
  0
VERTEX
  5
49E
  8
5
 10
-50.0
 20
-11.96316912996212
 30
0.0
  0
VERTEX
  5
49F
  8
5
 10
-50.0
 20
0.0
 30
0.0
  0
VERTEX
  5
4A0
  8
5
 10
-134.02908866662449
 20
-9.676351683048324
 30
0.0
  0
SEQEND
  5
4A1
  8
5
  0
POLYLINE
  5
331
  8
4
 66
     1
 10
0.0
 20
0.0
 30
0.0
  0
VERTEX
  5
4A2
  8
4
 10
-127.9998564351515
 20
-8.0
 30
0.0
  0
VERTEX
  5
4A3
  8
4
 10
-129.9998974544007
 20
-8.0
 30
0.0
  0
VERTEX
  5
4A4
  8
4
 10
-129.9998974544007
 20
-1.656051487256718
 30
0.0
  0
VERTEX
  5
4A5
  8
4
 10
-27.844321083261999
 20
9.9941791484054647
 30
0.0
  0
VERTEX
  5
4A6
  8
4
 10
-30.0
 20
18.0
 30
0.0
  0
VERTEX
  5
4A7
  8
4
 10
-16.0
 20
18.0
 30
0.0
  0
VERTEX
  5
4A8
  8
4
 10
-16.0
 20
2.0
 30
0.0
  0
VERTEX
  5
4A9
  8
4
 10
0.0
 20
2.0
 30
0.0
  0
VERTEX
  5
4AA
  8
4
 10
0.0
 20
0.0
 30
0.0
  0
VERTEX
  5
4AB
  8
4
 10
-37.0
 20
0.0
 30
0.0
  0
VERTEX
  5
4AC
  8
4
 10
-37.0
 20
2.0
 30
0.0
  0
SEQEND
  5
4AD
  8
4
  0
POLYLINE
  5
332
  8
6
 66
     1
 10
0.0
 20
0.0
 30
0.0
  0
VERTEX
  5
4AE
  8
6
 10
-28.5
 20
7.9123482502579909
 30
0.0
  0
VERTEX
  5
4AF
  8
6
 10
-123.5738020054407
 20
-3.070923678890721
 30
0.0
 42
0.3787463949118454
  0
VERTEX
  5
4B0
  8
6
 10
-127.9998564351515
 20
-8.0
 30
0.0
  0
VERTEX
  5
4B1
  8
6
 10
-129.9998974544007
 20
-8.0
 30
0.0
 42
-0.1447160856908663
  0
VERTEX
  5
4B2
  8
6
 10
-128.85414036704441
 20
-4.2000464626316889
 30
0.0
  0
VERTEX
  5
4B3
  8
6
 10
-128.9820552322378
 20
-2.7261088867151102
 30
0.0
  0
VERTEX
  5
4B4
  8
6
 10
-127.4901696086783
 20
-2.667752169402319
 30
0.0
  0
VERTEX
  5
4B5
  8
6
 10
-127.1749644434701
 20
-1.2136921526350759
 30
0.0
  0
VERTEX
  5
4B6
  8
6
 10
-125.73267999122039
 20
-1.5933214196354579
 30
0.0
  0
VERTEX
  5
4B7
  8
6
 10
-125.0073110056171
 20
-0.2938143625058274
 30
0.0
  0
VERTEX
  5
4B8
  8
6
 10
-123.8033228076176
 20
-1.084137278351363
 30
0.0
  0
VERTEX
  5
4B9
  8
6
 10
-123.8002339063994
 20
-1.083780437230871
 30
0.0
  0
VERTEX
  5
4BA
  8
6
 10
-122.92160110721829
 20
0.0243731641271552
 30
0.0
  0
VERTEX
  5
4BB
  8
6
 10
-121.8134475058602
 20
-0.8542596350544044
 30
0.0
  0
VERTEX
  5
4BC
  8
6
 10
-120.93481470667869
 20
0.2538939663036217
 30
0.0
  0
VERTEX
  5
4BD
  8
6
 10
-119.8266611053206
 20
-0.624738832877938
 30
0.0
  0
VERTEX
  5
4BE
  8
6
 10
-118.94802830613951
 20
0.4834147684800883
 30
0.0
  0
VERTEX
  5
4BF
  8
6
 10
-117.83987470478149
 20
-0.395218030701244
 30
0.0
  0
VERTEX
  5
4C0
  8
6
 10
-116.96124190559991
 20
0.7129355706565548
 30
0.0
  0
VERTEX
  5
4C1
  8
6
 10
-115.85308830424189
 20
-0.1656972285247775
 30
0.0
  0
VERTEX
  5
4C2
  8
6
 10
-114.9744555050604
 20
0.9424563728330213
 30
0.0
  0
VERTEX
  5
4C3
  8
6
 10
-113.86630190370281
 20
0.063823573651689
 30
0.0
  0
VERTEX
  5
4C4
  8
6
 10
-112.9876691045212
 20
1.1719771750094869
 30
0.0
  0
VERTEX
  5
4C5
  8
6
 10
-111.8795155031632
 20
0.2933443758281555
 30
0.0
  0
VERTEX
  5
4C6
  8
6
 10
-79.097539894263718
 20
4.0804376117403081
 30
0.0
  0
VERTEX
  5
4C7
  8
6
 10
-78.218907095081704
 20
5.1885912130983343
 30
0.0
  0
VERTEX
  5
4C8
  8
6
 10
-77.110753493723678
 20
4.3099584139170011
 30
0.0
  0
VERTEX
  5
4C9
  8
6
 10
-76.232120694542573
 20
5.4181120152747999
 30
0.0
  0
VERTEX
  5
4CA
  8
6
 10
-75.123967093184547
 20
4.5394792160934676
 30
0.0
  0
VERTEX
  5
4CB
  8
6
 10
-74.245334294003442
 20
5.6476328174512673
 30
0.0
  0
VERTEX
  5
4CC
  8
6
 10
-73.137180692645416
 20
4.769000018269935
 30
0.0
  0
VERTEX
  5
4CD
  8
6
 10
-72.258547893463401
 20
5.877153619627733
 30
0.0
  0
VERTEX
  5
4CE
  8
6
 10
-71.150394292105375
 20
4.9985208204464007
 30
0.0
  0
VERTEX
  5
4CF
  8
6
 10
-70.27176149292427
 20
6.1066744218044269
 30
0.0
  0
VERTEX
  5
4D0
  8
6
 10
-69.163607891566244
 20
5.2280416226228681
 30
0.0
  0
VERTEX
  5
4D1
  8
6
 10
-30.158534679332661
 20
9.7340497622974453
 30
0.0
 42
0.4578895527313686
  0
VERTEX
  5
4D2
  8
6
 10
-28.45620382893139
 20
12.238474253041881
 30
0.0
  0
VERTEX
  5
4D3
  8
6
 10
-29.89881013603371
 20
17.62235428646931
 30
0.0
 42
-0.4931454260312986
  0
VERTEX
  5
4D4
  8
6
 10
-29.60903238814717
 20
18.0
 30
0.0
  0
VERTEX
  5
4D5
  8
6
 10
-25.0
 20
18.0
 30
0.0
  0
VERTEX
  5
4D6
  8
6
 10
-24.25
 20
17.25
 30
0.0
  0
VERTEX
  5
4D7
  8
6
 10
-23.5
 20
18.0
 30
0.0
  0
VERTEX
  5
4D8
  8
6
 10
-16.299999999999269
 20
18.0
 30
0.0
 42
-0.4142135623731018
  0
VERTEX
  5
4D9
  8
6
 10
-16.0
 20
17.700000000000269
 30
0.0
  0
VERTEX
  5
4DA
  8
6
 10
-16.0
 20
15.5
 30
0.0
 42
-0.4142135623730904
  0
VERTEX
  5
4DB
  8
6
 10
-17.0
 20
14.5
 30
0.0
  0
VERTEX
  5
4DC
  8
6
 10
-17.199999999999811
 20
14.5
 30
0.0
 42
-0.4142135623730951
  0
VERTEX
  5
4DD
  8
6
 10
-17.5
 20
14.80000000000018
 30
0.0
  0
VERTEX
  5
4DE
  8
6
 10
-17.5
 20
16.200000000000038
 30
0.0
 42
0.414213562373096
  0
VERTEX
  5
4DF
  8
6
 10
-17.799999999999269
 20
16.5
 30
0.0
  0
VERTEX
  5
4E0
  8
6
 10
-19.699999999999811
 20
16.5
 30
0.0
 42
0.4142135623730951
  0
VERTEX
  5
4E1
  8
6
 10
-20.0
 20
16.200000000000038
 30
0.0
  0
VERTEX
  5
4E2
  8
6
 10
-20.0
 20
4.800000000000181
 30
0.0
 42
0.4142135623730951
  0
VERTEX
  5
4E3
  8
6
 10
-19.699999999999811
 20
4.5
 30
0.0
  0
VERTEX
  5
4E4
  8
6
 10
-17.799999999999269
 20
4.5
 30
0.0
 42
0.4142135623730951
  0
VERTEX
  5
4E5
  8
6
 10
-17.5
 20
4.800000000000181
 30
0.0
  0
VERTEX
  5
4E6
  8
6
 10
-17.5
 20
6.2000000000000446
 30
0.0
 42
-0.4142135623730951
  0
VERTEX
  5
4E7
  8
6
 10
-17.199999999999811
 20
6.5
 30
0.0
  0
VERTEX
  5
4E8
  8
6
 10
-17.0
 20
6.5
 30
0.0
 42
-0.4142135623730951
  0
VERTEX
  5
4E9
  8
6
 10
-16.0
 20
5.5
 30
0.0
  0
VERTEX
  5
4EA
  8
6
 10
-16.0
 20
2.0
 30
0.0
  0
VERTEX
  5
4EB
  8
6
 10
-0.5
 20
2.0
 30
0.0
 42
-0.4142135623730951
  0
VERTEX
  5
4EC
  8
6
 10
0.0
 20
1.5
 30
0.0
  0
VERTEX
  5
4ED
  8
6
 10
0.0
 20
0.2000000000005002
 30
0.0
  0
VERTEX
  5
4EE
  8
6
 10
-0.1999999999998181
 20
0.0
 30
0.0
  0
VERTEX
  5
4EF
  8
6
 10
-0.4499999999998181
 20
0.25
 30
0.0
  0
VERTEX
  5
4F0
  8
6
 10
-0.6999999999998181
 20
0.0
 30
0.0
  0
VERTEX
  5
4F1
  8
6
 10
-0.9499999999998181
 20
0.25
 30
0.0
  0
VERTEX
  5
4F2
  8
6
 10
-1.1999999999998181
 20
0.0
 30
0.0
  0
VERTEX
  5
4F3
  8
6
 10
-1.4499999999998181
 20
0.25
 30
0.0
  0
VERTEX
  5
4F4
  8
6
 10
-1.6999999999998181
 20
0.0
 30
0.0
  0
VERTEX
  5
4F5
  8
6
 10
-1.9499999999998181
 20
0.25
 30
0.0
  0
VERTEX
  5
4F6
  8
6
 10
-2.1999999999998181
 20
0.0
 30
0.0
  0
VERTEX
  5
4F7
  8
6
 10
-2.4499999999998181
 20
0.25
 30
0.0
  0
VERTEX
  5
4F8
  8
6
 10
-2.6999999999998181
 20
0.0
 30
0.0
  0
VERTEX
  5
4F9
  8
6
 10
-2.9499999999998181
 20
0.25
 30
0.0
  0
VERTEX
  5
4FA
  8
6
 10
-3.1999999999998181
 20
0.0
 30
0.0
  0
VERTEX
  5
4FB
  8
6
 10
-3.4499999999998181
 20
0.25
 30
0.0
  0
VERTEX
  5
4FC
  8
6
 10
-3.6999999999998181
 20
0.0
 30
0.0
  0
VERTEX
  5
4FD
  8
6
 10
-3.9499999999998181
 20
0.25
 30
0.0
  0
VERTEX
  5
4FE
  8
6
 10
-4.1999999999998181
 20
0.0
 30
0.0
  0
VERTEX
  5
4FF
  8
6
 10
-4.4499999999998181
 20
0.25
 30
0.0
  0
VERTEX
  5
500
  8
6
 10
-4.6999999999998181
 20
0.0
 30
0.0
  0
VERTEX
  5
501
  8
6
 10
-4.9499999999998181
 20
0.25
 30
0.0
  0
VERTEX
  5
502
  8
6
 10
-5.1999999999998181
 20
0.0
 30
0.0
  0
VERTEX
  5
503
  8
6
 10
-5.4499999999998181
 20
0.25
 30
0.0
  0
VERTEX
  5
504
  8
6
 10
-5.6999999999998181
 20
0.0
 30
0.0
  0
VERTEX
  5
505
  8
6
 10
-5.9499999999998181
 20
0.25
 30
0.0
  0
VERTEX
  5
506
  8
6
 10
-6.1999999999998181
 20
0.0
 30
0.0
  0
VERTEX
  5
507
  8
6
 10
-6.4499999999998181
 20
0.25
 30
0.0
  0
VERTEX
  5
508
  8
6
 10
-6.6999999999998181
 20
0.0
 30
0.0
  0
VERTEX
  5
509
  8
6
 10
-6.9499999999998181
 20
0.25
 30
0.0
  0
VERTEX
  5
50A
  8
6
 10
-7.1999999999998181
 20
0.0
 30
0.0
  0
VERTEX
  5
50B
  8
6
 10
-7.4499999999998181
 20
0.25
 30
0.0
  0
VERTEX
  5
50C
  8
6
 10
-7.6999999999998181
 20
0.0
 30
0.0
  0
VERTEX
  5
50D
  8
6
 10
-7.9499999999998181
 20
0.25
 30
0.0
  0
VERTEX
  5
50E
  8
6
 10
-8.1999999999998181
 20
0.0
 30
0.0
  0
VERTEX
  5
50F
  8
6
 10
-8.4499999999998181
 20
0.25
 30
0.0
  0
VERTEX
  5
510
  8
6
 10
-8.6999999999998181
 20
0.0
 30
0.0
  0
VERTEX
  5
511
  8
6
 10
-8.9499999999998181
 20
0.25
 30
0.0
  0
VERTEX
  5
512
  8
6
 10
-9.1999999999998181
 20
0.0
 30
0.0
  0
VERTEX
  5
513
  8
6
 10
-9.4499999999998181
 20
0.25
 30
0.0
  0
VERTEX
  5
514
  8
6
 10
-9.6999999999998181
 20
0.0
 30
0.0
  0
VERTEX
  5
515
  8
6
 10
-9.9499999999998181
 20
0.25
 30
0.0
  0
VERTEX
  5
516
  8
6
 10
-10.199999999999809
 20
0.0
 30
0.0
  0
VERTEX
  5
517
  8
6
 10
-10.449999999999809
 20
0.25
 30
0.0
  0
VERTEX
  5
518
  8
6
 10
-10.699999999999809
 20
0.0
 30
0.0
  0
VERTEX
  5
519
  8
6
 10
-10.949999999999809
 20
0.25
 30
0.0
  0
VERTEX
  5
51A
  8
6
 10
-11.199999999999809
 20
0.0
 30
0.0
  0
VERTEX
  5
51B
  8
6
 10
-11.449999999999809
 20
0.25
 30
0.0
  0
VERTEX
  5
51C
  8
6
 10
-11.699999999999809
 20
0.0
 30
0.0
  0
VERTEX
  5
51D
  8
6
 10
-11.949999999999809
 20
0.25
 30
0.0
  0
VERTEX
  5
51E
  8
6
 10
-12.199999999999809
 20
0.0
 30
0.0
  0
VERTEX
  5
51F
  8
6
 10
-12.449999999999809
 20
0.25
 30
0.0
  0
VERTEX
  5
520
  8
6
 10
-12.699999999999809
 20
0.0
 30
0.0
  0
VERTEX
  5
521
  8
6
 10
-12.949999999999809
 20
0.25
 30
0.0
  0
VERTEX
  5
522
  8
6
 10
-13.199999999999809
 20
0.0
 30
0.0
  0
VERTEX
  5
523
  8
6
 10
-13.449999999999809
 20
0.25
 30
0.0
  0
VERTEX
  5
524
  8
6
 10
-13.699999999999809
 20
0.0
 30
0.0
  0
VERTEX
  5
525
  8
6
 10
-13.949999999999809
 20
0.25
 30
0.0
  0
VERTEX
  5
526
  8
6
 10
-14.199999999999809
 20
0.0
 30
0.0
  0
VERTEX
  5
527
  8
6
 10
-14.449999999999809
 20
0.25
 30
0.0
  0
VERTEX
  5
528
  8
6
 10
-14.699999999999809
 20
0.0
 30
0.0
  0
VERTEX
  5
529
  8
6
 10
-14.949999999999809
 20
0.25
 30
0.0
  0
VERTEX
  5
52A
  8
6
 10
-15.199999999999809
 20
0.0
 30
0.0
  0
VERTEX
  5
52B
  8
6
 10
-15.449999999999809
 20
0.25
 30
0.0
  0
VERTEX
  5
52C
  8
6
 10
-15.699999999999809
 20
0.0
 30
0.0
  0
VERTEX
  5
52D
  8
6
 10
-15.949999999999809
 20
0.25
 30
0.0
  0
VERTEX
  5
52E
  8
6
 10
-16.199999999999811
 20
0.0
 30
0.0
  0
VERTEX
  5
52F
  8
6
 10
-16.449999999999811
 20
0.25
 30
0.0
  0
VERTEX
  5
530
  8
6
 10
-16.699999999999811
 20
0.0
 30
0.0
  0
VERTEX
  5
531
  8
6
 10
-16.949999999999811
 20
0.25
 30
0.0
  0
VERTEX
  5
532
  8
6
 10
-17.199999999999811
 20
0.0
 30
0.0
  0
VERTEX
  5
533
  8
6
 10
-17.449999999999811
 20
0.25
 30
0.0
  0
VERTEX
  5
534
  8
6
 10
-17.699999999999811
 20
0.0
 30
0.0
  0
VERTEX
  5
535
  8
6
 10
-17.949999999999811
 20
0.25
 30
0.0
  0
VERTEX
  5
536
  8
6
 10
-18.199999999999811
 20
0.0
 30
0.0
  0
VERTEX
  5
537
  8
6
 10
-18.449999999999811
 20
0.25
 30
0.0
  0
VERTEX
  5
538
  8
6
 10
-18.699999999999811
 20
0.0
 30
0.0
  0
VERTEX
  5
539
  8
6
 10
-22.0
 20
3.300000000000181
 30
0.0
  0
VERTEX
  5
53A
  8
6
 10
-22.0
 20
14.70000000000004
 30
0.0
 42
0.4142135623730951
  0
VERTEX
  5
53B
  8
6
 10
-22.299999999999269
 20
15.00000000000022
 30
0.0
  0
VERTEX
  5
53C
  8
6
 10
-26.199999999999811
 20
15.0
 30
0.0
 42
0.4142135623730951
  0
VERTEX
  5
53D
  8
6
 10
-26.5
 20
14.70000000000004
 30
0.0
  0
VERTEX
  5
53E
  8
6
 10
-26.5
 20
4.0
 30
0.0
  0
VERTEX
  5
53F
  8
6
 10
-30.5
 20
0.0
 30
0.0
  0
VERTEX
  5
540
  8
6
 10
-30.75
 20
0.25
 30
0.0
  0
VERTEX
  5
541
  8
6
 10
-31.0
 20
0.0
 30
0.0
  0
VERTEX
  5
542
  8
6
 10
-31.25
 20
0.25
 30
0.0
  0
VERTEX
  5
543
  8
6
 10
-31.5
 20
0.0
 30
0.0
  0
VERTEX
  5
544
  8
6
 10
-31.75
 20
0.25
 30
0.0
  0
VERTEX
  5
545
  8
6
 10
-32.0
 20
0.0
 30
0.0
  0
VERTEX
  5
546
  8
6
 10
-32.25
 20
0.25
 30
0.0
  0
VERTEX
  5
547
  8
6
 10
-32.5
 20
0.0
 30
0.0
  0
VERTEX
  5
548
  8
6
 10
-32.75
 20
0.25
 30
0.0
  0
VERTEX
  5
549
  8
6
 10
-33.0
 20
0.0
 30
0.0
  0
VERTEX
  5
54A
  8
6
 10
-33.25
 20
0.25
 30
0.0
  0
VERTEX
  5
54B
  8
6
 10
-33.5
 20
0.0
 30
0.0
  0
VERTEX
  5
54C
  8
6
 10
-33.75
 20
0.25
 30
0.0
  0
VERTEX
  5
54D
  8
6
 10
-34.0
 20
0.0
 30
0.0
  0
VERTEX
  5
54E
  8
6
 10
-34.25
 20
0.25
 30
0.0
  0
VERTEX
  5
54F
  8
6
 10
-34.5
 20
0.0
 30
0.0
  0
VERTEX
  5
550
  8
6
 10
-34.75
 20
0.25
 30
0.0
  0
VERTEX
  5
551
  8
6
 10
-35.0
 20
0.0
 30
0.0
  0
VERTEX
  5
552
  8
6
 10
-35.25
 20
0.25
 30
0.0
  0
VERTEX
  5
553
  8
6
 10
-35.5
 20
0.0
 30
0.0
  0
VERTEX
  5
554
  8
6
 10
-35.75
 20
0.25
 30
0.0
  0
VERTEX
  5
555
  8
6
 10
-36.0
 20
0.0
 30
0.0
  0
VERTEX
  5
556
  8
6
 10
-36.25
 20
0.25
 30
0.0
  0
VERTEX
  5
557
  8
6
 10
-36.499999999999091
 20
0.0
 30
0.0
  0
VERTEX
  5
558
  8
6
 10
-36.749999999999091
 20
0.25
 30
0.0
  0
VERTEX
  5
559
  8
6
 10
-37.0
 20
0.0
 30
0.0
  0
VERTEX
  5
55A
  8
6
 10
-37.0
 20
1.5
 30
0.0
 42
-0.4142135623730951
  0
VERTEX
  5
55B
  8
6
 10
-36.5
 20
2.0
 30
0.0
  0
VERTEX
  5
55C
  8
6
 10
-31.328427124745751
 20
2.0
 30
0.0
  0
VERTEX
  5
55D
  8
6
 10
-28.5
 20
4.8284271247462121
 30
0.0
  0
VERTEX
  5
55E
  8
6
 10
-28.5
 20
8.022188660474967
 30
0.0
  0
SEQEND
  5
55F
  8
6
  0
LINE
  5
333
  8
6
  6
STRICHPUNKT
 10
-24.25
 20
19.099216077310299
 30
0.0
 11
-24.25
 21
-15.859470512911679
 31
0.0
  0
DIMENSION
  5
334
  8
1
  2
*D7
 10
-16.0
 20
-13.396217150449949
 30
0.0
 11
-20.923473213403661
 21
-10.97010182082499
 31
0.0
 70
   128
 13
-30.0
 23
18.0
 33
0.0
 14
-16.0
 24
18.0
 34
0.0
  0
VIEWPORT
  5
22
 67
     1
  8
0
 10
210.0
 20
170.2366863905325
 30
0.0
 40
420.0
 41
340.47337278106511
 68
     1
 69
     1
1001
ACAD
1000
MVIEW
1002
{
1070
    16
1010
0.0
1020
0.0
1030
0.0
1010
0.0
1020
0.0
1030
1.0
1040
0.0
1040
340.47337278106511
1040
210.0
1040
170.2366863905325
1040
50.0
1040
0.0
1040
0.0
1070
     0
1070
   100
1070
     1
1070
     1
1070
     0
1070
     0
1070
     0
1070
     0
1040
0.0
1040
0.0
1040
0.0
1040
5.0
1040
5.0
1040
10.0
1040
10.0
1070
     0
1002
{
1002
}
1002
}
  0
ENDSEC
  0
EOF
