  0
SECTION
  2
HEADER
  9
$ACADVER
  1
AC1009
  9
$INSBASE
 10
0.0
 20
0.0
 30
0.0
  9
$EXTMIN
 10
-134.02908866662449
 20
-15.859470512911679
 30
0.0
  9
$EXTMAX
 10
7.8132825182092338
 20
24.0
 30
0.0
  9
$LIMMIN
 10
-150.0
 20
-150.0
  9
$LIMMAX
 10
150.0
 20
150.0
  9
$ORTHOMODE
 70
     0
  9
$REGENMODE
 70
     1
  9
$FILLMODE
 70
     1
  9
$QTEXTMODE
 70
     0
  9
$MIRRTEXT
 70
     0
  9
$DRAGMODE
 70
     2
  9
$LTSCALE
 40
4.0
  9
$OSMODE
 70
   111
  9
$ATTMODE
 70
     1
  9
$TEXTSIZE
 40
3.5
  9
$TRACEWID
 40
1.0
  9
$TEXTSTYLE
  7
BESCHLAG
  9
$CLAYER
  8
0
  9
$CELTYPE
  6
BYLAYER
  9
$CECOLOR
 62
   256
  9
$DIMSCALE
 40
1.0
  9
$DIMASZ
 40
2.0
  9
$DIMEXO
 40
2.0
  9
$DIMDLI
 40
0.0
  9
$DIMRND
 40
0.0
  9
$DIMDLE
 40
1.0
  9
$DIMEXE
 40
1.0
  9
$DIMTP
 40
0.0
  9
$DIMTM
 40
0.0
  9
$DIMTXT
 40
3.5
  9
$DIMCEN
 40
0.0
  9
$DIMTSZ
 40
0.0
  9
$DIMTOL
 70
     0
  9
$DIMLIM
 70
     0
  9
$DIMTIH
 70
     0
  9
$DIMTOH
 70
     0
  9
$DIMSE1
 70
     0
  9
$DIMSE2
 70
     0
  9
$DIMTAD
 70
     1
  9
$DIMZIN
 70
     8
  9
$DIMBLK
  1

  9
$DIMASO
 70
     1
  9
$DIMSHO
 70
     1
  9
$DIMPOST
  1

  9
$DIMAPOST
  1

  9
$DIMALT
 70
     0
  9
$DIMALTD
 70
     2
  9
$DIMALTF
 40
0.039370078740157
  9
$DIMLFAC
 40
1.0
  9
$DIMTOFL
 70
     1
  9
$DIMTVP
 40
0.0
  9
$DIMTIX
 70
     1
  9
$DIMSOXD
 70
     0
  9
$DIMSAH
 70
     1
  9
$DIMBLK1
  1
OBLIQUE
  9
$DIMBLK2
  1
OBLIQUE
  9
$DIMSTYLE
  2
OPO-SSTRICH
  9
$DIMCLRD
 70
   256
  9
$DIMCLRE
 70
   256
  9
$DIMCLRT
 70
   256
  9
$DIMTFAC
 40
0.7114285714285716
  9
$DIMGAP
 40
1.0
  9
$LUNITS
 70
     2
  9
$LUPREC
 70
     1
  9
$SKETCHINC
 40
1.0
  9
$FILLETRAD
 40
0.0
  9
$AUNITS
 70
     0
  9
$AUPREC
 70
     1
  9
$MENU
  1
D:\ACL_CGWG\CGTAB13
  9
$ELEVATION
 40
0.0
  9
$PELEVATION
 40
0.0
  9
$THICKNESS
 40
0.0
  9
$LIMCHECK
 70
     0
  9
$BLIPMODE
 70
     0
  9
$CHAMFERA
 40
1.0
  9
$CHAMFERB
 40
1.0
  9
$SKPOLY
 70
     0
  9
$TDCREATE
 40
2451739.8910103701
  9
$TDUPDATE
 40
2452087.6162411221
  9
$TDINDWG
 40
0.0012900231
  9
$TDUSRTIMER
 40
0.0012900231
  9
$USRTIMER
 70
     1
  9
$ANGBASE
 50
0.0
  9
$ANGDIR
 70
     0
  9
$PDMODE
 70
    35
  9
$PDSIZE
 40
5.0
  9
$PLINEWID
 40
0.0
  9
$COORDS
 70
     1
  9
$SPLFRAME
 70
     0
  9
$SPLINETYPE
 70
     6
  9
$SPLINESEGS
 70
     8
  9
$ATTDIA
 70
     1
  9
$ATTREQ
 70
     1
  9
$HANDLING
 70
-16383
  9
$HANDSEED
  5
578
  9
$SURFTAB1
 70
    12
  9
$SURFTAB2
 70
    12
  9
$SURFTYPE
 70
     6
  9
$SURFU
 70
    12
  9
$SURFV
 70
    12
  9
$UCSNAME
  2

  9
$UCSORG
 10
0.0
 20
0.0
 30
0.0
  9
$UCSXDIR
 10
1.0
 20
0.0
 30
0.0
  9
$UCSYDIR
 10
0.0
 20
1.0
 30
0.0
  9
$PUCSNAME
  2

  9
$PUCSORG
 10
0.0
 20
0.0
 30
0.0
  9
$PUCSXDIR
 10
1.0
 20
0.0
 30
0.0
  9
$PUCSYDIR
 10
0.0
 20
1.0
 30
0.0
  9
$USERI1
 70
     0
  9
$USERI2
 70
     0
  9
$USERI3
 70
     0
  9
$USERI4
 70
     0
  9
$USERI5
 70
     0
  9
$USERR1
 40
0.0
  9
$USERR2
 40
0.0
  9
$USERR3
 40
0.0
  9
$USERR4
 40
0.0
  9
$USERR5
 40
0.0
  9
$WORLDVIEW
 70
     1
  9
$SHADEDGE
 70
     3
  9
$SHADEDIF
 70
    70
  9
$TILEMODE
 70
     1
  9
$MAXACTVP
 70
    48
  9
$PLIMCHECK
 70
     0
  9
$PEXTMIN
 10
1.0000000000000000E+020
 20
1.0000000000000000E+020
 30
1.0000000000000000E+020
  9
$PEXTMAX
 10
-1.0000000000000000E+020
 20
-1.0000000000000000E+020
 30
-1.0000000000000000E+020
  9
$PLIMMIN
 10
0.0
 20
0.0
  9
$PLIMMAX
 10
420.0
 20
297.0
  9
$UNITMODE
 70
     0
  9
$VISRETAIN
 70
     1
  9
$PLINEGEN
 70
     0
  9
$PSLTSCALE
 70
     1
  0
ENDSEC
  0
SECTION
  2
TABLES
  0
TABLE
  2
VPORT
 70
     2
  0
VPORT
  2
*ACTIVE
 70
     0
 10
0.0
 20
0.0
 11
1.0
 21
1.0
 12
-63.102721542938021
 22
5.58102233779816
 13
0.0
 23
0.0
 14
0.5
 24
0.5
 15
10.0
 25
10.0
 16
0.0
 26
0.0
 36
1.0
 17
0.0
 27
0.0
 37
0.0
 40
88.774183828792644
 41
1.6070460704607039
 42
50.0
 43
0.0
 44
0.0
 50
0.0
 51
0.0
 71
     0
 72
   800
 73
     1
 74
     1
 75
     0
 76
     0
 77
     0
 78
     0
  0
ENDTAB
  0
TABLE
  2
LTYPE
 70
     2
  0
LTYPE
  2
CONTINUOUS
 70
     0
  3
_______________________________________________
 72
    65
 73
     2
 40
1.0
 49
1.0
 49
0.0
  0
LTYPE
  2
STRICHPUNKT
 70
     0
  3
__ . __ . __ . __ . __ . __ . __ . __ . __ . __
 72
    65
 73
     4
 40
1.0
 49
0.5
 49
-0.25
 49
0.0
 49
-0.25
  0
ENDTAB
  0
TABLE
  2
LAYER
 70
     7
  0
LAYER
  2
0
 70
     0
 62
    30
  6
CONTINUOUS
  0
LAYER
  2
1
 70
     0
 62
     2
  6
CONTINUOUS
  0
LAYER
  2
2
 70
     0
 62
     9
  6
CONTINUOUS
  0
LAYER
  2
4
 70
     1
 62
     4
  6
CONTINUOUS
  0
LAYER
  2
5
 70
     0
 62
     1
  6
CONTINUOUS
  0
LAYER
  2
6
 70
     0
 62
     3
  6
CONTINUOUS
  0
LAYER
  2
DEFPOINTS
 70
     0
 62
     7
  6
CONTINUOUS
  0
ENDTAB
  0
TABLE
  2
STYLE
 70
     2
  0
STYLE
  2
STANDARD
 70
     0
 40
0.0
 41
1.0
 50
0.0
 71
     0
 42
2.5
  3
txt
  4

  0
STYLE
  2
BESCHLAG
 70
     0
 40
0.0
 41
1.0
 50
0.0
 71
     0
 42
3.5
  3
txt
  4

  0
ENDTAB
  0
TABLE
  2
VIEW
 70
     0
  0
ENDTAB
  0
TABLE
  2
UCS
 70
     0
  0
ENDTAB
  0
TABLE
  2
APPID
 70
     1
  0
APPID
  2
ACAD
 70
     0
  0
ENDTAB
  0
TABLE
  2
DIMSTYLE
 70
     1
  0
DIMSTYLE
  2
OPO-SSTRICH
 70
     0
  3

  4

  5

  6
OBLIQUE
  7
OBLIQUE
 40
1.0
 41
2.0
 42
2.0
 43
0.0
 44
1.0
 45
0.0
 46
1.0
 47
0.0
 48
0.0
140
3.5
141
0.0
142
0.0
143
0.039370078740157
144
1.0
145
0.0
146
0.7114285714285716
147
1.0
 71
     0
 72
     0
 73
     0
 74
     0
 75
     0
 76
     0
 77
     1
 78
     8
170
     0
171
     2
172
     1
173
     1
174
     1
175
     0
176
   256
177
   256
178
   256
  0
ENDTAB
  0
ENDSEC
  0
SECTION
  2
BLOCKS
  0
BLOCK
  8
0
  2
$MODEL_SPACE
 70
     0
 10
0.0
 20
0.0
 30
0.0
  3
$MODEL_SPACE
  1

  0
ENDBLK
  5
1C
  8
0
  0
BLOCK
 67
     1
  8
0
  2
$PAPER_SPACE
 70
     0
 10
0.0
 20
0.0
 30
0.0
  3
$PAPER_SPACE
  1

  0
ENDBLK
  5
19
 67
     1
  8
0
  0
BLOCK
  8
0
  2
_OBLIQUE
 70
     0
 10
0.0
 20
0.0
 30
0.0
  3
_OBLIQUE
  1

  0
LINE
  5
204
  8
0
 62
     0
 10
-0.5
 20
-0.5
 30
0.0
 11
0.5
 21
0.5
 31
0.0
  0
ENDBLK
  5
206
  8
0
  0
BLOCK
  8
0
  2
NULLPUNKT
 70
     0
 10
0.0
 20
0.0
 30
0.0
  3
NULLPUNKT
  1

  0
SOLID
  5
254
  8
5
 10
0.0
 20
0.0
 30
0.0
 11
2.0
 21
0.0
 31
0.0
 12
0.0
 22
-2.0
 32
0.0
 13
0.0
 23
-2.0
 33
0.0
  0
SOLID
  5
255
  8
5
 10
0.0
 20
0.0
 30
0.0
 11
-2.0
 21
0.0
 31
0.0
 12
0.0
 22
2.0
 32
0.0
 13
0.0
 23
2.0
 33
0.0
  0
POLYLINE
  5
256
  8
5
 66
     1
 10
0.0
 20
0.0
 30
0.0
  0
VERTEX
  5
48C
  8
5
 10
0.0
 20
2.0
 30
0.0
  0
VERTEX
  5
48D
  8
5
 10
0.0
 20
-2.0
 30
0.0
  0
SEQEND
  5
48E
  8
5
  0
POLYLINE
  5
257
  8
5
 66
     1
 10
0.0
 20
0.0
 30
0.0
  0
VERTEX
  5
48F
  8
5
 10
-2.0
 20
0.0
 30
0.0
  0
VERTEX
  5
490
  8
5
 10
2.0
 20
0.0
 30
0.0
  0
SEQEND
  5
491
  8
5
  0
CIRCLE
  5
258
  8
5
 10
0.0
 20
0.0
 30
0.0
 40
2.0
  0
ENDBLK
  5
25A
  8
0
  0
BLOCK
  8
0
  2
*X2
 70
     1
 10
0.0
 20
0.0
 30
0.0
  3
*X2
  1

  0
LINE
  5
29E
  8
0
 62
     0
 10
1013.9433515962349
 20
-231.69595414198611
 30
0.0
 11
1016.219615357232
 21
-229.41969038098929
 31
0.0
  0
LINE
  5
29F
  8
0
 62
     0
 10
1012.024638607738
 20
-231.91761085563519
 30
0.0
 11
1014.300902368735
 21
-229.64134709463841
 31
0.0
  0
LINE
  5
2A0
  8
0
 62
     0
 10
1010.105925619242
 20
-232.1392675692843
 30
0.0
 11
1012.7144185071151
 21
-229.53077468141041
 31
0.0
  0
LINE
  5
2A1
  8
0
 62
     0
 10
1008.187212630745
 20
-232.36092428293341
 30
0.0
 11
1010.761214568521
 21
-229.78692234515719
 31
0.0
  0
LINE
  5
2A2
  8
0
 62
     0
 10
1006.268499642248
 20
-232.58258099658249
 30
0.0
 11
1008.808010629926
 21
-230.04307000890429
 31
0.0
  0
LINE
  5
2A3
  8
0
 62
     0
 10
1004.3497866537519
 20
-232.80423771023149
 30
0.0
 11
1006.854806691332
 21
-230.299217672651
 31
0.0
  0
LINE
  5
2A4
  8
0
 62
     0
 10
1002.431073665254
 20
-233.0258944238806
 30
0.0
 11
1004.9016027527369
 21
-230.55536533639761
 31
0.0
  0
LINE
  5
2A5
  8
0
 62
     0
 10
1000.512360676758
 20
-233.24755113752971
 30
0.0
 11
1002.7886244377549
 21
-230.97128737653301
 31
0.0
  0
LINE
  5
2A6
  8
0
 62
     0
 10
998.59364768826129
 20
-233.46920785117879
 30
0.0
 11
1000.869911449258
 21
-231.19294409018201
 31
0.0
  0
LINE
  5
2A7
  8
0
 62
     0
 10
996.67493469976444
 20
-233.6908645648279
 30
0.0
 11
998.95119846076125
 21
-231.41460080383109
 31
0.0
  0
LINE
  5
2A8
  8
0
 62
     0
 10
994.7562217112677
 20
-233.91252127847699
 30
0.0
 11
997.03248547226474
 21
-231.6362575174802
 31
0.0
  0
LINE
  5
2A9
  8
0
 62
     0
 10
992.83750872277096
 20
-234.1341779921261
 30
0.0
 11
995.11377248376778
 21
-231.85791423112931
 31
0.0
  0
LINE
  5
2AA
  8
0
 62
     0
 10
990.91879573427389
 20
-234.35583470577521
 30
0.0
 11
993.19505949527093
 21
-232.0795709447784
 31
0.0
  0
LINE
  5
2AB
  8
0
 62
     0
 10
989.00008274577726
 20
-234.57749141942421
 30
0.0
 11
991.27634650677419
 21
-232.30122765842739
 31
0.0
  0
LINE
  5
2AC
  8
0
 62
     0
 10
987.08136975728041
 20
-234.79914813307329
 30
0.0
 11
989.35763351827745
 21
-232.5228843720765
 31
0.0
  0
LINE
  5
2AD
  8
0
 62
     0
 10
985.16265676878368
 20
-235.0208048467224
 30
0.0
 11
987.43892052978072
 21
-232.74454108572559
 31
0.0
  0
LINE
  5
2AE
  8
0
 62
     0
 10
983.24394378028705
 20
-235.24246156037151
 30
0.0
 11
985.52020754128375
 21
-232.9661977993747
 31
0.0
  0
LINE
  5
2AF
  8
0
 62
     0
 10
981.32523079179009
 20
-235.46411827402059
 30
0.0
 11
983.6014945527869
 21
-233.18785451302369
 31
0.0
  0
LINE
  5
2B0
  8
0
 62
     0
 10
979.40651780329335
 20
-235.6857749876697
 30
0.0
 11
981.68278156429017
 21
-233.40951122667281
 31
0.0
  0
LINE
  5
2B1
  8
0
 62
     0
 10
977.48780481479639
 20
-235.90743170131881
 30
0.0
 11
979.76406857579354
 21
-233.63116794032189
 31
0.0
  0
LINE
  5
2B2
  8
0
 62
     0
 10
975.56909182629965
 20
-236.1290884149679
 30
0.0
 11
977.84535558729669
 21
-233.852824653971
 31
0.0
  0
LINE
  5
2B3
  8
0
 62
     0
 10
973.6503788378028
 20
-236.35074512861701
 30
0.0
 11
975.92664259879984
 21
-234.07448136762011
 31
0.0
  0
LINE
  5
2B4
  8
0
 62
     0
 10
971.73166584930607
 20
-236.572401842266
 30
0.0
 11
974.00792961030288
 21
-234.29613808126919
 31
0.0
  0
LINE
  5
2B5
  8
0
 62
     0
 10
969.81295286080933
 20
-236.79405855591509
 30
0.0
 11
972.08921662180637
 21
-234.51779479491819
 31
0.0
  0
LINE
  5
2B6
  8
0
 62
     0
 10
967.89423987231237
 20
-237.0157152695642
 30
0.0
 11
970.24725722795438
 21
-234.66269791392239
 31
0.0
  0
LINE
  5
2B7
  8
0
 62
     0
 10
965.97552688381575
 20
-237.23737198321331
 30
0.0
 11
968.29405328935979
 21
-234.9188455776692
 31
0.0
  0
LINE
  5
2B8
  8
0
 62
     0
 10
968.61762610129756
 20
-234.59527276573169
 30
0.0
 11
969.30070402919625
 21
-233.9121948378328
 31
0.0
  0
LINE
  5
2B9
  8
0
 62
     0
 10
964.05681389531878
 20
-237.45902869686239
 30
0.0
 11
966.34084935076544
 21
-235.1749932414159
 31
0.0
  0
LINE
  5
2BA
  8
0
 62
     0
 10
966.40035128334694
 20
-235.11549130883441
 30
0.0
 11
967.34750009060178
 21
-234.1683425015795
 31
0.0
  0
LINE
  5
2BB
  8
0
 62
     0
 10
962.13810090682205
 20
-237.6806854105115
 30
0.0
 11
965.39429615200709
 21
-234.42449016532629
 31
0.0
  0
LINE
  5
2BC
  8
0
 62
     0
 10
960.21938791832531
 20
-237.9023421241605
 30
0.0
 11
963.44109221341262
 21
-234.68063782907331
 31
0.0
  0
LINE
  5
2BD
  8
0
 62
     0
 10
953.40937804086025
 20
-243.01529572677799
 30
0.0
 11
954.28581473479846
 21
-242.13885903283969
 31
0.0
  0
LINE
  5
2BE
  8
0
 62
     0
 10
958.28717826963054
 20
-238.13749549800761
 30
0.0
 11
961.48788827481815
 21
-234.93678549281989
 31
0.0
  0
LINE
  5
2BF
  8
0
 62
     0
 10
952.22303528981911
 20
-242.50458220297151
 30
0.0
 11
959.53468433622356
 21
-235.19293315656691
 31
0.0
  0
LINE
  5
2C0
  8
0
 62
     0
 10
952.79253683023535
 20
-240.23802438770741
 30
0.0
 11
956.43171250371995
 21
-236.59884871422301
 31
0.0
  0
LINE
  5
2C1
  8
0
 62
     0
 10
956.52805381925077
 20
-236.5025073986921
 30
0.0
 11
957.51250495452621
 21
-235.5180562634167
 31
0.0
  0
LINE
  5
2C2
  8
0
 62
     0
 10
953.24920720368641
 20
-238.0842977394085
 30
0.0
 11
953.60727036501942
 21
-237.7262345780756
 31
0.0
  0
LINE
  5
2C3
  8
0
 62
     0
 10
955.00495824890675
 20
-236.32854669418811
 30
0.0
 11
955.0882691485574
 21
-236.24523579453759
 31
0.0
  0
LINE
  5
2C4
  8
0
 62
     0
 10
1015.862064584732
 20
-231.474297428337
 30
0.0
 11
1018.138328345729
 21
-229.1980336673403
 31
0.0
  0
LINE
  5
2C5
  8
0
 62
     0
 10
1017.780777573229
 20
-231.25264071468791
 30
0.0
 11
1020.057041334226
 21
-228.9763769536911
 31
0.0
  0
LINE
  5
2C6
  8
0
 62
     0
 10
1019.699490561726
 20
-231.03098400103889
 30
0.0
 11
1021.975754322723
 21
-228.7547202400421
 31
0.0
  0
LINE
  5
2C7
  8
0
 62
     0
 10
1021.618203550222
 20
-230.80932728738981
 30
0.0
 11
1023.89446731122
 21
-228.53306352639299
 31
0.0
  0
LINE
  5
2C8
  8
0
 62
     0
 10
1023.536916538719
 20
-230.5876705737407
 30
0.0
 11
1025.8131802997159
 21
-228.31140681274391
 31
0.0
  0
LINE
  5
2C9
  8
0
 62
     0
 10
1025.4556295272159
 20
-230.36601386009161
 30
0.0
 11
1027.7318932882131
 21
-228.0897500990948
 31
0.0
  0
LINE
  5
2CA
  8
0
 62
     0
 10
1027.3743425157129
 20
-230.1443571464425
 30
0.0
 11
1029.6506062767101
 21
-227.86809338544569
 31
0.0
  0
LINE
  5
2CB
  8
0
 62
     0
 10
1029.2930555042101
 20
-229.9227004327935
 30
0.0
 11
1031.569319265207
 21
-227.64643667179661
 31
0.0
  0
LINE
  5
2CC
  8
0
 62
     0
 10
1031.2117684927071
 20
-229.70104371914431
 30
0.0
 11
1033.4880322537031
 21
-227.4247799581475
 31
0.0
  0
LINE
  5
2CD
  8
0
 62
     0
 10
1033.1304814812031
 20
-229.4793870054952
 30
0.0
 11
1035.4067452422
 21
-227.20312324449841
 31
0.0
  0
LINE
  5
2CE
  8
0
 62
     0
 10
1035.0491944697001
 20
-229.25773029184609
 30
0.0
 11
1037.325458230697
 21
-226.9814665308493
 31
0.0
  0
LINE
  5
2CF
  8
0
 62
     0
 10
1036.967907458197
 20
-229.03607357819709
 30
0.0
 11
1039.244171219194
 21
-226.75980981720019
 31
0.0
  0
LINE
  5
2D0
  8
0
 62
     0
 10
1038.8866204466931
 20
-228.81441686454801
 30
0.0
 11
1041.16288420769
 21
-226.5381531035512
 31
0.0
  0
LINE
  5
2D1
  8
0
 62
     0
 10
1040.8053334351901
 20
-228.5927601508989
 30
0.0
 11
1043.081597196187
 21
-226.316496389902
 31
0.0
  0
LINE
  5
2D2
  8
0
 62
     0
 10
1042.724046423687
 20
-228.37110343724979
 30
0.0
 11
1045.0003101846839
 21
-226.09483967625289
 31
0.0
  0
LINE
  5
2D3
  8
0
 62
     0
 10
1052.59844659704
 20
-218.4967032638971
 30
0.0
 11
1054.0798541341589
 21
-217.01529572677799
 31
0.0
  0
LINE
  5
2D4
  8
0
 62
     0
 10
1044.642759412184
 20
-228.1494467236007
 30
0.0
 11
1046.9190231731809
 21
-225.87318296260389
 31
0.0
  0
LINE
  5
2D5
  8
0
 62
     0
 10
1052.957076785907
 20
-219.83512934987769
 30
0.0
 11
1055.7769104090071
 21
-217.01529572677799
 31
0.0
  0
LINE
  5
2D6
  8
0
 62
     0
 10
1046.5614724006809
 20
-227.92779000995159
 30
0.0
 11
1048.8377361616781
 21
-225.65152624895481
 31
0.0
  0
LINE
  5
2D7
  8
0
 62
     0
 10
1053.315706974774
 20
-221.1735554358583
 30
0.0
 11
1057.3377356638309
 21
-217.15152674680181
 31
0.0
  0
LINE
  5
2D8
  8
0
 62
     0
 10
1048.4801853891779
 20
-227.70613329630251
 30
0.0
 11
1050.7564491501751
 21
-225.4298695353057
 31
0.0
  0
LINE
  5
2D9
  8
0
 62
     0
 10
1056.171022958702
 20
-220.01529572677799
 30
0.0
 11
1059.171022958702
 21
-217.01529572677799
 31
0.0
  0
LINE
  5
2DA
  8
0
 62
     0
 10
1053.674337163641
 20
-222.51198152183889
 30
0.0
 11
1055.7015046438071
 21
-220.48481404167319
 31
0.0
  0
LINE
  5
2DB
  8
0
 62
     0
 10
1050.398898377674
 20
-227.48447658265351
 30
0.0
 11
1052.9287913914311
 21
-224.95458356889731
 31
0.0
  0
LINE
  5
2DC
  8
0
 62
     0
 10
1057.8680792335499
 20
-220.01529572677791
 30
0.0
 11
1060.8680792335499
 21
-217.01529572677799
 31
0.0
  0
LINE
  5
2DD
  8
0
 62
     0
 10
1053.473573167254
 20
-224.40980179307439
 30
0.0
 11
1055.7015046438071
 21
-222.18187031652101
 31
0.0
  0
LINE
  5
2DE
  8
0
 62
     0
 10
1045.2015046438071
 20
-234.37892659136861
 30
0.0
 11
1046.565135508398
 21
-233.01529572677811
 31
0.0
  0
LINE
  5
2DF
  8
0
 62
     0
 10
1059.565135508398
 20
-220.01529572677779
 30
0.0
 11
1062.565135508398
 21
-217.01529572677799
 31
0.0
  0
LINE
  5
2E0
  8
0
 62
     0
 10
1052.3176113661709
 20
-227.2628198690044
 30
0.0
 11
1055.7015046438071
 21
-223.87892659136881
 31
0.0
  0
LINE
  5
2E1
  8
0
 62
     0
 10
1046.4818482135261
 20
-234.7956392964972
 30
0.0
 11
1048.262191783245
 21
-233.01529572677811
 31
0.0
  0
LINE
  5
2E2
  8
0
 62
     0
 10
1062.762191783246
 20
-218.51529572677811
 30
0.0
 11
1064.262191783245
 21
-217.01529572677799
 31
0.0
  0
LINE
  5
2E3
  8
0
 62
     0
 10
1053.7015046438071
 20
-227.57598286621641
 30
0.0
 11
1055.7015046438071
 21
-225.57598286621641
 31
0.0
  0
LINE
  5
2E4
  8
0
 62
     0
 10
1060.2015046438071
 20
-221.07598286621629
 30
0.0
 11
1062.2015046438071
 21
-219.07598286621629
 31
0.0
  0
LINE
  5
2E5
  8
0
 62
     0
 10
1048.08037635095
 20
-234.8941674339211
 30
0.0
 11
1049.959248058093
 21
-233.01529572677811
 31
0.0
  0
LINE
  5
2E6
  8
0
 62
     0
 10
1064.4545255303269
 20
-218.5200182545438
 30
0.0
 11
1065.9545255301921
 21
-217.02001825467909
 31
0.0
  0
LINE
  5
2E7
  8
0
 62
     0
 10
1053.7015046438071
 20
-229.2730391410642
 30
0.0
 11
1055.7015046438071
 21
-227.2730391410642
 31
0.0
  0
LINE
  5
2E8
  8
0
 62
     0
 10
1060.2015046438071
 20
-222.77303914106409
 30
0.0
 11
1062.2015046438071
 21
-220.77303914106409
 31
0.0
  0
LINE
  5
2E9
  8
0
 62
     0
 10
1049.678904488374
 20
-234.99269557134491
 30
0.0
 11
1055.7015046438071
 21
-228.9700954159118
 31
0.0
  0
LINE
  5
2EA
  8
0
 62
     0
 10
1064.7015046438071
 20
-219.97009541591169
 30
0.0
 11
1066.2015046438071
 21
-218.47009541591169
 31
0.0
  0
LINE
  5
2EB
  8
0
 62
     0
 10
1060.2015046438071
 20
-224.47009541591169
 30
0.0
 11
1062.2015046438071
 21
-222.47009541591169
 31
0.0
  0
LINE
  5
2EC
  8
0
 62
     0
 10
1051.5274326257979
 20
-234.84122370876881
 30
0.0
 11
1055.7015046438071
 21
-230.6671516907596
 31
0.0
  0
LINE
  5
2ED
  8
0
 62
     0
 10
1060.2015046438071
 20
-226.16715169075951
 30
0.0
 11
1062.2015046438071
 21
-224.16715169075951
 31
0.0
  0
LINE
  5
2EE
  8
0
 62
     0
 10
1060.2015046438071
 20
-227.86420796560719
 30
0.0
 11
1062.2015046438071
 21
-225.86420796560731
 31
0.0
  0
LINE
  5
2EF
  8
0
 62
     0
 10
1060.2015046438071
 20
-229.5612642404549
 30
0.0
 11
1062.2015046438071
 21
-227.5612642404549
 31
0.0
  0
LINE
  5
2F0
  8
0
 62
     0
 10
1060.2015046438071
 20
-231.2583205153027
 30
0.0
 11
1062.2015046438071
 21
-229.2583205153027
 31
0.0
  0
LINE
  5
2F1
  8
0
 62
     0
 10
1060.8215451754929
 20
-232.33533625846411
 30
0.0
 11
1062.641585707179
 21
-230.51529572677811
 31
0.0
  0
LINE
  5
2F2
  8
0
 62
     0
 10
1061.6700733129171
 20
-233.18386439588801
 30
0.0
 11
1064.338641982027
 21
-230.51529572677811
 31
0.0
  0
LINE
  5
2F3
  8
0
 62
     0
 10
1064.7015046438071
 20
-230.15243306499809
 30
0.0
 11
1065.973847664251
 21
-228.88009004455441
 31
0.0
  0
LINE
  5
2F4
  8
0
 62
     0
 10
1062.5186014503411
 20
-234.03239253331191
 30
0.0
 11
1066.2015046438071
 21
-230.3494893398458
 31
0.0
  0
LINE
  5
2F5
  8
0
 62
     0
 10
1063.367129587765
 20
-234.88092067073569
 30
0.0
 11
1066.2015046438071
 21
-232.0465456146934
 31
0.0
  0
LINE
  5
2F6
  8
0
 62
     0
 10
1064.965657725189
 20
-234.9794488081595
 30
0.0
 11
1066.92981080657
 21
-233.01529572677799
 31
0.0
  0
LINE
  5
2F7
  8
0
 62
     0
 10
1066.8141858626129
 20
-234.82797694558329
 30
0.0
 11
1068.6268670814179
 21
-233.01529572677799
 31
0.0
  0
LINE
  5
2F8
  8
0
 62
     0
 10
1068.4127140000371
 20
-234.92650508300721
 30
0.0
 11
1070.3239233562661
 21
-233.01529572677799
 31
0.0
  0
LINE
  5
2F9
  8
0
 62
     0
 10
1070.2612421374599
 20
-234.77503322043111
 30
0.0
 11
1072.0209796311131
 21
-233.01529572677799
 31
0.0
  0
LINE
  5
2FA
  8
0
 62
     0
 10
1071.8597702748841
 20
-234.8735613578549
 30
0.0
 11
1073.718035905961
 21
-233.01529572677799
 31
0.0
  0
LINE
  5
2FB
  8
0
 62
     0
 10
1073.4582984123081
 20
-234.97208949527879
 30
0.0
 11
1075.4150921808091
 21
-233.01529572677799
 31
0.0
  0
LINE
  5
2FC
  8
0
 62
     0
 10
1075.306826549732
 20
-234.82061763270261
 30
0.0
 11
1077.1121484556561
 21
-233.01529572677799
 31
0.0
  0
LINE
  5
2FD
  8
0
 62
     0
 10
1076.905354687156
 20
-234.91914577012651
 30
0.0
 11
1078.809204730504
 21
-233.01529572677799
 31
0.0
  0
LINE
  5
2FE
  8
0
 62
     0
 10
1078.751504643807
 20
-234.76529572677799
 30
0.0
 11
1080.5062610053519
 21
-233.01529572677799
 31
0.0
  0
LINE
  5
2FF
  8
0
 62
     0
 10
1080.352410962003
 20
-234.86620204497419
 30
0.0
 11
1082.0559631909191
 21
-233.1626498160588
 31
0.0
  0
LINE
  5
300
  8
0
 62
     0
 10
1081.9509390994269
 20
-234.96473018239811
 30
0.0
 11
1082.2015046438071
 21
-234.71416463801839
 31
0.0
  0
ENDBLK
  5
302
  8
0
  0
BLOCK
  8
0
  2
*D3
 70
     1
 10
0.0
 20
0.0
 30
0.0
  3
*D3
  1

  0
LINE
  5
373
  8
1
 10
-30.0
 20
14.0
 30
0.0
 11
-30.0
 21
-14.396217150449949
 31
0.0
  0
LINE
  5
374
  8
1
 10
-129.9998974544007
 20
-10.0
 30
0.0
 11
-129.9998974544007
 21
-14.396217150449949
 31
0.0
  0
LINE
  5
375
  8
1
 10
-29.0
 20
-13.396217150449949
 30
0.0
 11
-130.9998974544007
 21
-13.396217150449949
 31
0.0
  0
INSERT
  5
376
  8
1
  2
_OBLIQUE
 10
-30.0
 20
-13.396217150449949
 30
0.0
 41
2.0
 42
2.0
 43
2.0
  0
INSERT
  5
377
  8
1
  2
_OBLIQUE
 10
-129.9998974544007
 20
-13.396217150449949
 30
0.0
 41
2.0
 42
2.0
 43
2.0
 50
180.0
  0
TEXT
  5
378
  8
0
 10
-84.228120623516887
 20
-12.32936858291926
 30
0.0
 40
3.5
  1
100
  7
BESCHLAG
  0
POINT
  5
379
  8
DEFPOINTS
 62
     0
 10
-30.0
 20
16.0
 30
0.0
  0
POINT
  5
37A
  8
DEFPOINTS
 62
     0
 10
-129.9998974544007
 20
-8.0
 30
0.0
  0
POINT
  5
37B
  8
DEFPOINTS
 62
     0
 10
-129.9998974544007
 20
-13.396217150449949
 30
0.0
  0
ENDBLK
  5
340
  8
0
  0
BLOCK
  8
0
  2
*D4
 70
     1
 10
0.0
 20
0.0
 30
0.0
  3
*D4
  1

  0
LINE
  5
3BD
  8
1
 10
-30.0
 20
16.0
 30
0.0
 11
-30.0
 21
-14.396217150449949
 31
0.0
  0
LINE
  5
3BE
  8
1
 10
-16.0
 20
16.0
 30
0.0
 11
-16.0
 21
-14.396217150449949
 31
0.0
  0
LINE
  5
3BF
  8
1
 10
-31.0
 20
-13.396217150449949
 30
0.0
 11
-15.0
 21
-13.396217150449949
 31
0.0
  0
INSERT
  5
3C0
  8
1
  2
_OBLIQUE
 10
-30.0
 20
-13.396217150449949
 30
0.0
 41
2.0
 42
2.0
 43
2.0
 50
180.0
  0
INSERT
  5
3C1
  8
1
  2
_OBLIQUE
 10
-16.0
 20
-13.396217150449949
 30
0.0
 41
2.0
 42
2.0
 43
2.0
  0
TEXT
  5
3C2
  8
0
 10
-25.867326057298769
 20
-12.38905480392881
 30
0.0
 40
3.5
  1
14
  7
BESCHLAG
  0
POINT
  5
3C3
  8
DEFPOINTS
 62
     0
 10
-30.0
 20
18.0
 30
0.0
  0
POINT
  5
3C4
  8
DEFPOINTS
 62
     0
 10
-16.0
 20
18.0
 30
0.0
  0
POINT
  5
3C5
  8
DEFPOINTS
 62
     0
 10
-16.0
 20
-13.396217150449949
 30
0.0
  0
ENDBLK
  5
34D
  8
0
  0
BLOCK
  8
0
  2
*D5
 70
     1
 10
0.0
 20
0.0
 30
0.0
  3
*D5
  1

  0
LINE
  5
3C6
  8
1
 10
-31.999999999999989
 20
18.0
 30
0.0
 11
-40.959213450556931
 21
18.0
 31
0.0
  0
LINE
  5
3C7
  8
1
 10
-32.0
 20
0.0000000000000006
 30
0.0
 11
-40.959213450556938
 21
0.0000000000000031
 31
0.0
  0
LINE
  5
3C8
  8
1
 10
-39.959213450556931
 20
19.0
 30
0.0
 11
-39.959213450556938
 21
-0.9999999999999971
 31
0.0
  0
TEXT
  5
3C9
  8
0
 10
-41.026062018087643
 20
8.2330320600272806
 30
0.0
 40
3.5
  1
18
 50
90.0
  7
BESCHLAG
  0
INSERT
  5
3CA
  8
1
  2
_OBLIQUE
 10
-39.959213450556931
 20
18.0
 30
0.0
 41
2.0
 42
2.0
 43
2.0
 50
90.0
  0
INSERT
  5
3CB
  8
1
  2
_OBLIQUE
 10
-39.959213450556938
 20
0.0000000000000028
 30
0.0
 41
2.0
 42
2.0
 43
2.0
 50
270.0
  0
POINT
  5
3CC
  8
DEFPOINTS
 62
     0
 10
-30.0
 20
18.0
 30
0.0
  0
POINT
  5
3CD
  8
DEFPOINTS
 62
     0
 10
-30.0
 20
0.0
 30
0.0
  0
POINT
  5
3CE
  8
DEFPOINTS
 62
     0
 10
-39.959213450556938
 20
0.0000000000000028
 30
0.0
  0
ENDBLK
  5
35A
  8
0
  0
BLOCK
  8
0
  2
*D6
 70
     1
 10
0.0
 20
0.0
 30
0.0
  3
*D6
  1

  0
LINE
  5
390
  8
1
 10
-11.0
 20
6.0
 30
0.0
 11
-11.0
 21
-14.396217150449949
 31
0.0
  0
LINE
  5
391
  8
1
 10
-0.0000000000000001
 20
-2.0
 30
0.0
 11
-0.0000000000000009
 21
-14.396217150449949
 31
0.0
  0
LINE
  5
392
  8
1
 10
-12.0
 20
-13.396217150449949
 30
0.0
 11
0.9999999999999992
 21
-13.396217150449949
 31
0.0
  0
INSERT
  5
393
  8
1
  2
_OBLIQUE
 10
-11.0
 20
-13.396217150449949
 30
0.0
 41
2.0
 42
2.0
 43
2.0
 50
180.0
  0
INSERT
  5
394
  8
1
  2
_OBLIQUE
 10
-0.0000000000000008
 20
-13.396217150449949
 30
0.0
 41
2.0
 42
2.0
 43
2.0
  0
TEXT
  5
395
  8
0
 10
-8.0366643929058679
 20
-12.38905480392881
 30
0.0
 40
3.5
  1
11
  7
BESCHLAG
  0
POINT
  5
396
  8
DEFPOINTS
 62
     0
 10
-11.0
 20
8.0
 30
0.0
  0
POINT
  5
397
  8
DEFPOINTS
 62
     0
 10
0.0
 20
0.0
 30
0.0
  0
POINT
  5
398
  8
DEFPOINTS
 62
     0
 10
-0.0000000000000008
 20
-13.396217150449949
 30
0.0
  0
ENDBLK
  5
366
  8
0
  0
BLOCK
  8
0
  2
*D7
 70
     1
 10
0.0
 20
0.0
 30
0.0
  3
*D7
  1

  0
LINE
  5
399
  8
1
 10
-16.0
 20
1.5839758376896489
 30
0.0
 11
-16.0
 21
-14.396217150449949
 31
0.0
  0
LINE
  5
39A
  8
1
 10
-11.0
 20
6.0
 30
0.0
 11
-11.0
 21
-14.396217150449949
 31
0.0
  0
LINE
  5
39B
  8
1
 10
-17.0
 20
-13.396217150449949
 30
0.0
 11
-10.0
 21
-13.396217150449949
 31
0.0
  0
INSERT
  5
39C
  8
1
  2
_OBLIQUE
 10
-16.0
 20
-13.396217150449949
 30
0.0
 41
2.0
 42
2.0
 43
2.0
 50
180.0
  0
INSERT
  5
39D
  8
1
  2
_OBLIQUE
 10
-11.0
 20
-13.396217150449949
 30
0.0
 41
2.0
 42
2.0
 43
2.0
  0
TEXT
  5
39E
  8
0
 10
-14.86323328785811
 20
-12.3365309294404
 30
0.0
 40
3.5
  1
5
  7
BESCHLAG
  0
POINT
  5
39F
  8
DEFPOINTS
 62
     0
 10
-16.0
 20
3.5839758376896489
 30
0.0
  0
POINT
  5
3A0
  8
DEFPOINTS
 62
     0
 10
-11.0
 20
8.0
 30
0.0
  0
POINT
  5
3A1
  8
DEFPOINTS
 62
     0
 10
-11.0
 20
-13.396217150449949
 30
0.0
  0
ENDBLK
  5
372
  8
0
  0
ENDSEC
  0
SECTION
  2
ENTITIES
  0
INSERT
  5
25B
  8
5
  2
NULLPUNKT
 10
0.0
 20
0.0
 30
0.0
  0
DIMENSION
  5
325
  8
1
  2
*D3
 10
-129.9998974544007
 20
-13.396217150449949
 30
0.0
 11
-79.999948727200376
 21
-10.609211693424029
 31
0.0
 70
     0
 13
-30.0
 23
16.0
 33
0.0
 14
-129.9998974544007
 24
-8.0
 34
0.0
  0
INSERT
  5
326
  8
2
  2
*X2
 10
-1082.2015046438071
 20
235.01529572677799
 30
0.0
1001
ACAD
1000
HATCH
1002
{
1070
    16
1000
_U,I
1040
1.1999999999999991
1040
0.7853981633974483
1070
     0
1002
}
  0
POINT
  5
327
  8
5
 10
-20.0
 20
10.5
 30
0.0
  0
POLYLINE
  5
328
  8
5
 66
     1
 10
0.0
 20
0.0
 30
0.0
  0
VERTEX
  5
492
  8
5
 10
0.0
 20
-11.98615426501919
 30
0.0
  0
VERTEX
  5
493
  8
5
 10
0.0
 20
0.0
 30
0.0
  0
VERTEX
  5
494
  8
5
 10
-45.0
 20
0.0
 30
0.0
  0
VERTEX
  5
495
  8
5
 10
-45.0
 20
-11.98615426501919
 30
0.0
  0
SEQEND
  5
496
  8
5
  0
DIMENSION
  5
329
  8
1
  2
*D4
 10
-16.0
 20
-13.396217150449949
 30
0.0
 11
-23.0
 21
-10.63905480392881
 31
0.0
 70
     0
 13
-30.0
 23
18.0
 33
0.0
 14
-16.0
 24
18.0
 34
0.0
  0
LINE
  5
32A
  8
6
  6
STRICHPUNKT
 10
-24.25
 20
19.099216077310299
 30
0.0
 11
-24.25
 21
-15.859470512911679
 31
0.0
  0
DIMENSION
  5
32B
  8
1
  2
*D5
 10
-39.959213450556938
 20
0.0000000000000028
 30
0.0
 11
-42.746218907582858
 21
11.111101637107771
 31
0.0
 70
   128
 13
-30.0
 23
18.0
 33
0.0
 14
-30.0
 24
0.0
 34
0.0
 50
90.0
  0
TEXT
  5
32C
  8
1
 10
-100.63563473376411
 20
7.77141386132348
 30
0.0
 40
2.5
  1
Hebgo 161/620
  0
POLYLINE
  5
32D
  8
6
 66
     1
 10
0.0
 20
0.0
 30
0.0
  0
VERTEX
  5
497
  8
6
 10
-28.5
 20
7.9123482502579909
 30
0.0
  0
VERTEX
  5
498
  8
6
 10
-123.5738020054407
 20
-3.070923678890721
 30
0.0
 42
0.3787463949118454
  0
VERTEX
  5
499
  8
6
 10
-127.9998564351515
 20
-8.0
 30
0.0
  0
VERTEX
  5
49A
  8
6
 10
-129.9998974544007
 20
-8.0
 30
0.0
 42
-0.1447160856908663
  0
VERTEX
  5
49B
  8
6
 10
-128.85414036704441
 20
-4.2000464626316889
 30
0.0
  0
VERTEX
  5
49C
  8
6
 10
-128.9820552322378
 20
-2.7261088867151102
 30
0.0
  0
VERTEX
  5
49D
  8
6
 10
-127.4901696086783
 20
-2.667752169402319
 30
0.0
  0
VERTEX
  5
49E
  8
6
 10
-127.1749644434701
 20
-1.2136921526350759
 30
0.0
  0
VERTEX
  5
49F
  8
6
 10
-125.73267999122039
 20
-1.5933214196354579
 30
0.0
  0
VERTEX
  5
4A0
  8
6
 10
-125.0073110056171
 20
-0.2938143625058274
 30
0.0
  0
VERTEX
  5
4A1
  8
6
 10
-123.8033228076176
 20
-1.084137278351363
 30
0.0
  0
VERTEX
  5
4A2
  8
6
 10
-123.8002339063994
 20
-1.083780437230871
 30
0.0
  0
VERTEX
  5
4A3
  8
6
 10
-122.92160110721829
 20
0.0243731641271552
 30
0.0
  0
VERTEX
  5
4A4
  8
6
 10
-121.8134475058602
 20
-0.8542596350544044
 30
0.0
  0
VERTEX
  5
4A5
  8
6
 10
-120.93481470667869
 20
0.2538939663036217
 30
0.0
  0
VERTEX
  5
4A6
  8
6
 10
-119.8266611053206
 20
-0.624738832877938
 30
0.0
  0
VERTEX
  5
4A7
  8
6
 10
-118.94802830613951
 20
0.4834147684800883
 30
0.0
  0
VERTEX
  5
4A8
  8
6
 10
-117.83987470478149
 20
-0.395218030701244
 30
0.0
  0
VERTEX
  5
4A9
  8
6
 10
-116.96124190559991
 20
0.7129355706565548
 30
0.0
  0
VERTEX
  5
4AA
  8
6
 10
-115.85308830424189
 20
-0.1656972285247775
 30
0.0
  0
VERTEX
  5
4AB
  8
6
 10
-114.9744555050604
 20
0.9424563728330213
 30
0.0
  0
VERTEX
  5
4AC
  8
6
 10
-113.86630190370281
 20
0.063823573651689
 30
0.0
  0
VERTEX
  5
4AD
  8
6
 10
-112.9876691045212
 20
1.1719771750094869
 30
0.0
  0
VERTEX
  5
4AE
  8
6
 10
-111.8795155031632
 20
0.2933443758281555
 30
0.0
  0
VERTEX
  5
4AF
  8
6
 10
-79.097539894263718
 20
4.0804376117403081
 30
0.0
  0
VERTEX
  5
4B0
  8
6
 10
-78.218907095081704
 20
5.1885912130983343
 30
0.0
  0
VERTEX
  5
4B1
  8
6
 10
-77.110753493723678
 20
4.3099584139170011
 30
0.0
  0
VERTEX
  5
4B2
  8
6
 10
-76.232120694542573
 20
5.4181120152747999
 30
0.0
  0
VERTEX
  5
4B3
  8
6
 10
-75.123967093184547
 20
4.5394792160934676
 30
0.0
  0
VERTEX
  5
4B4
  8
6
 10
-74.245334294003442
 20
5.6476328174512673
 30
0.0
  0
VERTEX
  5
4B5
  8
6
 10
-73.137180692645416
 20
4.769000018269935
 30
0.0
  0
VERTEX
  5
4B6
  8
6
 10
-72.258547893463401
 20
5.877153619627733
 30
0.0
  0
VERTEX
  5
4B7
  8
6
 10
-71.150394292105375
 20
4.9985208204464007
 30
0.0
  0
VERTEX
  5
4B8
  8
6
 10
-70.27176149292427
 20
6.1066744218044269
 30
0.0
  0
VERTEX
  5
4B9
  8
6
 10
-69.163607891566244
 20
5.2280416226228681
 30
0.0
  0
VERTEX
  5
4BA
  8
6
 10
-30.158534679332661
 20
9.7340497622974453
 30
0.0
 42
0.4578895527313686
  0
VERTEX
  5
4BB
  8
6
 10
-28.45620382893139
 20
12.238474253041881
 30
0.0
  0
VERTEX
  5
4BC
  8
6
 10
-29.89881013603371
 20
17.62235428646931
 30
0.0
 42
-0.4931454260312986
  0
VERTEX
  5
4BD
  8
6
 10
-29.60903238814717
 20
18.0
 30
0.0
  0
VERTEX
  5
4BE
  8
6
 10
-25.0
 20
18.0
 30
0.0
  0
VERTEX
  5
4BF
  8
6
 10
-24.25
 20
17.25
 30
0.0
  0
VERTEX
  5
4C0
  8
6
 10
-23.5
 20
18.0
 30
0.0
  0
VERTEX
  5
4C1
  8
6
 10
-16.299999999999269
 20
18.0
 30
0.0
 42
-0.4142135623731018
  0
VERTEX
  5
4C2
  8
6
 10
-16.0
 20
17.700000000000269
 30
0.0
  0
VERTEX
  5
4C3
  8
6
 10
-16.0
 20
15.5
 30
0.0
 42
-0.4142135623730904
  0
VERTEX
  5
4C4
  8
6
 10
-17.0
 20
14.5
 30
0.0
  0
VERTEX
  5
4C5
  8
6
 10
-17.199999999999811
 20
14.5
 30
0.0
 42
-0.4142135623730951
  0
VERTEX
  5
4C6
  8
6
 10
-17.5
 20
14.80000000000018
 30
0.0
  0
VERTEX
  5
4C7
  8
6
 10
-17.5
 20
16.200000000000038
 30
0.0
 42
0.414213562373096
  0
VERTEX
  5
4C8
  8
6
 10
-17.799999999999269
 20
16.5
 30
0.0
  0
VERTEX
  5
4C9
  8
6
 10
-19.699999999999811
 20
16.5
 30
0.0
 42
0.4142135623730951
  0
VERTEX
  5
4CA
  8
6
 10
-20.0
 20
16.200000000000038
 30
0.0
  0
VERTEX
  5
4CB
  8
6
 10
-20.0
 20
4.800000000000181
 30
0.0
 42
0.4142135623730951
  0
VERTEX
  5
4CC
  8
6
 10
-19.699999999999811
 20
4.5
 30
0.0
  0
VERTEX
  5
4CD
  8
6
 10
-17.799999999999269
 20
4.5
 30
0.0
 42
0.4142135623730951
  0
VERTEX
  5
4CE
  8
6
 10
-17.5
 20
4.800000000000181
 30
0.0
  0
VERTEX
  5
4CF
  8
6
 10
-17.5
 20
6.2000000000000446
 30
0.0
 42
-0.4142135623730951
  0
VERTEX
  5
4D0
  8
6
 10
-17.199999999999811
 20
6.5
 30
0.0
  0
VERTEX
  5
4D1
  8
6
 10
-17.0
 20
6.5
 30
0.0
 42
-0.4142135623730951
  0
VERTEX
  5
4D2
  8
6
 10
-16.0
 20
5.5
 30
0.0
  0
VERTEX
  5
4D3
  8
6
 10
-16.0
 20
2.0
 30
0.0
  0
VERTEX
  5
4D4
  8
6
 10
-0.5
 20
2.0
 30
0.0
 42
-0.4142135623730951
  0
VERTEX
  5
4D5
  8
6
 10
0.0
 20
1.5
 30
0.0
  0
VERTEX
  5
4D6
  8
6
 10
0.0
 20
0.2000000000005002
 30
0.0
  0
VERTEX
  5
4D7
  8
6
 10
-0.1999999999998181
 20
0.0
 30
0.0
  0
VERTEX
  5
4D8
  8
6
 10
-0.4499999999998181
 20
0.25
 30
0.0
  0
VERTEX
  5
4D9
  8
6
 10
-0.6999999999998181
 20
0.0
 30
0.0
  0
VERTEX
  5
4DA
  8
6
 10
-0.9499999999998181
 20
0.25
 30
0.0
  0
VERTEX
  5
4DB
  8
6
 10
-1.1999999999998181
 20
0.0
 30
0.0
  0
VERTEX
  5
4DC
  8
6
 10
-1.4499999999998181
 20
0.25
 30
0.0
  0
VERTEX
  5
4DD
  8
6
 10
-1.6999999999998181
 20
0.0
 30
0.0
  0
VERTEX
  5
4DE
  8
6
 10
-1.9499999999998181
 20
0.25
 30
0.0
  0
VERTEX
  5
4DF
  8
6
 10
-2.1999999999998181
 20
0.0
 30
0.0
  0
VERTEX
  5
4E0
  8
6
 10
-2.4499999999998181
 20
0.25
 30
0.0
  0
VERTEX
  5
4E1
  8
6
 10
-2.6999999999998181
 20
0.0
 30
0.0
  0
VERTEX
  5
4E2
  8
6
 10
-2.9499999999998181
 20
0.25
 30
0.0
  0
VERTEX
  5
4E3
  8
6
 10
-3.1999999999998181
 20
0.0
 30
0.0
  0
VERTEX
  5
4E4
  8
6
 10
-3.4499999999998181
 20
0.25
 30
0.0
  0
VERTEX
  5
4E5
  8
6
 10
-3.6999999999998181
 20
0.0
 30
0.0
  0
VERTEX
  5
4E6
  8
6
 10
-3.9499999999998181
 20
0.25
 30
0.0
  0
VERTEX
  5
4E7
  8
6
 10
-4.1999999999998181
 20
0.0
 30
0.0
  0
VERTEX
  5
4E8
  8
6
 10
-4.4499999999998181
 20
0.25
 30
0.0
  0
VERTEX
  5
4E9
  8
6
 10
-4.6999999999998181
 20
0.0
 30
0.0
  0
VERTEX
  5
4EA
  8
6
 10
-4.9499999999998181
 20
0.25
 30
0.0
  0
VERTEX
  5
4EB
  8
6
 10
-5.1999999999998181
 20
0.0
 30
0.0
  0
VERTEX
  5
4EC
  8
6
 10
-5.4499999999998181
 20
0.25
 30
0.0
  0
VERTEX
  5
4ED
  8
6
 10
-5.6999999999998181
 20
0.0
 30
0.0
  0
VERTEX
  5
4EE
  8
6
 10
-5.9499999999998181
 20
0.25
 30
0.0
  0
VERTEX
  5
4EF
  8
6
 10
-6.1999999999998181
 20
0.0
 30
0.0
  0
VERTEX
  5
4F0
  8
6
 10
-6.4499999999998181
 20
0.25
 30
0.0
  0
VERTEX
  5
4F1
  8
6
 10
-6.6999999999998181
 20
0.0
 30
0.0
  0
VERTEX
  5
4F2
  8
6
 10
-6.9499999999998181
 20
0.25
 30
0.0
  0
VERTEX
  5
4F3
  8
6
 10
-7.1999999999998181
 20
0.0
 30
0.0
  0
VERTEX
  5
4F4
  8
6
 10
-7.4499999999998181
 20
0.25
 30
0.0
  0
VERTEX
  5
4F5
  8
6
 10
-7.6999999999998181
 20
0.0
 30
0.0
  0
VERTEX
  5
4F6
  8
6
 10
-7.9499999999998181
 20
0.25
 30
0.0
  0
VERTEX
  5
4F7
  8
6
 10
-8.1999999999998181
 20
0.0
 30
0.0
  0
VERTEX
  5
4F8
  8
6
 10
-8.4499999999998181
 20
0.25
 30
0.0
  0
VERTEX
  5
4F9
  8
6
 10
-8.6999999999998181
 20
0.0
 30
0.0
  0
VERTEX
  5
4FA
  8
6
 10
-8.9499999999998181
 20
0.25
 30
0.0
  0
VERTEX
  5
4FB
  8
6
 10
-9.1999999999998181
 20
0.0
 30
0.0
  0
VERTEX
  5
4FC
  8
6
 10
-9.4499999999998181
 20
0.25
 30
0.0
  0
VERTEX
  5
4FD
  8
6
 10
-9.6999999999998181
 20
0.0
 30
0.0
  0
VERTEX
  5
4FE
  8
6
 10
-9.9499999999998181
 20
0.25
 30
0.0
  0
VERTEX
  5
4FF
  8
6
 10
-10.199999999999809
 20
0.0
 30
0.0
  0
VERTEX
  5
500
  8
6
 10
-10.449999999999809
 20
0.25
 30
0.0
  0
VERTEX
  5
501
  8
6
 10
-10.699999999999809
 20
0.0
 30
0.0
  0
VERTEX
  5
502
  8
6
 10
-10.949999999999809
 20
0.25
 30
0.0
  0
VERTEX
  5
503
  8
6
 10
-11.199999999999809
 20
0.0
 30
0.0
  0
VERTEX
  5
504
  8
6
 10
-11.449999999999809
 20
0.25
 30
0.0
  0
VERTEX
  5
505
  8
6
 10
-11.699999999999809
 20
0.0
 30
0.0
  0
VERTEX
  5
506
  8
6
 10
-11.949999999999809
 20
0.25
 30
0.0
  0
VERTEX
  5
507
  8
6
 10
-12.199999999999809
 20
0.0
 30
0.0
  0
VERTEX
  5
508
  8
6
 10
-12.449999999999809
 20
0.25
 30
0.0
  0
VERTEX
  5
509
  8
6
 10
-12.699999999999809
 20
0.0
 30
0.0
  0
VERTEX
  5
50A
  8
6
 10
-12.949999999999809
 20
0.25
 30
0.0
  0
VERTEX
  5
50B
  8
6
 10
-13.199999999999809
 20
0.0
 30
0.0
  0
VERTEX
  5
50C
  8
6
 10
-13.449999999999809
 20
0.25
 30
0.0
  0
VERTEX
  5
50D
  8
6
 10
-13.699999999999809
 20
0.0
 30
0.0
  0
VERTEX
  5
50E
  8
6
 10
-13.949999999999809
 20
0.25
 30
0.0
  0
VERTEX
  5
50F
  8
6
 10
-14.199999999999809
 20
0.0
 30
0.0
  0
VERTEX
  5
510
  8
6
 10
-14.449999999999809
 20
0.25
 30
0.0
  0
VERTEX
  5
511
  8
6
 10
-14.699999999999809
 20
0.0
 30
0.0
  0
VERTEX
  5
512
  8
6
 10
-14.949999999999809
 20
0.25
 30
0.0
  0
VERTEX
  5
513
  8
6
 10
-15.199999999999809
 20
0.0
 30
0.0
  0
VERTEX
  5
514
  8
6
 10
-15.449999999999809
 20
0.25
 30
0.0
  0
VERTEX
  5
515
  8
6
 10
-15.699999999999809
 20
0.0
 30
0.0
  0
VERTEX
  5
516
  8
6
 10
-15.949999999999809
 20
0.25
 30
0.0
  0
VERTEX
  5
517
  8
6
 10
-16.199999999999811
 20
0.0
 30
0.0
  0
VERTEX
  5
518
  8
6
 10
-16.449999999999811
 20
0.25
 30
0.0
  0
VERTEX
  5
519
  8
6
 10
-16.699999999999811
 20
0.0
 30
0.0
  0
VERTEX
  5
51A
  8
6
 10
-16.949999999999811
 20
0.25
 30
0.0
  0
VERTEX
  5
51B
  8
6
 10
-17.199999999999811
 20
0.0
 30
0.0
  0
VERTEX
  5
51C
  8
6
 10
-17.449999999999811
 20
0.25
 30
0.0
  0
VERTEX
  5
51D
  8
6
 10
-17.699999999999811
 20
0.0
 30
0.0
  0
VERTEX
  5
51E
  8
6
 10
-17.949999999999811
 20
0.25
 30
0.0
  0
VERTEX
  5
51F
  8
6
 10
-18.199999999999811
 20
0.0
 30
0.0
  0
VERTEX
  5
520
  8
6
 10
-18.449999999999811
 20
0.25
 30
0.0
  0
VERTEX
  5
521
  8
6
 10
-18.699999999999811
 20
0.0
 30
0.0
  0
VERTEX
  5
522
  8
6
 10
-22.0
 20
3.300000000000181
 30
0.0
  0
VERTEX
  5
523
  8
6
 10
-22.0
 20
14.70000000000004
 30
0.0
 42
0.4142135623730951
  0
VERTEX
  5
524
  8
6
 10
-22.299999999999269
 20
15.00000000000022
 30
0.0
  0
VERTEX
  5
525
  8
6
 10
-26.199999999999811
 20
15.0
 30
0.0
 42
0.4142135623730951
  0
VERTEX
  5
526
  8
6
 10
-26.5
 20
14.70000000000004
 30
0.0
  0
VERTEX
  5
527
  8
6
 10
-26.5
 20
4.0
 30
0.0
  0
VERTEX
  5
528
  8
6
 10
-30.5
 20
0.0
 30
0.0
  0
VERTEX
  5
529
  8
6
 10
-30.75
 20
0.25
 30
0.0
  0
VERTEX
  5
52A
  8
6
 10
-31.0
 20
0.0
 30
0.0
  0
VERTEX
  5
52B
  8
6
 10
-31.25
 20
0.25
 30
0.0
  0
VERTEX
  5
52C
  8
6
 10
-31.5
 20
0.0
 30
0.0
  0
VERTEX
  5
52D
  8
6
 10
-31.75
 20
0.25
 30
0.0
  0
VERTEX
  5
52E
  8
6
 10
-32.0
 20
0.0
 30
0.0
  0
VERTEX
  5
52F
  8
6
 10
-32.25
 20
0.25
 30
0.0
  0
VERTEX
  5
530
  8
6
 10
-32.5
 20
0.0
 30
0.0
  0
VERTEX
  5
531
  8
6
 10
-32.75
 20
0.25
 30
0.0
  0
VERTEX
  5
532
  8
6
 10
-33.0
 20
0.0
 30
0.0
  0
VERTEX
  5
533
  8
6
 10
-33.25
 20
0.25
 30
0.0
  0
VERTEX
  5
534
  8
6
 10
-33.5
 20
0.0
 30
0.0
  0
VERTEX
  5
535
  8
6
 10
-33.75
 20
0.25
 30
0.0
  0
VERTEX
  5
536
  8
6
 10
-34.0
 20
0.0
 30
0.0
  0
VERTEX
  5
537
  8
6
 10
-34.25
 20
0.25
 30
0.0
  0
VERTEX
  5
538
  8
6
 10
-34.5
 20
0.0
 30
0.0
  0
VERTEX
  5
539
  8
6
 10
-34.75
 20
0.25
 30
0.0
  0
VERTEX
  5
53A
  8
6
 10
-35.0
 20
0.0
 30
0.0
  0
VERTEX
  5
53B
  8
6
 10
-35.25
 20
0.25
 30
0.0
  0
VERTEX
  5
53C
  8
6
 10
-35.5
 20
0.0
 30
0.0
  0
VERTEX
  5
53D
  8
6
 10
-35.75
 20
0.25
 30
0.0
  0
VERTEX
  5
53E
  8
6
 10
-36.0
 20
0.0
 30
0.0
  0
VERTEX
  5
53F
  8
6
 10
-36.25
 20
0.25
 30
0.0
  0
VERTEX
  5
540
  8
6
 10
-36.499999999999091
 20
0.0
 30
0.0
  0
VERTEX
  5
541
  8
6
 10
-36.749999999999091
 20
0.25
 30
0.0
  0
VERTEX
  5
542
  8
6
 10
-37.0
 20
0.0
 30
0.0
  0
VERTEX
  5
543
  8
6
 10
-37.0
 20
1.5
 30
0.0
 42
-0.4142135623730951
  0
VERTEX
  5
544
  8
6
 10
-36.5
 20
2.0
 30
0.0
  0
VERTEX
  5
545
  8
6
 10
-31.328427124745751
 20
2.0
 30
0.0
  0
VERTEX
  5
546
  8
6
 10
-28.5
 20
4.8284271247462121
 30
0.0
  0
VERTEX
  5
547
  8
6
 10
-28.5
 20
8.022188660474967
 30
0.0
  0
SEQEND
  5
548
  8
6
  0
POLYLINE
  5
32E
  8
4
 66
     1
 10
0.0
 20
0.0
 30
0.0
  0
VERTEX
  5
549
  8
4
 10
-127.9998564351515
 20
-8.0
 30
0.0
  0
VERTEX
  5
54A
  8
4
 10
-129.9998974544007
 20
-8.0
 30
0.0
  0
VERTEX
  5
54B
  8
4
 10
-129.9998974544007
 20
-1.656051487256718
 30
0.0
  0
VERTEX
  5
54C
  8
4
 10
-27.844321083261999
 20
9.9941791484054647
 30
0.0
  0
VERTEX
  5
54D
  8
4
 10
-30.0
 20
18.0
 30
0.0
  0
VERTEX
  5
54E
  8
4
 10
-16.0
 20
18.0
 30
0.0
  0
VERTEX
  5
54F
  8
4
 10
-16.0
 20
2.0
 30
0.0
  0
VERTEX
  5
550
  8
4
 10
0.0
 20
2.0
 30
0.0
  0
VERTEX
  5
551
  8
4
 10
0.0
 20
0.0
 30
0.0
  0
VERTEX
  5
552
  8
4
 10
-37.0
 20
0.0
 30
0.0
  0
VERTEX
  5
553
  8
4
 10
-37.0
 20
2.0
 30
0.0
  0
SEQEND
  5
554
  8
4
  0
POLYLINE
  5
32F
  8
5
 66
     1
 10
0.0
 20
0.0
 30
0.0
  0
VERTEX
  5
555
  8
5
 10
-50.0
 20
-11.96316912996212
 30
0.0
  0
VERTEX
  5
556
  8
5
 10
-50.0
 20
0.0
 30
0.0
  0
VERTEX
  5
557
  8
5
 10
-134.02908866662449
 20
-9.676351683048324
 30
0.0
  0
SEQEND
  5
558
  8
5
  0
POINT
  5
330
  8
5
 10
-20.0
 20
10.5
 30
0.0
  0
DIMENSION
  5
331
  8
1
  2
*D6
 10
-0.0000000000000008
 20
-13.396217150449949
 30
0.0
 11
-5.5
 21
-10.63905480392881
 31
0.0
 70
     0
 13
-11.0
 23
8.0
 33
0.0
 14
0.0
 24
0.0
 34
0.0
  0
DIMENSION
  5
332
  8
1
  2
*D7
 10
-11.0
 20
-13.396217150449949
 30
0.0
 11
-13.5
 21
-10.61637403994518
 31
0.0
 70
     0
 13
-16.0
 23
3.5839758376896489
 33
0.0
 14
-11.0
 24
8.0
 34
0.0
  0
POLYLINE
  5
333
  8
6
 66
     1
 10
0.0
 20
0.0
 30
0.0
 70
     1
  0
VERTEX
  5
559
  8
6
 10
-20.0
 20
7.8133250889438841
 30
0.0
 42
0.6415838065530063
  0
VERTEX
  5
55A
  8
6
 10
-19.617423695441168
 20
13.188897230028941
 30
0.0
 42
-0.5157822426877657
  0
VERTEX
  5
55B
  8
6
 10
-19.703928960500878
 20
14.49925397000106
 30
0.0
  0
VERTEX
  5
55C
  8
6
 10
-18.337272375551031
 20
15.29625149267053
 30
0.0
  0
VERTEX
  5
55D
  8
6
 10
-17.668568730952749
 20
15.29625149267053
 30
0.0
  0
VERTEX
  5
55E
  8
6
 10
-17.668568730952749
 20
14.46210850165471
 30
0.0
  0
VERTEX
  5
55F
  8
6
 10
-16.230935659478739
 20
14.46210850165471
 30
0.0
 42
-0.2542712822039416
  0
VERTEX
  5
560
  8
6
 10
-14.67582565022348
 20
15.40978654092828
 30
0.0
 42
-0.239805045364585
  0
VERTEX
  5
561
  8
6
 10
-12.455637187003051
 20
14.38254359828283
 30
0.0
 42
-0.0952903634792644
  0
VERTEX
  5
562
  8
6
 10
-11.52493736024644
 20
12.26031807170966
 30
0.0
 42
-0.0700993617324612
  0
VERTEX
  5
563
  8
6
 10
-11.369994368525109
 20
6.5363641014473606
 30
0.0
 42
-0.9870930961173433
  0
VERTEX
  5
564
  8
6
 10
-12.02529230748768
 20
6.6341967388443663
 30
0.0
 42
0.0371998225987245
  0
VERTEX
  5
565
  8
6
 10
-12.16794881198075
 20
11.098556315047061
 30
0.0
 42
0.0985543060514419
  0
VERTEX
  5
566
  8
6
 10
-12.95444604841486
 20
13.05201935194054
 30
0.0
 42
0.1211139390109317
  0
VERTEX
  5
567
  8
6
 10
-13.892506930418669
 20
13.81870506498398
 30
0.0
 42
0.2870603126370058
  0
VERTEX
  5
568
  8
6
 10
-14.86165644028369
 20
13.54118270557683
 30
0.0
 42
0.1002807908351088
  0
VERTEX
  5
569
  8
6
 10
-15.32134303230759
 20
12.288924591372499
 30
0.0
 42
0.0333497571445928
  0
VERTEX
  5
56A
  8
6
 10
-15.782926659333491
 20
7.6646737218534318
 30
0.0
 42
-0.4545352424188308
  0
VERTEX
  5
56B
  8
6
 10
-16.284964579749609
 20
6.9616266327120684
 30
0.0
  0
VERTEX
  5
56C
  8
6
 10
-17.76648451310211
 20
6.3896150620262233
 30
0.0
 42
0.3791917245757989
  0
VERTEX
  5
56D
  8
6
 10
-17.932754147530432
 20
5.7145697140008451
 30
0.0
  0
VERTEX
  5
56E
  8
6
 10
-17.67277291862592
 20
5.0035953429874089
 30
0.0
  0
VERTEX
  5
56F
  8
6
 10
-18.08495784298702
 20
4.6077885877853069
 30
0.0
  0
VERTEX
  5
570
  8
6
 10
-18.26302168944175
 20
4.5978934286265476
 30
0.0
  0
VERTEX
  5
571
  8
6
 10
-20.0
 20
5.6351737953209522
 30
0.0
  0
SEQEND
  5
572
  8
6
  0
POLYLINE
  5
334
  8
5
 66
     1
 10
0.0
 20
0.0
 30
0.0
  0
VERTEX
  5
573
  8
5
 10
-35.288490494427599
 20
24.0
 30
0.0
  0
VERTEX
  5
574
  8
5
 10
-11.0
 20
24.0
 30
0.0
  0
VERTEX
  5
575
  8
5
 10
-11.0
 20
8.0
 30
0.0
  0
VERTEX
  5
576
  8
5
 10
7.8132825182092338
 20
8.0
 30
0.0
  0
SEQEND
  5
577
  8
5
  0
VIEWPORT
  5
22
 67
     1
  8
0
 10
210.0
 20
170.2366863905325
 30
0.0
 40
420.0
 41
340.47337278106511
 68
     1
 69
     1
1001
ACAD
1000
MVIEW
1002
{
1070
    16
1010
0.0
1020
0.0
1030
0.0
1010
0.0
1020
0.0
1030
1.0
1040
0.0
1040
340.47337278106511
1040
210.0
1040
170.2366863905325
1040
50.0
1040
0.0
1040
0.0
1070
     0
1070
   100
1070
     1
1070
     1
1070
     0
1070
     0
1070
     0
1070
     0
1040
0.0
1040
0.0
1040
0.0
1040
5.0
1040
5.0
1040
10.0
1040
10.0
1070
     0
1002
{
1002
}
1002
}
  0
ENDSEC
  0
EOF
