  0
SECTION
  2
HEADER
  9
$ACADVER
  1
AC1009
  9
$INSBASE
 10
0.0
 20
0.0
 30
0.0
  9
$EXTMIN
 10
-101.30023293923681
 20
-27.892269185878359
 30
0.0
  9
$EXTMAX
 10
11.6099191423309
 20
33.891008707262237
 30
0.0
  9
$LIMMIN
 10
-150.0
 20
-150.0
  9
$LIMMAX
 10
150.0
 20
150.0
  9
$ORTHOMODE
 70
     0
  9
$REGENMODE
 70
     1
  9
$FILLMODE
 70
     1
  9
$QTEXTMODE
 70
     0
  9
$MIRRTEXT
 70
     0
  9
$DRAGMODE
 70
     2
  9
$LTSCALE
 40
4.0
  9
$OSMODE
 70
   111
  9
$ATTMODE
 70
     1
  9
$TEXTSIZE
 40
3.5
  9
$TRACEWID
 40
1.0
  9
$TEXTSTYLE
  7
BESCHLAG
  9
$CLAYER
  8
0
  9
$CELTYPE
  6
BYLAYER
  9
$CECOLOR
 62
   256
  9
$DIMSCALE
 40
1.0
  9
$DIMASZ
 40
2.0
  9
$DIMEXO
 40
2.0
  9
$DIMDLI
 40
0.0
  9
$DIMRND
 40
0.0
  9
$DIMDLE
 40
1.0
  9
$DIMEXE
 40
1.0
  9
$DIMTP
 40
0.0
  9
$DIMTM
 40
0.0
  9
$DIMTXT
 40
3.5
  9
$DIMCEN
 40
0.0
  9
$DIMTSZ
 40
0.0
  9
$DIMTOL
 70
     0
  9
$DIMLIM
 70
     0
  9
$DIMTIH
 70
     0
  9
$DIMTOH
 70
     0
  9
$DIMSE1
 70
     0
  9
$DIMSE2
 70
     0
  9
$DIMTAD
 70
     1
  9
$DIMZIN
 70
     8
  9
$DIMBLK
  1

  9
$DIMASO
 70
     1
  9
$DIMSHO
 70
     1
  9
$DIMPOST
  1

  9
$DIMAPOST
  1

  9
$DIMALT
 70
     0
  9
$DIMALTD
 70
     2
  9
$DIMALTF
 40
0.039370078740157
  9
$DIMLFAC
 40
1.0
  9
$DIMTOFL
 70
     1
  9
$DIMTVP
 40
0.0
  9
$DIMTIX
 70
     1
  9
$DIMSOXD
 70
     0
  9
$DIMSAH
 70
     1
  9
$DIMBLK1
  1
OBLIQUE
  9
$DIMBLK2
  1
OBLIQUE
  9
$DIMSTYLE
  2
OPO-SSTRICH
  9
$DIMCLRD
 70
   256
  9
$DIMCLRE
 70
   256
  9
$DIMCLRT
 70
   256
  9
$DIMTFAC
 40
0.7114285714285716
  9
$DIMGAP
 40
1.0
  9
$LUNITS
 70
     2
  9
$LUPREC
 70
     1
  9
$SKETCHINC
 40
1.0
  9
$FILLETRAD
 40
0.0
  9
$AUNITS
 70
     0
  9
$AUPREC
 70
     1
  9
$MENU
  1
D:\ACL_CGWG\CGTAB13
  9
$ELEVATION
 40
0.0
  9
$PELEVATION
 40
0.0
  9
$THICKNESS
 40
0.0
  9
$LIMCHECK
 70
     0
  9
$BLIPMODE
 70
     0
  9
$CHAMFERA
 40
1.0
  9
$CHAMFERB
 40
1.0
  9
$SKPOLY
 70
     0
  9
$TDCREATE
 40
2451739.888532442
  9
$TDUPDATE
 40
2452087.6189342239
  9
$TDINDWG
 40
0.0013834491
  9
$TDUSRTIMER
 40
0.0013834491
  9
$USRTIMER
 70
     1
  9
$ANGBASE
 50
0.0
  9
$ANGDIR
 70
     0
  9
$PDMODE
 70
    35
  9
$PDSIZE
 40
5.0
  9
$PLINEWID
 40
0.0
  9
$COORDS
 70
     1
  9
$SPLFRAME
 70
     0
  9
$SPLINETYPE
 70
     6
  9
$SPLINESEGS
 70
     8
  9
$ATTDIA
 70
     1
  9
$ATTREQ
 70
     1
  9
$HANDLING
 70
-16383
  9
$HANDSEED
  5
655
  9
$SURFTAB1
 70
    12
  9
$SURFTAB2
 70
    12
  9
$SURFTYPE
 70
     6
  9
$SURFU
 70
    12
  9
$SURFV
 70
    12
  9
$UCSNAME
  2

  9
$UCSORG
 10
0.0
 20
0.0
 30
0.0
  9
$UCSXDIR
 10
1.0
 20
0.0
 30
0.0
  9
$UCSYDIR
 10
0.0
 20
1.0
 30
0.0
  9
$PUCSNAME
  2

  9
$PUCSORG
 10
0.0
 20
0.0
 30
0.0
  9
$PUCSXDIR
 10
1.0
 20
0.0
 30
0.0
  9
$PUCSYDIR
 10
0.0
 20
1.0
 30
0.0
  9
$USERI1
 70
     0
  9
$USERI2
 70
     0
  9
$USERI3
 70
     0
  9
$USERI4
 70
     0
  9
$USERI5
 70
     0
  9
$USERR1
 40
0.0
  9
$USERR2
 40
0.0
  9
$USERR3
 40
0.0
  9
$USERR4
 40
0.0
  9
$USERR5
 40
0.0
  9
$WORLDVIEW
 70
     1
  9
$SHADEDGE
 70
     3
  9
$SHADEDIF
 70
    70
  9
$TILEMODE
 70
     1
  9
$MAXACTVP
 70
    48
  9
$PLIMCHECK
 70
     0
  9
$PEXTMIN
 10
1.0000000000000000E+020
 20
1.0000000000000000E+020
 30
1.0000000000000000E+020
  9
$PEXTMAX
 10
-1.0000000000000000E+020
 20
-1.0000000000000000E+020
 30
-1.0000000000000000E+020
  9
$PLIMMIN
 10
0.0
 20
0.0
  9
$PLIMMAX
 10
420.0
 20
297.0
  9
$UNITMODE
 70
     0
  9
$VISRETAIN
 70
     1
  9
$PLINEGEN
 70
     0
  9
$PSLTSCALE
 70
     1
  0
ENDSEC
  0
SECTION
  2
TABLES
  0
TABLE
  2
VPORT
 70
     2
  0
VPORT
  2
*ACTIVE
 70
     0
 10
0.0
 20
0.0
 11
1.0
 21
1.0
 12
-44.837951013862501
 22
4.1979603233781111
 13
0.0
 23
0.0
 14
0.5
 24
0.5
 15
10.0
 25
10.0
 16
0.0
 26
0.0
 36
1.0
 17
0.0
 27
0.0
 37
0.0
 40
70.669864913683853
 41
1.6070460704607039
 42
50.0
 43
0.0
 44
0.0
 50
0.0
 51
0.0
 71
     0
 72
   800
 73
     1
 74
     1
 75
     0
 76
     0
 77
     0
 78
     0
  0
ENDTAB
  0
TABLE
  2
LTYPE
 70
     2
  0
LTYPE
  2
CONTINUOUS
 70
     0
  3
_______________________________________________
 72
    65
 73
     2
 40
1.0
 49
1.0
 49
0.0
  0
LTYPE
  2
STRICHPUNKT
 70
     0
  3
__ . __ . __ . __ . __ . __ . __ . __ . __ . __
 72
    65
 73
     4
 40
1.0
 49
0.5
 49
-0.25
 49
0.0
 49
-0.25
  0
ENDTAB
  0
TABLE
  2
LAYER
 70
     7
  0
LAYER
  2
0
 70
     0
 62
    30
  6
CONTINUOUS
  0
LAYER
  2
1
 70
     0
 62
     2
  6
CONTINUOUS
  0
LAYER
  2
2
 70
     0
 62
     9
  6
CONTINUOUS
  0
LAYER
  2
4
 70
     1
 62
     4
  6
CONTINUOUS
  0
LAYER
  2
5
 70
     0
 62
     1
  6
CONTINUOUS
  0
LAYER
  2
6
 70
     0
 62
     3
  6
CONTINUOUS
  0
LAYER
  2
DEFPOINTS
 70
     0
 62
     7
  6
CONTINUOUS
  0
ENDTAB
  0
TABLE
  2
STYLE
 70
     2
  0
STYLE
  2
STANDARD
 70
     0
 40
0.0
 41
1.0
 50
0.0
 71
     0
 42
2.5
  3
txt
  4

  0
STYLE
  2
BESCHLAG
 70
     0
 40
0.0
 41
1.0
 50
0.0
 71
     0
 42
3.5
  3
txt
  4

  0
ENDTAB
  0
TABLE
  2
VIEW
 70
     0
  0
ENDTAB
  0
TABLE
  2
UCS
 70
     0
  0
ENDTAB
  0
TABLE
  2
APPID
 70
     1
  0
APPID
  2
ACAD
 70
     0
  0
ENDTAB
  0
TABLE
  2
DIMSTYLE
 70
     1
  0
DIMSTYLE
  2
OPO-SSTRICH
 70
     0
  3

  4

  5

  6
OBLIQUE
  7
OBLIQUE
 40
1.0
 41
2.0
 42
2.0
 43
0.0
 44
1.0
 45
0.0
 46
1.0
 47
0.0
 48
0.0
140
3.5
141
0.0
142
0.0
143
0.039370078740157
144
1.0
145
0.0
146
0.7114285714285716
147
1.0
 71
     0
 72
     0
 73
     0
 74
     0
 75
     0
 76
     0
 77
     1
 78
     8
170
     0
171
     2
172
     1
173
     1
174
     1
175
     0
176
   256
177
   256
178
   256
  0
ENDTAB
  0
ENDSEC
  0
SECTION
  2
BLOCKS
  0
BLOCK
  8
0
  2
$MODEL_SPACE
 70
     0
 10
0.0
 20
0.0
 30
0.0
  3
$MODEL_SPACE
  1

  0
ENDBLK
  5
1C
  8
0
  0
BLOCK
 67
     1
  8
0
  2
$PAPER_SPACE
 70
     0
 10
0.0
 20
0.0
 30
0.0
  3
$PAPER_SPACE
  1

  0
ENDBLK
  5
19
 67
     1
  8
0
  0
BLOCK
  8
0
  2
_OBLIQUE
 70
     0
 10
0.0
 20
0.0
 30
0.0
  3
_OBLIQUE
  1

  0
LINE
  5
204
  8
0
 62
     0
 10
-0.5
 20
-0.5
 30
0.0
 11
0.5
 21
0.5
 31
0.0
  0
ENDBLK
  5
206
  8
0
  0
BLOCK
  8
0
  2
NULLPUNKT
 70
     0
 10
0.0
 20
0.0
 30
0.0
  3
NULLPUNKT
  1

  0
SOLID
  5
254
  8
5
 10
0.0
 20
0.0
 30
0.0
 11
2.0
 21
0.0
 31
0.0
 12
0.0
 22
-2.0
 32
0.0
 13
0.0
 23
-2.0
 33
0.0
  0
SOLID
  5
255
  8
5
 10
0.0
 20
0.0
 30
0.0
 11
-2.0
 21
0.0
 31
0.0
 12
0.0
 22
2.0
 32
0.0
 13
0.0
 23
2.0
 33
0.0
  0
POLYLINE
  5
256
  8
5
 66
     1
 10
0.0
 20
0.0
 30
0.0
  0
VERTEX
  5
525
  8
5
 10
0.0
 20
2.0
 30
0.0
  0
VERTEX
  5
526
  8
5
 10
0.0
 20
-2.0
 30
0.0
  0
SEQEND
  5
527
  8
5
  0
POLYLINE
  5
257
  8
5
 66
     1
 10
0.0
 20
0.0
 30
0.0
  0
VERTEX
  5
528
  8
5
 10
-2.0
 20
0.0
 30
0.0
  0
VERTEX
  5
529
  8
5
 10
2.0
 20
0.0
 30
0.0
  0
SEQEND
  5
52A
  8
5
  0
CIRCLE
  5
258
  8
5
 10
0.0
 20
0.0
 30
0.0
 40
2.0
  0
ENDBLK
  5
25A
  8
0
  0
BLOCK
  8
0
  2
*X2
 70
     1
 10
0.0
 20
0.0
 30
0.0
  3
*X2
  1

  0
LINE
  5
26C
  8
0
 62
     0
 10
609.79711676784711
 20
-293.03682145113657
 30
0.0
 11
612.12395489090022
 21
-290.70998332808352
 31
0.0
  0
LINE
  5
26D
  8
0
 62
     0
 10
607.86252214124715
 20
-293.2743598028888
 30
0.0
 11
610.16373077325022
 21
-290.97315117088579
 31
0.0
  0
LINE
  5
26E
  8
0
 62
     0
 10
605.92792751464742
 20
-293.5118981546409
 30
0.0
 11
608.20350665560011
 21
-291.23631901368822
 31
0.0
  0
LINE
  5
26F
  8
0
 62
     0
 10
603.99333288804735
 20
-293.74943650639318
 30
0.0
 11
606.24328253794999
 21
-291.49948685649048
 31
0.0
  0
LINE
  5
270
  8
0
 62
     0
 10
602.05873826144762
 20
-293.9869748581454
 30
0.0
 11
604.28305842030011
 21
-291.76265469929291
 31
0.0
  0
LINE
  5
271
  8
0
 62
     0
 10
600.12414363484766
 20
-294.22451320989751
 30
0.0
 11
602.32283430264999
 21
-292.02582254209523
 31
0.0
  0
LINE
  5
272
  8
0
 62
     0
 10
603.26112583476083
 20
-291.08753100998427
 30
0.0
 11
603.33034412810889
 21
-291.01831271663627
 31
0.0
  0
LINE
  5
273
  8
0
 62
     0
 10
598.1895490082477
 20
-294.46205156164967
 30
0.0
 11
600.36261018499999
 21
-292.28899038489737
 31
0.0
  0
LINE
  5
274
  8
0
 62
     0
 10
601.11779575427556
 20
-291.53380481562181
 30
0.0
 11
601.37012001045878
 21
-291.28148055943871
 31
0.0
  0
LINE
  5
275
  8
0
 62
     0
 10
596.25495438164785
 20
-294.69958991340189
 30
0.0
 11
598.40238606734988
 21
-292.55215822769981
 31
0.0
  0
LINE
  5
276
  8
0
 62
     0
 10
598.97446567378961
 20
-291.98007862126019
 30
0.0
 11
599.40989589280855
 21
-291.54464840224102
 31
0.0
  0
LINE
  5
277
  8
0
 62
     0
 10
594.32035975504778
 20
-294.93712826515417
 30
0.0
 11
596.44216194969965
 21
-292.81532607050229
 31
0.0
  0
LINE
  5
278
  8
0
 62
     0
 10
596.83113559330479
 20
-292.42635242689721
 30
0.0
 11
597.44967177515855
 21
-291.80781624504328
 31
0.0
  0
LINE
  5
279
  8
0
 62
     0
 10
592.38576512844804
 20
-295.17466661690628
 30
0.0
 11
594.48193783204965
 21
-293.07849391330473
 31
0.0
  0
LINE
  5
27A
  8
0
 62
     0
 10
594.68780551281964
 20
-292.8726262325348
 30
0.0
 11
595.48944765750855
 21
-292.07098408784572
 31
0.0
  0
LINE
  5
27B
  8
0
 62
     0
 10
590.45117050184808
 20
-295.4122049686585
 30
0.0
 11
593.52922353985855
 21
-292.33415193064809
 31
0.0
  0
LINE
  5
27C
  8
0
 62
     0
 10
588.51657587524812
 20
-295.64974332041072
 30
0.0
 11
591.56899942220855
 21
-292.59731977345029
 31
0.0
  0
LINE
  5
27D
  8
0
 62
     0
 10
586.58198124864839
 20
-295.88728167216289
 30
0.0
 11
589.60877530455855
 21
-292.86048761625273
 31
0.0
  0
LINE
  5
27E
  8
0
 62
     0
 10
584.64738662204832
 20
-296.12482002391499
 30
0.0
 11
587.64855118690843
 21
-293.12365545905499
 31
0.0
  0
LINE
  5
27F
  8
0
 62
     0
 10
582.71279199544847
 20
-296.36235837566721
 30
0.0
 11
585.68832706925832
 21
-293.38682330185748
 31
0.0
  0
LINE
  5
280
  8
0
 62
     0
 10
580.77819736884862
 20
-296.59989672741938
 30
0.0
 11
583.72810295160809
 21
-293.64999114465979
 31
0.0
  0
LINE
  5
281
  8
0
 62
     0
 10
578.84360274224855
 20
-296.83743507917171
 30
0.0
 11
581.76787883395809
 21
-293.91315898746211
 31
0.0
  0
LINE
  5
282
  8
0
 62
     0
 10
567.81130452990101
 20
-306.17267701667163
 30
0.0
 11
569.06999386833661
 21
-304.91398767823591
 31
0.0
  0
LINE
  5
283
  8
0
 62
     0
 10
576.90900811564882
 20
-297.07497343092382
 30
0.0
 11
579.80765471630809
 21
-294.17632683026437
 31
0.0
  0
LINE
  5
284
  8
0
 62
     0
 10
567.53841149037794
 20
-304.7485137813469
 30
0.0
 11
568.88440856836837
 21
-303.4025167033563
 31
0.0
  0
LINE
  5
285
  8
0
 62
     0
 10
574.97441348904886
 20
-297.31251178267598
 30
0.0
 11
577.84743059865809
 21
-294.43949467306669
 31
0.0
  0
LINE
  5
286
  8
0
 62
     0
 10
567.35282619040981
 20
-303.2370428064674
 30
0.0
 11
568.69882326840036
 21
-301.89104572847668
 31
0.0
  0
LINE
  5
287
  8
0
 62
     0
 10
573.03981886244901
 20
-297.5500501344282
 30
0.0
 11
575.88720648100809
 21
-294.70266251586912
 31
0.0
  0
LINE
  5
288
  8
0
 62
     0
 10
567.16724089044169
 20
-301.72557183158767
 30
0.0
 11
568.51323796843235
 21
-300.37957475359701
 31
0.0
  0
LINE
  5
289
  8
0
 62
     0
 10
571.10522423584905
 20
-297.78758848618043
 30
0.0
 11
573.92698236335798
 21
-294.9658303586715
 31
0.0
  0
LINE
  5
28A
  8
0
 62
     0
 10
566.98165559047345
 20
-300.21410085670811
 30
0.0
 11
568.32765266846434
 21
-298.86810377871728
 31
0.0
  0
LINE
  5
28B
  8
0
 62
     0
 10
569.17062960924898
 20
-298.02512683793259
 30
0.0
 11
571.96675824570775
 21
-295.22899820147381
 31
0.0
  0
LINE
  5
28C
  8
0
 62
     0
 10
566.79607029050555
 20
-298.7026298818285
 30
0.0
 11
570.00653412805775
 21
-295.49216604427619
 31
0.0
  0
LINE
  5
28D
  8
0
 62
     0
 10
611.73171139444719
 20
-292.79928309938441
 30
0.0
 11
614.08417900855045
 21
-290.44681548528109
 31
0.0
  0
LINE
  5
28E
  8
0
 62
     0
 10
613.33822607926868
 20
-292.88982468941049
 30
0.0
 11
616.04440312620045
 21
-290.18364764247872
 31
0.0
  0
LINE
  5
28F
  8
0
 62
     0
 10
613.34255162946886
 20
-294.58255541405788
 30
0.0
 11
614.84255162946897
 21
-293.08255541405799
 31
0.0
  0
LINE
  5
290
  8
0
 62
     0
 10
615.60090064764665
 20
-292.32420639588008
 30
0.0
 11
618.00462724385045
 21
-289.9204797996764
 31
0.0
  0
LINE
  5
291
  8
0
 62
     0
 10
613.34255162946886
 20
-296.2796116889055
 30
0.0
 11
614.84255162946897
 21
-294.77961168890562
 31
0.0
  0
LINE
  5
292
  8
0
 62
     0
 10
617.53549527424661
 20
-292.0866680441278
 30
0.0
 11
619.96485136150045
 21
-289.65731195687403
 31
0.0
  0
LINE
  5
293
  8
0
 62
     0
 10
613.34255162946886
 20
-297.9766679637533
 30
0.0
 11
614.84255162946897
 21
-296.47666796375341
 31
0.0
  0
LINE
  5
294
  8
0
 62
     0
 10
631.64255162946893
 20
-279.6766679637534
 30
0.0
 11
633.61214974523978
 21
-277.70706984798238
 31
0.0
  0
LINE
  5
295
  8
0
 62
     0
 10
619.47008990084646
 20
-291.8491296923757
 30
0.0
 11
621.92507547915045
 21
-289.39414411407182
 31
0.0
  0
LINE
  5
296
  8
0
 62
     0
 10
613.34255162946886
 20
-299.67372423860093
 30
0.0
 11
614.84255162946897
 21
-298.17372423860093
 31
0.0
  0
LINE
  5
297
  8
0
 62
     0
 10
631.64255162946893
 20
-281.37372423860103
 30
0.0
 11
635.01587882477827
 21
-278.00039704329168
 31
0.0
  0
LINE
  5
298
  8
0
 62
     0
 10
621.40468452744642
 20
-291.61159134062342
 30
0.0
 11
623.88529959680068
 21
-289.13097627126928
 31
0.0
  0
LINE
  5
299
  8
0
 62
     0
 10
613.34255162946886
 20
-301.37078051344872
 30
0.0
 11
614.84255162946897
 21
-299.87078051344878
 31
0.0
  0
LINE
  5
29A
  8
0
 62
     0
 10
635.00626229493525
 20
-279.70706984798238
 30
0.0
 11
636.61440696220211
 21
-278.09892518071558
 31
0.0
  0
LINE
  5
29B
  8
0
 62
     0
 10
623.33927915404649
 20
-291.3740529888712
 30
0.0
 11
625.84552371445079
 21
-288.86780842846701
 31
0.0
  0
LINE
  5
29C
  8
0
 62
     0
 10
632.10369352503051
 20
-282.60963861788719
 30
0.0
 11
633.44255162946888
 21
-281.27078051344881
 31
0.0
  0
LINE
  5
29D
  8
0
 62
     0
 10
613.52293509962601
 20
-302.88745331813942
 30
0.0
 11
614.87255162030647
 21
-301.53783679745891
 31
0.0
  0
LINE
  5
29E
  8
0
 62
     0
 10
636.70331856978305
 20
-279.70706984798238
 30
0.0
 11
638.46293509962595
 21
-277.94745331813948
 31
0.0
  0
LINE
  5
29F
  8
0
 62
     0
 10
625.1991206478159
 20
-291.21126776994959
 30
0.0
 11
627.34123101696287
 21
-289.06915740080262
 31
0.0
  0
LINE
  5
2A0
  8
0
 62
     0
 10
632.56409066038623
 20
-283.84629775737932
 30
0.0
 11
634.04255068690065
 21
-282.36783773086478
 31
0.0
  0
LINE
  5
2A1
  8
0
 62
     0
 10
615.37146323704985
 20
-302.73598145556332
 30
0.0
 11
616.40037484463073
 21
-301.7070698479825
 31
0.0
  0
LINE
  5
2A2
  8
0
 62
     0
 10
632.56409066038623
 20
-285.54335403222689
 30
0.0
 11
634.64255162946893
 21
-283.46489306314407
 31
0.0
  0
LINE
  5
2A3
  8
0
 62
     0
 10
625.34255162946886
 20
-292.76489306314409
 30
0.0
 11
629.27582564356248
 21
-288.83161904905052
 31
0.0
  0
LINE
  5
2A4
  8
0
 62
     0
 10
616.71999137447358
 20
-303.0845095929871
 30
0.0
 11
618.09743111947853
 21
-301.7070698479825
 31
0.0
  0
LINE
  5
2A5
  8
0
 62
     0
 10
632.56409066038623
 20
-287.24041030707468
 30
0.0
 11
634.64255162946893
 21
-285.16194933799193
 31
0.0
  0
LINE
  5
2A6
  8
0
 62
     0
 10
625.34255162946886
 20
-294.46194933799188
 30
0.0
 11
627.14255162946893
 21
-292.66194933799198
 31
0.0
  0
LINE
  5
2A7
  8
0
 62
     0
 10
628.89743111947848
 20
-290.90706984798243
 30
0.0
 11
631.21042027016244
 21
-288.59408069729818
 31
0.0
  0
LINE
  5
2A8
  8
0
 62
     0
 10
618.56851951189753
 20
-302.933037730411
 30
0.0
 11
619.7944873943261
 21
-301.7070698479825
 31
0.0
  0
LINE
  5
2A9
  8
0
 62
     0
 10
630.59448739432605
 20
-290.90706984798243
 30
0.0
 11
634.64255162946893
 21
-286.85900561283961
 31
0.0
  0
LINE
  5
2AA
  8
0
 62
     0
 10
625.34255162946886
 20
-296.15900561283951
 30
0.0
 11
627.14255162946893
 21
-294.35900561283961
 31
0.0
  0
LINE
  5
2AB
  8
0
 62
     0
 10
620.41704764932138
 20
-302.7815658678349
 30
0.0
 11
621.31566875352951
 21
-301.88294476362682
 31
0.0
  0
LINE
  5
2AC
  8
0
 62
     0
 10
632.29154366917385
 20
-290.90706984798243
 30
0.0
 11
634.64255162946893
 21
-288.55606188768741
 31
0.0
  0
LINE
  5
2AD
  8
0
 62
     0
 10
626.09154366917357
 20
-297.10706984798247
 30
0.0
 11
628.19154366917383
 21
-295.00706984798228
 31
0.0
  0
LINE
  5
2AE
  8
0
 62
     0
 10
627.78859994402148
 20
-297.10706984798247
 30
0.0
 11
629.88859994402162
 21
-295.00706984798228
 31
0.0
  0
LINE
  5
2AF
  8
0
 62
     0
 10
634.01944113679815
 20
-290.87622865520592
 30
0.0
 11
634.61171043669242
 21
-290.28395935531171
 31
0.0
  0
LINE
  5
2B0
  8
0
 62
     0
 10
629.48565621886905
 20
-297.10706984798247
 30
0.0
 11
631.58565621886919
 21
-295.00706984798228
 31
0.0
  0
LINE
  5
2B1
  8
0
 62
     0
 10
631.18271249371696
 20
-297.10706984798247
 30
0.0
 11
633.28271249371687
 21
-295.00706984798228
 31
0.0
  0
LINE
  5
2B2
  8
0
 62
     0
 10
632.77247447001787
 20
-297.21436414652908
 30
0.0
 11
634.35853207181344
 21
-295.62830654473362
 31
0.0
  0
LINE
  5
2B3
  8
0
 62
     0
 10
632.84255162946886
 20
-298.84134326192589
 30
0.0
 11
634.64255162946893
 21
-297.04134326192587
 31
0.0
  0
LINE
  5
2B4
  8
0
 62
     0
 10
632.84255162946886
 20
-300.53839953677362
 30
0.0
 11
634.64255162946893
 21
-298.73839953677373
 31
0.0
  0
LINE
  5
2B5
  8
0
 62
     0
 10
632.84255162946886
 20
-302.23545581162131
 30
0.0
 11
634.64255162946893
 21
-300.4354558116213
 31
0.0
  0
LINE
  5
2B6
  8
0
 62
     0
 10
638.74255162946884
 20
-296.33545581162139
 30
0.0
 11
640.37093759310778
 21
-294.70706984798238
 31
0.0
  0
LINE
  5
2B7
  8
0
 62
     0
 10
633.88027274871229
 20
-302.89479096722579
 30
0.0
 11
635.06799386795558
 21
-301.70706984798238
 31
0.0
  0
LINE
  5
2B8
  8
0
 62
     0
 10
638.74255162946884
 20
-298.03251208646913
 30
0.0
 11
642.06799386795558
 21
-294.70706984798238
 31
0.0
  0
LINE
  5
2B9
  8
0
 62
     0
 10
635.72880088613601
 20
-302.74331910464957
 30
0.0
 11
636.76505014280315
 21
-301.70706984798238
 31
0.0
  0
LINE
  5
2BA
  8
0
 62
     0
 10
641.76505014280315
 20
-296.70706984798238
 30
0.0
 11
642.54255162946868
 21
-295.9295683613168
 31
0.0
  0
LINE
  5
2BB
  8
0
 62
     0
 10
638.74255162946884
 20
-299.72956836131681
 30
0.0
 11
640.6568399163923
 21
-297.81528007439329
 31
0.0
  0
LINE
  5
2BC
  8
0
 62
     0
 10
637.07732902355986
 20
-303.09184724207353
 30
0.0
 11
638.46278983786192
 21
-301.70638642777152
 31
0.0
  0
LINE
  5
2BD
  8
0
 62
     0
 10
638.74186820925797
 20
-301.42730805637552
 30
0.0
 11
642.28732318753373
 21
-297.88185307809982
 31
0.0
  0
LINE
  5
2BE
  8
0
 62
     0
 10
638.92585716098381
 20
-302.94037537949731
 30
0.0
 11
640.54255162946879
 21
-301.32368091101239
 31
0.0
  0
LINE
  5
2BF
  8
0
 62
     0
 10
642.18304387759224
 20
-299.68318866288899
 30
0.0
 11
643.98162732195465
 21
-297.88460521852647
 31
0.0
  0
LINE
  5
2C0
  8
0
 62
     0
 10
643.87771619138823
 20
-299.68557262394057
 30
0.0
 11
645.67593145637568
 21
-297.88735735895318
 31
0.0
  0
LINE
  5
2C1
  8
0
 62
     0
 10
645.57238850518445
 20
-299.68795658499221
 30
0.0
 11
647.37023559079671
 21
-297.89010949937989
 31
0.0
  0
LINE
  5
2C2
  8
0
 62
     0
 10
647.26706081898044
 20
-299.69034054604379
 30
0.0
 11
649.06453972521763
 21
-297.8928616398066
 31
0.0
  0
LINE
  5
2C3
  8
0
 62
     0
 10
648.96173313277654
 20
-299.69272450709542
 30
0.0
 11
650.75884385963855
 21
-297.8956137802333
 31
0.0
  0
LINE
  5
2C4
  8
0
 62
     0
 10
650.65640544657265
 20
-299.69510846814711
 30
0.0
 11
652.4531479940598
 21
-297.89836592066001
 31
0.0
  0
LINE
  5
2C5
  8
0
 62
     0
 10
652.35107776036875
 20
-299.69749242919858
 30
0.0
 11
654.21396061827716
 21
-297.83460957129017
 31
0.0
  0
LINE
  5
2C6
  8
0
 62
     0
 10
654.03171497520691
 20
-299.71391148920827
 30
0.0
 11
655.8325446705262
 21
-297.91308179388892
 31
0.0
  0
LINE
  5
2C7
  8
0
 62
     0
 10
654.96114206357959
 20
-300.48154067568299
 30
0.0
 11
656.62005243600515
 21
-298.82263030325748
 31
0.0
  0
ENDBLK
  5
2C9
  8
0
  0
BLOCK
  8
0
  2
*X3
 70
     1
 10
0.0
 20
0.0
 30
0.0
  3
*X3
  1

  0
LINE
  5
309
  8
0
 62
     0
 10
648.92911578258611
 20
-302.87047582293661
 30
0.0
 11
651.02899142516435
 21
-300.77060018035831
 31
0.0
  0
LINE
  5
30A
  8
0
 62
     0
 10
651.92911578258622
 20
-299.87047582293638
 30
0.0
 11
657.13021296232421
 21
-294.66937864319863
 31
0.0
  0
LINE
  5
30B
  8
0
 62
     0
 10
648.07872692484068
 20
-302.30665111830882
 30
0.0
 11
650.29691336585302
 21
-300.08846467729649
 31
0.0
  0
LINE
  5
30C
  8
0
 62
     0
 10
653.33389501477188
 20
-297.05148302837767
 30
0.0
 11
655.7159993999511
 21
-294.66937864319863
 31
0.0
  0
LINE
  5
30D
  8
0
 62
     0
 10
646.1006886578399
 20
-302.87047582293661
 30
0.0
 11
649.10068865783978
 21
-299.87047582293661
 31
0.0
  0
LINE
  5
30E
  8
0
 62
     0
 10
651.61656017700545
 20
-297.354604303771
 30
0.0
 11
654.301785837578
 21
-294.66937864319863
 31
0.0
  0
LINE
  5
30F
  8
0
 62
     0
 10
644.68647509546668
 20
-302.87047582293661
 30
0.0
 11
647.6864750954669
 21
-299.8704758229365
 31
0.0
  0
LINE
  5
310
  8
0
 62
     0
 10
649.88757227520489
 20
-297.66937864319863
 30
0.0
 11
652.88757227520477
 21
-294.66937864319863
 31
0.0
  0
LINE
  5
311
  8
0
 62
     0
 10
643.27226153309368
 20
-302.87047582293661
 30
0.0
 11
646.2722615330938
 21
-299.8704758229365
 31
0.0
  0
LINE
  5
312
  8
0
 62
     0
 10
648.47335871283167
 20
-297.66937864319863
 30
0.0
 11
651.47335871283178
 21
-294.66937864319863
 31
0.0
  0
LINE
  5
313
  8
0
 62
     0
 10
641.85804797072046
 20
-302.87047582293661
 30
0.0
 11
644.85804797072069
 21
-299.8704758229365
 31
0.0
  0
LINE
  5
314
  8
0
 62
     0
 10
647.05914515045868
 20
-297.66937864319863
 30
0.0
 11
649.35084838996374
 21
-295.37767540369339
 31
0.0
  0
LINE
  5
315
  8
0
 62
     0
 10
641.14255162946847
 20
-302.17175860181538
 30
0.0
 11
642.52290913184163
 21
-300.79140109944251
 31
0.0
  0
LINE
  5
316
  8
0
 62
     0
 10
645.64493158808546
 20
-297.66937864319863
 30
0.0
 11
648.6437416087773
 21
-294.67056862250678
 31
0.0
  0
LINE
  5
317
  8
0
 62
     0
 10
644.23071802571235
 20
-297.66937864319863
 30
0.0
 11
647.23071802571235
 21
-294.66937864319851
 31
0.0
  0
LINE
  5
318
  8
0
 62
     0
 10
643.14255162946893
 20
-297.343331477069
 30
0.0
 11
645.81650446333936
 21
-294.66937864319851
 31
0.0
  0
LINE
  5
319
  8
0
 62
     0
 10
643.14255162946893
 20
-295.92911791469589
 30
0.0
 11
644.40229090096625
 21
-294.66937864319851
 31
0.0
  0
LINE
  5
31A
  8
0
 62
     0
 10
650.3433293449591
 20
-302.87047582293661
 30
0.0
 11
652.72575476428165
 21
-300.48805040361401
 31
0.0
  0
LINE
  5
31B
  8
0
 62
     0
 10
655.73364392081294
 20
-297.48016124708278
 30
0.0
 11
658.11848907708304
 21
-295.09531609081267
 31
0.0
  0
LINE
  5
31C
  8
0
 62
     0
 10
651.75754290733232
 20
-302.87047582293661
 30
0.0
 11
654.42251810339928
 21
-300.20550062686959
 31
0.0
  0
LINE
  5
31D
  8
0
 62
     0
 10
658.4257099995682
 20
-296.20230873070062
 30
0.0
 11
659.45864008707031
 21
-295.16937864319851
 31
0.0
  0
LINE
  5
31E
  8
0
 62
     0
 10
656.95864008707031
 20
-297.66937864319851
 30
0.0
 11
656.97493312710208
 21
-297.6530856031668
 31
0.0
  0
LINE
  5
31F
  8
0
 62
     0
 10
653.17175646970543
 20
-302.87047582293661
 30
0.0
 11
656.17175646970554
 21
-299.8704758229365
 31
0.0
  0
LINE
  5
320
  8
0
 62
     0
 10
660.02961672074639
 20
-296.01261557189548
 30
0.0
 11
660.8728536494433
 21
-295.16937864319851
 31
0.0
  0
LINE
  5
321
  8
0
 62
     0
 10
654.58597003207842
 20
-302.87047582293661
 30
0.0
 11
657.18145419814812
 21
-300.27499165686692
 31
0.0
  0
LINE
  5
322
  8
0
 62
     0
 10
661.04761605326837
 20
-296.40882980174672
 30
0.0
 11
662.78706721181652
 21
-294.66937864319851
 31
0.0
  0
LINE
  5
323
  8
0
 62
     0
 10
656.00018359445153
 20
-302.87047582293661
 30
0.0
 11
657.86151216194548
 21
-301.00914725544249
 31
0.0
  0
LINE
  5
324
  8
0
 62
     0
 10
661.78177165184388
 20
-297.0888877655442
 30
0.0
 11
663.64255162946893
 21
-295.22810778791933
 31
0.0
  0
LINE
  5
325
  8
0
 62
     0
 10
657.41439715682463
 20
-302.87047582293661
 30
0.0
 11
658.81194486656511
 21
-301.47292811319608
 31
0.0
  0
LINE
  5
326
  8
0
 62
     0
 10
662.24555250959759
 20
-298.03932047016372
 30
0.0
 11
663.64255162946893
 21
-296.64232135029238
 31
0.0
  0
LINE
  5
327
  8
0
 62
     0
 10
659.32861071919774
 20
-302.37047582293661
 30
0.0
 11
660.20983300064904
 21
-301.48925354148531
 31
0.0
  0
LINE
  5
328
  8
0
 62
     0
 10
662.26187793788677
 20
-299.43720860424759
 30
0.0
 11
663.6425516294687
 21
-298.05653491266571
 31
0.0
  0
LINE
  5
329
  8
0
 62
     0
 10
660.71768795551975
 20
-302.3956121489876
 30
0.0
 11
663.6425516294687
 21
-299.47074847503882
 31
0.0
  0
LINE
  5
32A
  8
0
 62
     0
 10
661.65703784394384
 20
-302.87047582293661
 30
0.0
 11
663.6425516294687
 21
-300.88496203741192
 31
0.0
  0
LINE
  5
32B
  8
0
 62
     0
 10
663.07125140631695
 20
-302.87047582293661
 30
0.0
 11
663.6425516294687
 21
-302.29917559978497
 31
0.0
  0
LINE
  5
32C
  8
0
 62
     0
 10
656.74272072883127
 20
-302.87047582293661
 30
0.0
 11
653.8293287297829
 21
-299.9570838238883
 31
0.0
  0
LINE
  5
32D
  8
0
 62
     0
 10
650.82840321851631
 20
-296.95615831262171
 30
0.0
 11
648.54162354909295
 21
-294.66937864319851
 31
0.0
  0
LINE
  5
32E
  8
0
 62
     0
 10
655.32850716645805
 20
-302.87047582293661
 30
0.0
 11
653.14691466150828
 21
-300.68888331798689
 31
0.0
  0
LINE
  5
32F
  8
0
 62
     0
 10
650.09632515920487
 20
-297.63829381568348
 30
0.0
 11
647.12740998671995
 21
-294.66937864319851
 31
0.0
  0
LINE
  5
330
  8
0
 62
     0
 10
653.91429360408506
 20
-302.87047582293661
 30
0.0
 11
651.42957982374185
 21
-300.3857620425934
 31
0.0
  0
LINE
  5
331
  8
0
 62
     0
 10
648.71319642434685
 20
-297.66937864319863
 30
0.0
 11
645.71319642434685
 21
-294.66937864319851
 31
0.0
  0
LINE
  5
332
  8
0
 62
     0
 10
652.50008004171195
 20
-302.87047582293661
 30
0.0
 11
649.50008004171195
 21
-299.87047582293661
 31
0.0
  0
LINE
  5
333
  8
0
 62
     0
 10
647.29898286197385
 20
-297.66937864319863
 30
0.0
 11
644.29898286197385
 21
-294.66937864319851
 31
0.0
  0
LINE
  5
334
  8
0
 62
     0
 10
651.08586647933885
 20
-302.87047582293661
 30
0.0
 11
648.08586647933873
 21
-299.8704758229365
 31
0.0
  0
LINE
  5
335
  8
0
 62
     0
 10
645.88476929960075
 20
-297.66937864319863
 30
0.0
 11
643.14255162946893
 21
-294.92716097306669
 31
0.0
  0
LINE
  5
336
  8
0
 62
     0
 10
649.67165291696574
 20
-302.87047582293661
 30
0.0
 11
646.67165291696563
 21
-299.8704758229365
 31
0.0
  0
LINE
  5
337
  8
0
 62
     0
 10
644.47055573722764
 20
-297.66937864319863
 30
0.0
 11
643.14255162946893
 21
-296.34137453543968
 31
0.0
  0
LINE
  5
338
  8
0
 62
     0
 10
647.44999549203067
 20
-302.0630319603747
 30
0.0
 11
645.25743935459241
 21
-299.8704758229365
 31
0.0
  0
LINE
  5
339
  8
0
 62
     0
 10
646.742888710844
 20
-302.7701387415612
 30
0.0
 11
643.95335134909703
 21
-299.98060137981412
 31
0.0
  0
LINE
  5
33A
  8
0
 62
     0
 10
645.42901222984653
 20
-302.87047582293661
 30
0.0
 11
643.24624456791059
 21
-300.68770816100078
 31
0.0
  0
LINE
  5
33B
  8
0
 62
     0
 10
644.01479866747343
 20
-302.87047582293661
 30
0.0
 11
641.93572394397927
 21
-300.79140109944251
 31
0.0
  0
LINE
  5
33C
  8
0
 62
     0
 10
642.60058510510021
 20
-302.87047582293661
 30
0.0
 11
641.14255162946847
 21
-301.41244234730499
 31
0.0
  0
LINE
  5
33D
  8
0
 62
     0
 10
658.14255162946858
 20
-302.85609316120087
 30
0.0
 11
655.54666356754933
 21
-300.26020509928168
 31
0.0
  0
LINE
  5
33E
  8
0
 62
     0
 10
652.52516655763384
 20
-297.23870808936613
 30
0.0
 11
650.29919437046749
 21
-295.01273590219989
 31
0.0
  0
LINE
  5
33F
  8
0
 62
     0
 10
659.07114785357726
 20
-302.37047582293661
 30
0.0
 11
656.57114785357726
 21
-299.8704758229365
 31
0.0
  0
LINE
  5
340
  8
0
 62
     0
 10
654.22192989675125
 20
-297.52125786611049
 30
0.0
 11
651.37005067383939
 21
-294.66937864319863
 31
0.0
  0
LINE
  5
341
  8
0
 62
     0
 10
660.48536141595036
 20
-302.37047582293661
 30
0.0
 11
659.68136956274486
 21
-301.566483969731
 31
0.0
  0
LINE
  5
342
  8
0
 62
     0
 10
654.95400795606258
 20
-296.83912236304872
 30
0.0
 11
652.78426423621238
 21
-294.66937864319863
 31
0.0
  0
LINE
  5
343
  8
0
 62
     0
 10
662.39957497832359
 20
-302.87047582293661
 30
0.0
 11
660.80052602347416
 21
-301.27142686808719
 31
0.0
  0
LINE
  5
344
  8
0
 62
     0
 10
657.04105199444916
 20
-297.5119528390623
 30
0.0
 11
654.1984777985856
 21
-294.66937864319863
 31
0.0
  0
LINE
  5
345
  8
0
 62
     0
 10
663.50317008508273
 20
-302.55985736732259
 30
0.0
 11
661.60595452896939
 21
-300.66264181120931
 31
0.0
  0
LINE
  5
346
  8
0
 62
     0
 10
657.64983705132715
 20
-296.7065243335673
 30
0.0
 11
655.61269136095859
 21
-294.66937864319863
 31
0.0
  0
LINE
  5
347
  8
0
 62
     0
 10
663.6425516294687
 20
-301.28502534933551
 30
0.0
 11
662.14939544629999
 21
-299.7918691661668
 31
0.0
  0
LINE
  5
348
  8
0
 62
     0
 10
658.52060969636966
 20
-296.16308341623659
 30
0.0
 11
657.02690492333181
 21
-294.66937864319863
 31
0.0
  0
LINE
  5
349
  8
0
 62
     0
 10
663.6425516294687
 20
-299.87081178696229
 30
0.0
 11
662.3349073395334
 21
-298.56316749702711
 31
0.0
  0
LINE
  5
34A
  8
0
 62
     0
 10
659.74931136550947
 20
-295.97757152300318
 30
0.0
 11
658.94111848570481
 21
-295.16937864319851
 31
0.0
  0
LINE
  5
34B
  8
0
 62
     0
 10
663.6425516294687
 20
-298.4565982245893
 30
0.0
 11
660.35533204807791
 21
-295.16937864319851
 31
0.0
  0
LINE
  5
34C
  8
0
 62
     0
 10
663.64255162946893
 20
-297.04238466221642
 30
0.0
 11
661.43104861995994
 21
-294.83088165270738
 31
0.0
  0
LINE
  5
34D
  8
0
 62
     0
 10
663.64255162946893
 20
-295.62817109984331
 30
0.0
 11
662.68375917282413
 21
-294.66937864319851
 31
0.0
  0
ENDBLK
  5
34F
  8
0
  0
BLOCK
  8
0
  2
*D4
 70
     1
 10
0.0
 20
0.0
 30
0.0
  3
*D4
  1

  0
LINE
  5
3BD
  8
1
 10
-28.999999999999769
 20
-12.525899772360839
 30
0.0
 11
-28.999999999999769
 21
-24.711692475452079
 31
0.0
  0
LINE
  5
3BE
  8
1
 10
-97.999999999999773
 20
-15.030650887779069
 30
0.0
 11
-97.999999999999773
 21
-24.711692475452079
 31
0.0
  0
LINE
  5
3BF
  8
1
 10
-27.999999999999769
 20
-23.711692475452079
 30
0.0
 11
-98.999999999999773
 21
-23.711692475452079
 31
0.0
  0
INSERT
  5
3C0
  8
1
  2
_OBLIQUE
 10
-28.999999999999769
 20
-23.711692475452079
 30
0.0
 41
2.0
 42
2.0
 43
2.0
  0
INSERT
  5
3C1
  8
1
  2
_OBLIQUE
 10
-97.999999999999773
 20
-23.711692475452079
 30
0.0
 41
2.0
 42
2.0
 43
2.0
 50
180.0
  0
TEXT
  5
3C2
  8
0
 10
-66.203785811732374
 20
-22.644843907921391
 30
0.0
 40
3.5
  1
69
  7
BESCHLAG
  0
POINT
  5
3C3
  8
DEFPOINTS
 62
     0
 10
-28.999999999999769
 20
-10.525899772360839
 30
0.0
  0
POINT
  5
3C4
  8
DEFPOINTS
 62
     0
 10
-97.999999999999773
 20
-13.030650887779069
 30
0.0
  0
POINT
  5
3C5
  8
DEFPOINTS
 62
     0
 10
-97.999999999999773
 20
-23.711692475452079
 30
0.0
  0
ENDBLK
  5
38B
  8
0
  0
BLOCK
  8
0
  2
*D5
 70
     1
 10
0.0
 20
0.0
 30
0.0
  3
*D5
  1

  0
LINE
  5
3C6
  8
1
 10
-22.999999999999769
 20
13.0
 30
0.0
 11
-22.999999999999769
 21
-24.711692475452079
 31
0.0
  0
LINE
  5
3C7
  8
1
 10
-0.0000000000000001
 20
-2.0
 30
0.0
 11
-0.0000000000000015
 21
-24.711692475452079
 31
0.0
  0
LINE
  5
3C8
  8
1
 10
-23.999999999999769
 20
-23.711692475452079
 30
0.0
 11
0.9999999999999985
 21
-23.711692475452079
 31
0.0
  0
INSERT
  5
3C9
  8
1
  2
_OBLIQUE
 10
-22.999999999999769
 20
-23.711692475452079
 30
0.0
 41
2.0
 42
2.0
 43
2.0
 50
180.0
  0
INSERT
  5
3CA
  8
1
  2
_OBLIQUE
 10
-0.0000000000000015
 20
-23.711692475452079
 30
0.0
 41
2.0
 42
2.0
 43
2.0
  0
TEXT
  5
3CB
  8
0
 10
-14.179911323328669
 20
-22.642456459081
 30
0.0
 40
3.5
  1
23
  7
BESCHLAG
  0
POINT
  5
3CC
  8
DEFPOINTS
 62
     0
 10
-22.999999999999769
 20
15.0
 30
0.0
  0
POINT
  5
3CD
  8
DEFPOINTS
 62
     0
 10
0.0
 20
0.0
 30
0.0
  0
POINT
  5
3CE
  8
DEFPOINTS
 62
     0
 10
-0.0000000000000015
 20
-23.711692475452079
 30
0.0
  0
ENDBLK
  5
397
  8
0
  0
BLOCK
  8
0
  2
*D6
 70
     1
 10
0.0
 20
0.0
 30
0.0
  3
*D6
  1

  0
LINE
  5
3CF
  8
1
 10
-28.999999999999769
 20
6.5
 30
0.0
 11
-28.999999999999769
 21
-24.711692475452079
 31
0.0
  0
LINE
  5
3D0
  8
1
 10
-22.999999999999769
 20
13.0
 30
0.0
 11
-22.999999999999769
 21
-24.711692475452079
 31
0.0
  0
LINE
  5
3D1
  8
1
 10
-29.999999999999769
 20
-23.711692475452079
 30
0.0
 11
-21.999999999999769
 21
-23.711692475452079
 31
0.0
  0
INSERT
  5
3D2
  8
1
  2
_OBLIQUE
 10
-28.999999999999769
 20
-23.711692475452079
 30
0.0
 41
2.0
 42
2.0
 43
2.0
 50
180.0
  0
INSERT
  5
3D3
  8
1
  2
_OBLIQUE
 10
-22.999999999999769
 20
-23.711692475452079
 30
0.0
 41
2.0
 42
2.0
 43
2.0
  0
TEXT
  5
3D4
  8
0
 10
-27.339358799454072
 20
-22.644843907921391
 30
0.0
 40
3.5
  1
6
  7
BESCHLAG
  0
POINT
  5
3D5
  8
DEFPOINTS
 62
     0
 10
-28.999999999999769
 20
8.5
 30
0.0
  0
POINT
  5
3D6
  8
DEFPOINTS
 62
     0
 10
-22.999999999999769
 20
15.0
 30
0.0
  0
POINT
  5
3D7
  8
DEFPOINTS
 62
     0
 10
-22.999999999999769
 20
-23.711692475452079
 30
0.0
  0
ENDBLK
  5
3A3
  8
0
  0
BLOCK
  8
0
  2
*D7
 70
     1
 10
0.0
 20
0.0
 30
0.0
  3
*D7
  1

  0
LINE
  5
425
  8
1
 10
-33.999999999999773
 20
25.5
 30
0.0
 11
-40.688032348196877
 21
25.5
 31
0.0
  0
LINE
  5
426
  8
1
 10
-34.000000000000227
 20
0.5000000000000006
 30
0.0
 11
-40.688032348196877
 21
0.5000000000000026
 31
0.0
  0
LINE
  5
427
  8
1
 10
-39.688032348196877
 20
26.5
 30
0.0
 11
-39.688032348196877
 21
-0.4999999999999979
 31
0.0
  0
TEXT
  5
428
  8
0
 10
-42.254880915727583
 20
17.143058566111311
 30
0.0
 40
3.5
  1
25
 50
90.0
  7
BESCHLAG
  0
INSERT
  5
429
  8
1
  2
_OBLIQUE
 10
-39.688032348196877
 20
25.5
 30
0.0
 41
2.0
 42
2.0
 43
2.0
 50
90.0
  0
INSERT
  5
42A
  8
1
  2
_OBLIQUE
 10
-39.688032348196877
 20
0.5000000000000022
 30
0.0
 41
2.0
 42
2.0
 43
2.0
 50
270.0
  0
POINT
  5
42B
  8
DEFPOINTS
 62
     0
 10
-31.999999999999769
 20
25.5
 30
0.0
  0
POINT
  5
42C
  8
DEFPOINTS
 62
     0
 10
-32.00000000000022
 20
0.5
 30
0.0
  0
POINT
  5
42D
  8
DEFPOINTS
 62
     0
 10
-39.688032348196877
 20
0.5000000000000022
 30
0.0
  0
ENDBLK
  5
3B0
  8
0
  0
BLOCK
  8
0
  2
*D8
 70
     1
 10
0.0
 20
0.0
 30
0.0
  3
*D8
  1

  0
LINE
  5
3E2
  8
1
 10
2.0
 20
-0.0000000000000006
 30
0.0
 11
11.6099191423309
 21
-0.0000000000000033
 31
0.0
  0
LINE
  5
3E3
  8
1
 10
1.5500000000001819
 20
8.5376912047838687
 30
0.0
 11
11.6099191423309
 21
8.5376912047838651
 31
0.0
  0
LINE
  5
3E4
  8
1
 10
10.6099191423309
 20
-1.0000000000000031
 30
0.0
 11
10.609919142330909
 21
9.5376912047838651
 31
0.0
  0
INSERT
  5
3E5
  8
1
  2
_OBLIQUE
 10
10.6099191423309
 20
-0.000000000000003
 30
0.0
 41
2.0
 42
2.0
 43
2.0
 50
270.0
  0
INSERT
  5
3E6
  8
1
  2
_OBLIQUE
 10
10.609919142330909
 20
8.5376912047838651
 30
0.0
 41
2.0
 42
2.0
 43
2.0
 50
90.0
  0
TEXT
  5
3E7
  8
0
 10
9.5430705748002111
 20
0.8691184536879772
 30
0.0
 40
3.5
  1
8.5
 50
90.0
  7
BESCHLAG
  0
POINT
  5
3E8
  8
DEFPOINTS
 62
     0
 10
0.0
 20
0.0
 30
0.0
  0
POINT
  5
3E9
  8
DEFPOINTS
 62
     0
 10
-0.4499999999998181
 20
8.5376912047838687
 30
0.0
  0
POINT
  5
3EA
  8
DEFPOINTS
 62
     0
 10
10.609919142330909
 20
8.5376912047838651
 30
0.0
  0
ENDBLK
  5
3BC
  8
0
  0
ENDSEC
  0
SECTION
  2
ENTITIES
  0
INSERT
  5
25B
  8
5
  2
NULLPUNKT
 10
0.0
 20
0.0
 30
0.0
  0
DIMENSION
  5
36B
  8
1
  2
*D4
 10
-97.999999999999773
 20
-23.711692475452079
 30
0.0
 11
-63.499999999999773
 21
-20.924687018426159
 31
0.0
 70
     0
 13
-28.999999999999769
 23
-10.525899772360839
 33
0.0
 14
-97.999999999999773
 24
-13.030650887779069
 34
0.0
  0
INSERT
  5
36C
  8
2
  2
*X2
 10
-663.6425516294687
 20
303.20706984798238
 30
0.0
1001
ACAD
1000
HATCH
1002
{
1070
    16
1000
_U,I
1040
1.1999999999999991
1040
0.7853981633974483
1070
     0
1002
}
  0
POLYLINE
  5
36D
  8
5
 66
     1
 10
0.0
 20
0.0
 30
0.0
  0
VERTEX
  5
52B
  8
5
 10
-53.0
 20
-11.96316912996212
 30
0.0
  0
VERTEX
  5
52C
  8
5
 10
-53.0
 20
0.0
 30
0.0
  0
VERTEX
  5
52D
  8
5
 10
-101.30023293923681
 20
-5.1802378698973817
 30
0.0
  0
SEQEND
  5
52E
  8
5
  0
POLYLINE
  5
36E
  8
6
 66
     1
 10
0.0
 20
0.0
 30
0.0
  0
VERTEX
  5
52F
  8
6
 10
-31.078460969082471
 20
19.799999999999951
 30
0.0
  0
VERTEX
  5
530
  8
6
 10
-31.078460969082471
 20
14.779198975154941
 30
0.0
  0
VERTEX
  5
531
  8
6
 10
-37.371177420138793
 20
14.00655054882554
 30
0.0
  0
VERTEX
  5
532
  8
6
 10
-38.4855929151854
 20
14.87722735706188
 30
0.0
  0
VERTEX
  5
533
  8
6
 10
-39.356269723421519
 20
13.76281186201526
 30
0.0
  0
VERTEX
  5
534
  8
6
 10
-40.470685218468127
 20
14.6334886702516
 30
0.0
  0
VERTEX
  5
535
  8
6
 10
-41.341362026704253
 20
13.519073175204991
 30
0.0
  0
VERTEX
  5
536
  8
6
 10
-42.455777521750861
 20
14.389749983441099
 30
0.0
  0
VERTEX
  5
537
  8
6
 10
-43.326454329986973
 20
13.275334488394719
 30
0.0
  0
VERTEX
  5
538
  8
6
 10
-44.44086982503336
 20
14.14601129663083
 30
0.0
  0
VERTEX
  5
539
  8
6
 10
-45.3115466332697
 20
13.031595801584441
 30
0.0
  0
VERTEX
  5
53A
  8
6
 10
-46.425962128315859
 20
13.90227260982055
 30
0.0
  0
VERTEX
  5
53B
  8
6
 10
-47.296638936552199
 20
12.78785711477417
 30
0.0
  0
VERTEX
  5
53C
  8
6
 10
-48.411054431598579
 20
13.65853392301028
 30
0.0
  0
VERTEX
  5
53D
  8
6
 10
-49.281731239834691
 20
12.54411842796366
 30
0.0
  0
VERTEX
  5
53E
  8
6
 10
-50.396146734881313
 20
13.4147952362
 30
0.0
  0
VERTEX
  5
53F
  8
6
 10
-51.266823543117432
 20
12.300379741153391
 30
0.0
  0
VERTEX
  5
540
  8
6
 10
-52.38123903816404
 20
13.17105654938973
 30
0.0
  0
VERTEX
  5
541
  8
6
 10
-53.251915846400152
 20
12.05664105434311
 30
0.0
  0
VERTEX
  5
542
  8
6
 10
-54.366331341446767
 20
12.92731786257945
 30
0.0
  0
VERTEX
  5
543
  8
6
 10
-55.237008149682879
 20
11.812902367532841
 30
0.0
  0
VERTEX
  5
544
  8
6
 10
-56.351423644729259
 20
12.68357917576918
 30
0.0
  0
VERTEX
  5
545
  8
6
 10
-57.222100452965599
 20
11.569163680722561
 30
0.0
  0
VERTEX
  5
546
  8
6
 10
-58.336515948011993
 20
12.439840488958669
 30
0.0
  0
VERTEX
  5
547
  8
6
 10
-59.207192756248112
 20
11.325424993912289
 30
0.0
  0
VERTEX
  5
548
  8
6
 10
-60.321608251294492
 20
12.1961018021484
 30
0.0
  0
VERTEX
  5
549
  8
6
 10
-61.192285059530832
 20
11.081686307102011
 30
0.0
  0
VERTEX
  5
54A
  8
6
 10
-62.306700554577212
 20
11.95236311533813
 30
0.0
  0
VERTEX
  5
54B
  8
6
 10
-63.177377362813331
 20
10.83794762029174
 30
0.0
  0
VERTEX
  5
54C
  8
6
 10
-64.291792857859946
 20
11.70862442852785
 30
0.0
  0
VERTEX
  5
54D
  8
6
 10
-65.162469666096058
 20
10.594208933481459
 30
0.0
  0
VERTEX
  5
54E
  8
6
 10
-66.276885161142673
 20
11.46488574171758
 30
0.0
  0
VERTEX
  5
54F
  8
6
 10
-67.147561969378785
 20
10.350470246670961
 30
0.0
  0
VERTEX
  5
550
  8
6
 10
-68.261977464425172
 20
11.2211470549073
 30
0.0
  0
VERTEX
  5
551
  8
6
 10
-69.132654272661512
 20
10.106731559860689
 30
0.0
  0
VERTEX
  5
552
  8
6
 10
-70.247069767707899
 20
10.977408368097031
 30
0.0
  0
VERTEX
  5
553
  8
6
 10
-71.117746575944011
 20
9.8629928730504162
 30
0.0
  0
VERTEX
  5
554
  8
6
 10
-72.232162070990384
 20
10.73366968128675
 30
0.0
  0
VERTEX
  5
555
  8
6
 10
-73.102838879226738
 20
9.6192541862401413
 30
0.0
  0
VERTEX
  5
556
  8
6
 10
-74.217254374273125
 20
10.489930994476479
 30
0.0
  0
VERTEX
  5
557
  8
6
 10
-75.087931182509237
 20
9.3755154994298664
 30
0.0
  0
VERTEX
  5
558
  8
6
 10
-76.202346677555852
 20
10.246192307666201
 30
0.0
  0
VERTEX
  5
559
  8
6
 10
-77.073023485791964
 20
9.1317768126195915
 30
0.0
  0
VERTEX
  5
55A
  8
6
 10
-78.187438980838579
 20
10.002453620855929
 30
0.0
  0
VERTEX
  5
55B
  8
6
 10
-79.058115789074691
 20
8.8880381258093166
 30
0.0
  0
VERTEX
  5
55C
  8
6
 10
-80.172531284121064
 20
9.7587149340454271
 30
0.0
  0
VERTEX
  5
55D
  8
6
 10
-81.043208092357418
 20
8.6442994389990417
 30
0.0
  0
VERTEX
  5
55E
  8
6
 10
-82.157623587403805
 20
9.514976247235154
 30
0.0
  0
VERTEX
  5
55F
  8
6
 10
-83.028300395639917
 20
8.4005607521887669
 30
0.0
  0
VERTEX
  5
560
  8
6
 10
-84.142715890686304
 20
9.2712375604248791
 30
0.0
  0
VERTEX
  5
561
  8
6
 10
-85.013392698922416
 20
8.1568220653784902
 30
0.0
  0
VERTEX
  5
562
  8
6
 10
-86.127808193969031
 20
9.0274988736146042
 30
0.0
  0
VERTEX
  5
563
  8
6
 10
-86.998485002205143
 20
7.9130833785682171
 30
0.0
  0
VERTEX
  5
564
  8
6
 10
-88.112900497251758
 20
8.7837601868043294
 30
0.0
  0
VERTEX
  5
565
  8
6
 10
-88.983577305487856
 20
7.6693446917577139
 30
0.0
  0
VERTEX
  5
566
  8
6
 10
-90.097992800534485
 20
8.5400214999940545
 30
0.0
  0
VERTEX
  5
567
  8
6
 10
-90.968669608770597
 20
7.4256060049474391
 30
0.0
  0
VERTEX
  5
568
  8
6
 10
-92.083085103816984
 20
8.2962828131837796
 30
0.0
  0
VERTEX
  5
569
  8
6
 10
-92.953761912053324
 20
7.1818673181371651
 30
0.0
  0
VERTEX
  5
56A
  8
6
 10
-94.068177407099711
 20
8.0525441263735047
 30
0.0
  0
VERTEX
  5
56B
  8
6
 10
-97.016253506140401
 20
5.8871233094730542
 30
0.0
  0
VERTEX
  5
56C
  8
6
 10
-95.954771525081469
 20
-2.7579536713228658
 30
0.0
 42
0.4142135623730971
  0
VERTEX
  5
56D
  8
6
 10
-95.620446876567485
 20
-3.01915671379379
 30
0.0
  0
VERTEX
  5
56E
  8
6
 10
-94.727155340090349
 20
-2.9094743047292009
 30
0.0
 42
0.4142135623730956
  0
VERTEX
  5
56F
  8
6
 10
-94.465952297619424
 20
-2.5751496562152161
 30
0.0
  0
VERTEX
  5
570
  8
6
 10
-95.367785438817464
 20
4.7696918659305529
 30
0.0
 42
-0.4142135623730951
  0
VERTEX
  5
571
  8
6
 10
-95.106582396346766
 20
5.1040165144445382
 30
0.0
  0
VERTEX
  5
572
  8
6
 10
-50.636560803021439
 20
10.56424858912373
 30
0.0
 42
-0.4504671536907993
  0
VERTEX
  5
573
  8
6
 10
-50.29999999999972
 20
10.266484743631279
 30
0.0
  0
VERTEX
  5
574
  8
6
 10
-50.29999999999972
 20
0.5
 30
0.0
  0
VERTEX
  5
575
  8
6
 10
-49.79999999999972
 20
0.0
 30
0.0
  0
VERTEX
  5
576
  8
6
 10
-49.299999999999727
 20
0.5
 30
0.0
  0
VERTEX
  5
577
  8
6
 10
-48.799999999999727
 20
0.0
 30
0.0
  0
VERTEX
  5
578
  8
6
 10
-48.299999999999727
 20
0.5
 30
0.0
  0
VERTEX
  5
579
  8
6
 10
-47.79999999999972
 20
0.0
 30
0.0
  0
VERTEX
  5
57A
  8
6
 10
-47.29999999999972
 20
0.5
 30
0.0
  0
VERTEX
  5
57B
  8
6
 10
-46.799999999999727
 20
0.0
 30
0.0
  0
VERTEX
  5
57C
  8
6
 10
-46.299999999999727
 20
0.5
 30
0.0
  0
VERTEX
  5
57D
  8
6
 10
-45.79999999999972
 20
0.0
 30
0.0
  0
VERTEX
  5
57E
  8
6
 10
-45.29999999999972
 20
0.5
 30
0.0
  0
VERTEX
  5
57F
  8
6
 10
-44.79999999999972
 20
0.0
 30
0.0
  0
VERTEX
  5
580
  8
6
 10
-44.299999999999727
 20
0.5
 30
0.0
  0
VERTEX
  5
581
  8
6
 10
-43.799999999999727
 20
0.0
 30
0.0
  0
VERTEX
  5
582
  8
6
 10
-43.29999999999972
 20
0.5
 30
0.0
  0
VERTEX
  5
583
  8
6
 10
-42.79999999999972
 20
0.0
 30
0.0
  0
VERTEX
  5
584
  8
6
 10
-42.29999999999972
 20
0.5
 30
0.0
  0
VERTEX
  5
585
  8
6
 10
-42.29999999999972
 20
1.1999999999998181
 30
0.0
 42
0.4142135623730951
  0
VERTEX
  5
586
  8
6
 10
-42.599999999999902
 20
1.5
 30
0.0
  0
VERTEX
  5
587
  8
6
 10
-48.5
 20
1.5
 30
0.0
 42
-0.4142135623730956
  0
VERTEX
  5
588
  8
6
 10
-48.799999999999727
 20
1.7999999999999541
 30
0.0
  0
VERTEX
  5
589
  8
6
 10
-48.799999999999727
 20
10.52433232152748
 30
0.0
 42
-0.3788661086953132
  0
VERTEX
  5
58A
  8
6
 10
-48.53656080302153
 20
10.8220961670197
 30
0.0
  0
VERTEX
  5
58B
  8
6
 10
-38.636560803021439
 20
12.03766331995871
 30
0.0
 42
-0.4504671536908001
  0
VERTEX
  5
58C
  8
6
 10
-38.299999999999727
 20
11.739899474466251
 30
0.0
  0
VERTEX
  5
58D
  8
6
 10
-38.299999999999727
 20
6.3999999999998627
 30
0.0
 42
0.4142135623730959
  0
VERTEX
  5
58E
  8
6
 10
-38.0
 20
6.0999999999999091
 30
0.0
  0
VERTEX
  5
58F
  8
6
 10
-31.099999999999898
 20
6.0999999999999091
 30
0.0
 42
-0.414213562373096
  0
VERTEX
  5
590
  8
6
 10
-30.79999999999972
 20
5.7999999999999536
 30
0.0
  0
VERTEX
  5
591
  8
6
 10
-30.79999999999972
 20
0.349999999999909
 30
0.0
  0
VERTEX
  5
592
  8
6
 10
-30.449999999999822
 20
0.0
 30
0.0
  0
VERTEX
  5
593
  8
6
 10
-29.949999999999811
 20
0.5
 30
0.0
  0
VERTEX
  5
594
  8
6
 10
-29.449999999999822
 20
0.0
 30
0.0
  0
VERTEX
  5
595
  8
6
 10
-28.949999999999811
 20
0.5
 30
0.0
  0
VERTEX
  5
596
  8
6
 10
-28.449999999999811
 20
0.0
 30
0.0
  0
VERTEX
  5
597
  8
6
 10
-27.949999999999822
 20
0.5
 30
0.0
  0
VERTEX
  5
598
  8
6
 10
-27.449999999999811
 20
0.0
 30
0.0
  0
VERTEX
  5
599
  8
6
 10
-26.949999999999822
 20
0.5
 30
0.0
  0
VERTEX
  5
59A
  8
6
 10
-26.449999999999811
 20
0.0
 30
0.0
  0
VERTEX
  5
59B
  8
6
 10
-25.949999999999811
 20
0.5
 30
0.0
  0
VERTEX
  5
59C
  8
6
 10
-25.449999999999822
 20
0.0
 30
0.0
  0
VERTEX
  5
59D
  8
6
 10
-24.949999999999811
 20
0.5
 30
0.0
  0
VERTEX
  5
59E
  8
6
 10
-24.449999999999822
 20
0.0
 30
0.0
  0
VERTEX
  5
59F
  8
6
 10
-23.949999999999811
 20
0.5
 30
0.0
  0
VERTEX
  5
5A0
  8
6
 10
-23.449999999999811
 20
0.0
 30
0.0
  0
VERTEX
  5
5A1
  8
6
 10
-23.099999999999909
 20
0.349999999999909
 30
0.0
  0
VERTEX
  5
5A2
  8
6
 10
-23.099999999999909
 20
3.2259349309085792
 30
0.0
 42
-0.4244748162096039
  0
VERTEX
  5
5A3
  8
6
 10
-22.789530150989091
 20
3.5257521790144888
 30
0.0
  0
VERTEX
  5
5A4
  8
6
 10
-9.6920462795746971
 20
3.5073274421674792
 30
0.0
 42
-0.1990523613993445
  0
VERTEX
  5
5A5
  8
6
 10
-9.4829998426498605
 20
3.4119914895607049
 30
0.0
  0
VERTEX
  5
5A6
  8
6
 10
-8.9311125154467845
 20
2.8195252885473101
 30
0.0
 42
0.414371337763161
  0
VERTEX
  5
5A7
  8
6
 10
-8.5069967214922144
 20
2.8046004735606398
 30
0.0
  0
VERTEX
  5
5A8
  8
6
 10
-7.1119363979159971
 20
4.1055152713674943
 30
0.0
 42
0.4142135623730888
  0
VERTEX
  5
5A9
  8
6
 10
-7.0971297954490629
 20
4.5295208898719457
 30
0.0
  0
VERTEX
  5
5AA
  8
6
 10
-8.3966420510655553
 20
5.9230771710888339
 30
0.0
 42
0.4140983237049574
  0
VERTEX
  5
5AB
  8
6
 10
-8.8205613250102033
 20
5.9379642594083171
 30
0.0
  0
VERTEX
  5
5AC
  8
6
 10
-9.4124039212192656
 20
5.3864973195597941
 30
0.0
 42
-0.1988101110404441
  0
VERTEX
  5
5AD
  8
6
 10
-9.6273869336887401
 20
5.3061666677922403
 30
0.0
  0
VERTEX
  5
5AE
  8
6
 10
-22.81046984901058
 20
5.327580589120088
 30
0.0
 42
-0.4040262258351575
  0
VERTEX
  5
5AF
  8
6
 10
-23.099999999999909
 20
5.6273978372257707
 30
0.0
  0
VERTEX
  5
5B0
  8
6
 10
-23.099999999999909
 20
6.1999999999998181
 30
0.0
 42
-0.4142135623730855
  0
VERTEX
  5
5B1
  8
6
 10
-22.79999999999972
 20
6.5
 30
0.0
  0
VERTEX
  5
5B2
  8
6
 10
-21.39999999999986
 20
6.5
 30
0.0
 42
0.4142135623730951
  0
VERTEX
  5
5B3
  8
6
 10
-21.099999999999898
 20
6.7999999999999536
 30
0.0
  0
VERTEX
  5
5B4
  8
6
 10
-21.099999999999898
 20
8.1999999999998181
 30
0.0
 42
0.4142135623730951
  0
VERTEX
  5
5B5
  8
6
 10
-21.39999999999986
 20
8.5
 30
0.0
  0
VERTEX
  5
5B6
  8
6
 10
-24.599999999999909
 20
8.5
 30
0.0
 42
0.4142135623730951
  0
VERTEX
  5
5B7
  8
6
 10
-24.89999999999986
 20
8.1999999999998181
 30
0.0
  0
VERTEX
  5
5B8
  8
6
 10
-24.89999999999986
 20
1.7999999999999541
 30
0.0
 42
-0.4142135623730951
  0
VERTEX
  5
5B9
  8
6
 10
-25.199999999999811
 20
1.5
 30
0.0
  0
VERTEX
  5
5BA
  8
6
 10
-28.699999999999811
 20
1.5
 30
0.0
 42
-0.4142135623730971
  0
VERTEX
  5
5BB
  8
6
 10
-28.999999999999769
 20
1.7999999999999541
 30
0.0
  0
VERTEX
  5
5BC
  8
6
 10
-28.999999999999769
 20
6.7999999999999536
 30
0.0
  0
VERTEX
  5
5BD
  8
6
 10
-29.619999999999891
 20
8.5
 30
0.0
  0
VERTEX
  5
5BE
  8
6
 10
-29.999999999999769
 20
8.5
 30
0.0
  0
VERTEX
  5
5BF
  8
6
 10
-29.999999999999769
 20
8.2000000000000455
 30
0.0
  0
VERTEX
  5
5C0
  8
6
 10
-36.199999999999811
 20
8.2000000000000455
 30
0.0
 42
-0.4142135623730951
  0
VERTEX
  5
5C1
  8
6
 10
-36.499999999999773
 20
8.5
 30
0.0
  0
VERTEX
  5
5C2
  8
6
 10
-36.499999999999773
 20
12.0
 30
0.0
 42
-0.414213562373096
  0
VERTEX
  5
5C3
  8
6
 10
-36.199999999999811
 20
12.299999999999949
 30
0.0
  0
VERTEX
  5
5C4
  8
6
 10
-29.849999999999898
 20
12.299999999999949
 30
0.0
 42
0.4142135623730951
  0
VERTEX
  5
5C5
  8
6
 10
-28.999999999999769
 20
13.14999999999986
 30
0.0
  0
VERTEX
  5
5C6
  8
6
 10
-28.999999999999769
 20
19.799999999999951
 30
0.0
  0
VERTEX
  5
5C7
  8
6
 10
-30.199999999999811
 20
21.878460969082649
 30
0.0
  0
VERTEX
  5
5C8
  8
6
 10
-30.199999999999811
 20
22.5
 30
0.0
 42
-0.4142135623730951
  0
VERTEX
  5
5C9
  8
6
 10
-29.199999999999822
 20
23.5
 30
0.0
  0
VERTEX
  5
5CA
  8
6
 10
-25.849999999999909
 20
23.5
 30
0.0
 42
0.414213562373093
  0
VERTEX
  5
5CB
  8
6
 10
-24.999999999999769
 20
24.349999999999909
 30
0.0
  0
VERTEX
  5
5CC
  8
6
 10
-24.999999999999769
 20
25.07999999999992
 30
0.0
  0
VERTEX
  5
5CD
  8
6
 10
-25.419999999999838
 20
25.5
 30
0.0
  0
VERTEX
  5
5CE
  8
6
 10
-26.57999999999992
 20
25.5
 30
0.0
  0
VERTEX
  5
5CF
  8
6
 10
-26.999999999999769
 20
25.07999999999992
 30
0.0
  0
VERTEX
  5
5D0
  8
6
 10
-27.419999999999611
 20
25.5
 30
0.0
  0
VERTEX
  5
5D1
  8
6
 10
-28.07999999999992
 20
25.5
 30
0.0
  0
VERTEX
  5
5D2
  8
6
 10
-28.499999999999769
 20
25.07999999999992
 30
0.0
  0
VERTEX
  5
5D3
  8
6
 10
-28.919999999999622
 20
25.5
 30
0.0
  0
VERTEX
  5
5D4
  8
6
 10
-31.179999999999829
 20
25.5
 30
0.0
  0
VERTEX
  5
5D5
  8
6
 10
-31.999999999999769
 20
24.679999999999829
 30
0.0
  0
VERTEX
  5
5D6
  8
6
 10
-31.999999999999769
 20
21.39615242270656
 30
0.0
  0
VERTEX
  5
5D7
  8
6
 10
-30.999999999999769
 20
19.664101615137721
 30
0.0
  0
SEQEND
  5
5D8
  8
6
  0
POLYLINE
  5
36F
  8
4
 66
     1
 10
0.0
 20
0.0
 30
0.0
  0
VERTEX
  5
5D9
  8
4
 10
-94.429391494597894
 20
-2.8729135017074441
 30
0.0
  0
VERTEX
  5
5DA
  8
4
 10
-95.918210722059925
 20
-3.0557175168153199
 30
0.0
  0
VERTEX
  5
5DB
  8
4
 10
-97.016253506140401
 20
5.8871233094730542
 30
0.0
  0
VERTEX
  5
5DC
  8
4
 10
-94.068177407099711
 20
8.0525441263735047
 30
0.0
  0
VERTEX
  5
5DD
  8
4
 10
-31.999999999999769
 20
15.789074948209411
 30
0.0
  0
VERTEX
  5
5DE
  8
4
 10
-31.999999999999769
 20
25.5
 30
0.0
  0
VERTEX
  5
5DF
  8
4
 10
-24.999999999999769
 20
25.5
 30
0.0
  0
VERTEX
  5
5E0
  8
4
 10
-24.999999999999769
 20
23.5
 30
0.0
  0
VERTEX
  5
5E1
  8
4
 10
-28.999999999999769
 20
23.5
 30
0.0
  0
VERTEX
  5
5E2
  8
4
 10
-28.999999999999769
 20
8.5
 30
0.0
  0
VERTEX
  5
5E3
  8
4
 10
-21.099999999999898
 20
8.5
 30
0.0
  0
VERTEX
  5
5E4
  8
4
 10
-21.099999999999898
 20
6.0184776630701426
 30
0.0
  0
VERTEX
  5
5E5
  8
4
 10
-6.9284840231409808
 20
6.0184776630701426
 30
0.0
  0
VERTEX
  5
5E6
  8
4
 10
-6.9284840231409808
 20
2.7240065840462639
 30
0.0
  0
VERTEX
  5
5E7
  8
4
 10
-23.099999999999909
 20
2.7240065840462639
 30
0.0
  0
VERTEX
  5
5E8
  8
4
 10
-23.099999999999909
 20
0.0
 30
0.0
  0
VERTEX
  5
5E9
  8
4
 10
-50.29999999999972
 20
0.0
 30
0.0
  0
VERTEX
  5
5EA
  8
4
 10
-50.29999999999972
 20
1.5
 30
0.0
  0
SEQEND
  5
5EB
  8
4
  0
TEXT
  5
370
  8
1
 10
-82.134572318104347
 20
14.70923183598506
 30
0.0
 40
2.5
  1
Hebgo 162/843
  0
LINE
  5
371
  8
6
  6
STRICHPUNKT
 10
-13.999999999999771
 20
9.3001413397664692
 30
0.0
 11
-13.999999999999771
 21
-15.3399529210485
 31
0.0
  0
POLYLINE
  5
372
  8
5
 66
     1
 10
0.0
 20
0.0
 30
0.0
  0
VERTEX
  5
5EC
  8
5
 10
0.0
 20
-11.98615426501919
 30
0.0
  0
VERTEX
  5
5ED
  8
5
 10
0.0
 20
0.0
 30
0.0
  0
VERTEX
  5
5EE
  8
5
 10
-48.0
 20
0.0
 30
0.0
  0
VERTEX
  5
5EF
  8
5
 10
-48.0
 20
-11.98615426501919
 30
0.0
  0
SEQEND
  5
5F0
  8
5
  0
DIMENSION
  5
373
  8
1
  2
*D5
 10
-0.0000000000000015
 20
-23.711692475452079
 30
0.0
 11
-11.499999999999879
 21
-20.923493294005969
 31
0.0
 70
     0
 13
-22.999999999999769
 23
15.0
 33
0.0
 14
0.0
 24
0.0
 34
0.0
  0
DIMENSION
  5
374
  8
1
  2
*D6
 10
-22.999999999999769
 20
-23.711692475452079
 30
0.0
 11
-25.999999999999769
 21
-20.924687018426159
 31
0.0
 70
     0
 13
-28.999999999999769
 23
8.5
 33
0.0
 14
-22.999999999999769
 24
15.0
 34
0.0
  0
TEXT
  5
375
  8
1
 10
-19.050219139716319
 20
-27.448203701567301
 30
0.0
 40
1.5
  1
VAR. 25, 27
  0
INSERT
  5
376
  8
2
  2
*X3
 10
-663.6425516294687
 20
303.20706984798238
 30
0.0
1001
ACAD
1000
HATCH
1002
{
1070
    16
1000
_U,I
1040
1.0
1040
0.7853981633974483
1070
     1
1002
}
  0
POLYLINE
  5
377
  8
6
 66
     1
 10
0.0
 20
0.0
 30
0.0
  0
VERTEX
  5
5F1
  8
6
 10
0.0000000000002274
 20
5.3882397946526899
 30
0.0
  0
VERTEX
  5
5F2
  8
6
 10
0.0000000000002274
 20
8.0876912047838232
 30
0.0
  0
VERTEX
  5
5F3
  8
6
 10
-0.4499999999998181
 20
8.5376912047838687
 30
0.0
  0
VERTEX
  5
5F4
  8
6
 10
-2.0499999999999541
 20
8.5376912047838687
 30
0.0
  0
VERTEX
  5
5F5
  8
6
 10
-2.4999999999997722
 20
8.0876912047838232
 30
0.0
  0
VERTEX
  5
5F6
  8
6
 10
-2.4999999999997722
 20
8.0376912047838687
 30
0.0
  0
VERTEX
  5
5F7
  8
6
 10
-5.4999999999997717
 20
8.0376912047838687
 30
0.0
  0
VERTEX
  5
5F8
  8
6
 10
-5.4999999999997717
 20
8.0876912047838232
 30
0.0
  0
VERTEX
  5
5F9
  8
6
 10
-5.9499999999998181
 20
8.5376912047838687
 30
0.0
  0
VERTEX
  5
5FA
  8
6
 10
-12.999999999999771
 20
8.5376912047838687
 30
0.0
  0
VERTEX
  5
5FB
  8
6
 10
-13.999999999999771
 20
7.5376912047838678
 30
0.0
  0
VERTEX
  5
5FC
  8
6
 10
-14.999999999999771
 20
8.5376912047838687
 30
0.0
  0
VERTEX
  5
5FD
  8
6
 10
-20.299999999999951
 20
8.5376912047838687
 30
0.0
  0
VERTEX
  5
5FE
  8
6
 10
-20.499999999999769
 20
8.3376912047838232
 30
0.0
  0
VERTEX
  5
5FF
  8
6
 10
-20.499999999999769
 20
5.5376912047838678
 30
0.0
  0
VERTEX
  5
600
  8
6
 10
-13.579587173670911
 20
5.5376912047838678
 30
0.0
  0
VERTEX
  5
601
  8
6
 10
-12.591236345765081
 20
6.4586164812897087
 30
0.0
  0
VERTEX
  5
602
  8
6
 10
-11.732459632218021
 20
5.5376912047836413
 30
0.0
  0
VERTEX
  5
603
  8
6
 10
-11.579587173670911
 20
5.5376912047838678
 30
0.0
  0
VERTEX
  5
604
  8
6
 10
-10.591236345765081
 20
6.4586164812897087
 30
0.0
  0
VERTEX
  5
605
  8
6
 10
-9.7324596322180241
 20
5.5376912047836413
 30
0.0
  0
VERTEX
  5
606
  8
6
 10
-9.5795871736709142
 20
5.5376912047838678
 30
0.0
  0
VERTEX
  5
607
  8
6
 10
-8.5912363457650827
 20
6.4586164812897087
 30
0.0
  0
VERTEX
  5
608
  8
6
 10
-7.7324596322180241
 20
5.5376912047836413
 30
0.0
  0
VERTEX
  5
609
  8
6
 10
-6.6746442086891866
 20
5.5376912047838678
 30
0.0
 42
-4.8836046478686121
  0
VERTEX
  5
60A
  8
6
 10
-6.6746442086891866
 20
3.3365940250457689
 30
0.0
  0
VERTEX
  5
60B
  8
6
 10
-7.7324596322180241
 20
3.3365940250459971
 30
0.0
  0
VERTEX
  5
60C
  8
6
 10
-8.5912363457650827
 20
2.415668748539928
 30
0.0
  0
VERTEX
  5
60D
  8
6
 10
-9.5795871736709142
 20
3.3365940250457689
 30
0.0
  0
VERTEX
  5
60E
  8
6
 10
-9.7324596322180241
 20
3.3365940250459971
 30
0.0
  0
VERTEX
  5
60F
  8
6
 10
-10.591236345765081
 20
2.415668748539928
 30
0.0
  0
VERTEX
  5
610
  8
6
 10
-11.579587173670911
 20
3.3365940250457689
 30
0.0
  0
VERTEX
  5
611
  8
6
 10
-11.732459632218021
 20
3.3365940250459971
 30
0.0
  0
VERTEX
  5
612
  8
6
 10
-12.591236345765081
 20
2.415668748539928
 30
0.0
  0
VERTEX
  5
613
  8
6
 10
-13.579587173670911
 20
3.3365940250457689
 30
0.0
  0
VERTEX
  5
614
  8
6
 10
-19.579074723493932
 20
3.3365940250459971
 30
0.0
  0
VERTEX
  5
615
  8
6
 10
-20.499999999999769
 20
2.415668748539928
 30
0.0
  0
VERTEX
  5
616
  8
6
 10
-22.5
 20
2.415668748539928
 30
0.0
  0
VERTEX
  5
617
  8
6
 10
-22.5
 20
0.5365940250458153
 30
0.0
  0
VERTEX
  5
618
  8
6
 10
-22.299999999999951
 20
0.3365940250457697
 30
0.0
  0
VERTEX
  5
619
  8
6
 10
-17.0
 20
0.3365940250457697
 30
0.0
  0
VERTEX
  5
61A
  8
6
 10
-16.0
 20
1.3365940250457691
 30
0.0
  0
VERTEX
  5
61B
  8
6
 10
-15.0
 20
0.3365940250457697
 30
0.0
  0
VERTEX
  5
61C
  8
6
 10
-5.5
 20
0.3365940250457697
 30
0.0
  0
VERTEX
  5
61D
  8
6
 10
-5.5
 20
0.3865940250457243
 30
0.0
  0
VERTEX
  5
61E
  8
6
 10
-5.0499999999999536
 20
0.8365940250457697
 30
0.0
  0
VERTEX
  5
61F
  8
6
 10
-2.9499999999998181
 20
0.8365940250457697
 30
0.0
  0
VERTEX
  5
620
  8
6
 10
-2.5
 20
0.3865940250457243
 30
0.0
  0
VERTEX
  5
621
  8
6
 10
-2.5
 20
0.3365940250457697
 30
0.0
  0
VERTEX
  5
622
  8
6
 10
-0.4499999999998181
 20
0.3365940250457697
 30
0.0
  0
VERTEX
  5
623
  8
6
 10
0.0
 20
0.7865940250458153
 30
0.0
  0
VERTEX
  5
624
  8
6
 10
0.0
 20
5.5376912047838678
 30
0.0
  0
SEQEND
  5
625
  8
6
  0
POLYLINE
  5
378
  8
5
 66
     1
 10
0.0
 20
0.0
 30
0.0
  0
VERTEX
  5
626
  8
5
 10
-22.999999999999769
 20
33.891008707262237
 30
0.0
  0
VERTEX
  5
627
  8
5
 10
-22.999999999999769
 20
15.0
 30
0.0
  0
VERTEX
  5
628
  8
5
 10
1.0
 20
15.0
 30
0.0
  0
VERTEX
  5
629
  8
5
 10
1.0
 20
-3.0
 30
0.0
  0
VERTEX
  5
62A
  8
5
 10
4.9481751402765886
 20
-3.0
 30
0.0
  0
SEQEND
  5
62B
  8
5
  0
DIMENSION
  5
379
  8
1
  2
*D7
 10
-39.688032348196877
 20
0.5000000000000022
 30
0.0
 11
-43.975037805222797
 21
19.836100858062188
 31
0.0
 70
   128
 13
-31.999999999999769
 23
25.5
 33
0.0
 14
-32.00000000000022
 24
0.5
 34
0.0
 50
90.0
  0
POLYLINE
  5
37A
  8
6
 66
     1
 10
0.0
 20
0.0
 30
0.0
  0
VERTEX
  5
62C
  8
6
 10
-29.02304912798559
 20
12.299999999999949
 30
0.0
  0
VERTEX
  5
62D
  8
6
 10
-34.340826721585699
 20
12.299999999999949
 30
0.0
 42
0.2057883710538204
  0
VERTEX
  5
62E
  8
6
 10
-35.873223341856601
 20
11.71321900654697
 30
0.0
 42
0.3549142717655278
  0
VERTEX
  5
62F
  8
6
 10
-35.937956673476258
 20
10.464445696075691
 30
0.0
 42
0.1297593261325319
  0
VERTEX
  5
630
  8
6
 10
-33.829499404609798
 20
8.4016571858201132
 30
0.0
 42
0.9351078027123772
  0
VERTEX
  5
631
  8
6
 10
-33.330127933311587
 20
8.9936682343050052
 30
0.0
 42
-0.0191884285460261
  0
VERTEX
  5
632
  8
6
 10
-34.467585129976889
 20
9.9279356691806697
 30
0.0
 42
-0.5601684513071198
  0
VERTEX
  5
633
  8
6
 10
-34.347366106520212
 20
10.28869237445428
 30
0.0
 42
-0.0746422886383072
  0
VERTEX
  5
634
  8
6
 10
-32.849251692626012
 20
10.18694045824599
 30
0.0
 42
-0.1471616994481645
  0
VERTEX
  5
635
  8
6
 10
-32.36837550089308
 20
9.4561768557869073
 30
0.0
 42
0.1875175819089431
  0
VERTEX
  5
636
  8
6
 10
-30.92574682778854
 20
8.4109073127913234
 30
0.0
 42
0.9920182636924723
  0
VERTEX
  5
637
  8
6
 10
-30.48186109728044
 20
8.9844180423931448
 30
0.0
 42
-0.1131030402240264
  0
VERTEX
  5
638
  8
6
 10
-31.47135640009423
 20
9.9279356691806697
 30
0.0
 42
-0.5007469553256806
  0
VERTEX
  5
639
  8
6
 10
-31.341889687901809
 20
10.28869237445428
 30
0.0
 42
-0.1116143650146395
  0
VERTEX
  5
63A
  8
6
 10
-23.472810067182309
 20
8.5
 30
0.0
 42
0.9741946186516731
  0
VERTEX
  5
63B
  8
6
 10
-23.15681595207138
 20
9.4076844999966625
 30
0.0
 42
-0.0020327931416237
  0
VERTEX
  5
63C
  8
6
 10
-25.818008682023208
 20
10.40521280284519
 30
0.0
 42
-0.1064519250600937
  0
VERTEX
  5
63D
  8
6
 10
-26.484992951280439
 20
11.589436799876459
 30
0.0
 42
0.0058592952504923
  0
VERTEX
  5
63E
  8
6
 10
-26.25154847172621
 20
16.60987924712958
 30
0.0
 42
0.016562962246573
  0
VERTEX
  5
63F
  8
6
 10
-26.218199253368081
 20
20.596210685275992
 30
0.0
 42
-0.2871734719844753
  0
VERTEX
  5
640
  8
6
 10
-25.151024363812891
 20
21.530246477334231
 30
0.0
 42
-0.511245233838921
  0
VERTEX
  5
641
  8
6
 10
-24.45069082724444
 20
20.829719633290321
 30
0.0
 42
-0.2109741856144979
  0
VERTEX
  5
642
  8
6
 10
-24.667460771049029
 20
19.979079866262961
 30
0.0
 42
-0.0327986461560527
  0
VERTEX
  5
643
  8
6
 10
-24.350643221122709
 20
12.256605194943401
 30
0.0
 42
0.7034783614102022
  0
VERTEX
  5
644
  8
6
 10
-22.999999999999769
 20
12.30664283593819
 30
0.0
  0
VERTEX
  5
645
  8
6
 10
-22.999999999999769
 20
20.796361184313799
 30
0.0
 42
0.2980669407217146
  0
VERTEX
  5
646
  8
6
 10
-25.18437358217102
 20
23.099332942993438
 30
0.0
  0
VERTEX
  5
647
  8
6
 10
-27.468794770464001
 20
23.099332942993438
 30
0.0
 42
-0.0826786650355534
  0
VERTEX
  5
648
  8
6
 10
-28.402572786586681
 20
23.24820520340722
 30
0.0
 42
0.4797327513156193
  0
VERTEX
  5
649
  8
6
 10
-29.02304912798559
 20
22.981337806415919
 30
0.0
  0
VERTEX
  5
64A
  8
6
 10
-29.02304912798559
 20
22.038870787281891
 30
0.0
 42
-0.0794902430460504
  0
VERTEX
  5
64B
  8
6
 10
-29.02304912798559
 20
12.299999999999949
 30
0.0
  0
SEQEND
  5
64C
  8
6
  0
POINT
  5
37B
  8
5
 10
-29.02304912798559
 20
7.9249814501629308
 30
0.0
  0
POINT
  5
37C
  8
5
 10
-29.02304912798559
 20
7.9249814501629308
 30
0.0
  0
POLYLINE
  5
37D
  8
5
 66
     1
 10
0.0
 20
0.0
 30
0.0
  0
VERTEX
  5
64D
  8
5
 10
3.8041438526099678
 20
15.0
 30
0.0
  0
VERTEX
  5
64E
  8
5
 10
5.0
 20
15.0
 30
0.0
  0
VERTEX
  5
64F
  8
5
 10
5.0
 20
13.254045909564409
 30
0.0
  0
SEQEND
  5
650
  8
5
  0
POLYLINE
  5
37E
  8
5
 66
     1
 10
0.0
 20
0.0
 30
0.0
  0
VERTEX
  5
651
  8
5
 10
1.804143852609968
 20
15.0
 30
0.0
  0
VERTEX
  5
652
  8
5
 10
3.0
 20
15.0
 30
0.0
  0
VERTEX
  5
653
  8
5
 10
3.0
 20
13.254045909564409
 30
0.0
  0
SEQEND
  5
654
  8
5
  0
DIMENSION
  5
37F
  8
1
  2
*D8
 10
10.609919142330909
 20
8.5376912047838651
 30
0.0
 11
7.8229136853049859
 21
4.2688456023919326
 31
0.0
 70
     0
 13
0.0
 23
0.0
 33
0.0
 14
-0.4499999999998181
 24
8.5376912047838687
 34
0.0
 50
90.0
  0
VIEWPORT
  5
22
 67
     1
  8
0
 10
210.0
 20
170.2366863905325
 30
0.0
 40
420.0
 41
340.47337278106511
 68
     1
 69
     1
1001
ACAD
1000
MVIEW
1002
{
1070
    16
1010
0.0
1020
0.0
1030
0.0
1010
0.0
1020
0.0
1030
1.0
1040
0.0
1040
340.47337278106511
1040
210.0
1040
170.2366863905325
1040
50.0
1040
0.0
1040
0.0
1070
     0
1070
   100
1070
     1
1070
     1
1070
     0
1070
     0
1070
     0
1070
     0
1040
0.0
1040
0.0
1040
0.0
1040
5.0
1040
5.0
1040
10.0
1040
10.0
1070
     0
1002
{
1002
}
1002
}
  0
ENDSEC
  0
EOF
