  0
SECTION
  2
HEADER
  9
$ACADVER
  1
AC1009
  9
$INSBASE
 10
0.0
 20
0.0
 30
0.0
  9
$EXTMIN
 10
-109.76934797437229
 20
-31.086881648412909
 30
0.0
  9
$EXTMAX
 10
11.609919142330909
 20
33.891008707262188
 30
0.0
  9
$LIMMIN
 10
-150.0
 20
-150.0
  9
$LIMMAX
 10
150.0
 20
150.0
  9
$ORTHOMODE
 70
     0
  9
$REGENMODE
 70
     1
  9
$FILLMODE
 70
     1
  9
$QTEXTMODE
 70
     0
  9
$MIRRTEXT
 70
     0
  9
$DRAGMODE
 70
     2
  9
$LTSCALE
 40
4.0
  9
$OSMODE
 70
   111
  9
$ATTMODE
 70
     1
  9
$TEXTSIZE
 40
3.5
  9
$TRACEWID
 40
1.0
  9
$TEXTSTYLE
  7
BESCHLAG
  9
$CLAYER
  8
0
  9
$CELTYPE
  6
BYLAYER
  9
$CECOLOR
 62
   256
  9
$DIMSCALE
 40
1.0
  9
$DIMASZ
 40
2.0
  9
$DIMEXO
 40
2.0
  9
$DIMDLI
 40
0.0
  9
$DIMRND
 40
0.0
  9
$DIMDLE
 40
1.0
  9
$DIMEXE
 40
1.0
  9
$DIMTP
 40
0.0
  9
$DIMTM
 40
0.0
  9
$DIMTXT
 40
3.5
  9
$DIMCEN
 40
0.0
  9
$DIMTSZ
 40
0.0
  9
$DIMTOL
 70
     0
  9
$DIMLIM
 70
     0
  9
$DIMTIH
 70
     0
  9
$DIMTOH
 70
     0
  9
$DIMSE1
 70
     0
  9
$DIMSE2
 70
     0
  9
$DIMTAD
 70
     1
  9
$DIMZIN
 70
     8
  9
$DIMBLK
  1

  9
$DIMASO
 70
     1
  9
$DIMSHO
 70
     1
  9
$DIMPOST
  1

  9
$DIMAPOST
  1

  9
$DIMALT
 70
     0
  9
$DIMALTD
 70
     2
  9
$DIMALTF
 40
0.039370078740157
  9
$DIMLFAC
 40
1.0
  9
$DIMTOFL
 70
     1
  9
$DIMTVP
 40
0.0
  9
$DIMTIX
 70
     1
  9
$DIMSOXD
 70
     0
  9
$DIMSAH
 70
     1
  9
$DIMBLK1
  1
OBLIQUE
  9
$DIMBLK2
  1
OBLIQUE
  9
$DIMSTYLE
  2
OPO-SSTRICH
  9
$DIMCLRD
 70
   256
  9
$DIMCLRE
 70
   256
  9
$DIMCLRT
 70
   256
  9
$DIMTFAC
 40
0.7114285714285716
  9
$DIMGAP
 40
1.0
  9
$LUNITS
 70
     2
  9
$LUPREC
 70
     1
  9
$SKETCHINC
 40
1.0
  9
$FILLETRAD
 40
0.25
  9
$AUNITS
 70
     0
  9
$AUPREC
 70
     1
  9
$MENU
  1
D:\ACL_CGWG\CGTAB13
  9
$ELEVATION
 40
0.0
  9
$PELEVATION
 40
0.0
  9
$THICKNESS
 40
0.0
  9
$LIMCHECK
 70
     0
  9
$BLIPMODE
 70
     0
  9
$CHAMFERA
 40
1.0
  9
$CHAMFERB
 40
1.0
  9
$SKPOLY
 70
     0
  9
$TDCREATE
 40
2451739.8756096181
  9
$TDUPDATE
 40
2452087.6194115388
  9
$TDINDWG
 40
0.0672395486
  9
$TDUSRTIMER
 40
0.0672395486
  9
$USRTIMER
 70
     1
  9
$ANGBASE
 50
0.0
  9
$ANGDIR
 70
     0
  9
$PDMODE
 70
    35
  9
$PDSIZE
 40
5.0
  9
$PLINEWID
 40
0.0
  9
$COORDS
 70
     1
  9
$SPLFRAME
 70
     0
  9
$SPLINETYPE
 70
     6
  9
$SPLINESEGS
 70
     8
  9
$ATTDIA
 70
     1
  9
$ATTREQ
 70
     1
  9
$HANDLING
 70
-16383
  9
$HANDSEED
  5
CE5
  9
$SURFTAB1
 70
    12
  9
$SURFTAB2
 70
    12
  9
$SURFTYPE
 70
     6
  9
$SURFU
 70
    12
  9
$SURFV
 70
    12
  9
$UCSNAME
  2

  9
$UCSORG
 10
0.0
 20
0.0
 30
0.0
  9
$UCSXDIR
 10
1.0
 20
0.0
 30
0.0
  9
$UCSYDIR
 10
0.0
 20
1.0
 30
0.0
  9
$PUCSNAME
  2

  9
$PUCSORG
 10
0.0
 20
0.0
 30
0.0
  9
$PUCSXDIR
 10
1.0
 20
0.0
 30
0.0
  9
$PUCSYDIR
 10
0.0
 20
1.0
 30
0.0
  9
$USERI1
 70
     0
  9
$USERI2
 70
     0
  9
$USERI3
 70
     0
  9
$USERI4
 70
     0
  9
$USERI5
 70
     0
  9
$USERR1
 40
0.0
  9
$USERR2
 40
0.0
  9
$USERR3
 40
0.0
  9
$USERR4
 40
0.0
  9
$USERR5
 40
0.0
  9
$WORLDVIEW
 70
     1
  9
$SHADEDGE
 70
     3
  9
$SHADEDIF
 70
    70
  9
$TILEMODE
 70
     1
  9
$MAXACTVP
 70
    48
  9
$PLIMCHECK
 70
     0
  9
$PEXTMIN
 10
1.0000000000000000E+020
 20
1.0000000000000000E+020
 30
1.0000000000000000E+020
  9
$PEXTMAX
 10
-1.0000000000000000E+020
 20
-1.0000000000000000E+020
 30
-1.0000000000000000E+020
  9
$PLIMMIN
 10
0.0
 20
0.0
  9
$PLIMMAX
 10
420.0
 20
297.0
  9
$UNITMODE
 70
     0
  9
$VISRETAIN
 70
     1
  9
$PLINEGEN
 70
     0
  9
$PSLTSCALE
 70
     1
  0
ENDSEC
  0
SECTION
  2
TABLES
  0
TABLE
  2
VPORT
 70
     2
  0
VPORT
  2
*ACTIVE
 70
     0
 10
0.0
 20
0.0
 11
1.0
 21
1.0
 12
-49.072264983635648
 22
1.3961798993361181
 13
0.0
 23
0.0
 14
0.5
 24
0.5
 15
10.0
 25
10.0
 16
0.0
 26
0.0
 36
1.0
 17
0.0
 27
0.0
 37
0.0
 40
75.923308343867816
 41
1.6070460704607039
 42
50.0
 43
0.0
 44
0.0
 50
0.0
 51
0.0
 71
     0
 72
   800
 73
     1
 74
     1
 75
     0
 76
     0
 77
     0
 78
     0
  0
ENDTAB
  0
TABLE
  2
LTYPE
 70
     2
  0
LTYPE
  2
CONTINUOUS
 70
     0
  3
_______________________________________________
 72
    65
 73
     2
 40
1.0
 49
1.0
 49
0.0
  0
LTYPE
  2
STRICHPUNKT
 70
     0
  3
__ . __ . __ . __ . __ . __ . __ . __ . __ . __
 72
    65
 73
     4
 40
1.0
 49
0.5
 49
-0.25
 49
0.0
 49
-0.25
  0
ENDTAB
  0
TABLE
  2
LAYER
 70
     7
  0
LAYER
  2
0
 70
     0
 62
    30
  6
CONTINUOUS
  0
LAYER
  2
1
 70
     0
 62
     2
  6
CONTINUOUS
  0
LAYER
  2
2
 70
     0
 62
     9
  6
CONTINUOUS
  0
LAYER
  2
4
 70
     1
 62
     4
  6
CONTINUOUS
  0
LAYER
  2
5
 70
     0
 62
     1
  6
CONTINUOUS
  0
LAYER
  2
6
 70
     0
 62
     3
  6
CONTINUOUS
  0
LAYER
  2
DEFPOINTS
 70
     0
 62
     7
  6
CONTINUOUS
  0
ENDTAB
  0
TABLE
  2
STYLE
 70
     2
  0
STYLE
  2
STANDARD
 70
     0
 40
0.0
 41
1.0
 50
0.0
 71
     0
 42
2.5
  3
txt
  4

  0
STYLE
  2
BESCHLAG
 70
     0
 40
0.0
 41
1.0
 50
0.0
 71
     0
 42
3.5
  3
txt
  4

  0
ENDTAB
  0
TABLE
  2
VIEW
 70
     0
  0
ENDTAB
  0
TABLE
  2
UCS
 70
     2
  0
UCS
  2
7_GRAD
 70
     0
 10
0.0
 20
0.0
 30
0.0
 11
0.992546151641322
 21
0.1218693434051475
 31
0.0
 12
-0.1218693434051475
 22
0.992546151641322
 32
0.0
  0
UCS
  2
11_GRAD
 70
     0
 10
0.0
 20
0.0
 30
0.0
 11
0.9816271834476639
 21
0.1908089953765448
 31
0.0
 12
-0.1908089953765448
 22
0.9816271834476639
 32
0.0
  0
ENDTAB
  0
TABLE
  2
APPID
 70
     1
  0
APPID
  2
ACAD
 70
     0
  0
ENDTAB
  0
TABLE
  2
DIMSTYLE
 70
     1
  0
DIMSTYLE
  2
OPO-SSTRICH
 70
     0
  3

  4

  5

  6
OBLIQUE
  7
OBLIQUE
 40
1.0
 41
2.0
 42
2.0
 43
0.0
 44
1.0
 45
0.0
 46
1.0
 47
0.0
 48
0.0
140
3.5
141
0.0
142
0.0
143
0.039370078740157
144
1.0
145
0.0
146
0.7114285714285716
147
1.0
 71
     0
 72
     0
 73
     0
 74
     0
 75
     0
 76
     0
 77
     1
 78
     8
170
     0
171
     2
172
     1
173
     1
174
     1
175
     0
176
   256
177
   256
178
   256
  0
ENDTAB
  0
ENDSEC
  0
SECTION
  2
BLOCKS
  0
BLOCK
  8
0
  2
$MODEL_SPACE
 70
     0
 10
0.0
 20
0.0
 30
0.0
  3
$MODEL_SPACE
  1

  0
ENDBLK
  5
1C
  8
0
  0
BLOCK
 67
     1
  8
0
  2
$PAPER_SPACE
 70
     0
 10
0.0
 20
0.0
 30
0.0
  3
$PAPER_SPACE
  1

  0
ENDBLK
  5
19
 67
     1
  8
0
  0
BLOCK
  8
0
  2
_OBLIQUE
 70
     0
 10
0.0
 20
0.0
 30
0.0
  3
_OBLIQUE
  1

  0
LINE
  5
204
  8
0
 62
     0
 10
-0.5
 20
-0.5
 30
0.0
 11
0.5
 21
0.5
 31
0.0
  0
ENDBLK
  5
206
  8
0
  0
BLOCK
  8
0
  2
NULLPUNKT
 70
     0
 10
0.0
 20
0.0
 30
0.0
  3
NULLPUNKT
  1

  0
SOLID
  5
254
  8
5
 10
0.0
 20
0.0
 30
0.0
 11
2.0
 21
0.0
 31
0.0
 12
0.0
 22
-2.0
 32
0.0
 13
0.0
 23
-2.0
 33
0.0
  0
SOLID
  5
255
  8
5
 10
0.0
 20
0.0
 30
0.0
 11
-2.0
 21
0.0
 31
0.0
 12
0.0
 22
2.0
 32
0.0
 13
0.0
 23
2.0
 33
0.0
  0
POLYLINE
  5
256
  8
5
 66
     1
 10
0.0
 20
0.0
 30
0.0
  0
VERTEX
  5
B0D
  8
5
 10
0.0
 20
2.0
 30
0.0
  0
VERTEX
  5
B0E
  8
5
 10
0.0
 20
-2.0
 30
0.0
  0
SEQEND
  5
B0F
  8
5
  0
POLYLINE
  5
257
  8
5
 66
     1
 10
0.0
 20
0.0
 30
0.0
  0
VERTEX
  5
B10
  8
5
 10
-2.0
 20
0.0
 30
0.0
  0
VERTEX
  5
B11
  8
5
 10
2.0
 20
0.0
 30
0.0
  0
SEQEND
  5
B12
  8
5
  0
CIRCLE
  5
258
  8
5
 10
0.0
 20
0.0
 30
0.0
 40
2.0
  0
ENDBLK
  5
25A
  8
0
  0
BLOCK
  8
0
  2
*X2
 70
     1
 10
0.0
 20
0.0
 30
0.0
  3
*X2
  1

  0
LINE
  5
30B
  8
0
 62
     0
 10
348.64603031132509
 20
-303.34028607110139
 30
0.0
 11
351.64603031132532
 21
-300.34028607110122
 31
0.0
  0
LINE
  5
30C
  8
0
 62
     0
 10
354.74474926965559
 20
-297.24156711277089
 30
0.0
 11
356.8471274910633
 21
-295.13918889136329
 31
0.0
  0
LINE
  5
30D
  8
0
 62
     0
 10
347.77303575050422
 20
-302.7990670695491
 30
0.0
 11
349.99202050559529
 21
-300.58008231445802
 31
0.0
  0
LINE
  5
30E
  8
0
 62
     0
 10
353.02741443188899
 20
-297.54468838816439
 30
0.0
 11
355.4329139286902
 21
-295.13918889136329
 31
0.0
  0
LINE
  5
30F
  8
0
 62
     0
 10
345.81760318657888
 20
-303.34028607110139
 30
0.0
 11
348.81760318657899
 21
-300.34028607110127
 31
0.0
  0
LINE
  5
310
  8
0
 62
     0
 10
351.31007959412261
 20
-297.84780966355771
 30
0.0
 11
354.01870036631709
 21
-295.13918889136329
 31
0.0
  0
LINE
  5
311
  8
0
 62
     0
 10
344.40338962420577
 20
-303.34028607110139
 30
0.0
 11
347.403389624206
 21
-300.34028607110127
 31
0.0
  0
LINE
  5
312
  8
0
 62
     0
 10
349.60448680394393
 20
-298.13918889136318
 30
0.0
 11
352.60448680394398
 21
-295.13918889136329
 31
0.0
  0
LINE
  5
313
  8
0
 62
     0
 10
342.98917606183272
 20
-303.34028607110139
 30
0.0
 11
345.98917606183289
 21
-300.34028607110127
 31
0.0
  0
LINE
  5
314
  8
0
 62
     0
 10
348.19027324157082
 20
-298.13918889136318
 30
0.0
 11
351.19027324157088
 21
-295.13918889136329
 31
0.0
  0
LINE
  5
315
  8
0
 62
     0
 10
341.57496249945967
 20
-303.34028607110139
 30
0.0
 11
344.57496249945979
 21
-300.34028607110122
 31
0.0
  0
LINE
  5
316
  8
0
 62
     0
 10
346.77605967919777
 20
-298.13918889136318
 30
0.0
 11
349.04515721562723
 21
-295.87009135493378
 31
0.0
  0
LINE
  5
317
  8
0
 62
     0
 10
340.81425475205651
 20
-302.68678025613139
 30
0.0
 11
342.23982366058073
 21
-301.26121134760717
 31
0.0
  0
LINE
  5
318
  8
0
 62
     0
 10
345.36184611682472
 20
-298.13918889136318
 30
0.0
 11
348.33805043444067
 21
-295.16298457374728
 31
0.0
  0
LINE
  5
319
  8
0
 62
     0
 10
340.81425475205651
 20
-301.27256669375828
 30
0.0
 11
340.82561009820762
 21
-301.26121134760717
 31
0.0
  0
LINE
  5
31A
  8
0
 62
     0
 10
343.94763255445162
 20
-298.13918889136318
 30
0.0
 11
346.9476325544515
 21
-295.13918889136318
 31
0.0
  0
LINE
  5
31B
  8
0
 62
     0
 10
342.81425475205668
 20
-297.858353131385
 30
0.0
 11
345.53341899207851
 21
-295.13918889136318
 31
0.0
  0
LINE
  5
31C
  8
0
 62
     0
 10
342.81425475205668
 20
-296.4441395690119
 30
0.0
 11
344.11920542970529
 21
-295.13918889136318
 31
0.0
  0
LINE
  5
31D
  8
0
 62
     0
 10
350.0602438736982
 20
-303.34028607110139
 30
0.0
 11
352.42086190402409
 21
-300.97966804077549
 31
0.0
  0
LINE
  5
31E
  8
0
 62
     0
 10
355.42716333792998
 20
-297.97336660686949
 30
0.0
 11
357.81279790274652
 21
-295.58773204205312
 31
0.0
  0
LINE
  5
31F
  8
0
 62
     0
 10
351.4744574360713
 20
-303.34028607110139
 30
0.0
 11
354.11762524314162
 21
-300.69711826403102
 31
0.0
  0
LINE
  5
320
  8
0
 62
     0
 10
358.1749938795366
 20
-296.63974962763609
 30
0.0
 11
359.1755546158094
 21
-295.63918889136318
 31
0.0
  0
LINE
  5
321
  8
0
 62
     0
 10
352.88867099844441
 20
-303.34028607110139
 30
0.0
 11
355.88867099844452
 21
-300.34028607110122
 31
0.0
  0
LINE
  5
322
  8
0
 62
     0
 10
359.73951146172419
 20
-296.48944560782161
 30
0.0
 11
360.58976817818251
 21
-295.63918889136318
 31
0.0
  0
LINE
  5
323
  8
0
 62
     0
 10
354.30288456081752
 20
-303.34028607110139
 30
0.0
 11
356.87089604632172
 21
-300.77227458559707
 31
0.0
  0
LINE
  5
324
  8
0
 62
     0
 10
360.74679185642162
 20
-296.89637877549723
 30
0.0
 11
362.50398174055562
 21
-295.13918889136329
 31
0.0
  0
LINE
  5
325
  8
0
 62
     0
 10
355.71709812319062
 20
-303.34028607110139
 30
0.0
 11
357.559172887388
 21
-301.4982113069039
 31
0.0
  0
LINE
  5
326
  8
0
 62
     0
 10
361.47272857772839
 20
-297.58465561656351
 30
0.0
 11
363.31425475205668
 21
-295.74312944223527
 31
0.0
  0
LINE
  5
327
  8
0
 62
     0
 10
357.13131168556367
 20
-303.34028607110139
 30
0.0
 11
358.51943872187542
 21
-301.95215903478959
 31
0.0
  0
LINE
  5
328
  8
0
 62
     0
 10
361.92667630561408
 20
-298.54492145105093
 30
0.0
 11
363.31425475205668
 21
-297.15734300460832
 31
0.0
  0
LINE
  5
329
  8
0
 62
     0
 10
359.04552524793678
 20
-302.84028607110127
 30
0.0
 11
359.94241207869902
 21
-301.9433992403392
 31
0.0
  0
LINE
  5
32A
  8
0
 62
     0
 10
361.9179165111637
 20
-299.96789480787447
 30
0.0
 11
363.31425475205651
 21
-298.5715565669816
 31
0.0
  0
LINE
  5
32B
  8
0
 62
     0
 10
360.41199678118329
 20
-302.88802810022798
 30
0.0
 11
363.31425475205651
 21
-299.98577012935471
 31
0.0
  0
LINE
  5
32C
  8
0
 62
     0
 10
361.37395237268299
 20
-303.34028607110139
 30
0.0
 11
363.31425475205651
 21
-301.39998369172781
 31
0.0
  0
LINE
  5
32D
  8
0
 62
     0
 10
362.7881659350561
 20
-303.34028607110139
 30
0.0
 11
363.31425475205651
 21
-302.81419725410092
 31
0.0
  0
LINE
  5
32E
  8
0
 62
     0
 10
357.39925575389981
 20
-303.34028607110139
 30
0.0
 11
355.01117302917561
 21
-300.95220334637708
 31
0.0
  0
LINE
  5
32F
  8
0
 62
     0
 10
351.9745971036877
 20
-297.91562742088928
 30
0.0
 11
349.7562066631092
 21
-295.69723698031078
 31
0.0
  0
LINE
  5
330
  8
0
 62
     0
 10
355.9850421915267
 20
-303.34028607110139
 30
0.0
 11
353.29383819140912
 21
-300.6490820709837
 31
0.0
  0
LINE
  5
331
  8
0
 62
     0
 10
350.27783376457018
 20
-297.63307764414492
 30
0.0
 11
347.78394501178849
 21
-295.13918889136318
 31
0.0
  0
LINE
  5
332
  8
0
 62
     0
 10
354.5708286291536
 20
-303.34028607110139
 30
0.0
 11
351.57650335364258
 21
-300.34596079559032
 31
0.0
  0
LINE
  5
333
  8
0
 62
     0
 10
349.3697314494155
 20
-298.13918889136318
 30
0.0
 11
346.36973144941538
 21
-295.13918889136318
 31
0.0
  0
LINE
  5
334
  8
0
 62
     0
 10
353.15661506678049
 20
-303.34028607110139
 30
0.0
 11
350.89408928536801
 21
-301.07776028968891
 31
0.0
  0
LINE
  5
335
  8
0
 62
     0
 10
347.95551788704239
 20
-298.13918889136318
 30
0.0
 11
344.95551788704228
 21
-295.13918889136318
 31
0.0
  0
LINE
  5
336
  8
0
 62
     0
 10
351.74240150440738
 20
-303.34028607110139
 30
0.0
 11
348.74240150440738
 21
-300.34028607110127
 31
0.0
  0
LINE
  5
337
  8
0
 62
     0
 10
346.54130432466928
 20
-298.13918889136318
 30
0.0
 11
343.54130432466928
 21
-295.13918889136318
 31
0.0
  0
LINE
  5
338
  8
0
 62
     0
 10
350.32818794203428
 20
-303.34028607110139
 30
0.0
 11
347.32818794203422
 21
-300.34028607110127
 31
0.0
  0
LINE
  5
339
  8
0
 62
     0
 10
345.12709076229618
 20
-298.13918889136318
 30
0.0
 11
342.81425475205668
 21
-295.82635288112368
 31
0.0
  0
LINE
  5
33A
  8
0
 62
     0
 10
348.91397437966123
 20
-303.34028607110139
 30
0.0
 11
345.91397437966111
 21
-300.34028607110122
 31
0.0
  0
LINE
  5
33B
  8
0
 62
     0
 10
343.71287719992318
 20
-298.13918889136318
 30
0.0
 11
342.81425475205668
 21
-297.24056644349679
 31
0.0
  0
LINE
  5
33C
  8
0
 62
     0
 10
346.90700778467232
 20
-302.74753303848553
 30
0.0
 11
344.49976081728789
 21
-300.34028607110122
 31
0.0
  0
LINE
  5
33D
  8
0
 62
     0
 10
346.08554725491501
 20
-303.34028607110139
 30
0.0
 11
343.41036364173868
 21
-300.665102457925
 31
0.0
  0
LINE
  5
33E
  8
0
 62
     0
 10
344.67133369254191
 20
-303.34028607110139
 30
0.0
 11
342.5922589690478
 21
-301.26121134760717
 31
0.0
  0
LINE
  5
33F
  8
0
 62
     0
 10
343.25712013016891
 20
-303.34028607110139
 30
0.0
 11
341.1780454066747
 21
-301.26121134760717
 31
0.0
  0
LINE
  5
340
  8
0
 62
     0
 10
341.84290656779581
 20
-303.34028607110139
 30
0.0
 11
340.81425475205651
 21
-302.31163425536198
 31
0.0
  0
LINE
  5
341
  8
0
 62
     0
 10
358.31346931627291
 20
-302.84028607110127
 30
0.0
 11
355.81346931627269
 21
-300.3402860711011
 31
0.0
  0
LINE
  5
342
  8
0
 62
     0
 10
352.70667516299898
 20
-297.23349191782751
 30
0.0
 11
350.61237213653482
 21
-295.13918889136329
 31
0.0
  0
LINE
  5
343
  8
0
 62
     0
 10
353.61237213653499
 20
-298.1391888913634
 30
0.0
 11
353.1592780308099
 21
-297.68609478563837
 31
0.0
  0
LINE
  5
344
  8
0
 62
     0
 10
359.72768287864602
 20
-302.84028607110127
 30
0.0
 11
358.91062266805261
 21
-302.02322586050798
 31
0.0
  0
LINE
  5
345
  8
0
 62
     0
 10
354.4034385021165
 20
-297.51604169457181
 30
0.0
 11
352.02658569890792
 21
-295.13918889136329
 31
0.0
  0
LINE
  5
346
  8
0
 62
     0
 10
361.64189644101901
 20
-303.34028607110139
 30
0.0
 11
360.17233344821551
 21
-301.87072307829777
 31
0.0
  0
LINE
  5
347
  8
0
 62
     0
 10
356.44079926128097
 20
-298.13918889136329
 30
0.0
 11
353.44079926128097
 21
-295.13918889136329
 31
0.0
  0
LINE
  5
348
  8
0
 62
     0
 10
362.96018237772438
 20
-303.24435844543359
 30
0.0
 11
361.06057744762541
 21
-301.34475351533462
 31
0.0
  0
LINE
  5
349
  8
0
 62
     0
 10
357.1092387179545
 20
-297.39341478566371
 30
0.0
 11
354.85501282365408
 21
-295.13918889136329
 31
0.0
  0
LINE
  5
34A
  8
0
 62
     0
 10
363.31425475205651
 20
-302.18421725739262
 30
0.0
 11
361.68573956758951
 21
-300.55570207292561
 31
0.0
  0
LINE
  5
34B
  8
0
 62
     0
 10
357.8982901603635
 20
-296.76825266569961
 30
0.0
 11
356.26922638602719
 21
-295.13918889136329
 31
0.0
  0
LINE
  5
34C
  8
0
 62
     0
 10
363.31425475205651
 20
-300.77000369501951
 30
0.0
 11
362.00548052238958
 21
-299.46122946535257
 31
0.0
  0
LINE
  5
34D
  8
0
 62
     0
 10
358.99276276793648
 20
-296.44851171089948
 30
0.0
 11
358.18343994840018
 21
-295.63918889136318
 31
0.0
  0
LINE
  5
34E
  8
0
 62
     0
 10
363.31425475205651
 20
-299.3557901326464
 30
0.0
 11
359.59765351077328
 21
-295.63918889136318
 31
0.0
  0
LINE
  5
34F
  8
0
 62
     0
 10
363.31425475205668
 20
-297.94157657027353
 30
0.0
 11
360.88806091260147
 21
-295.51538273081832
 31
0.0
  0
LINE
  5
350
  8
0
 62
     0
 10
363.31425475205668
 20
-296.52736300790042
 30
0.0
 11
361.92608063551961
 21
-295.13918889136329
 31
0.0
  0
ENDBLK
  5
352
  8
0
  0
BLOCK
  8
0
  2
*D3
 70
     1
 10
0.0
 20
0.0
 30
0.0
  3
*D3
  1

  0
LINE
  5
5A4
  8
1
 10
-28.999999999999769
 20
-12.525899772360839
 30
0.0
 11
-28.999999999999769
 21
-24.711692475452079
 31
0.0
  0
LINE
  5
5A5
  8
1
 10
-97.999999999999773
 20
-4.6999999999999931
 30
0.0
 11
-97.999999999999773
 21
-24.711692475452079
 31
0.0
  0
LINE
  5
5A6
  8
1
 10
-27.999999999999769
 20
-23.711692475452079
 30
0.0
 11
-98.999999999999773
 21
-23.711692475452079
 31
0.0
  0
INSERT
  5
5A7
  8
1
  2
_OBLIQUE
 10
-28.999999999999769
 20
-23.711692475452079
 30
0.0
 41
2.0
 42
2.0
 43
2.0
  0
INSERT
  5
5A8
  8
1
  2
_OBLIQUE
 10
-97.999999999999773
 20
-23.711692475452079
 30
0.0
 41
2.0
 42
2.0
 43
2.0
 50
180.0
  0
TEXT
  5
5A9
  8
0
 10
-66.203785811732374
 20
-22.644843907921391
 30
0.0
 40
3.5
  1
69
  7
BESCHLAG
  0
POINT
  5
5AA
  8
DEFPOINTS
 62
     0
 10
-28.999999999999769
 20
-10.525899772360839
 30
0.0
  0
POINT
  5
5AB
  8
DEFPOINTS
 62
     0
 10
-97.999999999999773
 20
-2.6999999999999931
 30
0.0
  0
POINT
  5
5AC
  8
DEFPOINTS
 62
     0
 10
-97.999999999999773
 20
-23.711692475452079
 30
0.0
  0
ENDBLK
  5
38E
  8
0
  0
BLOCK
  8
0
  2
*D4
 70
     1
 10
0.0
 20
0.0
 30
0.0
  3
*D4
  1

  0
LINE
  5
3C9
  8
1
 10
-28.999999999999769
 20
6.5
 30
0.0
 11
-28.999999999999769
 21
-24.711692475452079
 31
0.0
  0
LINE
  5
3CA
  8
1
 10
-22.999999999999769
 20
13.0
 30
0.0
 11
-22.999999999999769
 21
-24.711692475452079
 31
0.0
  0
LINE
  5
3CB
  8
1
 10
-29.999999999999769
 20
-23.711692475452079
 30
0.0
 11
-21.999999999999769
 21
-23.711692475452079
 31
0.0
  0
INSERT
  5
3CC
  8
1
  2
_OBLIQUE
 10
-28.999999999999769
 20
-23.711692475452079
 30
0.0
 41
2.0
 42
2.0
 43
2.0
 50
180.0
  0
INSERT
  5
3CD
  8
1
  2
_OBLIQUE
 10
-22.999999999999769
 20
-23.711692475452079
 30
0.0
 41
2.0
 42
2.0
 43
2.0
  0
TEXT
  5
3CE
  8
0
 10
-27.339358799454072
 20
-22.644843907921391
 30
0.0
 40
3.5
  1
6
  7
BESCHLAG
  0
POINT
  5
3CF
  8
DEFPOINTS
 62
     0
 10
-28.999999999999769
 20
8.5
 30
0.0
  0
POINT
  5
3D0
  8
DEFPOINTS
 62
     0
 10
-22.999999999999769
 20
15.0
 30
0.0
  0
POINT
  5
3D1
  8
DEFPOINTS
 62
     0
 10
-22.999999999999769
 20
-23.711692475452079
 30
0.0
  0
ENDBLK
  5
39A
  8
0
  0
BLOCK
  8
0
  2
*D5
 70
     1
 10
0.0
 20
0.0
 30
0.0
  3
*D5
  1

  0
LINE
  5
3F7
  8
1
 10
-33.999999999999773
 20
25.49999999999994
 30
0.0
 11
-40.688032348196877
 21
25.49999999999994
 31
0.0
  0
LINE
  5
3F8
  8
1
 10
-34.000000000000227
 20
0.5000000000000006
 30
0.0
 11
-40.688032348196877
 21
0.5000000000000026
 31
0.0
  0
LINE
  5
3F9
  8
1
 10
-39.688032348196877
 20
26.49999999999994
 30
0.0
 11
-39.688032348196877
 21
-0.4999999999999979
 31
0.0
  0
TEXT
  5
3FA
  8
0
 10
-40.754880915727583
 20
15.845725505822861
 30
0.0
 40
3.5
  1
25
 50
90.0
  7
BESCHLAG
  0
INSERT
  5
3FB
  8
1
  2
_OBLIQUE
 10
-39.688032348196877
 20
25.49999999999994
 30
0.0
 41
2.0
 42
2.0
 43
2.0
 50
90.0
  0
INSERT
  5
3FC
  8
1
  2
_OBLIQUE
 10
-39.688032348196877
 20
0.5000000000000022
 30
0.0
 41
2.0
 42
2.0
 43
2.0
 50
270.0
  0
POINT
  5
3FD
  8
DEFPOINTS
 62
     0
 10
-31.999999999999769
 20
25.49999999999994
 30
0.0
  0
POINT
  5
3FE
  8
DEFPOINTS
 62
     0
 10
-32.00000000000022
 20
0.5
 30
0.0
  0
POINT
  5
3FF
  8
DEFPOINTS
 62
     0
 10
-39.688032348196877
 20
0.5000000000000022
 30
0.0
  0
ENDBLK
  5
3A7
  8
0
  0
BLOCK
  8
0
  2
*D6
 70
     1
 10
0.0
 20
0.0
 30
0.0
  3
*D6
  1

  0
LINE
  5
3DC
  8
1
 10
-22.999999999999769
 20
13.0
 30
0.0
 11
-22.999999999999769
 21
-24.711692475452079
 31
0.0
  0
LINE
  5
3DD
  8
1
 10
-0.0000000000000001
 20
-2.0
 30
0.0
 11
-0.0000000000000015
 21
-24.711692475452079
 31
0.0
  0
LINE
  5
3DE
  8
1
 10
-23.999999999999769
 20
-23.711692475452079
 30
0.0
 11
0.9999999999999985
 21
-23.711692475452079
 31
0.0
  0
INSERT
  5
3DF
  8
1
  2
_OBLIQUE
 10
-22.999999999999769
 20
-23.711692475452079
 30
0.0
 41
2.0
 42
2.0
 43
2.0
 50
180.0
  0
INSERT
  5
3E0
  8
1
  2
_OBLIQUE
 10
-0.0000000000000015
 20
-23.711692475452079
 30
0.0
 41
2.0
 42
2.0
 43
2.0
  0
TEXT
  5
3E1
  8
0
 10
-14.179911323328669
 20
-22.642456459081
 30
0.0
 40
3.5
  1
23
  7
BESCHLAG
  0
POINT
  5
3E2
  8
DEFPOINTS
 62
     0
 10
-22.999999999999769
 20
15.0
 30
0.0
  0
POINT
  5
3E3
  8
DEFPOINTS
 62
     0
 10
0.0
 20
0.0
 30
0.0
  0
POINT
  5
3E4
  8
DEFPOINTS
 62
     0
 10
-0.0000000000000015
 20
-23.711692475452079
 30
0.0
  0
ENDBLK
  5
3B3
  8
0
  0
BLOCK
  8
0
  2
*D7
 70
     1
 10
0.0
 20
0.0
 30
0.0
  3
*D7
  1

  0
LINE
  5
61E
  8
1
 10
2.0
 20
0.4999999999999995
 30
0.0
 11
11.6099191423309
 21
0.4999999999999968
 31
0.0
  0
LINE
  5
61F
  8
1
 10
1.550000000000181
 20
9.0376912047838687
 30
0.0
 11
11.6099191423309
 21
9.0376912047838651
 31
0.0
  0
LINE
  5
620
  8
1
 10
10.6099191423309
 20
-0.5000000000000031
 30
0.0
 11
10.609919142330909
 21
10.03769120478386
 31
0.0
  0
INSERT
  5
621
  8
1
  2
_OBLIQUE
 10
10.6099191423309
 20
0.499999999999997
 30
0.0
 41
2.0
 42
2.0
 43
2.0
 50
270.0
  0
INSERT
  5
622
  8
1
  2
_OBLIQUE
 10
10.609919142330909
 20
9.0376912047838651
 30
0.0
 41
2.0
 42
2.0
 43
2.0
 50
90.0
  0
TEXT
  5
623
  8
0
 10
9.5430705748002111
 20
1.369118453687977
 30
0.0
 40
3.5
  1
8.5
 50
90.0
  7
BESCHLAG
  0
POINT
  5
624
  8
DEFPOINTS
 62
     0
 10
0.0
 20
0.5
 30
0.0
  0
POINT
  5
625
  8
DEFPOINTS
 62
     0
 10
-0.4499999999998181
 20
9.0376912047838687
 30
0.0
  0
POINT
  5
626
  8
DEFPOINTS
 62
     0
 10
10.609919142330909
 20
9.0376912047838651
 30
0.0
  0
ENDBLK
  5
3BF
  8
0
  0
BLOCK
  8
0
  2
*D8
 70
     1
 10
0.0
 20
0.0
 30
0.0
  3
*D8
  1

  0
LINE
  5
5F6
  8
1
 10
-0.0000000000000002
 20
-4.0
 30
0.0
 11
-0.0000000000000019
 21
-31.086881648412909
 31
0.0
  0
LINE
  5
5F7
  8
1
 10
-98.0
 20
-4.6999999999999931
 30
0.0
 11
-98.0
 21
-31.086881648412909
 31
0.0
  0
LINE
  5
5F8
  8
1
 10
0.999999999999998
 20
-30.086881648412909
 30
0.0
 11
-99.0
 21
-30.086881648412909
 31
0.0
  0
INSERT
  5
5F9
  8
1
  2
_OBLIQUE
 10
-0.0000000000000018
 20
-30.086881648412909
 30
0.0
 41
2.0
 42
2.0
 43
2.0
  0
INSERT
  5
5FA
  8
1
  2
_OBLIQUE
 10
-98.0
 20
-30.086881648412909
 30
0.0
 41
2.0
 42
2.0
 43
2.0
 50
180.0
  0
TEXT
  5
5FB
  8
0
 10
-51.71333560709413
 20
-29.020033080882222
 30
0.0
 40
3.5
  1
98
  7
BESCHLAG
  0
POINT
  5
5FC
  8
DEFPOINTS
 62
     0
 10
-0.0000000000000001
 20
-2.0
 30
0.0
  0
POINT
  5
5FD
  8
DEFPOINTS
 62
     0
 10
-98.0
 20
-2.6999999999999931
 30
0.0
  0
POINT
  5
5FE
  8
DEFPOINTS
 62
     0
 10
-98.0
 20
-30.086881648412909
 30
0.0
  0
ENDBLK
  5
50E
  8
0
  0
BLOCK
  8
0
  2
*D9
 70
     1
 10
0.0
 20
0.0
 30
0.0
  3
*D9
  1

  0
LINE
  5
627
  8
1
 10
1.550000000000181
 20
9.0376912047838687
 30
0.0
 11
11.6099191423309
 21
9.0376912047838651
 31
0.0
  0
LINE
  5
628
  8
1
 10
-23.419999999999838
 20
25.49999999999994
 30
0.0
 11
11.609919142330909
 21
25.499999999999929
 31
0.0
  0
LINE
  5
629
  8
1
 10
10.609919142330909
 20
8.0376912047838651
 30
0.0
 11
10.609919142330909
 21
26.499999999999929
 31
0.0
  0
INSERT
  5
62A
  8
1
  2
_OBLIQUE
 10
10.609919142330909
 20
9.0376912047838651
 30
0.0
 41
2.0
 42
2.0
 43
2.0
 50
270.0
  0
INSERT
  5
62B
  8
1
  2
_OBLIQUE
 10
10.609919142330909
 20
25.499999999999929
 30
0.0
 41
2.0
 42
2.0
 43
2.0
 50
90.0
  0
TEXT
  5
62C
  8
0
 10
9.5430705748002111
 20
12.34234492026366
 30
0.0
 40
3.5
  1
16.5
 50
90.0
  7
BESCHLAG
  0
POINT
  5
62D
  8
DEFPOINTS
 62
     0
 10
-0.4499999999998181
 20
9.0376912047838687
 30
0.0
  0
POINT
  5
62E
  8
DEFPOINTS
 62
     0
 10
-25.419999999999838
 20
25.49999999999994
 30
0.0
  0
POINT
  5
62F
  8
DEFPOINTS
 62
     0
 10
10.609919142330909
 20
25.499999999999929
 30
0.0
  0
ENDBLK
  5
60B
  8
0
  0
BLOCK
  8
0
  2
*X10
 70
     1
 10
0.0
 20
0.0
 30
0.0
  3
*X10
  1

  0
LINE
  5
C5F
  8
0
 62
     0
 10
-43.961731572088127
 20
0.1617315739524336
 30
0.0
 11
-42.623463146040557
 21
1.5
 31
0.0
  0
LINE
  5
C60
  8
0
 62
     0
 10
-45.810259710384877
 20
0.010259710503405
 30
0.0
 11
-44.320519420888267
 21
1.5000000000000071
 31
0.0
  0
LINE
  5
C61
  8
0
 62
     0
 10
-35.757670591566857
 20
11.75990510416913
 30
0.0
 11
-35.137488764986379
 21
12.380086930749609
 31
0.0
  0
LINE
  5
C62
  8
0
 62
     0
 10
-47.16240229617609
 20
0.3551733995599022
 30
0.0
 11
-46.017575695735992
 21
1.5000000000000031
 31
0.0
  0
LINE
  5
C63
  8
0
 62
     0
 10
-37.86419342622014
 20
11.350438544363559
 30
0.0
 11
-35.147401781720902
 21
14.0672301888628
 31
0.0
  0
LINE
  5
C64
  8
0
 62
     0
 10
-49.007315984097012
 20
0.207315986486698
 30
0.0
 11
-47.714631970583703
 21
1.5000000000000071
 31
0.0
  0
LINE
  5
C65
  8
0
 62
     0
 10
-38.836738346632607
 20
12.074949898798801
 30
0.0
 11
-36.840715484192081
 21
14.07097276123933
 31
0.0
  0
LINE
  5
C66
  8
0
 62
     0
 10
-50.29999999999972
 20
0.6116882454316936
 30
0.0
 11
-48.799999999999727
 21
2.1116882454316972
 31
0.0
  0
LINE
  5
C67
  8
0
 62
     0
 10
-42.077239095526707
 20
10.53150542475243
 30
0.0
 11
-38.775310110791978
 21
13.83343440948715
 31
0.0
  0
LINE
  5
C68
  8
0
 62
     0
 10
-50.29999999999972
 20
2.308744520279407
 30
0.0
 11
-48.799999999999727
 21
3.808744520279407
 31
0.0
  0
LINE
  5
C69
  8
0
 62
     0
 10
-43.854320912027148
 20
10.451479883099701
 30
0.0
 11
-40.709904737391888
 21
13.59589605773496
 31
0.0
  0
LINE
  5
C6A
  8
0
 62
     0
 10
-50.29999999999972
 20
4.0058007951271222
 30
0.0
 11
-48.799999999999727
 21
5.5058007951271222
 31
0.0
  0
LINE
  5
C6B
  8
0
 62
     0
 10
-44.738948707381851
 20
11.2639083625927
 30
0.0
 11
-42.644499363991777
 21
13.358357705982771
 31
0.0
  0
LINE
  5
C6C
  8
0
 62
     0
 10
-50.29999999999972
 20
5.702857069974832
 30
0.0
 11
-48.799999999999727
 21
7.202857069974832
 31
0.0
  0
LINE
  5
C6D
  8
0
 62
     0
 10
-46.645641478885622
 20
11.05427186593665
 30
0.0
 11
-44.57909399059168
 21
13.120819354230591
 31
0.0
  0
LINE
  5
C6E
  8
0
 62
     0
 10
-50.29999999999972
 20
7.3999133448225471
 30
0.0
 11
-48.799999999999727
 21
8.8999133448225507
 31
0.0
  0
LINE
  5
C6F
  8
0
 62
     0
 10
-48.584901880200377
 20
10.81206773946961
 30
0.0
 11
-46.208527348119752
 21
13.18844227155023
 31
0.0
  0
LINE
  5
C70
  8
0
 62
     0
 10
-50.29999999999972
 20
9.0969696196702579
 30
0.0
 11
-48.787735417942017
 21
10.60923420172797
 31
0.0
  0
LINE
  5
C71
  8
0
 62
     0
 10
-50.534727965533307
 20
10.559297928984391
 30
0.0
 11
-47.424820843797512
 21
13.669205050720199
 31
0.0
  0
LINE
  5
C72
  8
0
 62
     0
 10
-52.449425358685311
 20
10.341656810680099
 30
0.0
 11
-50.22606648691206
 21
12.56501568245335
 31
0.0
  0
LINE
  5
C73
  8
0
 62
     0
 10
-54.384019985285207
 20
10.104118458927919
 30
0.0
 11
-52.064159276337158
 21
12.42397916787597
 31
0.0
  0
LINE
  5
C74
  8
0
 62
     0
 10
-56.318614611885117
 20
9.8665801071757322
 30
0.0
 11
-53.269284098345821
 21
12.915910620715019
 31
0.0
  0
LINE
  5
C75
  8
0
 62
     0
 10
-58.253209238485013
 20
9.6290417554235432
 30
0.0
 11
-55.862360300475473
 21
12.019890693433091
 31
0.0
  0
LINE
  5
C76
  8
0
 62
     0
 10
-60.187803865084923
 20
9.3915034036713614
 30
0.0
 11
-57.91618378662919
 21
11.66312348212708
 31
0.0
  0
LINE
  5
C77
  8
0
 62
     0
 10
-62.12239849168482
 20
9.1539650519191724
 30
0.0
 11
-59.117908061388519
 21
12.158455482215469
 31
0.0
  0
LINE
  5
C78
  8
0
 62
     0
 10
-64.056993118284723
 20
8.9164267001669835
 30
0.0
 11
-61.136415559743057
 21
11.837004258708641
 31
0.0
  0
LINE
  5
C79
  8
0
 62
     0
 10
-65.991587744884626
 20
8.6788883484147892
 30
0.0
 11
-63.764333017083281
 21
10.90614307621613
 31
0.0
  0
LINE
  5
C7A
  8
0
 62
     0
 10
-67.926182371484515
 20
8.4413499966626055
 30
0.0
 11
-64.970372740425006
 21
11.39715962772212
 31
0.0
  0
LINE
  5
C7B
  8
0
 62
     0
 10
-69.860776998084432
 20
8.2038116449104201
 30
0.0
 11
-66.790188050988462
 21
11.274400592006369
 31
0.0
  0
LINE
  5
C7C
  8
0
 62
     0
 10
-71.795371624684321
 20
7.9662732931582312
 30
0.0
 11
-69.6082790275956
 21
10.15336589024696
 31
0.0
  0
LINE
  5
C7D
  8
0
 62
     0
 10
-73.729966251284225
 20
7.7287349414060449
 30
0.0
 11
-70.826416444592553
 21
10.632284748097719
 31
0.0
  0
LINE
  5
C7E
  8
0
 62
     0
 10
-75.664560877884128
 20
7.4911965896538533
 30
0.0
 11
-72.519035965307793
 21
10.63672150223017
 31
0.0
  0
LINE
  5
C7F
  8
0
 62
     0
 10
-77.599155504484031
 20
7.253658237901667
 30
0.0
 11
-75.447615441437492
 21
9.4051983009482072
 31
0.0
  0
LINE
  5
C80
  8
0
 62
     0
 10
-79.533750131083934
 20
7.0161198861494753
 30
0.0
 11
-76.685823283754246
 21
9.8640467334791637
 31
0.0
  0
LINE
  5
C81
  8
0
 62
     0
 10
-81.468344757683838
 20
6.7785815343972891
 30
0.0
 11
-78.281207499948266
 21
9.9657187921328472
 31
0.0
  0
LINE
  5
C82
  8
0
 62
     0
 10
-83.402939384283741
 20
6.5410431826450974
 30
0.0
 11
-81.281830785737213
 21
8.6621517811916391
 31
0.0
  0
LINE
  5
C83
  8
0
 62
     0
 10
-85.337534010883644
 20
6.3035048308929191
 30
0.0
 11
-82.548414084783133
 21
9.0926247569934304
 31
0.0
  0
LINE
  5
C84
  8
0
 62
     0
 10
-93.980234010631733
 20
-2.3391951688551691
 30
0.0
 11
-92.500000000000028
 21
-0.8589611582234724
 31
0.0
  0
LINE
  5
C85
  8
0
 62
     0
 10
-87.272128637483533
 20
6.0659664791407257
 30
0.0
 11
-84.063830090324075
 21
9.274265026300192
 31
0.0
  0
LINE
  5
C86
  8
0
 62
     0
 10
-94.000000000000057
 20
-0.6619048833757759
 30
0.0
 11
-92.500000000000028
 21
0.8380951166242454
 31
0.0
  0
LINE
  5
C87
  8
0
 62
     0
 10
-89.20672326408345
 20
5.8284281273885412
 30
0.0
 11
-87.110268444899532
 21
7.9248829465724517
 31
0.0
  0
LINE
  5
C88
  8
0
 62
     0
 10
-94.0
 20
1.035151391471977
 30
0.0
 11
-92.607774321064923
 21
2.4273770704070472
 31
0.0
  0
LINE
  5
C89
  8
0
 62
     0
 10
-91.141317890683354
 20
5.5908897756363478
 30
0.0
 11
-88.414039666104657
 21
8.3181680002150244
 31
0.0
  0
LINE
  5
C8A
  8
0
 62
     0
 10
-95.506548470929616
 20
1.2256591953900791
 30
0.0
 11
-93.783750773999216
 21
2.9484568923204999
 31
0.0
  0
LINE
  5
C8B
  8
0
 62
     0
 10
-93.075912517283257
 20
5.3533514238841704
 30
0.0
 11
-89.860863911018299
 21
8.5684000301491192
 31
0.0
  0
LINE
  5
C8C
  8
0
 62
     0
 10
-97.905621417953029
 20
0.5236425232143916
 30
0.0
 11
-95.718345400599105
 21
2.7109185405683141
 31
0.0
  0
LINE
  5
C8D
  8
0
 62
     0
 10
-95.01050714388316
 20
5.1158130721319699
 30
0.0
 11
-92.932063966848943
 21
7.1942562491661937
 31
0.0
  0
LINE
  5
C8E
  8
0
 62
     0
 10
-98.000000000000043
 20
2.1263202160150949
 30
0.0
 11
-96.500000000000014
 21
3.6263202160151158
 31
0.0
  0
LINE
  5
C8F
  8
0
 62
     0
 10
-98.000000000000043
 20
3.8233764908628198
 30
0.0
 11
-94.282575782730163
 21
7.5408007081326707
 31
0.0
  0
LINE
  5
C90
  8
0
 62
     0
 10
-97.99428867168298
 20
5.526144094027571
 30
0.0
 11
-95.668890563128514
 21
7.8515422025820314
 31
0.0
  0
ENDBLK
  5
C92
  8
0
  0
BLOCK
  8
0
  2
*X11
 70
     1
 10
0.0
 20
0.0
 30
0.0
  3
*X11
  1

  0
LINE
  5
C94
  8
0
 62
     0
 10
-8.9932077239138923
 20
2.8861862000201048
 30
0.0
 11
-7.2190884205674477
 21
4.6603055033665477
 31
0.0
  0
LINE
  5
C95
  8
0
 62
     0
 10
-10.068593053711581
 20
3.507857145070127
 30
0.0
 11
-8.0379853024970132
 21
5.5384648962846974
 31
0.0
  0
LINE
  5
C96
  8
0
 62
     0
 10
-11.76326536750768
 20
3.51024110612174
 30
0.0
 11
-9.9667884994035152
 21
5.306717974225907
 31
0.0
  0
LINE
  5
C97
  8
0
 62
     0
 10
-13.457937681303781
 20
3.5126250671733552
 30
0.0
 11
-11.66109263382452
 21
5.3094701146526173
 31
0.0
  0
LINE
  5
C98
  8
0
 62
     0
 10
-15.15260999509988
 20
3.5150090282249691
 30
0.0
 11
-13.355396768245519
 21
5.3122222550793268
 31
0.0
  0
LINE
  5
C99
  8
0
 62
     0
 10
-16.847282308895981
 20
3.5173929892765838
 30
0.0
 11
-15.049700902666521
 21
5.3149743955060389
 31
0.0
  0
LINE
  5
C9A
  8
0
 62
     0
 10
-18.541954622692082
 20
3.5197769503282008
 30
0.0
 11
-16.744005037087529
 21
5.3177265359327492
 31
0.0
  0
LINE
  5
C9B
  8
0
 62
     0
 10
-20.236626936488172
 20
3.5221609113798151
 30
0.0
 11
-18.438309171508529
 21
5.3204786763594587
 31
0.0
  0
LINE
  5
C9C
  8
0
 62
     0
 10
-23.604393923044171
 20
0.1543939248238164
 30
0.0
 11
-23.099999999999909
 21
0.6587878478680836
 31
0.0
  0
LINE
  5
C9D
  8
0
 62
     0
 10
-21.931299250284269
 20
3.5245448724314321
 30
0.0
 11
-20.132613305929532
 21
5.3232308167861708
 31
0.0
  0
LINE
  5
C9E
  8
0
 62
     0
 10
-25.452922061340921
 20
0.0029220613747878
 30
0.0
 11
-23.099999999999909
 21
2.3558441227158009
 31
0.0
  0
LINE
  5
C9F
  8
0
 62
     0
 10
-24.89999999999986
 20
2.252900397563562
 30
0.0
 11
-21.826917440350542
 21
5.3259829572128821
 31
0.0
  0
LINE
  5
CA0
  8
0
 62
     0
 10
-26.803718318370279
 20
0.3491820791931435
 30
0.0
 11
-25.652900397563421
 21
1.5000000000000011
 31
0.0
  0
LINE
  5
CA1
  8
0
 62
     0
 10
-24.89999999999986
 20
3.9499566724112749
 30
0.0
 11
-23.099999999999909
 21
5.7499566724112308
 31
0.0
  0
LINE
  5
CA2
  8
0
 62
     0
 10
-22.349956672411128
 20
6.5
 30
0.0
 11
-21.099999999999898
 21
7.7499566724112299
 31
0.0
  0
LINE
  5
CA3
  8
0
 62
     0
 10
-28.64997833505306
 20
0.1999783373580772
 30
0.0
 11
-27.349956672411128
 21
1.5000000000000011
 31
0.0
  0
LINE
  5
CA4
  8
0
 62
     0
 10
-24.89999999999986
 20
5.6470129472589887
 30
0.0
 11
-22.04701294725885
 21
8.5
 31
0.0
  0
LINE
  5
CA5
  8
0
 62
     0
 10
-30.498506473629341
 20
0.0485064736295176
 30
0.0
 11
-28.93433210228368
 21
1.6126808449751711
 31
0.0
  0
LINE
  5
CA6
  8
0
 62
     0
 10
-24.89999999999986
 20
7.344069222106703
 30
0.0
 11
-23.74406922210656
 21
8.4999999999999982
 31
0.0
  0
LINE
  5
CA7
  8
0
 62
     0
 10
-30.79999999999972
 20
1.4440692221068401
 30
0.0
 11
-28.999999999999769
 21
3.2440692221067939
 31
0.0
  0
LINE
  5
CA8
  8
0
 62
     0
 10
-30.79999999999972
 20
3.1411254969545519
 30
0.0
 11
-28.999999999999769
 21
4.9411254969545046
 31
0.0
  0
LINE
  5
CA9
  8
0
 62
     0
 10
-30.79999999999972
 20
4.8381817718022697
 30
0.0
 11
-28.999999999999769
 21
6.6381817718022207
 31
0.0
  0
LINE
  5
CAA
  8
0
 62
     0
 10
-30.79999999999972
 20
6.5352380466499831
 30
0.0
 11
-28.999999999999769
 21
8.3352380466499341
 31
0.0
  0
LINE
  5
CAB
  8
0
 62
     0
 10
-30.79999999999972
 20
8.2322943214976974
 30
0.0
 11
-28.999999999999769
 21
10.032294321497639
 31
0.0
  0
LINE
  5
CAC
  8
0
 62
     0
 10
-30.907441222868801
 20
9.8219093734763376
 30
0.0
 11
-28.999999999999769
 21
11.729350596345361
 31
0.0
  0
LINE
  5
CAD
  8
0
 62
     0
 10
-32.565841801574521
 20
9.86056506961833
 30
0.0
 11
-28.999999999999769
 21
13.42640687119307
 31
0.0
  0
LINE
  5
CAE
  8
0
 62
     0
 10
-30.79999999999972
 20
13.323463146040829
 30
0.0
 11
-28.999999999999769
 21
15.123463146040789
 31
0.0
  0
LINE
  5
CAF
  8
0
 62
     0
 10
-34.500436428174417
 20
9.6230267178661411
 30
0.0
 11
-31.54462492226029
 21
12.57883822378027
 31
0.0
  0
LINE
  5
CB0
  8
0
 62
     0
 10
-31.04059078729064
 20
14.779928633597629
 30
0.0
 11
-28.999999999999769
 21
16.820519420888498
 31
0.0
  0
LINE
  5
CB1
  8
0
 62
     0
 10
-36.435031054774321
 20
9.3854883661139521
 30
0.0
 11
-33.651147756913574
 21
12.169371663974699
 31
0.0
  0
LINE
  5
CB2
  8
0
 62
     0
 10
-32.971526230992282
 20
14.5460494647437
 30
0.0
 11
-31.019022174471139
 21
16.498553521264839
 31
0.0
  0
LINE
  5
CB3
  8
0
 62
     0
 10
-30.79999999999972
 20
16.717575695736262
 30
0.0
 11
-28.999999999999769
 21
18.51757569573622
 31
0.0
  0
LINE
  5
CB4
  8
0
 62
     0
 10
-38.369625681374217
 20
9.1479500143617667
 30
0.0
 11
-36.050303072139087
 21
11.467272623596889
 31
0.0
  0
LINE
  5
CB5
  8
0
 62
     0
 10
-30.79999999999972
 20
18.414631970583979
 30
0.0
 11
-29.151765834454711
 21
20.062866136128989
 31
0.0
  0
LINE
  5
CB6
  8
0
 62
     0
 10
-34.906120857592178
 20
14.308511112991519
 30
0.0
 11
-32.95361680107105
 21
16.26101516951265
 31
0.0
  0
LINE
  5
CB7
  8
0
 62
     0
 10
-25.701572374704071
 20
23.513059595879628
 30
0.0
 11
-25.013059595879451
 21
24.201572374704249
 31
0.0
  0
LINE
  5
CB8
  8
0
 62
     0
 10
-40.304220307974127
 20
8.9104116626095813
 30
0.0
 11
-38.08248506618267
 21
11.132146904401029
 31
0.0
  0
LINE
  5
CB9
  8
0
 62
     0
 10
-31.090622996324729
 20
19.821065249106681
 30
0.0
 11
-29.772931542700778
 21
21.138756702730628
 31
0.0
  0
LINE
  5
CBA
  8
0
 62
     0
 10
-36.840715484192089
 20
14.07097276123933
 30
0.0
 11
-34.888211427670953
 21
16.023476817760461
 31
0.0
  0
LINE
  5
CBB
  8
0
 62
     0
 10
-27.411688245431481
 20
23.499999999999929
 30
0.0
 11
-25.415844122715662
 21
25.495844122715749
 31
0.0
  0
LINE
  5
CBC
  8
0
 62
     0
 10
-42.229427422726843
 20
8.6822608227045741
 30
0.0
 11
-40.114667060226232
 21
10.79702118520518
 31
0.0
  0
LINE
  5
CBD
  8
0
 62
     0
 10
-31.7117887045708
 20
20.896955815708331
 30
0.0
 11
-30.199999999999811
 21
22.40874452027931
 31
0.0
  0
LINE
  5
CBE
  8
0
 62
     0
 10
-38.775310110791978
 20
13.83343440948715
 30
0.0
 11
-36.822806054270849
 21
15.785938466008281
 31
0.0
  0
LINE
  5
CBF
  8
0
 62
     0
 10
-29.108744520279188
 20
23.499999999999929
 30
0.0
 11
-27.264372260139449
 21
25.344372260139679
 31
0.0
  0
LINE
  5
CC0
  8
0
 62
     0
 10
-42.699999999999719
 20
9.9087445202794093
 30
0.0
 11
-42.07723909552675
 21
10.53150542475238
 31
0.0
  0
LINE
  5
CC1
  8
0
 62
     0
 10
-31.999999999999769
 20
22.30580079512707
 30
0.0
 11
-28.862900397563269
 21
25.442900397563569
 31
0.0
  0
LINE
  5
CC2
  8
0
 62
     0
 10
-40.709904737391881
 20
13.59589605773496
 30
0.0
 11
-38.757400680870752
 21
15.548400114256079
 31
0.0
  0
LINE
  5
CC3
  8
0
 62
     0
 10
-31.999999999999758
 20
24.002857069974791
 30
0.0
 11
-30.50285706997462
 21
25.49999999999994
 31
0.0
  0
LINE
  5
CC4
  8
0
 62
     0
 10
-42.581414429581862
 20
13.42144264039268
 30
0.0
 11
-40.691995307470663
 21
15.310861762503899
 31
0.0
  0
ENDBLK
  5
CC6
  8
0
  0
BLOCK
  8
0
  2
*U12
 70
     1
 10
0.0
 20
0.0
 30
0.0
  3
*U12
  1

  0
SOLID
  5
CD5
  8
5
  6
CONTINUOUS
 10
-106.5033578363049
 20
3.756887615621948
 30
0.0
 11
-106.37487226765791
 21
3.4341812528797391
 31
0.0
 12
-101.19259209153211
 22
3.4341812528797391
 32
0.0
 13
-101.19259209153211
 23
3.4341812528797391
 33
0.0
210
0.0
220
0.0
230
1.0
  0
SOLID
  5
CD6
  8
5
  6
CONTINUOUS
 10
-106.67670532050511
 20
4.057883608330064
 30
0.0
 11
-106.5033578363049
 21
3.756887615621948
 31
0.0
 12
-101.19259209153211
 22
3.4341812528797391
 32
0.0
 13
-101.19259209153211
 23
3.4341812528797391
 33
0.0
210
0.0
220
0.0
230
1.0
  0
SOLID
  5
CD7
  8
5
  6
CONTINUOUS
 10
-106.891345796436
 20
4.3309722459497868
 30
0.0
 11
-106.67670532050511
 21
4.057883608330064
 31
0.0
 12
-101.19259209153211
 22
3.4341812528797391
 32
0.0
 13
-101.19259209153211
 23
3.4341812528797391
 33
0.0
210
0.0
220
0.0
230
1.0
  0
SOLID
  5
CD8
  8
5
  6
CONTINUOUS
 10
-107.1428601892476
 20
4.5705311074295913
 30
0.0
 11
-106.891345796436
 21
4.3309722459497868
 31
0.0
 12
-101.19259209153211
 22
3.4341812528797391
 32
0.0
 13
-101.19259209153211
 23
3.4341812528797391
 33
0.0
210
0.0
220
0.0
230
1.0
  0
SOLID
  5
CD9
  8
5
  6
CONTINUOUS
 10
-107.4260702541426
 20
4.7716280916113911
 30
0.0
 11
-107.1428601892476
 21
4.5705311074295913
 31
0.0
 12
-101.19259209153211
 22
3.4341812528797391
 32
0.0
 13
-101.19259209153211
 23
3.4341812528797391
 33
0.0
  0
SOLID
  5
CDA
  8
5
  6
CONTINUOUS
 10
-107.7351451874496
 20
4.9301229606327919
 30
0.0
 11
-107.4260702541426
 21
4.7716280916113911
 31
0.0
 12
-101.19259209153211
 22
3.4341812528797391
 32
0.0
 13
-101.19259209153211
 23
3.4341812528797391
 33
0.0
210
0.0
220
0.0
230
1.0
  0
SOLID
  5
CDB
  8
5
  6
CONTINUOUS
 10
-108.06372167275001
 20
5.0427525802385151
 30
0.0
 11
-107.7351451874496
 21
4.9301229606327919
 31
0.0
 12
-101.19259209153211
 22
3.4341812528797391
 32
0.0
 13
-101.19259209153211
 23
3.4341812528797391
 33
0.0
210
0.0
220
0.0
230
1.0
  0
SOLID
  5
CDC
  8
5
  6
CONTINUOUS
 10
-109.392351706078
 20
5.3374641721864569
 30
0.0
 11
-108.405034890518
 21
5.1071981020509156
 31
0.0
 12
-108.06372167275001
 22
5.0427525802385151
 32
0.0
 13
-108.06372167275001
 23
5.0427525802385151
 33
0.0
210
0.0
220
0.0
230
1.0
  0
SOLID
  5
CDD
  8
5
  6
CONTINUOUS
 10
-101.19259209153211
 20
5.9069808851106398
 30
0.0
 11
-109.76934797437229
 21
5.3374641721864569
 31
0.0
 12
-109.392351706078
 22
5.3374641721864569
 32
0.0
 13
-109.392351706078
 23
5.3374641721864569
 33
0.0
210
0.0
220
0.0
230
1.0
  0
SOLID
  5
CDE
  8
5
  6
CONTINUOUS
 10
-101.19259209153211
 20
5.9069808851106398
 30
0.0
 11
-109.392351706078
 21
5.3374641721864569
 31
0.0
 12
-108.06372167275001
 22
5.0427525802385151
 32
0.0
 13
-108.06372167275001
 23
5.0427525802385151
 33
0.0
210
0.0
220
0.0
230
1.0
  0
SOLID
  5
CDF
  8
5
  6
CONTINUOUS
 10
-101.19259209153211
 20
5.9069808851106398
 30
0.0
 11
-108.06372167275001
 21
5.0427525802385151
 31
0.0
 12
-101.19259209153211
 22
3.4341812528797391
 32
0.0
 13
-101.19259209153211
 23
3.4341812528797391
 33
0.0
210
0.0
220
0.0
230
1.0
  0
SOLID
  5
CE0
  8
5
  6
CONTINUOUS
 10
-109.76934797437229
 20
5.9069808851106407
 30
0.0
 11
-109.76934797437229
 21
5.3374641721864569
 31
0.0
 12
-101.19259209153211
 22
5.9069808851106398
 32
0.0
 13
-101.19259209153211
 23
5.9069808851106398
 33
0.0
210
0.0
220
0.0
230
1.0
  0
SOLID
  5
CE1
  8
5
  6
CONTINUOUS
 10
-104.2809700329522
 20
5.9069808851106407
 30
0.0
 11
-104.0309700329522
 21
22.102031097548721
 31
0.0
 12
-105.7309700329522
 22
22.102031097548721
 32
0.0
 13
-105.7309700329522
 23
22.102031097548721
 33
0.0
210
0.0
220
0.0
230
1.0
  0
SOLID
  5
CE2
  8
5
  6
CONTINUOUS
 10
-105.7309700329522
 20
22.102031097548721
 30
0.0
 11
-105.4809700329522
 21
5.9069808851106407
 31
0.0
 12
-104.2809700329522
 22
5.9069808851106407
 32
0.0
 13
-104.2809700329522
 23
5.9069808851106407
 33
0.0
210
0.0
220
0.0
230
1.0
  0
ENDBLK
  5
CE4
  8
0
  0
ENDSEC
  0
SECTION
  2
ENTITIES
  0
INSERT
  5
25B
  8
5
  2
NULLPUNKT
 10
0.0
 20
0.0
 30
0.0
  0
DIMENSION
  5
36E
  8
1
  2
*D3
 10
-97.999999999999773
 20
-23.711692475452079
 30
0.0
 11
-63.499999999999773
 21
-20.924687018426159
 31
0.0
 70
     0
 13
-28.999999999999769
 23
-10.525899772360839
 33
0.0
 14
-97.999999999999773
 24
-2.6999999999999931
 34
0.0
  0
POLYLINE
  5
370
  8
5
 66
     1
 10
0.0
 20
0.0
 30
0.0
  0
VERTEX
  5
B13
  8
5
 10
-53.0
 20
-11.96316912996212
 30
0.0
  0
VERTEX
  5
B14
  8
5
 10
-53.0
 20
0.0
 30
0.0
  0
VERTEX
  5
B15
  8
5
 10
-101.30023293923681
 20
-3.851921447356716
 30
0.0
  0
SEQEND
  5
B16
  8
5
  0
POLYLINE
  5
372
  8
4
 66
     1
 10
0.0
 20
0.0
 30
0.0
  0
VERTEX
  5
B17
  8
4
 10
-94.000000000000057
 20
-2.699999999999994
 30
0.0
  0
VERTEX
  5
B18
  8
4
 10
-94.000000000000014
 20
1.434715768720553
 30
0.0
  0
VERTEX
  5
B19
  8
4
 10
-98.000000000000057
 20
0.7193003221243757
 30
0.0
  0
VERTEX
  5
B1A
  8
4
 10
-97.999999999999986
 20
5.357253530899035
 30
0.0
  0
VERTEX
  5
B1B
  8
4
 10
-95.804673358512844
 20
7.838618910002344
 30
0.0
  0
VERTEX
  5
B1C
  8
4
 10
-31.999999999999769
 20
15.789074948209411
 30
0.0
  0
VERTEX
  5
B1D
  8
4
 10
-31.999999999999769
 20
25.49999999999994
 30
0.0
  0
VERTEX
  5
B1E
  8
4
 10
-24.999999999999769
 20
25.49999999999994
 30
0.0
  0
VERTEX
  5
B1F
  8
4
 10
-24.999999999999769
 20
23.49999999999994
 30
0.0
  0
VERTEX
  5
B20
  8
4
 10
-28.999999999999769
 20
23.49999999999994
 30
0.0
  0
VERTEX
  5
B21
  8
4
 10
-28.999999999999769
 20
8.5
 30
0.0
  0
VERTEX
  5
B22
  8
4
 10
-21.099999999999898
 20
8.5
 30
0.0
  0
VERTEX
  5
B23
  8
4
 10
-21.099999999999898
 20
6.0184776630701426
 30
0.0
  0
VERTEX
  5
B24
  8
4
 10
-6.9284840231409808
 20
6.0184776630701426
 30
0.0
  0
VERTEX
  5
B25
  8
4
 10
-6.9284840231409808
 20
2.7240065840462639
 30
0.0
  0
VERTEX
  5
B26
  8
4
 10
-23.099999999999909
 20
2.7240065840462639
 30
0.0
  0
VERTEX
  5
B27
  8
4
 10
-23.099999999999909
 20
0.0
 30
0.0
  0
VERTEX
  5
B28
  8
4
 10
-50.29999999999972
 20
0.0
 30
0.0
  0
VERTEX
  5
B29
  8
4
 10
-50.29999999999972
 20
1.5
 30
0.0
  0
SEQEND
  5
B2A
  8
4
  0
POLYLINE
  5
373
  8
6
 66
     1
 10
0.0
 20
0.0
 30
0.0
 70
     1
  0
VERTEX
  5
B2B
  8
6
 10
-26.435915344747851
 20
7.3868442657271869
 30
0.0
 42
-0.0975808667201897
  0
VERTEX
  5
B2C
  8
6
 10
-25.08355020983981
 20
8.5086029345877812
 30
0.0
  0
VERTEX
  5
B2D
  8
6
 10
-23.61357842055099
 20
8.5000000000000107
 30
0.0
  0
VERTEX
  5
B2E
  8
6
 10
-22.35819538367241
 20
8.5000000000000107
 30
0.0
 42
0.3030260886157909
  0
VERTEX
  5
B2F
  8
6
 10
-22.800507705512921
 20
9.3306932325454106
 30
0.0
 42
-0.0387458456970907
  0
VERTEX
  5
B30
  8
6
 10
-25.03961150826558
 20
9.9566582309676157
 30
0.0
 42
-0.1516780574434434
  0
VERTEX
  5
B31
  8
6
 10
-26.061800240975568
 20
11.69451627725676
 30
0.0
 42
0.1394371260738143
  0
VERTEX
  5
B32
  8
6
 10
-27.379810549632111
 20
19.939708739092119
 30
0.0
 42
-0.781909699958905
  0
VERTEX
  5
B33
  8
6
 10
-25.044036924932922
 20
21.472518325201641
 30
0.0
 42
-0.1775383549415584
  0
VERTEX
  5
B34
  8
6
 10
-24.076996898066682
 20
19.761128985248892
 30
0.0
  0
VERTEX
  5
B35
  8
6
 10
-24.1256029499541
 20
13.12870702561168
 30
0.0
 42
-0.1370172271530425
  0
VERTEX
  5
B36
  8
6
 10
-24.63070002793938
 20
12.171489414633481
 30
0.0
 42
0.2932905843771996
  0
VERTEX
  5
B37
  8
6
 10
-24.586067425170761
 20
11.68039509156552
 30
0.0
  0
VERTEX
  5
B38
  8
6
 10
-23.66366000107336
 20
10.6386798285239
 30
0.0
 42
0.2204049175401562
  0
VERTEX
  5
B39
  8
6
 10
-23.513458575702309
 20
10.57300539736708
 30
0.0
  0
VERTEX
  5
B3A
  8
6
 10
-23.162323332091319
 20
10.57300539736708
 30
0.0
 42
0.3908827348577391
  0
VERTEX
  5
B3B
  8
6
 10
-22.999999999999769
 20
10.717460238727201
 30
0.0
  0
VERTEX
  5
B3C
  8
6
 10
-22.999999999999769
 20
20.196481491831499
 30
0.0
 42
0.4072424960060579
  0
VERTEX
  5
B3D
  8
6
 10
-25.78141696886405
 20
23.415899481705711
 30
0.0
 42
0.2941846850700244
  0
VERTEX
  5
B3E
  8
6
 10
-28.999999999999769
 20
21.317537871465849
 30
0.0
  0
VERTEX
  5
B3F
  8
6
 10
-28.999999999999769
 20
2.2067445945144861
 30
0.0
 42
0.5282780345420202
  0
VERTEX
  5
B40
  8
6
 10
-27.993666354988811
 20
1.5227535994967061
 30
0.0
 42
0.1197237422775389
  0
VERTEX
  5
B41
  8
6
 10
-27.073469654449578
 20
1.549812982704917
 30
0.0
 42
0.3760451047558904
  0
VERTEX
  5
B42
  8
6
 10
-25.06959317348332
 20
2.8023241307078131
 30
0.0
 42
0.1664180345968526
  0
VERTEX
  5
B43
  8
6
 10
-25.019481040584651
 20
3.514113175716385
 30
0.0
 42
0.5413849556030098
  0
VERTEX
  5
B44
  8
6
 10
-25.530624989726221
 20
3.5391761745140791
 30
0.0
 42
-0.0052316930712576
  0
VERTEX
  5
B45
  8
6
 10
-26.006690423065258
 20
3.00784066042571
 30
0.0
 42
-0.054152680530166
  0
VERTEX
  5
B46
  8
6
 10
-26.547901663332588
 20
2.4263792242709421
 30
0.0
 42
-0.9349225624350127
  0
VERTEX
  5
B47
  8
6
 10
-26.753361476537972
 20
2.591794986124579
 30
0.0
  0
VERTEX
  5
B48
  8
6
 10
-26.653137210740621
 20
4.0955746118711529
 30
0.0
 42
-0.2594323004936584
  0
VERTEX
  5
B49
  8
6
 10
-26.512823147530071
 20
4.3161289861850589
 30
0.0
 42
0.2179033253512271
  0
VERTEX
  5
B4A
  8
6
 10
-25.024492208327501
 20
5.6394550810109747
 30
0.0
 42
0.1112925639295422
  0
VERTEX
  5
B4B
  8
6
 10
-25.014469815908111
 20
6.3763070492882541
 30
0.0
 42
0.5856445095830515
  0
VERTEX
  5
B4C
  8
6
 10
-25.560692280852429
 20
6.3913448938842619
 30
0.0
 42
0.0198357983581517
  0
VERTEX
  5
B4D
  8
6
 10
-25.924711426344398
 20
6.022842739027066
 30
0.0
 42
-0.1280421017227575
  0
VERTEX
  5
B4E
  8
6
 10
-26.577968954458811
 20
5.5091274721571706
 30
0.0
 42
-0.5229847949340832
  0
VERTEX
  5
B4F
  8
6
 10
-26.873630697975841
 20
5.6494802352126596
 30
0.0
 42
-0.0222969752795857
  0
VERTEX
  5
B50
  8
6
 10
-26.94680892860287
 20
6.5254923670352234
 30
0.0
 42
-0.1163185948326834
  0
SEQEND
  5
B51
  8
6
  0
DIMENSION
  5
374
  8
1
  2
*D4
 10
-22.999999999999769
 20
-23.711692475452079
 30
0.0
 11
-25.999999999999769
 21
-20.924687018426159
 31
0.0
 70
     0
 13
-28.999999999999769
 23
8.5
 33
0.0
 14
-22.999999999999769
 24
15.0
 34
0.0
  0
POLYLINE
  5
375
  8
5
 66
     1
 10
0.0
 20
0.0
 30
0.0
  0
VERTEX
  5
B52
  8
5
 10
0.0
 20
-11.98615426501919
 30
0.0
  0
VERTEX
  5
B53
  8
5
 10
0.0
 20
0.0
 30
0.0
  0
VERTEX
  5
B54
  8
5
 10
-48.0
 20
0.0
 30
0.0
  0
VERTEX
  5
B55
  8
5
 10
-48.0
 20
-11.98615426501919
 30
0.0
  0
SEQEND
  5
B56
  8
5
  0
TEXT
  5
376
  8
1
 10
-90.219166654873277
 20
14.70923183598506
 30
0.0
 40
2.5
  1
Hebgo 164 /633
  0
DIMENSION
  5
377
  8
1
  2
*D5
 10
-39.688032348196877
 20
0.5000000000000022
 30
0.0
 11
-42.475037805222797
 21
18.53876779777374
 31
0.0
 70
   128
 13
-31.999999999999769
 23
25.49999999999994
 33
0.0
 14
-32.00000000000022
 24
0.5
 34
0.0
 50
90.0
  0
POINT
  5
378
  8
5
 10
-28.999999999999769
 20
8.5
 30
0.0
  0
POINT
  5
379
  8
5
 10
-28.999999999999769
 20
8.5
 30
0.0
  0
DIMENSION
  5
37A
  8
1
  2
*D6
 10
-0.0000000000000015
 20
-23.711692475452079
 30
0.0
 11
-11.499999999999879
 21
-20.923493294005969
 31
0.0
 70
     0
 13
-22.999999999999769
 23
15.0
 33
0.0
 14
0.0
 24
0.0
 34
0.0
  0
LINE
  5
37B
  8
6
  6
STRICHPUNKT
 10
-13.999999999999771
 20
9.3001413397664692
 30
0.0
 11
-13.999999999999771
 21
-15.3399529210485
 31
0.0
  0
TEXT
  5
37C
  8
1
 10
-19.050219139716319
 20
-27.448203701567301
 30
0.0
 40
1.5
  1
VAR. 25, 27
  0
DIMENSION
  5
37D
  8
1
  2
*D7
 10
10.609919142330909
 20
9.0376912047838651
 30
0.0
 11
7.8229136853049859
 21
4.7688456023919326
 31
0.0
 70
     0
 13
0.0
 23
0.5
 33
0.0
 14
-0.4499999999998181
 24
9.0376912047838687
 34
0.0
 50
90.0
  0
POLYLINE
  5
37E
  8
5
 66
     1
 10
0.0
 20
0.0
 30
0.0
  0
VERTEX
  5
B57
  8
5
 10
-22.999999999999769
 20
33.891008707262188
 30
0.0
  0
VERTEX
  5
B58
  8
5
 10
-22.999999999999769
 20
15.0
 30
0.0
  0
VERTEX
  5
B59
  8
5
 10
1.0
 20
15.0
 30
0.0
  0
VERTEX
  5
B5A
  8
5
 10
1.0
 20
-3.0
 30
0.0
  0
VERTEX
  5
B5B
  8
5
 10
4.9481751402765886
 20
-3.0
 30
0.0
  0
SEQEND
  5
B5C
  8
5
  0
INSERT
  5
37F
  8
2
  2
*X2
 10
-363.31425475205651
 20
303.6768800961471
 30
0.0
1001
ACAD
1000
HATCH
1002
{
1070
    16
1000
_U,I
1040
1.0
1040
0.7853981633974483
1070
     1
1002
}
  0
POLYLINE
  5
380
  8
6
 66
     1
 10
0.0
 20
0.0
 30
0.0
  0
VERTEX
  5
B5D
  8
6
 10
0.0000000000002274
 20
5.3882397946526899
 30
0.0
  0
VERTEX
  5
B5E
  8
6
 10
0.0000000000002274
 20
8.0876912047838232
 30
0.0
  0
VERTEX
  5
B5F
  8
6
 10
-0.4499999999998181
 20
8.5376912047838687
 30
0.0
  0
VERTEX
  5
B60
  8
6
 10
-2.0499999999999541
 20
8.5376912047838687
 30
0.0
  0
VERTEX
  5
B61
  8
6
 10
-2.4999999999997722
 20
8.0876912047838232
 30
0.0
  0
VERTEX
  5
B62
  8
6
 10
-2.4999999999997722
 20
8.0376912047838687
 30
0.0
  0
VERTEX
  5
B63
  8
6
 10
-5.4999999999997717
 20
8.0376912047838687
 30
0.0
  0
VERTEX
  5
B64
  8
6
 10
-5.4999999999997717
 20
8.0876912047838232
 30
0.0
  0
VERTEX
  5
B65
  8
6
 10
-5.9499999999998181
 20
8.5376912047838687
 30
0.0
  0
VERTEX
  5
B66
  8
6
 10
-12.999999999999771
 20
8.5376912047838687
 30
0.0
  0
VERTEX
  5
B67
  8
6
 10
-13.999999999999771
 20
7.5376912047838678
 30
0.0
  0
VERTEX
  5
B68
  8
6
 10
-14.999999999999771
 20
8.5376912047838687
 30
0.0
  0
VERTEX
  5
B69
  8
6
 10
-20.299999999999951
 20
8.5376912047838687
 30
0.0
  0
VERTEX
  5
B6A
  8
6
 10
-20.499999999999769
 20
8.3376912047838232
 30
0.0
  0
VERTEX
  5
B6B
  8
6
 10
-20.499999999999769
 20
5.5376912047838678
 30
0.0
  0
VERTEX
  5
B6C
  8
6
 10
-13.579587173670911
 20
5.5376912047838678
 30
0.0
  0
VERTEX
  5
B6D
  8
6
 10
-12.591236345765081
 20
6.4586164812897087
 30
0.0
  0
VERTEX
  5
B6E
  8
6
 10
-11.732459632218021
 20
5.5376912047836413
 30
0.0
  0
VERTEX
  5
B6F
  8
6
 10
-11.579587173670911
 20
5.5376912047838678
 30
0.0
  0
VERTEX
  5
B70
  8
6
 10
-10.591236345765081
 20
6.4586164812897087
 30
0.0
  0
VERTEX
  5
B71
  8
6
 10
-9.7324596322180241
 20
5.5376912047836413
 30
0.0
  0
VERTEX
  5
B72
  8
6
 10
-9.5795871736709142
 20
5.5376912047838678
 30
0.0
  0
VERTEX
  5
B73
  8
6
 10
-8.5912363457650827
 20
6.4586164812897087
 30
0.0
  0
VERTEX
  5
B74
  8
6
 10
-7.7324596322180241
 20
5.5376912047836413
 30
0.0
  0
VERTEX
  5
B75
  8
6
 10
-6.6746442086891866
 20
5.5376912047838678
 30
0.0
 42
-4.8836046478686121
  0
VERTEX
  5
B76
  8
6
 10
-6.6746442086891866
 20
3.3365940250457689
 30
0.0
  0
VERTEX
  5
B77
  8
6
 10
-7.7324596322180241
 20
3.3365940250459971
 30
0.0
  0
VERTEX
  5
B78
  8
6
 10
-8.5912363457650827
 20
2.415668748539928
 30
0.0
  0
VERTEX
  5
B79
  8
6
 10
-9.5795871736709142
 20
3.3365940250457689
 30
0.0
  0
VERTEX
  5
B7A
  8
6
 10
-9.7324596322180241
 20
3.3365940250459971
 30
0.0
  0
VERTEX
  5
B7B
  8
6
 10
-10.591236345765081
 20
2.415668748539928
 30
0.0
  0
VERTEX
  5
B7C
  8
6
 10
-11.579587173670911
 20
3.3365940250457689
 30
0.0
  0
VERTEX
  5
B7D
  8
6
 10
-11.732459632218021
 20
3.3365940250459971
 30
0.0
  0
VERTEX
  5
B7E
  8
6
 10
-12.591236345765081
 20
2.415668748539928
 30
0.0
  0
VERTEX
  5
B7F
  8
6
 10
-13.579587173670911
 20
3.3365940250457689
 30
0.0
  0
VERTEX
  5
B80
  8
6
 10
-19.579074723493932
 20
3.3365940250459971
 30
0.0
  0
VERTEX
  5
B81
  8
6
 10
-20.499999999999769
 20
2.415668748539928
 30
0.0
  0
VERTEX
  5
B82
  8
6
 10
-22.5
 20
2.415668748539928
 30
0.0
  0
VERTEX
  5
B83
  8
6
 10
-22.5
 20
0.5365940250458153
 30
0.0
  0
VERTEX
  5
B84
  8
6
 10
-22.299999999999951
 20
0.3365940250457697
 30
0.0
  0
VERTEX
  5
B85
  8
6
 10
-17.0
 20
0.3365940250457697
 30
0.0
  0
VERTEX
  5
B86
  8
6
 10
-16.0
 20
1.3365940250457691
 30
0.0
  0
VERTEX
  5
B87
  8
6
 10
-15.0
 20
0.3365940250457697
 30
0.0
  0
VERTEX
  5
B88
  8
6
 10
-5.5
 20
0.3365940250457697
 30
0.0
  0
VERTEX
  5
B89
  8
6
 10
-5.5
 20
0.3865940250457243
 30
0.0
  0
VERTEX
  5
B8A
  8
6
 10
-5.0499999999999536
 20
0.8365940250457697
 30
0.0
  0
VERTEX
  5
B8B
  8
6
 10
-2.9499999999998181
 20
0.8365940250457697
 30
0.0
  0
VERTEX
  5
B8C
  8
6
 10
-2.5
 20
0.3865940250457243
 30
0.0
  0
VERTEX
  5
B8D
  8
6
 10
-2.5
 20
0.3365940250457697
 30
0.0
  0
VERTEX
  5
B8E
  8
6
 10
-0.4499999999998181
 20
0.3365940250457697
 30
0.0
  0
VERTEX
  5
B8F
  8
6
 10
0.0
 20
0.7865940250458153
 30
0.0
  0
VERTEX
  5
B90
  8
6
 10
0.0
 20
5.5376912047838678
 30
0.0
  0
SEQEND
  5
B91
  8
6
  0
POLYLINE
  5
381
  8
5
 66
     1
 10
0.0
 20
0.0
 30
0.0
  0
VERTEX
  5
B92
  8
5
 10
3.8041438526099678
 20
15.0
 30
0.0
  0
VERTEX
  5
B93
  8
5
 10
5.0
 20
15.0
 30
0.0
  0
VERTEX
  5
B94
  8
5
 10
5.0
 20
13.254045909564409
 30
0.0
  0
SEQEND
  5
B95
  8
5
  0
POLYLINE
  5
382
  8
5
 66
     1
 10
0.0
 20
0.0
 30
0.0
  0
VERTEX
  5
B96
  8
5
 10
1.804143852609968
 20
15.0
 30
0.0
  0
VERTEX
  5
B97
  8
5
 10
3.0
 20
15.0
 30
0.0
  0
VERTEX
  5
B98
  8
5
 10
3.0
 20
13.254045909564409
 30
0.0
  0
SEQEND
  5
B99
  8
5
  0
DIMENSION
  5
502
  8
1
  2
*D8
 10
-98.0
 20
-30.086881648412909
 30
0.0
 11
-49.0
 21
-27.299876191386989
 31
0.0
 70
     0
 13
-0.0000000000000001
 23
-2.0
 33
0.0
 14
-98.0
 24
-2.6999999999999931
 34
0.0
  0
POLYLINE
  5
518
  8
6
 66
     1
 10
0.0
 20
0.0
 30
0.0
 70
     1
1001
ACAD
1000
ASC_BOUNDS
1002
{
1070
    19
1005
66F
1002
}
  0
VERTEX
  5
B9A
  8
6
 10
-45.062950281399608
 20
13.06140927202363
 30
0.0
  0
VERTEX
  5
B9B
  8
6
 10
-35.417956100837671
 20
14.24566564739499
 30
0.0
 42
-0.4504671536907979
  0
VERTEX
  5
B9C
  8
6
 10
-35.137488764986379
 20
13.99752910948466
 30
0.0
  0
VERTEX
  5
B9D
  8
6
 10
-35.137488764986379
 20
12.08654033579581
 30
0.0
 42
-0.3590366865769335
  0
VERTEX
  5
B9E
  8
6
 10
-35.33978651614224
 20
11.841133539933891
 30
0.0
  0
VERTEX
  5
B9F
  8
6
 10
-38.104288771419121
 20
11.303768736941249
 30
0.0
 42
0.8132574353399606
  0
VERTEX
  5
BA0
  8
6
 10
-40.987356799723109
 20
10.74335708233445
 30
0.0
  0
VERTEX
  5
BA1
  8
6
 10
-43.837488764986361
 20
10.189347549843291
 30
0.0
  0
VERTEX
  5
BA2
  8
6
 10
-43.837488764986361
 20
10.26877527749941
 30
0.0
 42
0.4504671536908128
  0
VERTEX
  5
BA3
  8
6
 10
-44.959358108391562
 20
11.26132142914072
 30
0.0
  0
VERTEX
  5
BA4
  8
6
 10
-48.53656080302153
 20
10.8220961670197
 30
0.0
 42
0.3788661086953132
  0
VERTEX
  5
BA5
  8
6
 10
-48.799999999999727
 20
10.52433232152748
 30
0.0
  0
VERTEX
  5
BA6
  8
6
 10
-48.799999999999727
 20
1.7999999999999541
 30
0.0
 42
0.4142135623730956
  0
VERTEX
  5
BA7
  8
6
 10
-48.5
 20
1.5
 30
0.0
  0
VERTEX
  5
BA8
  8
6
 10
-42.599999999999902
 20
1.5
 30
0.0
 42
-0.4142135623730951
  0
VERTEX
  5
BA9
  8
6
 10
-42.29999999999972
 20
1.1999999999998181
 30
0.0
  0
VERTEX
  5
BAA
  8
6
 10
-42.29999999999972
 20
0.6035533905932738
 30
0.0
 42
-0.198912367379658
  0
VERTEX
  5
BAB
  8
6
 10
-42.373223304703082
 20
0.4267766952966369
 30
0.0
  0
VERTEX
  5
BAC
  8
6
 10
-42.79999999999972
 20
0.0
 30
0.0
  0
VERTEX
  5
BAD
  8
6
 10
-43.123223300977799
 20
0.3232233047033632
 30
0.0
 42
0.4142135623730951
  0
VERTEX
  5
BAE
  8
6
 10
-43.476776691571068
 20
0.3232233047033632
 30
0.0
  0
VERTEX
  5
BAF
  8
6
 10
-43.799999999999727
 20
0.0
 30
0.0
  0
VERTEX
  5
BB0
  8
6
 10
-44.123223300977791
 20
0.3232233047033632
 30
0.0
 42
0.4142135623730951
  0
VERTEX
  5
BB1
  8
6
 10
-44.476776691571082
 20
0.3232233047033632
 30
0.0
  0
VERTEX
  5
BB2
  8
6
 10
-44.79999999999972
 20
0.0
 30
0.0
  0
VERTEX
  5
BB3
  8
6
 10
-45.123223300977799
 20
0.3232233047033632
 30
0.0
 42
0.4142135623730951
  0
VERTEX
  5
BB4
  8
6
 10
-45.476776691571068
 20
0.3232233047033632
 30
0.0
  0
VERTEX
  5
BB5
  8
6
 10
-45.79999999999972
 20
0.0
 30
0.0
  0
VERTEX
  5
BB6
  8
6
 10
-46.123223300977799
 20
0.3232233047033632
 30
0.0
 42
0.4142135623730951
  0
VERTEX
  5
BB7
  8
6
 10
-46.476776691571068
 20
0.3232233047033632
 30
0.0
  0
VERTEX
  5
BB8
  8
6
 10
-46.799999999999727
 20
0.0
 30
0.0
  0
VERTEX
  5
BB9
  8
6
 10
-47.123223300977791
 20
0.3232233047033632
 30
0.0
 42
0.4142135623730951
  0
VERTEX
  5
BBA
  8
6
 10
-47.476776691571068
 20
0.3232233047033632
 30
0.0
  0
VERTEX
  5
BBB
  8
6
 10
-47.79999999999972
 20
0.0
 30
0.0
  0
VERTEX
  5
BBC
  8
6
 10
-48.123223300977799
 20
0.3232233047033632
 30
0.0
 42
0.4142135623730951
  0
VERTEX
  5
BBD
  8
6
 10
-48.476776691571068
 20
0.3232233047033632
 30
0.0
  0
VERTEX
  5
BBE
  8
6
 10
-48.799999999999727
 20
0.0
 30
0.0
  0
VERTEX
  5
BBF
  8
6
 10
-49.123223300977791
 20
0.3232233047033632
 30
0.0
 42
0.4142135623730951
  0
VERTEX
  5
BC0
  8
6
 10
-49.476776691571082
 20
0.3232233047033632
 30
0.0
  0
VERTEX
  5
BC1
  8
6
 10
-49.79999999999972
 20
0.0
 30
0.0
  0
VERTEX
  5
BC2
  8
6
 10
-50.226776695296358
 20
0.4267766952966369
 30
0.0
 42
-0.198912367379658
  0
VERTEX
  5
BC3
  8
6
 10
-50.29999999999972
 20
0.6035533905932738
 30
0.0
  0
VERTEX
  5
BC4
  8
6
 10
-50.29999999999972
 20
10.266484743631279
 30
0.0
 42
0.4504671536907969
  0
VERTEX
  5
BC5
  8
6
 10
-50.636560803021389
 20
10.564248589123739
 30
0.0
  0
VERTEX
  5
BC6
  8
6
 10
-96.060934671702569
 20
4.986836789368347
 30
0.0
 42
0.3788661086953105
  0
VERTEX
  5
BC7
  8
6
 10
-96.5
 20
4.4905637135476919
 30
0.0
  0
VERTEX
  5
BC8
  8
6
 10
-96.500000000000014
 20
3.1800906169840109
 30
0.0
 42
0.4504671536908033
  0
VERTEX
  5
BC9
  8
6
 10
-95.939065328297445
 20
2.6838175411633429
 30
0.0
  0
VERTEX
  5
BCA
  8
6
 10
-93.621869343405194
 20
2.9683334326943118
 30
0.0
 42
-0.4504671536907988
  0
VERTEX
  5
BCB
  8
6
 10
-92.500000000000028
 20
1.97578728105299
 30
0.0
  0
VERTEX
  5
BCC
  8
6
 10
-92.500000000000028
 20
-2.1386077195485371
 30
0.0
 42
-0.3788661086953127
  0
VERTEX
  5
BCD
  8
6
 10
-92.93906532829746
 20
-2.6348807953691962
 30
0.0
  0
VERTEX
  5
BCE
  8
6
 10
-93.439065328297502
 20
-2.6962730758206561
 30
0.0
 42
-0.4504671536908035
  0
VERTEX
  5
BCF
  8
6
 10
-94.000000000000071
 20
-2.1999999999999882
 30
0.0
  0
VERTEX
  5
BD0
  8
6
 10
-94.000000000000014
 20
1.128066491281668
 30
0.0
 42
0.4504671536908025
  0
VERTEX
  5
BD1
  8
6
 10
-94.280467335851299
 20
1.376203029192002
 30
0.0
  0
VERTEX
  5
BD2
  8
6
 10
-96.998302594325708
 20
1.042494820373794
 30
0.0
 42
0.1673426090814197
  0
VERTEX
  5
BD3
  8
6
 10
-97.144611953771062
 20
0.9711349777601011
 30
0.0
  0
VERTEX
  5
BD4
  8
6
 10
-97.573223304703419
 20
0.5425236268277408
 30
0.0
 42
-0.6681786379193118
  0
VERTEX
  5
BD5
  8
6
 10
-98.000000000000057
 20
0.7193003221243759
 30
0.0
  0
VERTEX
  5
BD6
  8
6
 10
-97.999999999999986
 20
5.357253530899035
 30
0.0
 42
-0.3788661086953168
  0
VERTEX
  5
BD7
  8
6
 10
-95.804673358512844
 20
7.838618910002344
 30
0.0
 42
-0.1622776601683693
  0
VERTEX
  5
BD8
  8
6
 10
-94.254919459348287
 20
7.5251498492893978
 30
0.0
 42
0.333333333333322
  0
VERTEX
  5
BD9
  8
6
 10
-91.277281004424296
 20
7.8907578795048412
 30
0.0
 42
-0.1622776601683677
  0
VERTEX
  5
BDA
  8
6
 10
-89.84939644866482
 20
8.5698349704332397
 30
0.0
 42
-0.1622776601683693
  0
VERTEX
  5
BDB
  8
6
 10
-88.299642549500248
 20
8.2563659097202944
 30
0.0
 42
0.333333333333322
  0
VERTEX
  5
BDC
  8
6
 10
-85.322004094576286
 20
8.6219739399357351
 30
0.0
 42
-0.1622776601683677
  0
VERTEX
  5
BDD
  8
6
 10
-83.894119538816796
 20
9.3010510308641372
 30
0.0
 42
-0.1622776601683693
  0
VERTEX
  5
BDE
  8
6
 10
-82.344365639652224
 20
8.9875819701511901
 30
0.0
 42
0.333333333333322
  0
VERTEX
  5
BDF
  8
6
 10
-79.366727184728262
 20
9.3531900003666344
 30
0.0
 42
-0.1622776601683677
  0
VERTEX
  5
BE0
  8
6
 10
-77.938842628968771
 20
10.032267091295029
 30
0.0
 42
-0.1622776601683693
  0
VERTEX
  5
BE1
  8
6
 10
-76.3890887298042
 20
9.7187980305820876
 30
0.0
 42
0.333333333333322
  0
VERTEX
  5
BE2
  8
6
 10
-73.411450274880238
 20
10.08440606079753
 30
0.0
 42
-0.1622776601683677
  0
VERTEX
  5
BE3
  8
6
 10
-71.983565719120747
 20
10.76348315172592
 30
0.0
 42
-0.1622776601683693
  0
VERTEX
  5
BE4
  8
6
 10
-70.433811819956176
 20
10.45001409101298
 30
0.0
 42
0.333333333333322
  0
VERTEX
  5
BE5
  8
6
 10
-67.456173365032214
 20
10.81562212122842
 30
0.0
 42
-0.1622776601683677
  0
VERTEX
  5
BE6
  8
6
 10
-66.028288809272723
 20
11.494699212156821
 30
0.0
 42
-0.1622776601683693
  0
VERTEX
  5
BE7
  8
6
 10
-64.478534910108152
 20
11.18123015144387
 30
0.0
 42
0.333333333333322
  0
VERTEX
  5
BE8
  8
6
 10
-61.50089645518419
 20
11.54683818165932
 30
0.0
 42
-0.1622776601683677
  0
VERTEX
  5
BE9
  8
6
 10
-60.073011899424699
 20
12.22591527258772
 30
0.0
 42
-0.1622776601683693
  0
VERTEX
  5
BEA
  8
6
 10
-58.523258000260128
 20
11.912446211874769
 30
0.0
 42
0.333333333333322
  0
VERTEX
  5
BEB
  8
6
 10
-55.54561954533618
 20
12.27805424209021
 30
0.0
 42
-0.1622776601683677
  0
VERTEX
  5
BEC
  8
6
 10
-54.117734989576682
 20
12.95713133301861
 30
0.0
 42
-0.1622776601683693
  0
VERTEX
  5
BED
  8
6
 10
-52.567981090412111
 20
12.64366227230567
 30
0.0
 42
0.333333333333322
  0
VERTEX
  5
BEE
  8
6
 10
-49.590342635488149
 20
13.009270302521109
 30
0.0
 42
-0.1622776601683677
  0
VERTEX
  5
BEF
  8
6
 10
-48.162458079728729
 20
13.688347393449501
 30
0.0
 42
-0.1622776601683693
  0
VERTEX
  5
BF0
  8
6
 10
-46.612704180564172
 20
13.37487833273655
 30
0.0
 42
0.1622776601683737
  0
SEQEND
  5
BF1
  8
6
  0
POLYLINE
  5
54A
  8
6
 66
     1
 10
0.0
 20
0.0
 30
0.0
 70
     1
1001
ACAD
1000
ASC_BOUNDS
1002
{
1070
    19
1005
671
1002
}
  0
VERTEX
  5
BF2
  8
6
 10
-30.833493649053619
 20
19.375704155516111
 30
0.0
  0
VERTEX
  5
BF3
  8
6
 10
-31.966506350945881
 20
21.33813972081429
 30
0.0
 42
-0.1316524975874019
  0
VERTEX
  5
BF4
  8
6
 10
-31.999999999999769
 20
21.463139720814301
 30
0.0
  0
VERTEX
  5
BF5
  8
6
 10
-31.999999999999769
 20
24.576446609406531
 30
0.0
 42
-0.198912367379622
  0
VERTEX
  5
BF6
  8
6
 10
-31.926776695296429
 20
24.753223304703148
 30
0.0
  0
VERTEX
  5
BF7
  8
6
 10
-31.253223304703202
 20
25.42677669529656
 30
0.0
 42
-0.1989123673796919
  0
VERTEX
  5
BF8
  8
6
 10
-31.076446609406531
 20
25.49999999999994
 30
0.0
  0
VERTEX
  5
BF9
  8
6
 10
-28.919999999999622
 20
25.49999999999994
 30
0.0
  0
VERTEX
  5
BFA
  8
6
 10
-28.499999999999769
 20
25.07999999999987
 30
0.0
  0
VERTEX
  5
BFB
  8
6
 10
-28.07999999999992
 20
25.49999999999994
 30
0.0
  0
VERTEX
  5
BFC
  8
6
 10
-27.419999999999611
 20
25.49999999999994
 30
0.0
  0
VERTEX
  5
BFD
  8
6
 10
-26.999999999999769
 20
25.07999999999987
 30
0.0
  0
VERTEX
  5
BFE
  8
6
 10
-26.57999999999992
 20
25.49999999999994
 30
0.0
  0
VERTEX
  5
BFF
  8
6
 10
-25.419999999999838
 20
25.49999999999994
 30
0.0
  0
VERTEX
  5
C00
  8
6
 10
-24.999999999999769
 20
25.07999999999987
 30
0.0
  0
VERTEX
  5
C01
  8
6
 10
-24.999999999999769
 20
24.349999999999849
 30
0.0
 42
-0.414213562373093
  0
VERTEX
  5
C02
  8
6
 10
-25.849999999999909
 20
23.49999999999994
 30
0.0
  0
VERTEX
  5
C03
  8
6
 10
-29.199999999999822
 20
23.49999999999994
 30
0.0
 42
0.4142135623730951
  0
VERTEX
  5
C04
  8
6
 10
-30.199999999999811
 20
22.49999999999994
 30
0.0
  0
VERTEX
  5
C05
  8
6
 10
-30.199999999999811
 20
21.878460969082589
 30
0.0
  0
VERTEX
  5
C06
  8
6
 10
-28.999999999999769
 20
19.799999999999951
 30
0.0
  0
VERTEX
  5
C07
  8
6
 10
-28.999999999999769
 20
1.7999999999999541
 30
0.0
 42
0.4142135623730971
  0
VERTEX
  5
C08
  8
6
 10
-28.699999999999811
 20
1.5
 30
0.0
  0
VERTEX
  5
C09
  8
6
 10
-25.199999999999811
 20
1.5
 30
0.0
 42
0.4142135623730951
  0
VERTEX
  5
C0A
  8
6
 10
-24.89999999999986
 20
1.7999999999999541
 30
0.0
  0
VERTEX
  5
C0B
  8
6
 10
-24.89999999999986
 20
8.1999999999998181
 30
0.0
 42
-0.4142135623730951
  0
VERTEX
  5
C0C
  8
6
 10
-24.599999999999909
 20
8.5
 30
0.0
  0
VERTEX
  5
C0D
  8
6
 10
-21.39999999999986
 20
8.5
 30
0.0
 42
-0.4142135623730951
  0
VERTEX
  5
C0E
  8
6
 10
-21.099999999999898
 20
8.1999999999998181
 30
0.0
  0
VERTEX
  5
C0F
  8
6
 10
-21.099999999999898
 20
6.7999999999999536
 30
0.0
 42
-0.4142135623730951
  0
VERTEX
  5
C10
  8
6
 10
-21.39999999999986
 20
6.5
 30
0.0
  0
VERTEX
  5
C11
  8
6
 10
-22.79999999999972
 20
6.5
 30
0.0
 42
0.4142135623730855
  0
VERTEX
  5
C12
  8
6
 10
-23.099999999999909
 20
6.1999999999998181
 30
0.0
  0
VERTEX
  5
C13
  8
6
 10
-23.099999999999909
 20
5.6273978372257707
 30
0.0
 42
0.4040262258351575
  0
VERTEX
  5
C14
  8
6
 10
-22.81046984901058
 20
5.327580589120088
 30
0.0
  0
VERTEX
  5
C15
  8
6
 10
-9.6273869336887401
 20
5.3061666677922403
 30
0.0
 42
0.1988101110404441
  0
VERTEX
  5
C16
  8
6
 10
-9.4124039212192656
 20
5.3864973195597941
 30
0.0
  0
VERTEX
  5
C17
  8
6
 10
-8.8205613250102033
 20
5.9379642594083171
 30
0.0
 42
-0.4140983237049574
  0
VERTEX
  5
C18
  8
6
 10
-8.3966420510655553
 20
5.9230771710888339
 30
0.0
  0
VERTEX
  5
C19
  8
6
 10
-7.0971297954490629
 20
4.5295208898719457
 30
0.0
 42
-0.4142135623730888
  0
VERTEX
  5
C1A
  8
6
 10
-7.1119363979159971
 20
4.1055152713674943
 30
0.0
  0
VERTEX
  5
C1B
  8
6
 10
-8.5069967214922144
 20
2.8046004735606398
 30
0.0
 42
-0.414371337763161
  0
VERTEX
  5
C1C
  8
6
 10
-8.9311125154467845
 20
2.8195252885473101
 30
0.0
  0
VERTEX
  5
C1D
  8
6
 10
-9.4829998426498605
 20
3.4119914895607049
 30
0.0
 42
0.1990523613993445
  0
VERTEX
  5
C1E
  8
6
 10
-9.6920462795746971
 20
3.5073274421674792
 30
0.0
  0
VERTEX
  5
C1F
  8
6
 10
-22.789530150989091
 20
3.5257521790144888
 30
0.0
 42
0.4244748162096039
  0
VERTEX
  5
C20
  8
6
 10
-23.099999999999909
 20
3.2259349309085792
 30
0.0
  0
VERTEX
  5
C21
  8
6
 10
-23.099999999999909
 20
0.453553390593182
 30
0.0
 42
-0.198912367379658
  0
VERTEX
  5
C22
  8
6
 10
-23.173223304703271
 20
0.276776695296545
 30
0.0
  0
VERTEX
  5
C23
  8
6
 10
-23.449999999999811
 20
0.0
 30
0.0
  0
VERTEX
  5
C24
  8
6
 10
-23.773223300977889
 20
0.3232233047033632
 30
0.0
 42
0.4142135623730951
  0
VERTEX
  5
C25
  8
6
 10
-24.126776691571159
 20
0.3232233047033632
 30
0.0
  0
VERTEX
  5
C26
  8
6
 10
-24.449999999999822
 20
0.0
 30
0.0
  0
VERTEX
  5
C27
  8
6
 10
-24.773223300977889
 20
0.3232233047033632
 30
0.0
 42
0.4142135623730951
  0
VERTEX
  5
C28
  8
6
 10
-25.126776691571159
 20
0.3232233047033632
 30
0.0
  0
VERTEX
  5
C29
  8
6
 10
-25.449999999999822
 20
0.0
 30
0.0
  0
VERTEX
  5
C2A
  8
6
 10
-25.773223300977889
 20
0.3232233047033632
 30
0.0
 42
0.4142135623730951
  0
VERTEX
  5
C2B
  8
6
 10
-26.126776691571159
 20
0.3232233047033632
 30
0.0
  0
VERTEX
  5
C2C
  8
6
 10
-26.449999999999811
 20
0.0
 30
0.0
  0
VERTEX
  5
C2D
  8
6
 10
-26.773223300977889
 20
0.3232233047033632
 30
0.0
 42
0.4142135623730951
  0
VERTEX
  5
C2E
  8
6
 10
-27.126776691571159
 20
0.3232233047033632
 30
0.0
  0
VERTEX
  5
C2F
  8
6
 10
-27.449999999999811
 20
0.0
 30
0.0
  0
VERTEX
  5
C30
  8
6
 10
-27.773223300977879
 20
0.3232233047033632
 30
0.0
 42
0.4142135623730951
  0
VERTEX
  5
C31
  8
6
 10
-28.126776691571159
 20
0.3232233047033632
 30
0.0
  0
VERTEX
  5
C32
  8
6
 10
-28.449999999999811
 20
0.0
 30
0.0
  0
VERTEX
  5
C33
  8
6
 10
-28.773223300977879
 20
0.3232233047033632
 30
0.0
 42
0.4142135623730951
  0
VERTEX
  5
C34
  8
6
 10
-29.126776691571159
 20
0.3232233047033632
 30
0.0
  0
VERTEX
  5
C35
  8
6
 10
-29.449999999999822
 20
0.0
 30
0.0
  0
VERTEX
  5
C36
  8
6
 10
-29.773223300977889
 20
0.3232233047033632
 30
0.0
 42
0.4142135623730951
  0
VERTEX
  5
C37
  8
6
 10
-30.126776691571159
 20
0.3232233047033632
 30
0.0
  0
VERTEX
  5
C38
  8
6
 10
-30.449999999999822
 20
0.0
 30
0.0
  0
VERTEX
  5
C39
  8
6
 10
-30.726776695296358
 20
0.2767766952965439
 30
0.0
 42
-0.198912367379658
  0
VERTEX
  5
C3A
  8
6
 10
-30.79999999999972
 20
0.4535533905931808
 30
0.0
  0
VERTEX
  5
C3B
  8
6
 10
-30.79999999999972
 20
9.5122359866678075
 30
0.0
 42
0.4504671536907991
  0
VERTEX
  5
C3C
  8
6
 10
-31.360934671702299
 20
10.008509062488461
 30
0.0
  0
VERTEX
  5
C3D
  8
6
 10
-42.13906532829715
 20
8.6851210224643332
 30
0.0
 42
-0.4504671536907988
  0
VERTEX
  5
C3E
  8
6
 10
-42.699999999999719
 20
9.1813940982849935
 30
0.0
  0
VERTEX
  5
C3F
  8
6
 10
-42.699999999999719
 20
10.20436887116769
 30
0.0
 42
-0.3590366865769494
  0
VERTEX
  5
C40
  8
6
 10
-42.497702248843837
 20
10.449775667029609
 30
0.0
  0
VERTEX
  5
C41
  8
6
 10
-41.229763100685709
 20
10.696238070616319
 30
0.0
  0
VERTEX
  5
C42
  8
6
 10
-40.850804404412351
 20
10.440627202448439
 30
0.0
 42
0.4142135623730959
  0
VERTEX
  5
C43
  8
6
 10
-40.503746785405909
 20
10.508088369719511
 30
0.0
  0
VERTEX
  5
C44
  8
6
 10
-40.248135917238052
 20
10.88704706599286
 30
0.0
  0
VERTEX
  5
C45
  8
6
 10
-39.869177220964701
 20
10.631436197824989
 30
0.0
 42
0.4142135623730959
  0
VERTEX
  5
C46
  8
6
 10
-39.522119601958252
 20
10.698897365096061
 30
0.0
  0
VERTEX
  5
C47
  8
6
 10
-39.266508733790381
 20
11.07785606136941
 30
0.0
  0
VERTEX
  5
C48
  8
6
 10
-38.887550037517038
 20
10.82224519320153
 30
0.0
 42
0.4142135623730964
  0
VERTEX
  5
C49
  8
6
 10
-38.540492418510588
 20
10.88970636047261
 30
0.0
  0
VERTEX
  5
C4A
  8
6
 10
-38.28488155034271
 20
11.268665056745951
 30
0.0
  0
VERTEX
  5
C4B
  8
6
 10
-37.905922854069367
 20
11.013054188578071
 30
0.0
 42
0.4142135623730959
  0
VERTEX
  5
C4C
  8
6
 10
-37.558865235062918
 20
11.080515355849149
 30
0.0
  0
VERTEX
  5
C4D
  8
6
 10
-37.303254366895047
 20
11.4594740521225
 30
0.0
  0
VERTEX
  5
C4E
  8
6
 10
-36.924295670621717
 20
11.203863183954621
 30
0.0
 42
0.4142135623730959
  0
VERTEX
  5
C4F
  8
6
 10
-36.577238051615268
 20
11.271324351225701
 30
0.0
  0
VERTEX
  5
C50
  8
6
 10
-36.32162718344739
 20
11.650283047499039
 30
0.0
  0
VERTEX
  5
C51
  8
6
 10
-35.942668487174053
 20
11.39467217933117
 30
0.0
 42
0.4142135623731031
  0
VERTEX
  5
C52
  8
6
 10
-35.595610868167597
 20
11.462133346602251
 30
0.0
  0
VERTEX
  5
C53
  8
6
 10
-35.339999999999669
 20
11.84109204287569
 30
0.0
  0
VERTEX
  5
C54
  8
6
 10
-30.799999999999731
 20
12.72357864636092
 30
0.0
  0
VERTEX
  5
C55
  8
6
 10
-30.79999999999972
 20
14.53010576291482
 30
0.0
 42
0.4504671536907993
  0
VERTEX
  5
C56
  8
6
 10
-31.080467335851012
 20
14.77824230082515
 30
0.0
  0
VERTEX
  5
C57
  8
6
 10
-42.419532664148427
 20
13.38598014344082
 30
0.0
 42
-0.4504671536907988
  0
VERTEX
  5
C58
  8
6
 10
-42.699999999999719
 20
13.63411668135115
 30
0.0
  0
VERTEX
  5
C59
  8
6
 10
-42.699999999999719
 20
14.62194715576277
 30
0.0
 42
-0.3788661086953154
  0
VERTEX
  5
C5A
  8
6
 10
-42.260934671702302
 20
15.118220231583431
 30
0.0
  0
VERTEX
  5
C5B
  8
6
 10
-30.79999999999972
 20
16.52544606278531
 30
0.0
  0
VERTEX
  5
C5C
  8
6
 10
-30.79999999999972
 20
19.250704155516111
 30
0.0
 42
0.1316524975874011
  0
SEQEND
  5
C5D
  8
6
  0
DIMENSION
  5
5FF
  8
1
  2
*D9
 10
10.609919142330909
 20
25.499999999999929
 30
0.0
 11
7.8229136853049868
 21
17.268845602391899
 31
0.0
 70
     0
 13
-0.4499999999998181
 23
9.0376912047838687
 33
0.0
 14
-25.419999999999838
 24
25.49999999999994
 34
0.0
 50
90.0
  0
INSERT
  5
66F
  8
2
  6
CONTINUOUS
  2
*X10
 10
0.0
 20
0.0
 30
0.0
1001
ACAD
1000
HATCH
1002
{
1070
    19
1000
_USER
1040
1.1999999999999991
1040
0.7853981633974483
1000
ASC_BOUNDS
1070
     1
1070
     2
1070
     1
1005
518
1000
ASC_SEEDPOINT
1011
0.0
1021
0.0
1031
0.0
1021
0.0
1031
0.0
1000
R14_HATCH_DATA
1000
66F
1011
1.0
1021
0.0
1031
0.0
1021
0.0
1031
0.0
1011
0.0
1021
0.0
1031
0.0
1021
1.0
1031
0.0
1011
0.0
1021
0.0
1031
0.0
1021
0.0
1031
1.0
1040
0.0
1010
0.0
1020
0.0
1030
1.0
1000
_USER
1070
     0
1070
     1
1071
        1
1071
        1
1071
       87
1070
     1
1040
-45.062950281399608
1040
13.06140927202363
1040
-35.417956100837671
1040
14.24566564739499
1070
     2
1040
-35.387488764986387
1040
13.99752910948466
1040
0.2499999999999994
1040
4.5902159327450951
1040
6.2831853071795862
1070
     0
1070
     1
1040
-35.137488764986379
1040
13.99752910948466
1040
-35.137488764986379
1040
12.08654033579581
1070
     2
1040
-35.387488764986372
1040
12.08654033579581
1040
0.2499999999999929
1040
6.283185307179572
1040
7.6619954162551211
1070
     0
1070
     1
1040
-35.33978651614224
1040
11.841133539933891
1040
-38.104288771419121
1040
11.303768736941249
1070
     2
1040
-39.487488764986367
1040
10.723460389770921
1040
1.4999999999999949
1040
0.3972372861499462
1040
3.1283278028785988
1070
     1
1070
     1
1040
-40.987356799723109
1040
10.74335708233445
1040
-43.837488764986361
1040
10.189347549843291
1070
     1
1040
-43.837488764986361
1040
10.189347549843291
1040
-43.837488764986361
1040
10.26877527749941
1070
     2
1040
-44.837488764986368
1040
10.268775277499399
1040
1.0000000000000071
1040
0.0000000000000071
1040
1.692969374434546
1070
     1
1070
     1
1040
-44.959358108391562
1040
11.26132142914072
1040
-48.53656080302153
1040
10.8220961670197
1070
     2
1040
-48.49999999999995
1040
10.52433232152754
1040
0.2999999999997761
1040
1.692969374434709
1040
3.1415926535899938
1070
     1
1070
     1
1040
-48.799999999999727
1040
10.52433232152748
1040
-48.799999999999727
1040
1.7999999999999541
1070
     2
1040
-48.499999999999879
1040
1.79999999999984
1040
0.2999999999998408
1040
3.141592653589413
1040
4.7123889803843113
1070
     1
1070
     1
1040
-48.5
1040
1.5
1040
-42.599999999999902
1040
1.5
1070
     2
1040
-42.599999999999902
1040
1.1999999999998181
1040
0.3000000000001819
1040
4.7123889803846888
1040
6.2831853071795862
1070
     0
1070
     1
1040
-42.29999999999972
1040
1.1999999999998181
1040
-42.29999999999972
1040
0.6035533905932738
1070
     2
1040
-42.549999999999727
1040
0.603553390593272
1040
0.25
1040
6.2831853071795791
1040
7.0685834705770247
1070
     0
1070
     1
1040
-42.373223304703082
1040
0.4267766952966369
1040
-42.79999999999972
1040
0.0
1070
     1
1040
-42.79999999999972
1040
0.0
1040
-43.123223300977799
1040
0.3232233047033632
1070
     2
1040
-43.29999999627443
1040
0.1464466094067249
1040
0.250000000000002
1040
0.7853981633974483
1040
2.3561944901923439
1070
     1
1070
     1
1040
-43.476776691571068
1040
0.3232233047033632
1040
-43.799999999999727
1040
0.0
1070
     1
1040
-43.799999999999727
1040
0.0
1040
-44.123223300977791
1040
0.3232233047033632
1070
     2
1040
-44.29999999627443
1040
0.1464466094067249
1040
0.250000000000002
1040
0.7853981633974483
1040
2.3561944901923439
1070
     1
1070
     1
1040
-44.476776691571082
1040
0.3232233047033632
1040
-44.79999999999972
1040
0.0
1070
     1
1040
-44.79999999999972
1040
0.0
1040
-45.123223300977799
1040
0.3232233047033632
1070
     2
1040
-45.299999996274437
1040
0.1464466094067249
1040
0.250000000000002
1040
0.7853981633974483
1040
2.3561944901923439
1070
     1
1070
     1
1040
-45.476776691571068
1040
0.3232233047033632
1040
-45.79999999999972
1040
0.0
1070
     1
1040
-45.79999999999972
1040
0.0
1040
-46.123223300977799
1040
0.3232233047033632
1070
     2
1040
-46.29999999627443
1040
0.1464466094067249
1040
0.250000000000002
1040
0.7853981633974483
1040
2.3561944901923439
1070
     1
1070
     1
1040
-46.476776691571068
1040
0.3232233047033632
1040
-46.799999999999727
1040
0.0
1070
     1
1040
-46.799999999999727
1040
0.0
1040
-47.123223300977791
1040
0.3232233047033632
1070
     2
1040
-47.299999996274437
1040
0.1464466094067249
1040
0.250000000000002
1040
0.7853981633974483
1040
2.3561944901923439
1070
     1
1070
     1
1040
-47.476776691571068
1040
0.3232233047033632
1040
-47.79999999999972
1040
0.0
1070
     1
1040
-47.79999999999972
1040
0.0
1040
-48.123223300977799
1040
0.3232233047033632
1070
     2
1040
-48.29999999627443
1040
0.1464466094067249
1040
0.250000000000002
1040
0.7853981633974483
1040
2.3561944901923439
1070
     1
1070
     1
1040
-48.476776691571068
1040
0.3232233047033632
1040
-48.799999999999727
1040
0.0
1070
     1
1040
-48.799999999999727
1040
0.0
1040
-49.123223300977791
1040
0.3232233047033632
1070
     2
1040
-49.299999996274437
1040
0.1464466094067249
1040
0.250000000000002
1040
0.7853981633974483
1040
2.3561944901923439
1070
     1
1070
     1
1040
-49.476776691571082
1040
0.3232233047033632
1040
-49.79999999999972
1040
0.0
1070
     1
1040
-49.79999999999972
1040
0.0
1040
-50.226776695296358
1040
0.4267766952966369
1070
     2
1040
-50.049999999999727
1040
0.603553390593272
1040
0.2499999999999997
1040
2.3561944901923528
1040
3.1415926535898002
1070
     0
1070
     1
1040
-50.29999999999972
1040
0.6035533905932738
1040
-50.29999999999972
1040
10.266484743631279
1070
     2
1040
-50.59999999999981
1040
10.266484743631249
1040
0.3000000000000895
1040
0.0000000000000829
1040
1.69296937443458
1070
     1
1070
     1
1040
-50.636560803021389
1040
10.564248589123739
1040
-96.060934671702569
1040
4.986836789368347
1070
     2
1040
-96.0
1040
4.490563713547683
1040
0.5000000000000023
1040
1.6929693744344889
1040
3.1415926535897749
1070
     1
1070
     1
1040
-96.5
1040
4.4905637135476919
1040
-96.500000000000014
1040
3.1800906169840109
1070
     2
1040
-96.000000000000014
1040
3.180090616984002
1040
0.5
1040
3.141592653589774
1040
4.8345620280242834
1070
     1
1070
     1
1040
-95.939065328297445
1040
2.6838175411633429
1040
-93.621869343405194
1040
2.9683334326943118
1070
     2
1040
-93.500000000000028
1040
1.975787281052988
1040
1.000000000000002
1040
4.5902159327450818
1040
6.2831853071795836
1070
     0
1070
     1
1040
-92.500000000000028
1040
1.97578728105299
1040
-92.500000000000028
1040
-2.1386077195485371
1070
     2
1040
-93.000000000000014
1040
-2.1386077195485318
1040
0.5
1040
0.0000000000000098
1040
1.448623279155304
1070
     0
1070
     1
1040
-92.93906532829746
1040
-2.6348807953691962
1040
-93.439065328297502
1040
-2.6962730758206561
1070
     2
1040
-93.500000000000057
1040
-2.1999999999999971
1040
0.499999999999997
1040
1.448623279155302
1040
3.1415926535898109
1070
     0
1070
     1
1040
-94.000000000000071
1040
-2.1999999999999882
1040
-94.000000000000014
1040
1.128066491281668
1070
     2
1040
-94.250000000000014
1040
1.1280664912816729
1040
0.25
1040
6.2831853071795694
1040
7.9761546816140756
1070
     1
1070
     1
1040
-94.280467335851299
1040
1.376203029192002
1040
-96.998302594325708
1040
1.042494820373794
1070
     2
1040
-96.967835258474423
1040
0.7943582824634589
1040
0.2500000000000053
1040
1.692969374434486
1040
2.3561944901923328
1070
     1
1070
     1
1040
-97.144611953771062
1040
0.9711349777601011
1040
-97.573223304703419
1040
0.5425236268277408
1070
     2
1040
-97.750000000000057
1040
0.7193003221243726
1040
0.2499999999999975
1040
0.7853981633974297
1040
3.141592653589806
1070
     0
1070
     1
1040
-98.000000000000057
1040
0.7193003221243759
1040
-97.999999999999986
1040
5.357253530899035
1070
     2
1040
-95.5
1040
5.357253530899043
1040
2.4999999999999849
1040
3.14159265358979
1040
4.5902159327450951
1070
     0
1070
     2
1040
-95.500000000000014
1040
5.3572535308988627
1040
2.5000000000001692
1040
4.5902159327451111
1040
5.2337170415383554
1070
     0
1070
     2
1040
-93.009838918696616
1040
9.6930461676798458
1040
2.5000000000000622
1040
4.1910609192310311
1040
5.4780631368175579
1070
     1
1070
     2
1040
-89.544723090151891
1040
6.088469591329642
1040
2.5000000000002962
1040
3.9467148239518379
1040
4.5902159327450764
1070
     0
1070
     2
1040
-89.544723090151976
1040
6.0884695913297593
1040
2.5000000000001701
1040
4.590215932745104
1040
5.23371704153835
1070
     0
1070
     2
1040
-87.054562008848563
1040
10.42426222811074
1040
2.5000000000000688
1040
4.1910609192310249
1040
5.4780631368175543
1070
     1
1070
     2
1040
-83.589446180303852
1040
6.8196856517605378
1040
2.500000000000306
1040
3.946714823951833
1040
4.5902159327450711
1070
     0
1070
     2
1040
-83.589446180303966
1040
6.819685651760655
1040
2.5000000000001701
1040
4.5902159327451111
1040
5.2337170415383554
1070
     0
1070
     2
1040
-81.099285099000554
1040
11.15547828854163
1040
2.5000000000000622
1040
4.1910609192310311
1040
5.4780631368175579
1070
     1
1070
     2
1040
-77.634169270455843
1040
7.5509017121914361
1040
2.5000000000002962
1040
3.9467148239518379
1040
4.5902159327450764
1070
     0
1070
     2
1040
-77.634169270455928
1040
7.5509017121915516
1040
2.5000000000001701
1040
4.590215932745104
1040
5.23371704153835
1070
     0
1070
     2
1040
-75.144008189152515
1040
11.886694348972529
1040
2.5000000000000688
1040
4.1910609192310249
1040
5.4780631368175543
1070
     1
1070
     2
1040
-71.678892360607804
1040
8.2821177726223318
1040
2.500000000000306
1040
3.946714823951833
1040
4.5902159327450711
1070
     0
1070
     2
1040
-71.678892360607904
1040
8.2821177726224491
1040
2.5000000000001679
1040
4.5902159327451111
1040
5.2337170415383554
1070
     0
1070
     2
1040
-69.188731279304506
1040
12.61791040940343
1040
2.5000000000000622
1040
4.1910609192310311
1040
5.4780631368175579
1070
     1
1070
     2
1040
-65.723615450759794
1040
9.0133338330532276
1040
2.5000000000002962
1040
3.9467148239518379
1040
4.5902159327450764
1070
     0
1070
     2
1040
-65.72361545075988
1040
9.0133338330533448
1040
2.5000000000001701
1040
4.590215932745104
1040
5.23371704153835
1070
     0
1070
     2
1040
-63.233454369456467
1040
13.349126469834321
1040
2.5000000000000648
1040
4.1910609192310284
1040
5.4780631368175561
1070
     1
1070
     2
1040
-59.76833854091177
1040
9.7445498934841233
1040
2.5000000000002962
1040
3.9467148239518379
1040
4.5902159327450764
1070
     0
1070
     2
1040
-59.76833854091187
1040
9.7445498934842512
1040
2.5000000000001581
1040
4.5902159327451102
1040
5.2337170415383554
1070
     0
1070
     2
1040
-57.27817745960845
1040
14.08034253026522
1040
2.5000000000000648
1040
4.1910609192310284
1040
5.4780631368175561
1070
     1
1070
     2
1040
-53.813061631063754
1040
10.47576595391501
1040
2.5000000000002962
1040
3.9467148239518379
1040
4.5902159327450773
1070
     0
1070
     2
1040
-53.813061631063839
1040
10.475765953915131
1040
2.5000000000001701
1040
4.5902159327451084
1040
5.2337170415383527
1070
     0
1070
     2
1040
-51.322900549760433
1040
14.811558590696119
1040
2.5000000000000648
1040
4.1910609192310284
1040
5.4780631368175561
1070
     1
1070
     2
1040
-47.857784721215779
1040
11.206982014346019
1040
2.5000000000001759
1040
3.9467148239518228
1040
4.5902159327450622
1070
     0
1070
     2
1040
-47.8577847212159
1040
11.206982014346019
1040
2.5000000000001692
1040
4.5902159327451084
1040
5.2337170415383527
1070
     0
1070
     2
1040
-45.36762363991248
1040
15.54277465112701
1040
2.5000000000000768
1040
4.1910609192310266
1040
4.8345620280242896
1070
     1
1071
        1
1005
518
1070
     0
1070
     0
1040
0.7853981633974483
1040
1.1999999999999991
1070
     0
1070
     1
1040
0.7853981633974483
1040
0.0
1040
0.0
1040
-0.8485281374238569
1040
0.8485281374238569
1070
     0
1071
        1
1040
0.0
1040
0.0
1040
0.0
1002
}
  0
INSERT
  5
671
  8
2
  6
CONTINUOUS
  2
*X11
 10
0.0
 20
0.0
 30
0.0
1001
ACAD
1000
HATCH
1002
{
1070
    19
1000
_USER
1040
1.1999999999999991
1040
0.7853981633974483
1000
ASC_BOUNDS
1070
     1
1070
     2
1070
     1
1005
54A
1000
ASC_SEEDPOINT
1011
0.0
1021
0.0
1031
0.0
1021
0.0
1031
0.0
1000
R14_HATCH_DATA
1000
671
1011
1.0
1021
0.0
1031
0.0
1021
0.0
1031
0.0
1011
0.0
1021
0.0
1031
0.0
1021
1.0
1031
0.0
1011
0.0
1021
0.0
1031
0.0
1021
0.0
1031
1.0
1040
0.0
1010
0.0
1020
0.0
1030
1.0
1000
_USER
1070
     0
1070
     1
1071
        1
1071
        1
1071
      107
1070
     1
1040
-30.833493649053619
1040
19.375704155516111
1040
-31.966506350945881
1040
21.33813972081429
1070
     2
1040
-31.749999999999769
1040
21.463139720814301
1040
0.2499999999999964
1040
2.6179938779914531
1040
3.141592653589778
1070
     0
1070
     1
1040
-31.999999999999769
1040
21.463139720814301
1040
-31.999999999999769
1040
24.576446609406531
1070
     2
1040
-31.749999999999769
1040
24.576446609406531
1040
0.2500000000000035
1040
3.1415926535897931
1040
3.9269908169871002
1070
     0
1070
     1
1040
-31.926776695296429
1040
24.753223304703148
1040
-31.253223304703202
1040
25.42677669529656
1070
     2
1040
-31.076446609406531
1040
25.24999999999994
1040
0.2499999999999995
1040
3.9269908169871099
1040
4.7123889803846888
1070
     0
1070
     1
1040
-31.076446609406531
1040
25.49999999999994
1040
-28.919999999999622
1040
25.49999999999994
1070
     1
1040
-28.919999999999622
1040
25.49999999999994
1040
-28.499999999999769
1040
25.07999999999987
1070
     1
1040
-28.499999999999769
1040
25.07999999999987
1040
-28.07999999999992
1040
25.49999999999994
1070
     1
1040
-28.07999999999992
1040
25.49999999999994
1040
-27.419999999999611
1040
25.49999999999994
1070
     1
1040
-27.419999999999611
1040
25.49999999999994
1040
-26.999999999999769
1040
25.07999999999987
1070
     1
1040
-26.999999999999769
1040
25.07999999999987
1040
-26.57999999999992
1040
25.49999999999994
1070
     1
1040
-26.57999999999992
1040
25.49999999999994
1040
-25.419999999999838
1040
25.49999999999994
1070
     1
1040
-25.419999999999838
1040
25.49999999999994
1040
-24.999999999999769
1040
25.07999999999987
1070
     1
1040
-24.999999999999769
1040
25.07999999999987
1040
-24.999999999999769
1040
24.349999999999849
1070
     2
1040
-25.849999999999788
1040
24.349999999999959
1040
0.8500000000000262
1040
0.0000000000001377
1040
1.570796326795026
1070
     0
1070
     1
1040
-25.849999999999909
1040
23.49999999999994
1040
-29.199999999999822
1040
23.49999999999994
1070
     2
1040
-29.199999999999822
1040
22.49999999999994
1040
1.0
1040
1.5707963267948959
1040
3.1415926535897931
1070
     1
1070
     1
1040
-30.199999999999811
1040
22.49999999999994
1040
-30.199999999999811
1040
21.878460969082589
1070
     1
1040
-30.199999999999811
1040
21.878460969082589
1040
-28.999999999999769
1040
19.799999999999951
1070
     1
1040
-28.999999999999769
1040
19.799999999999951
1040
-28.999999999999769
1040
1.7999999999999541
1070
     2
1040
-28.699999999999811
1040
1.799999999999953
1040
0.2999999999999545
1040
3.14159265358979
1040
4.7123889803846888
1070
     1
1070
     1
1040
-28.699999999999811
1040
1.5
1040
-25.199999999999811
1040
1.5
1070
     2
1040
-25.199999999999811
1040
1.7999999999999541
1040
0.2999999999999545
1040
4.7123889803846888
1040
6.2831853071795862
1070
     1
1070
     1
1040
-24.89999999999986
1040
1.7999999999999541
1040
-24.89999999999986
1040
8.1999999999998181
1070
     2
1040
-24.599999999999788
1040
8.1999999999999318
1040
0.3000000000000682
1040
3.1415926535894139
1040
4.7123889803843113
1070
     0
1070
     1
1040
-24.599999999999909
1040
8.5
1040
-21.39999999999986
1040
8.5
1070
     2
1040
-21.39999999999997
1040
8.1999999999999318
1040
0.3000000000000682
1040
4.712388980385068
1040
6.2831853071799646
1070
     0
1070
     1
1040
-21.099999999999898
1040
8.1999999999998181
1040
-21.099999999999898
1040
6.7999999999999536
1070
     2
1040
-21.39999999999986
1040
6.7999999999999536
1040
0.2999999999999545
1040
6.2831853071795862
1040
7.8539816339744819
1070
     0
1070
     1
1040
-21.39999999999986
1040
6.5
1040
-22.79999999999972
1040
6.5
1070
     2
1040
-22.79999999999972
1040
6.1999999999998119
1040
0.3000000000001872
1040
1.5707963267949081
1040
3.1415926535897749
1070
     1
1070
     1
1040
-23.099999999999909
1040
6.1999999999998181
1040
-23.099999999999909
1040
5.6273978372257707
1070
     2
1040
-22.799999999999901
1040
5.6273978372258311
1040
0.3000000000000114
1040
3.1415926535899938
1040
4.6774823953450051
1070
     1
1070
     1
1040
-22.81046984901058
1040
5.327580589120088
1040
-9.6273869336887401
1040
5.3061666677922403
1070
     2
1040
-9.6169170846779775
1040
5.6059839158980083
1040
0.3000000000000396
1040
4.6774823953447662
1040
5.4624870932888108
1070
     1
1070
     1
1040
-9.4124039212192656
1040
5.3864973195597941
1040
-8.8205613250102033
1040
5.9379642594083171
1070
     2
1040
-8.6160481615514364
1040
5.7184776630700176
1040
0.3000000000001399
1040
3.9622908674806272
1040
5.5326937288221574
1070
     0
1070
     1
1040
-8.3966420510655553
1040
5.9230771710888339
1040
-7.0971297954490629
1040
4.5295208898719457
1070
     2
1040
-7.3165359059347601
1040
4.3249213818531871
1040
0.2999999999999674
1040
5.5326937288218767
1040
7.1034900556167528
1070
     0
1070
     1
1040
-7.1119363979159971
1040
4.1055152713674943
1040
-8.5069967214922144
1040
2.8046004735606398
1070
     2
1040
-8.7115962295110094
1040
3.024006584046393
1040
0.3000000000000325
1040
0.8203047484372287
1040
2.3916397240585181
1070
     0
1070
     1
1040
-8.9311125154467845
1040
2.8195252885473101
1040
-9.4829998426498605
1040
3.4119914895607049
1070
     2
1040
-9.7025161285856338
1040
3.207510194061943
1040
0.2999999999998138
1040
0.7499529295304983
1040
1.535889741754366
1070
     1
1070
     1
1040
-9.6920462795746971
1040
3.5073274421674792
1040
-22.789530150989091
1040
3.5257521790144888
1070
     2
1040
-22.79999999999978
1040
3.2259349309086378
1040
0.3000000000001202
1040
1.5358897417552131
1040
3.141592653589989
1070
     1
1070
     1
1040
-23.099999999999909
1040
3.2259349309085792
1040
-23.099999999999909
1040
0.4535533905931822
1070
     2
1040
-23.349999999999909
1040
0.4535533905931802
1040
0.25
1040
6.2831853071795791
1040
7.0685834705770247
1070
     0
1070
     1
1040
-23.173223304703271
1040
0.276776695296545
1040
-23.449999999999811
1040
0.0
1070
     1
1040
-23.449999999999811
1040
0.0
1040
-23.773223300977889
1040
0.3232233047033632
1070
     2
1040
-23.949999996274521
1040
0.1464466094067249
1040
0.250000000000002
1040
0.7853981633974483
1040
2.3561944901923439
1070
     1
1070
     1
1040
-24.126776691571159
1040
0.3232233047033632
1040
-24.449999999999822
1040
0.0
1070
     1
1040
-24.449999999999822
1040
0.0
1040
-24.773223300977889
1040
0.3232233047033632
1070
     2
1040
-24.949999996274521
1040
0.1464466094067249
1040
0.250000000000002
1040
0.7853981633974483
1040
2.3561944901923439
1070
     1
1070
     1
1040
-25.126776691571159
1040
0.3232233047033632
1040
-25.449999999999822
1040
0.0
1070
     1
1040
-25.449999999999822
1040
0.0
1040
-25.773223300977889
1040
0.3232233047033632
1070
     2
1040
-25.949999996274521
1040
0.1464466094067249
1040
0.250000000000002
1040
0.7853981633974483
1040
2.3561944901923439
1070
     1
1070
     1
1040
-26.126776691571159
1040
0.3232233047033632
1040
-26.449999999999811
1040
0.0
1070
     1
1040
-26.449999999999811
1040
0.0
1040
-26.773223300977889
1040
0.3232233047033632
1070
     2
1040
-26.949999996274521
1040
0.1464466094067249
1040
0.250000000000002
1040
0.7853981633974483
1040
2.3561944901923439
1070
     1
1070
     1
1040
-27.126776691571159
1040
0.3232233047033632
1040
-27.449999999999811
1040
0.0
1070
     1
1040
-27.449999999999811
1040
0.0
1040
-27.773223300977879
1040
0.3232233047033632
1070
     2
1040
-27.949999996274531
1040
0.1464466094067249
1040
0.250000000000002
1040
0.7853981633974483
1040
2.3561944901923439
1070
     1
1070
     1
1040
-28.126776691571159
1040
0.3232233047033632
1040
-28.449999999999811
1040
0.0
1070
     1
1040
-28.449999999999811
1040
0.0
1040
-28.773223300977879
1040
0.3232233047033632
1070
     2
1040
-28.949999996274531
1040
0.1464466094067249
1040
0.250000000000002
1040
0.7853981633974483
1040
2.3561944901923439
1070
     1
1070
     1
1040
-29.126776691571159
1040
0.3232233047033632
1040
-29.449999999999822
1040
0.0
1070
     1
1040
-29.449999999999822
1040
0.0
1040
-29.773223300977889
1040
0.3232233047033632
1070
     2
1040
-29.949999996274521
1040
0.1464466094067249
1040
0.250000000000002
1040
0.7853981633974483
1040
2.3561944901923439
1070
     1
1070
     1
1040
-30.126776691571159
1040
0.3232233047033632
1040
-30.449999999999822
1040
0.0
1070
     1
1040
-30.449999999999822
1040
0.0
1040
-30.726776695296358
1040
0.2767766952965439
1070
     2
1040
-30.549999999999731
1040
0.4535533905931791
1040
0.2499999999999998
1040
2.3561944901923528
1040
3.1415926535898002
1070
     0
1070
     1
1040
-30.79999999999972
1040
0.4535533905931808
1040
-30.79999999999972
1040
9.5122359866678075
1070
     2
1040
-31.29999999999972
1040
9.5122359866678075
1040
0.4999999999999965
1040
0.0
1040
1.6929693744345029
1070
     1
1070
     1
1040
-31.360934671702299
1040
10.008509062488461
1040
-42.13906532829715
1040
8.6851210224643332
1070
     2
1040
-42.199999999999719
1040
9.1813940982849953
1040
0.5000000000000006
1040
1.4486232791553031
1040
3.1415926535897891
1070
     0
1070
     1
1040
-42.699999999999719
1040
9.1813940982849935
1040
-42.699999999999719
1040
10.20436887116769
1070
     2
1040
-42.449999999999719
1040
10.20436887116769
1040
0.25
1040
3.1415926535898002
1040
4.5204027626653893
1070
     0
1070
     1
1040
-42.497702248843837
1040
10.449775667029609
1040
-41.229763100685709
1040
10.696238070616319
1070
     1
1040
-41.229763100685709
1040
10.696238070616319
1040
-40.850804404412351
1040
10.440627202448439
1070
     2
1040
-40.711006178544672
1040
10.647886595587201
1040
0.2500000000000003
1040
4.1189770347066199
1040
5.6897733615015209
1070
     1
1070
     1
1040
-40.503746785405909
1040
10.508088369719511
1040
-40.248135917238052
1040
10.88704706599286
1070
     1
1040
-40.248135917238052
1040
10.88704706599286
1040
-39.869177220964701
1040
10.631436197824989
1070
     2
1040
-39.729378995097008
1040
10.83869559096375
1040
0.2500000000000003
1040
4.1189770347066199
1040
5.6897733615015209
1070
     1
1070
     1
1040
-39.522119601958252
1040
10.698897365096061
1040
-39.266508733790381
1040
11.07785606136941
1070
     1
1040
-39.266508733790381
1040
11.07785606136941
1040
-38.887550037517038
1040
10.82224519320153
1070
     2
1040
-38.747751811649358
1040
11.029504586340289
1040
0.2500000000000003
1040
4.1189770347066199
1040
5.6897733615015209
1070
     1
1070
     1
1040
-38.540492418510588
1040
10.88970636047261
1040
-38.28488155034271
1040
11.268665056745951
1070
     1
1040
-38.28488155034271
1040
11.268665056745951
1040
-37.905922854069367
1040
11.013054188578071
1070
     2
1040
-37.76612462820168
1040
11.220313581716839
1040
0.2500000000000003
1040
4.1189770347066199
1040
5.6897733615015209
1070
     1
1070
     1
1040
-37.558865235062918
1040
11.080515355849149
1040
-37.303254366895047
1040
11.4594740521225
1070
     1
1040
-37.303254366895047
1040
11.4594740521225
1040
-36.924295670621717
1040
11.203863183954621
1070
     2
1040
-36.784497444754031
1040
11.41112257709338
1040
0.2500000000000003
1040
4.1189770347066199
1040
5.6897733615015209
1070
     1
1070
     1
1040
-36.577238051615268
1040
11.271324351225701
1040
-36.32162718344739
1040
11.650283047499039
1070
     1
1040
-36.32162718344739
1040
11.650283047499039
1040
-35.942668487174053
1040
11.39467217933117
1070
     2
1040
-35.80287026130636
1040
11.60193157246993
1040
0.2500000000000003
1040
4.1189770347066199
1040
5.6897733615015387
1070
     1
1070
     1
1040
-35.595610868167597
1040
11.462133346602251
1040
-35.339999999999669
1040
11.84109204287569
1070
     1
1040
-35.339999999999669
1040
11.84109204287569
1040
-30.799999999999731
1040
12.72357864636092
1070
     1
1040
-30.799999999999731
1040
12.72357864636092
1040
-30.79999999999972
1040
14.53010576291482
1070
     2
1040
-31.04999999999972
1040
14.53010576291482
1040
0.2500000000000035
1040
0.0
1040
1.6929693744344889
1070
     1
1070
     1
1040
-31.080467335851012
1040
14.77824230082515
1040
-42.419532664148427
1040
13.38598014344082
1070
     2
1040
-42.449999999999712
1040
13.63411668135114
1040
0.2499999999999976
1040
1.448623279155302
1040
3.1415926535898002
1070
     0
1070
     1
1040
-42.699999999999719
1040
13.63411668135115
1040
-42.699999999999719
1040
14.62194715576277
1070
     2
1040
-42.199999999999733
1040
14.621947155762779
1040
0.4999999999999929
1040
3.141592653589786
1040
4.5902159327450951
1070
     0
1070
     1
1040
-42.260934671702302
1040
15.118220231583431
1040
-30.79999999999972
1040
16.52544606278531
1070
     1
1040
-30.79999999999972
1040
16.52544606278531
1040
-30.79999999999972
1040
19.250704155516111
1070
     2
1040
-31.04999999999972
1040
19.250704155516111
1040
0.25
1040
0.0
1040
0.5235987755983135
1070
     1
1071
        1
1005
54A
1070
     0
1070
     0
1040
0.7853981633974483
1040
1.1999999999999991
1070
     0
1070
     1
1040
0.7853981633974483
1040
0.0
1040
0.0
1040
-0.8485281374238569
1040
0.8485281374238569
1070
     0
1071
        1
1040
0.0
1040
0.0
1040
0.0
1002
}
  0
POLYLINE
  5
AAE
  8
5
 66
     1
 10
0.0
 20
0.0
 30
0.0
 70
     1
  0
VERTEX
  5
CC7
  8
5
 10
-101.19259209153211
 20
3.4341812528797391
 30
0.0
  0
VERTEX
  5
CC8
  8
5
 10
-101.19259209153211
 20
5.9069808851106407
 30
0.0
  0
VERTEX
  5
CC9
  8
5
 10
-109.76934797437229
 20
5.9069808851106416
 30
0.0
  0
VERTEX
  5
CCA
  8
5
 10
-109.76934797437229
 20
5.3374641721864569
 30
0.0
  0
VERTEX
  5
CCB
  8
5
 10
-109.392351706078
 20
5.3374641721864569
 30
0.0
  0
VERTEX
  5
CCC
  8
5
 10
-108.405034890518
 20
5.1071981020509147
 30
0.0
 42
-0.2953866124693408
  0
VERTEX
  5
CCD
  8
5
 10
-106.37487226765791
 20
3.4341812528797391
 30
0.0
  0
SEQEND
  5
CCE
  8
5
  0
POLYLINE
  5
AB2
  8
5
 66
     1
 10
0.0
 20
0.0
 30
0.0
  0
VERTEX
  5
CCF
  8
5
 10
-105.4809700329522
 20
5.9069808851106407
 30
0.0
  0
VERTEX
  5
CD0
  8
5
 10
-105.7309700329522
 20
22.102031097548721
 30
0.0
  0
VERTEX
  5
CD1
  8
5
 10
-104.0309700329522
 20
22.102031097548721
 30
0.0
  0
VERTEX
  5
CD2
  8
5
 10
-104.2809700329522
 20
5.9069808851106407
 30
0.0
  0
SEQEND
  5
CD3
  8
5
  0
INSERT
  5
AC4
  8
5
  6
CONTINUOUS
  2
*U12
 10
0.0
 20
0.0
 30
0.0
1001
ACAD
1002
{
1000
R14_HATCH_DATA
1000
AC4
1011
1.0
1021
0.0
1031
0.0
1021
0.0
1031
0.0
1011
0.0
1021
0.0
1031
0.0
1021
1.0
1031
0.0
1011
0.0
1021
0.0
1031
0.0
1021
0.0
1031
1.0
1040
0.0
1010
0.0
1020
0.0
1030
1.0
1000
SOLID
1070
     1
1070
     1
1071
        2
1071
        7
1070
     0
1070
     1
1071
        4
1040
-104.0309700329522
1040
22.102031097548721
1040
-105.7309700329522
1040
22.102031097548721
1040
-105.4809700329522
1040
5.9069808851106407
1040
-104.2809700329522
1040
5.9069808851106407
1071
        2
1005
AB2
1005
AAE
1071
        7
1070
     1
1070
     1
1071
        7
1040
-101.19259209153211
1040
5.9069808851106398
1040
0.0
1040
-109.76934797437229
1040
5.9069808851106407
1040
0.0
1040
-109.76934797437229
1040
5.3374641721864569
1040
0.0
1040
-109.392351706078
1040
5.3374641721864569
1040
0.0
1040
-108.405034890518
1040
5.1071981020509156
1040
-0.2953866124693408
1040
-106.37487226765791
1040
3.4341812528797391
1040
0.0
1040
-101.19259209153211
1040
3.4341812528797391
1040
0.0
1071
        1
1005
AAE
1070
     0
1070
     1
1040
0.1027379004985955
1071
        2
1040
-104.808431960462
1040
12.517766443178139
1040
0.0
1040
-104.5000607475157
1040
4.6069481251221021
1040
0.0
1002
}
  0
VIEWPORT
  5
22
 67
     1
  8
0
 10
210.0
 20
170.2366863905325
 30
0.0
 40
420.0
 41
340.47337278106511
 68
     1
 69
     1
1001
ACAD
1000
MVIEW
1002
{
1070
    16
1010
0.0
1020
0.0
1030
0.0
1010
0.0
1020
0.0
1030
1.0
1040
0.0
1040
340.47337278106511
1040
210.0
1040
170.2366863905325
1040
50.0
1040
0.0
1040
0.0
1070
     0
1070
   100
1070
     1
1070
     1
1070
     0
1070
     0
1070
     0
1070
     0
1040
0.0
1040
0.0
1040
0.0
1040
5.0
1040
5.0
1040
10.0
1040
10.0
1070
     0
1002
{
1002
}
1002
}
  0
ENDSEC
  0
EOF
