  0
SECTION
  2
HEADER
  9
$ACADVER
  1
AC1009
  9
$INSBASE
 10
0.0
 20
0.0
 30
0.0
  9
$EXTMIN
 10
-107.420057147455
 20
-16.69430694209268
 30
0.0
  9
$EXTMAX
 10
13.65989439923737
 20
33.930324331516879
 30
0.0
  9
$LIMMIN
 10
-150.0
 20
-150.0
  9
$LIMMAX
 10
150.0
 20
150.0
  9
$ORTHOMODE
 70
     0
  9
$REGENMODE
 70
     1
  9
$FILLMODE
 70
     1
  9
$QTEXTMODE
 70
     0
  9
$MIRRTEXT
 70
     0
  9
$DRAGMODE
 70
     2
  9
$LTSCALE
 40
4.0
  9
$OSMODE
 70
   111
  9
$ATTMODE
 70
     1
  9
$TEXTSIZE
 40
3.5
  9
$TRACEWID
 40
1.0
  9
$TEXTSTYLE
  7
BESCHLAG
  9
$CLAYER
  8
0
  9
$CELTYPE
  6
BYLAYER
  9
$CECOLOR
 62
   256
  9
$DIMSCALE
 40
1.0
  9
$DIMASZ
 40
2.0
  9
$DIMEXO
 40
2.0
  9
$DIMDLI
 40
0.0
  9
$DIMRND
 40
0.0
  9
$DIMDLE
 40
1.0
  9
$DIMEXE
 40
1.0
  9
$DIMTP
 40
0.0
  9
$DIMTM
 40
0.0
  9
$DIMTXT
 40
3.5
  9
$DIMCEN
 40
0.0
  9
$DIMTSZ
 40
0.0
  9
$DIMTOL
 70
     0
  9
$DIMLIM
 70
     0
  9
$DIMTIH
 70
     0
  9
$DIMTOH
 70
     0
  9
$DIMSE1
 70
     0
  9
$DIMSE2
 70
     0
  9
$DIMTAD
 70
     1
  9
$DIMZIN
 70
     8
  9
$DIMBLK
  1

  9
$DIMASO
 70
     1
  9
$DIMSHO
 70
     1
  9
$DIMPOST
  1

  9
$DIMAPOST
  1

  9
$DIMALT
 70
     0
  9
$DIMALTD
 70
     2
  9
$DIMALTF
 40
0.039370078740157
  9
$DIMLFAC
 40
1.0
  9
$DIMTOFL
 70
     1
  9
$DIMTVP
 40
0.0
  9
$DIMTIX
 70
     1
  9
$DIMSOXD
 70
     0
  9
$DIMSAH
 70
     1
  9
$DIMBLK1
  1
OBLIQUE
  9
$DIMBLK2
  1
OBLIQUE
  9
$DIMSTYLE
  2
OPO-SSTRICH
  9
$DIMCLRD
 70
   256
  9
$DIMCLRE
 70
   256
  9
$DIMCLRT
 70
   256
  9
$DIMTFAC
 40
0.7114285714285716
  9
$DIMGAP
 40
1.0
  9
$LUNITS
 70
     2
  9
$LUPREC
 70
     1
  9
$SKETCHINC
 40
1.0
  9
$FILLETRAD
 40
0.0
  9
$AUNITS
 70
     0
  9
$AUPREC
 70
     1
  9
$MENU
  1
D:\ACL_CGWG\CGTAB13
  9
$ELEVATION
 40
0.0
  9
$PELEVATION
 40
0.0
  9
$THICKNESS
 40
0.0
  9
$LIMCHECK
 70
     0
  9
$BLIPMODE
 70
     0
  9
$CHAMFERA
 40
1.0
  9
$CHAMFERB
 40
1.0
  9
$SKPOLY
 70
     0
  9
$TDCREATE
 40
2451739.890044305
  9
$TDUPDATE
 40
2452087.620372985
  9
$TDINDWG
 40
0.0010900116
  9
$TDUSRTIMER
 40
0.0010900116
  9
$USRTIMER
 70
     1
  9
$ANGBASE
 50
0.0
  9
$ANGDIR
 70
     0
  9
$PDMODE
 70
    35
  9
$PDSIZE
 40
5.0
  9
$PLINEWID
 40
0.0
  9
$COORDS
 70
     1
  9
$SPLFRAME
 70
     0
  9
$SPLINETYPE
 70
     6
  9
$SPLINESEGS
 70
     8
  9
$ATTDIA
 70
     1
  9
$ATTREQ
 70
     1
  9
$HANDLING
 70
-16383
  9
$HANDSEED
  5
542
  9
$SURFTAB1
 70
    12
  9
$SURFTAB2
 70
    12
  9
$SURFTYPE
 70
     6
  9
$SURFU
 70
    12
  9
$SURFV
 70
    12
  9
$UCSNAME
  2

  9
$UCSORG
 10
0.0
 20
0.0
 30
0.0
  9
$UCSXDIR
 10
1.0
 20
0.0
 30
0.0
  9
$UCSYDIR
 10
0.0
 20
1.0
 30
0.0
  9
$PUCSNAME
  2

  9
$PUCSORG
 10
0.0
 20
0.0
 30
0.0
  9
$PUCSXDIR
 10
1.0
 20
0.0
 30
0.0
  9
$PUCSYDIR
 10
0.0
 20
1.0
 30
0.0
  9
$USERI1
 70
     0
  9
$USERI2
 70
     0
  9
$USERI3
 70
     0
  9
$USERI4
 70
     0
  9
$USERI5
 70
     0
  9
$USERR1
 40
0.0
  9
$USERR2
 40
0.0
  9
$USERR3
 40
0.0
  9
$USERR4
 40
0.0
  9
$USERR5
 40
0.0
  9
$WORLDVIEW
 70
     1
  9
$SHADEDGE
 70
     3
  9
$SHADEDIF
 70
    70
  9
$TILEMODE
 70
     1
  9
$MAXACTVP
 70
    48
  9
$PLIMCHECK
 70
     0
  9
$PEXTMIN
 10
1.0000000000000000E+020
 20
1.0000000000000000E+020
 30
1.0000000000000000E+020
  9
$PEXTMAX
 10
-1.0000000000000000E+020
 20
-1.0000000000000000E+020
 30
-1.0000000000000000E+020
  9
$PLIMMIN
 10
0.0
 20
0.0
  9
$PLIMMAX
 10
420.0
 20
297.0
  9
$UNITMODE
 70
     0
  9
$VISRETAIN
 70
     1
  9
$PLINEGEN
 70
     0
  9
$PSLTSCALE
 70
     1
  0
ENDSEC
  0
SECTION
  2
TABLES
  0
TABLE
  2
VPORT
 70
     2
  0
VPORT
  2
*ACTIVE
 70
     0
 10
0.0
 20
0.0
 11
1.0
 21
1.0
 12
-46.886443447887928
 22
9.9038071127717053
 13
0.0
 23
0.0
 14
0.5
 24
0.5
 15
10.0
 25
10.0
 16
0.0
 26
0.0
 36
1.0
 17
0.0
 27
0.0
 37
0.0
 40
75.783189164232752
 41
1.6070460704607039
 42
50.0
 43
0.0
 44
0.0
 50
0.0
 51
0.0
 71
     0
 72
   800
 73
     1
 74
     1
 75
     0
 76
     0
 77
     0
 78
     0
  0
ENDTAB
  0
TABLE
  2
LTYPE
 70
     2
  0
LTYPE
  2
CONTINUOUS
 70
     0
  3
_______________________________________________
 72
    65
 73
     2
 40
1.0
 49
1.0
 49
0.0
  0
LTYPE
  2
STRICHPUNKT
 70
     0
  3
__ . __ . __ . __ . __ . __ . __ . __ . __ . __
 72
    65
 73
     4
 40
1.0
 49
0.5
 49
-0.25
 49
0.0
 49
-0.25
  0
ENDTAB
  0
TABLE
  2
LAYER
 70
     7
  0
LAYER
  2
0
 70
     0
 62
    30
  6
CONTINUOUS
  0
LAYER
  2
1
 70
     0
 62
     2
  6
CONTINUOUS
  0
LAYER
  2
2
 70
     0
 62
     9
  6
CONTINUOUS
  0
LAYER
  2
4
 70
     1
 62
     4
  6
CONTINUOUS
  0
LAYER
  2
5
 70
     0
 62
     1
  6
CONTINUOUS
  0
LAYER
  2
6
 70
     0
 62
     3
  6
CONTINUOUS
  0
LAYER
  2
DEFPOINTS
 70
     0
 62
     7
  6
CONTINUOUS
  0
ENDTAB
  0
TABLE
  2
STYLE
 70
     2
  0
STYLE
  2
STANDARD
 70
     0
 40
0.0
 41
1.0
 50
0.0
 71
     0
 42
2.5
  3
txt
  4

  0
STYLE
  2
BESCHLAG
 70
     0
 40
0.0
 41
1.0
 50
0.0
 71
     0
 42
3.5
  3
txt
  4

  0
ENDTAB
  0
TABLE
  2
VIEW
 70
     0
  0
ENDTAB
  0
TABLE
  2
UCS
 70
     0
  0
ENDTAB
  0
TABLE
  2
APPID
 70
     1
  0
APPID
  2
ACAD
 70
     0
  0
ENDTAB
  0
TABLE
  2
DIMSTYLE
 70
     1
  0
DIMSTYLE
  2
OPO-SSTRICH
 70
     0
  3

  4

  5

  6
OBLIQUE
  7
OBLIQUE
 40
1.0
 41
2.0
 42
2.0
 43
0.0
 44
1.0
 45
0.0
 46
1.0
 47
0.0
 48
0.0
140
3.5
141
0.0
142
0.0
143
0.039370078740157
144
1.0
145
0.0
146
0.7114285714285716
147
1.0
 71
     0
 72
     0
 73
     0
 74
     0
 75
     0
 76
     0
 77
     1
 78
     8
170
     0
171
     2
172
     1
173
     1
174
     1
175
     0
176
   256
177
   256
178
   256
  0
ENDTAB
  0
ENDSEC
  0
SECTION
  2
BLOCKS
  0
BLOCK
  8
0
  2
$MODEL_SPACE
 70
     0
 10
0.0
 20
0.0
 30
0.0
  3
$MODEL_SPACE
  1

  0
ENDBLK
  5
1C
  8
0
  0
BLOCK
 67
     1
  8
0
  2
$PAPER_SPACE
 70
     0
 10
0.0
 20
0.0
 30
0.0
  3
$PAPER_SPACE
  1

  0
ENDBLK
  5
19
 67
     1
  8
0
  0
BLOCK
  8
0
  2
_OBLIQUE
 70
     0
 10
0.0
 20
0.0
 30
0.0
  3
_OBLIQUE
  1

  0
LINE
  5
204
  8
0
 62
     0
 10
-0.5
 20
-0.5
 30
0.0
 11
0.5
 21
0.5
 31
0.0
  0
ENDBLK
  5
206
  8
0
  0
BLOCK
  8
0
  2
NULLPUNKT
 70
     0
 10
0.0
 20
0.0
 30
0.0
  3
NULLPUNKT
  1

  0
SOLID
  5
254
  8
5
 10
0.0
 20
0.0
 30
0.0
 11
2.0
 21
0.0
 31
0.0
 12
0.0
 22
-2.0
 32
0.0
 13
0.0
 23
-2.0
 33
0.0
  0
SOLID
  5
255
  8
5
 10
0.0
 20
0.0
 30
0.0
 11
-2.0
 21
0.0
 31
0.0
 12
0.0
 22
2.0
 32
0.0
 13
0.0
 23
2.0
 33
0.0
  0
POLYLINE
  5
256
  8
5
 66
     1
 10
0.0
 20
0.0
 30
0.0
  0
VERTEX
  5
433
  8
5
 10
0.0
 20
2.0
 30
0.0
  0
VERTEX
  5
434
  8
5
 10
0.0
 20
-2.0
 30
0.0
  0
SEQEND
  5
435
  8
5
  0
POLYLINE
  5
257
  8
5
 66
     1
 10
0.0
 20
0.0
 30
0.0
  0
VERTEX
  5
436
  8
5
 10
-2.0
 20
0.0
 30
0.0
  0
VERTEX
  5
437
  8
5
 10
2.0
 20
0.0
 30
0.0
  0
SEQEND
  5
438
  8
5
  0
CIRCLE
  5
258
  8
5
 10
0.0
 20
0.0
 30
0.0
 40
2.0
  0
ENDBLK
  5
25A
  8
0
  0
BLOCK
  8
0
  2
*X2
 70
     1
 10
0.0
 20
0.0
 30
0.0
  3
*X2
  1

  0
LINE
  5
292
  8
0
 62
     0
 10
810.90838779195769
 20
-237.8723900639292
 30
0.0
 11
814.51739857659516
 21
-234.2633792792918
 31
0.0
  0
LINE
  5
293
  8
0
 62
     0
 10
808.94196511726307
 20
-238.14175646377629
 30
0.0
 11
811.72486410311831
 21
-235.35885747792111
 31
0.0
  0
LINE
  5
294
  8
0
 62
     0
 10
806.97554244256821
 20
-238.41112286362329
 30
0.0
 11
809.75999099659407
 21
-235.62667430959749
 31
0.0
  0
LINE
  5
295
  8
0
 62
     0
 10
805.0091197678737
 20
-238.68048926347029
 30
0.0
 11
807.79511789007017
 21
-235.89449114127379
 31
0.0
  0
LINE
  5
296
  8
0
 62
     0
 10
803.04269709317896
 20
-238.94985566331729
 30
0.0
 11
805.83024478354616
 21
-236.16230797295009
 31
0.0
  0
LINE
  5
297
  8
0
 62
     0
 10
801.0762744184841
 20
-239.2192220631643
 30
0.0
 11
803.86537167702204
 21
-236.4301248046265
 31
0.0
  0
LINE
  5
298
  8
0
 62
     0
 10
799.10985174378948
 20
-239.4885884630113
 30
0.0
 11
801.90049857049792
 21
-236.6979416363028
 31
0.0
  0
LINE
  5
299
  8
0
 62
     0
 10
797.14342906909474
 20
-239.7579548628583
 30
0.0
 11
799.93562546397391
 21
-236.96575846797921
 31
0.0
  0
LINE
  5
29A
  8
0
 62
     0
 10
795.1770063944
 20
-240.0273212627053
 30
0.0
 11
797.97075235745001
 21
-237.23357529965551
 31
0.0
  0
LINE
  5
29B
  8
0
 62
     0
 10
793.21058371970526
 20
-240.2966876625523
 30
0.0
 11
796.00587925092589
 21
-237.50139213133181
 31
0.0
  0
LINE
  5
29C
  8
0
 62
     0
 10
791.2441610450104
 20
-240.56605406239939
 30
0.0
 11
794.04100614440165
 21
-237.7692089630082
 31
0.0
  0
LINE
  5
29D
  8
0
 62
     0
 10
789.27773837031577
 20
-240.8354204622463
 30
0.0
 11
792.07613303787775
 21
-238.0370257946845
 31
0.0
  0
LINE
  5
29E
  8
0
 62
     0
 10
787.31131569562115
 20
-241.10478686209331
 30
0.0
 11
790.11125993135363
 21
-238.30484262636091
 31
0.0
  0
LINE
  5
29F
  8
0
 62
     0
 10
785.34489302092652
 20
-241.37415326194039
 30
0.0
 11
788.14638682482973
 21
-238.57265945803721
 31
0.0
  0
LINE
  5
2A0
  8
0
 62
     0
 10
783.37847034623155
 20
-241.64351966178731
 30
0.0
 11
787.14167703931025
 21
-237.88031296870889
 31
0.0
  0
LINE
  5
2A1
  8
0
 62
     0
 10
781.41204767153693
 20
-241.9128860616344
 30
0.0
 11
785.16824610061371
 21
-238.15668763255761
 31
0.0
  0
LINE
  5
2A2
  8
0
 62
     0
 10
779.4456249968423
 20
-242.1822524614814
 30
0.0
 11
783.19481516191718
 21
-238.43306229640649
 31
0.0
  0
LINE
  5
2A3
  8
0
 62
     0
 10
777.47920232214756
 20
-242.4516188613284
 30
0.0
 11
781.22138422322064
 21
-238.7094369602554
 31
0.0
  0
LINE
  5
2A4
  8
0
 62
     0
 10
775.51277964745293
 20
-242.7209852611754
 30
0.0
 11
779.24795328452399
 21
-238.9858116241042
 31
0.0
  0
LINE
  5
2A5
  8
0
 62
     0
 10
769.08554997269198
 20
-247.4511586610887
 30
0.0
 11
770.77881333991525
 21
-245.7578952938652
 31
0.0
  0
LINE
  5
2A6
  8
0
 62
     0
 10
773.37910108206529
 20
-243.15760755171519
 30
0.0
 11
777.27452234582745
 21
-239.262186287953
 31
0.0
  0
LINE
  5
2A7
  8
0
 62
     0
 10
768.1774933356154
 20
-246.6621590233172
 30
0.0
 11
775.30109140713103
 21
-239.53856095180171
 31
0.0
  0
LINE
  5
2A8
  8
0
 62
     0
 10
768.89037198864264
 20
-244.2522240954425
 30
0.0
 11
772.14934981969691
 21
-240.9932462643882
 31
0.0
  0
LINE
  5
2A9
  8
0
 62
     0
 10
772.44836409936192
 20
-240.6942319847231
 30
0.0
 11
773.25556627857384
 21
-239.8870298055113
 31
0.0
  0
LINE
  5
2AA
  8
0
 62
     0
 10
769.06494488066949
 20
-242.38059492856789
 30
0.0
 11
769.23443866480466
 21
-242.21110114443269
 31
0.0
  0
LINE
  5
2AB
  8
0
 62
     0
 10
812.87481046665255
 20
-237.60302366408229
 30
0.0
 11
816.49082951529169
 21
-233.987004615443
 31
0.0
  0
LINE
  5
2AC
  8
0
 62
     0
 10
814.84123314134706
 20
-237.3336572642352
 30
0.0
 11
818.46426045398846
 21
-233.710629951594
 31
0.0
  0
LINE
  5
2AD
  8
0
 62
     0
 10
816.8076558160418
 20
-237.0642908643882
 30
0.0
 11
820.437691392685
 21
-233.43425528774529
 31
0.0
  0
LINE
  5
2AE
  8
0
 62
     0
 10
818.77407849073666
 20
-236.7949244645412
 30
0.0
 11
821.5492296357387
 21
-234.0197733195393
 31
0.0
  0
LINE
  5
2AF
  8
0
 62
     0
 10
820.7405011654314
 20
-236.5255580646942
 30
0.0
 11
823.51333397056806
 21
-233.75272525955731
 31
0.0
  0
LINE
  5
2B0
  8
0
 62
     0
 10
822.70692384012614
 20
-236.25619166484719
 30
0.0
 11
825.47266439813029
 21
-233.49045110684301
 31
0.0
  0
LINE
  5
2B1
  8
0
 62
     0
 10
824.67334651482065
 20
-235.98682526500019
 30
0.0
 11
827.4319948256923
 21
-233.22817695412871
 31
0.0
  0
LINE
  5
2B2
  8
0
 62
     0
 10
826.6397691895155
 20
-235.71745886515319
 30
0.0
 11
829.39132525325442
 21
-232.96590280141439
 31
0.0
  0
LINE
  5
2B3
  8
0
 62
     0
 10
828.60619186421025
 20
-235.44809246530619
 30
0.0
 11
831.35065568081654
 21
-232.7036286487
 31
0.0
  0
LINE
  5
2B4
  8
0
 62
     0
 10
848.13749050564161
 20
-215.916793823875
 30
0.0
 11
849.60312566842788
 21
-214.4511586610887
 31
0.0
  0
LINE
  5
2B5
  8
0
 62
     0
 10
830.57261453890499
 20
-235.17872606545919
 30
0.0
 11
833.30998610837844
 21
-232.44135449598571
 31
0.0
  0
LINE
  5
2B6
  8
0
 62
     0
 10
848.28213706657459
 20
-217.4692035377895
 30
0.0
 11
851.30018194327545
 21
-214.4511586610887
 31
0.0
  0
LINE
  5
2B7
  8
0
 62
     0
 10
832.53903721359973
 20
-234.9093596656121
 30
0.0
 11
835.26931653594056
 21
-232.17908034327141
 31
0.0
  0
LINE
  5
2B8
  8
0
 62
     0
 10
851.49723821812336
 20
-215.9511586610887
 30
0.0
 11
852.99723821812324
 21
-214.4511586610887
 31
0.0
  0
LINE
  5
2B9
  8
0
 62
     0
 10
834.50545988829435
 20
-234.63999326576521
 30
0.0
 11
837.22864696350246
 21
-231.91680619055711
 31
0.0
  0
LINE
  5
2BA
  8
0
 62
     0
 10
852.13749050564149
 20
-217.00796264841799
 30
0.0
 11
854.69429449297093
 21
-214.4511586610887
 31
0.0
  0
LINE
  5
2BB
  8
0
 62
     0
 10
836.47188256298909
 20
-234.37062686591821
 30
0.0
 11
839.18797739106446
 21
-231.6545320378427
 31
0.0
  0
LINE
  5
2BC
  8
0
 62
     0
 10
852.13749050564149
 20
-218.7050189232659
 30
0.0
 11
855.86442063673007
 21
-214.97808879217729
 31
0.0
  0
LINE
  5
2BD
  8
0
 62
     0
 10
838.43830523768395
 20
-234.1012604660711
 30
0.0
 11
841.1473078186267
 21
-231.3922578851284
 31
0.0
  0
LINE
  5
2BE
  8
0
 62
     0
 10
852.13749050564149
 20
-220.40207519811361
 30
0.0
 11
858.0884070426664
 21
-214.45115866108861
 31
0.0
  0
LINE
  5
2BF
  8
0
 62
     0
 10
840.40472791237846
 20
-233.83189406622409
 30
0.0
 11
843.10663824618848
 21
-231.1299837324141
 31
0.0
  0
LINE
  5
2C0
  8
0
 62
     0
 10
856.28546331751397
 20
-217.9511586610887
 30
0.0
 11
859.78546331751397
 21
-214.45115866108861
 31
0.0
  0
LINE
  5
2C1
  8
0
 62
     0
 10
852.13749050564149
 20
-222.0991314729612
 30
0.0
 11
854.13749050564161
 21
-220.09913147296109
 31
0.0
  0
LINE
  5
2C2
  8
0
 62
     0
 10
837.14647824543738
 20
-238.7872000080132
 30
0.0
 11
838.47353185256611
 21
-237.46014640088441
 31
0.0
  0
LINE
  5
2C3
  8
0
 62
     0
 10
857.98251959236177
 20
-217.9511586610887
 30
0.0
 11
861.06000504900192
 21
-214.87367320444881
 31
0.0
  0
LINE
  5
2C4
  8
0
 62
     0
 10
842.3711505870732
 20
-233.56252766637709
 30
0.0
 11
845.06596867375072
 21
-230.86770957969981
 31
0.0
  0
LINE
  5
2C5
  8
0
 62
     0
 10
852.13749050564149
 20
-223.796187747809
 30
0.0
 11
854.13749050564161
 21
-221.79618774780889
 31
0.0
  0
LINE
  5
2C6
  8
0
 62
     0
 10
848.13749050564161
 20
-227.79618774780889
 30
0.0
 11
849.63749050564161
 21
-226.29618774780889
 31
0.0
  0
LINE
  5
2C7
  8
0
 62
     0
 10
838.21868610707099
 20
-239.41204842122701
 30
0.0
 11
840.17957586720934
 21
-237.4511586610887
 31
0.0
  0
LINE
  5
2C8
  8
0
 62
     0
 10
859.67957586720945
 20
-217.9511586610887
 30
0.0
 11
862.90853318642553
 21
-214.72220134187259
 31
0.0
  0
LINE
  5
2C9
  8
0
 62
     0
 10
843.85765115822278
 20
-233.77308337007531
 30
0.0
 11
847.28914257934605
 21
-230.34159194895199
 31
0.0
  0
LINE
  5
2CA
  8
0
 62
     0
 10
852.13749050564149
 20
-225.4932440226566
 30
0.0
 11
854.13749050564161
 21
-223.49324402265651
 31
0.0
  0
LINE
  5
2CB
  8
0
 62
     0
 10
847.77263499500395
 20
-229.85809953329431
 30
0.0
 11
849.74744740860945
 21
-227.8832871196887
 31
0.0
  0
LINE
  5
2CC
  8
0
 62
     0
 10
839.87663214205725
 20
-239.4511586610887
 30
0.0
 11
841.87663214205725
 21
-237.4511586610887
 31
0.0
  0
LINE
  5
2CD
  8
0
 62
     0
 10
861.37663214205713
 20
-217.9511586610887
 30
0.0
 11
864.75706132384937
 21
-214.57072947929649
 31
0.0
  0
LINE
  5
2CE
  8
0
 62
     0
 10
844.13749050564172
 20
-235.19030029750431
 30
0.0
 11
851.37663214205725
 21
-227.9511586610887
 31
0.0
  0
LINE
  5
2CF
  8
0
 62
     0
 10
852.13749050564149
 20
-227.19030029750439
 30
0.0
 11
854.13749050564161
 21
-225.19030029750431
 31
0.0
  0
LINE
  5
2D0
  8
0
 62
     0
 10
841.66781310845317
 20
-239.35703396954051
 30
0.0
 11
846.18494497060817
 21
-234.8399021073854
 31
0.0
  0
LINE
  5
2D1
  8
0
 62
     0
 10
863.07368841690516
 20
-217.9511586610887
 30
0.0
 11
865.60558946127321
 21
-215.41925761672039
 31
0.0
  0
LINE
  5
2D2
  8
0
 62
     0
 10
851.07368841690504
 20
-229.95115866108861
 30
0.0
 11
854.13749050564161
 21
-226.8873565723521
 31
0.0
  0
LINE
  5
2D3
  8
0
 62
     0
 10
843.27937454086066
 20
-239.44252881198051
 30
0.0
 11
846.13749050564161
 21
-236.5844128471997
 31
0.0
  0
LINE
  5
2D4
  8
0
 62
     0
 10
864.7707446917525
 20
-217.9511586610887
 30
0.0
 11
868.10551479452283
 21
-214.6163885583185
 31
0.0
  0
LINE
  5
2D5
  8
0
 62
     0
 10
852.93788790386236
 20
-229.78401544897889
 30
0.0
 11
853.97034729353174
 21
-228.75155605930951
 31
0.0
  0
LINE
  5
2D6
  8
0
 62
     0
 10
844.97055266143548
 20
-239.44840696625349
 30
0.0
 11
845.13473881080643
 21
-239.28422081688259
 31
0.0
  0
LINE
  5
2D7
  8
0
 62
     0
 10
865.99019482516076
 20
-218.42876480252829
 30
0.0
 11
868.13749050564149
 21
-216.28146912204741
 31
0.0
  0
LINE
  5
2D8
  8
0
 62
     0
 10
845.13950261850164
 20
-239.2794570091875
 30
0.0
 11
846.13749050564161
 21
-238.2814691220475
 31
0.0
  0
LINE
  5
2D9
  8
0
 62
     0
 10
866.13749050564149
 20
-219.97852539689509
 30
0.0
 11
868.13749050564149
 21
-217.97852539689509
 31
0.0
  0
LINE
  5
2DA
  8
0
 62
     0
 10
866.13749050564149
 20
-221.67558167174289
 30
0.0
 11
868.13749050564149
 21
-219.6755816717428
 31
0.0
  0
LINE
  5
2DB
  8
0
 62
     0
 10
866.13749050564149
 20
-223.37263794659069
 30
0.0
 11
868.13749050564149
 21
-221.3726379465906
 31
0.0
  0
LINE
  5
2DC
  8
0
 62
     0
 10
866.13749050564149
 20
-225.06969422143831
 30
0.0
 11
868.13749050564149
 21
-223.0696942214382
 31
0.0
  0
LINE
  5
2DD
  8
0
 62
     0
 10
866.13749050564149
 20
-226.76675049628611
 30
0.0
 11
868.13749050564149
 21
-224.76675049628599
 31
0.0
  0
LINE
  5
2DE
  8
0
 62
     0
 10
866.13749050564149
 20
-228.4638067711337
 30
0.0
 11
868.13749050564149
 21
-226.46380677113359
 31
0.0
  0
LINE
  5
2DF
  8
0
 62
     0
 10
866.13749050564149
 20
-230.1608630459815
 30
0.0
 11
868.13749050564149
 21
-228.16086304598139
 31
0.0
  0
LINE
  5
2E0
  8
0
 62
     0
 10
859.14058724925951
 20
-238.85482257721131
 30
0.0
 11
860.54115442176408
 21
-237.4542554047066
 31
0.0
  0
LINE
  5
2E1
  8
0
 62
     0
 10
866.13749050564149
 20
-231.8579193208293
 30
0.0
 11
868.13749050564149
 21
-229.85791932082921
 31
0.0
  0
LINE
  5
2E2
  8
0
 62
     0
 10
860.25784856044072
 20
-239.43461754087781
 30
0.0
 11
862.24130744022966
 21
-237.4511586610887
 31
0.0
  0
LINE
  5
2E3
  8
0
 62
     0
 10
866.13749050564149
 20
-233.55497559567689
 30
0.0
 11
868.13749050564149
 21
-231.55497559567681
 31
0.0
  0
LINE
  5
2E4
  8
0
 62
     0
 10
861.93836371507734
 20
-239.4511586610887
 30
0.0
 11
863.93836371507746
 21
-237.4511586610887
 31
0.0
  0
LINE
  5
2E5
  8
0
 62
     0
 10
866.13749050564149
 20
-235.2520318705246
 30
0.0
 11
868.13749050564149
 21
-233.2520318705246
 31
0.0
  0
LINE
  5
2E6
  8
0
 62
     0
 10
863.69503768078675
 20
-239.3915409702272
 30
0.0
 11
865.63541998992525
 21
-237.4511586610887
 31
0.0
  0
LINE
  5
2E7
  8
0
 62
     0
 10
866.13749050564149
 20
-236.94908814537229
 30
0.0
 11
868.13749050564149
 21
-234.9490881453722
 31
0.0
  0
LINE
  5
2E8
  8
0
 62
     0
 10
865.33247626477294
 20
-239.4511586610887
 30
0.0
 11
868.13749050564149
 21
-236.64614442022
 31
0.0
  0
LINE
  5
2E9
  8
0
 62
     0
 10
867.15279706506465
 20
-239.32789413564481
 30
0.0
 11
868.13749050564149
 21
-238.34320069506771
 31
0.0
  0
ENDBLK
  5
2EB
  8
0
  0
BLOCK
  8
0
  2
*D3
 70
     1
 10
0.0
 20
0.0
 30
0.0
  3
*D3
  1

  0
LINE
  5
350
  8
1
 10
-23.000000000000341
 20
4.9705341727740233
 30
0.0
 11
-23.000000000000341
 21
-12.652600376446109
 31
0.0
  0
LINE
  5
351
  8
1
 10
-100.0
 20
-10.0
 30
0.0
 11
-100.0
 21
-12.652600376446109
 31
0.0
  0
LINE
  5
352
  8
1
 10
-22.000000000000341
 20
-11.652600376446109
 30
0.0
 11
-101.0
 21
-11.652600376446109
 31
0.0
  0
INSERT
  5
353
  8
1
  2
_OBLIQUE
 10
-23.000000000000341
 20
-11.652600376446109
 30
0.0
 41
2.0
 42
2.0
 43
2.0
  0
INSERT
  5
354
  8
1
  2
_OBLIQUE
 10
-100.0
 20
-11.652600376446109
 30
0.0
 41
2.0
 42
2.0
 43
2.0
 50
180.0
  0
TEXT
  5
355
  8
0
 10
-64.22407912687602
 20
-10.652600376446109
 30
0.0
 40
3.5
  1
77
  7
BESCHLAG
  0
POINT
  5
356
  8
DEFPOINTS
 62
     0
 10
-23.000000000000341
 20
6.9705341727740233
 30
0.0
  0
POINT
  5
357
  8
DEFPOINTS
 62
     0
 10
-100.0
 20
-8.0
 30
0.0
  0
POINT
  5
358
  8
DEFPOINTS
 62
     0
 10
-100.0
 20
-11.652600376446109
 30
0.0
  0
ENDBLK
  5
329
  8
0
  0
BLOCK
  8
0
  2
*D4
 70
     1
 10
0.0
 20
0.0
 30
0.0
  3
*D4
  1

  0
LINE
  5
359
  8
1
 10
-0.0000000000000001
 20
-2.0
 30
0.0
 11
-0.0000000000000008
 21
-12.652600376445889
 31
0.0
  0
LINE
  5
35A
  8
1
 10
-20.000000000000679
 20
-1.999999999999545
 30
0.0
 11
-20.000000000000679
 21
-12.652600376445889
 31
0.0
  0
LINE
  5
35B
  8
1
 10
0.9999999999999992
 20
-11.65260037644588
 30
0.0
 11
-21.000000000000679
 21
-11.65260037644588
 31
0.0
  0
TEXT
  5
35C
  8
0
 10
-9.2065020157192663
 20
-9.8727572659411145
 30
0.0
 40
3.5
  1
20
  7
BESCHLAG
  0
INSERT
  5
35D
  8
1
  2
_OBLIQUE
 10
-0.0000000000000007
 20
-11.65260037644588
 30
0.0
 41
2.0
 42
2.0
 43
2.0
  0
INSERT
  5
35E
  8
1
  2
_OBLIQUE
 10
-20.000000000000679
 20
-11.65260037644588
 30
0.0
 41
2.0
 42
2.0
 43
2.0
 50
180.0
  0
POINT
  5
35F
  8
DEFPOINTS
 62
     0
 10
0.0
 20
0.0
 30
0.0
  0
POINT
  5
360
  8
DEFPOINTS
 62
     0
 10
-20.000000000000679
 20
0.0000000000004547
 30
0.0
  0
POINT
  5
361
  8
DEFPOINTS
 62
     0
 10
-20.000000000000679
 20
-11.65260037644588
 30
0.0
  0
ENDBLK
  5
335
  8
0
  0
BLOCK
  8
0
  2
*D5
 70
     1
 10
0.0
 20
0.0
 30
0.0
  3
*D5
  1

  0
LINE
  5
362
  8
1
 10
2.0
 20
-0.0000000000000006
 30
0.0
 11
13.659894399237359
 21
-0.0000000000000039
 31
0.0
  0
LINE
  5
363
  8
1
 10
2.0
 20
25.0
 30
0.0
 11
13.65989439923737
 21
25.0
 31
0.0
  0
LINE
  5
364
  8
1
 10
12.659894399237359
 20
-1.0000000000000031
 30
0.0
 11
12.65989439923737
 21
25.999999999999989
 31
0.0
  0
INSERT
  5
365
  8
1
  2
_OBLIQUE
 10
12.659894399237359
 20
-0.0000000000000036
 30
0.0
 41
2.0
 42
2.0
 43
2.0
 50
270.0
  0
INSERT
  5
366
  8
1
  2
_OBLIQUE
 10
12.65989439923737
 20
25.0
 30
0.0
 41
2.0
 42
2.0
 43
2.0
 50
90.0
  0
TEXT
  5
367
  8
0
 10
11.59304583170667
 20
9.806957708049115
 30
0.0
 40
3.5
  1
25
 50
90.0
  7
BESCHLAG
  0
POINT
  5
368
  8
DEFPOINTS
 62
     0
 10
0.0
 20
0.0
 30
0.0
  0
POINT
  5
369
  8
DEFPOINTS
 62
     0
 10
0.0
 20
25.0
 30
0.0
  0
POINT
  5
36A
  8
DEFPOINTS
 62
     0
 10
12.65989439923737
 20
25.0
 30
0.0
  0
ENDBLK
  5
341
  8
0
  0
BLOCK
  8
0
  2
*D6
 70
     1
 10
0.0
 20
0.0
 30
0.0
  3
*D6
  1

  0
LINE
  5
36B
  8
1
 10
-20.0
 20
6.9705341727740233
 30
0.0
 11
-20.0
 21
-12.652600376446109
 31
0.0
  0
LINE
  5
36C
  8
1
 10
-23.0
 20
6.9705341727740233
 30
0.0
 11
-23.0
 21
-12.652600376446109
 31
0.0
  0
LINE
  5
36D
  8
1
 10
-20.0
 20
-11.652600376446109
 30
0.0
 11
-18.0
 21
-11.652600376446109
 31
0.0
  0
LINE
  5
36E
  8
1
 10
-23.0
 20
-11.652600376446109
 30
0.0
 11
-25.0
 21
-11.652600376446109
 31
0.0
  0
LINE
  5
36F
  8
1
 10
-20.0
 20
-11.652600376446109
 30
0.0
 11
-23.0
 21
-11.652600376446109
 31
0.0
  0
INSERT
  5
370
  8
1
  2
_OBLIQUE
 10
-20.0
 20
-11.652600376446109
 30
0.0
 41
2.0
 42
2.0
 43
2.0
 50
180.0
  0
INSERT
  5
371
  8
1
  2
_OBLIQUE
 10
-23.0
 20
-11.652600376446109
 30
0.0
 41
2.0
 42
2.0
 43
2.0
  0
TEXT
  5
372
  8
0
 10
-22.851296043656209
 20
-10.583364360075031
 30
0.0
 40
3.5
  1
3
  7
BESCHLAG
  0
POINT
  5
373
  8
DEFPOINTS
 62
     0
 10
-20.0
 20
8.9705341727740233
 30
0.0
  0
POINT
  5
374
  8
DEFPOINTS
 62
     0
 10
-23.0
 20
8.9705341727740233
 30
0.0
  0
POINT
  5
375
  8
DEFPOINTS
 62
     0
 10
-23.0
 20
-11.652600376446109
 30
0.0
  0
ENDBLK
  5
34F
  8
0
  0
ENDSEC
  0
SECTION
  2
ENTITIES
  0
INSERT
  5
25B
  8
5
  2
NULLPUNKT
 10
0.0
 20
0.0
 30
0.0
  0
DIMENSION
  5
30E
  8
1
  2
*D3
 10
-100.0
 20
-11.652600376446109
 30
0.0
 11
-61.500000000000171
 21
-8.9026003764461166
 31
0.0
 70
     0
 13
-23.000000000000341
 23
6.9705341727740233
 33
0.0
 14
-100.0
 24
-8.0
 34
0.0
  0
INSERT
  5
30F
  8
2
  2
*X2
 10
-868.13749050564149
 20
239.4511586610887
 30
0.0
1001
ACAD
1000
HATCH
1002
{
1070
    16
1000
_U,I
1040
1.1999999999999991
1040
0.7853981633974483
1070
     0
1002
}
  0
POLYLINE
  5
310
  8
5
 66
     1
 10
0.0
 20
0.0
 30
0.0
  0
VERTEX
  5
439
  8
5
 10
-53.00000000000022
 20
-11.96316912996212
 30
0.0
  0
VERTEX
  5
43A
  8
5
 10
-53.00000000000022
 20
0.0
 30
0.0
  0
VERTEX
  5
43B
  8
5
 10
-107.420057147455
 20
-11.16044264222
 30
0.0
  0
SEQEND
  5
43C
  8
5
  0
POINT
  5
311
  8
5
 10
-16.0
 20
17.499999999999769
 30
0.0
  0
LINE
  5
312
  8
6
  6
STRICHPUNKT
 10
-11.80000000000018
 20
25.762450134982601
 30
0.0
 11
-11.80000000000018
 21
-16.69430694209268
 31
0.0
  0
POLYLINE
  5
313
  8
5
 66
     1
 10
0.0
 20
0.0
 30
0.0
  0
VERTEX
  5
43D
  8
5
 10
0.0
 20
-11.986154265019421
 30
0.0
  0
VERTEX
  5
43E
  8
5
 10
0.0
 20
0.0
 30
0.0
  0
VERTEX
  5
43F
  8
5
 10
-48.00000000000022
 20
0.0
 30
0.0
  0
VERTEX
  5
440
  8
5
 10
-48.00000000000022
 20
-11.986154265019421
 30
0.0
  0
SEQEND
  5
441
  8
5
  0
DIMENSION
  5
314
  8
1
  2
*D4
 10
-20.000000000000679
 20
-11.65260037644588
 30
0.0
 11
-6.5325593144914356
 21
-8.1526003764458892
 31
0.0
 70
   128
 13
0.0
 23
0.0
 33
0.0
 14
-20.000000000000679
 24
0.0000000000004547
 34
0.0
  0
TEXT
  5
315
  8
1
 10
-78.903091401088204
 20
7.7656793407450087
 30
0.0
 40
2.5
  1
Hebgo 165/520
  0
POLYLINE
  5
316
  8
6
 66
     1
 10
0.0
 20
0.0
 30
0.0
 70
     1
  0
VERTEX
  5
442
  8
6
 10
-31.0
 20
0.5
 30
0.0
 42
-0.4142135623730951
  0
VERTEX
  5
443
  8
6
 10
-29.5
 20
2.0
 30
0.0
  0
VERTEX
  5
444
  8
6
 10
-25.0
 20
2.0
 30
0.0
 42
0.4142135623730951
  0
VERTEX
  5
445
  8
6
 10
-24.0
 20
3.0
 30
0.0
  0
VERTEX
  5
446
  8
6
 10
-24.0
 20
4.9842679442244844
 30
0.0
 42
0.4546727690147105
  0
VERTEX
  5
447
  8
6
 10
-25.135715572434489
 20
5.97501578469587
 30
0.0
  0
VERTEX
  5
448
  8
6
 10
-93.637863190441294
 20
-3.4086112061368108
 30
0.0
 42
0.3709336552558493
  0
VERTEX
  5
449
  8
6
 10
-97.699548765231157
 20
-8.0
 30
0.0
  0
VERTEX
  5
44A
  8
6
 10
-100.0
 20
-8.0
 30
0.0
 42
-0.142358815383233
  0
VERTEX
  5
44B
  8
6
 10
-98.931526481938832
 20
-4.242075289711237
 30
0.0
  0
VERTEX
  5
44C
  8
6
 10
-99.089560035298064
 20
-2.7710621740493471
 30
0.0
  0
VERTEX
  5
44D
  8
6
 10
-97.599180000639763
 20
-2.6822051398230542
 30
0.0
  0
VERTEX
  5
44E
  8
6
 10
-97.313779669058235
 20
-1.222002592479839
 30
0.0
  0
VERTEX
  5
44F
  8
6
 10
-95.864032600731434
 20
-1.5720543878496751
 30
0.0
  0
VERTEX
  5
450
  8
6
 10
-95.165393276246505
 20
-0.2579836701604563
 30
0.0
  0
VERTEX
  5
451
  8
6
 10
-93.945492979330297
 20
-1.023516920788097
 30
0.0
  0
VERTEX
  5
452
  8
6
 10
-93.942412022448934
 20
-1.023096979109595
 30
0.0
  0
VERTEX
  5
453
  8
6
 10
-93.086627320397824
 20
0.1027949090109814
 30
0.0
  0
VERTEX
  5
454
  8
6
 10
-91.960735432277261
 20
-0.7529897930401149
 30
0.0
  0
VERTEX
  5
455
  8
6
 10
-91.104950730226378
 20
0.3729020950804625
 30
0.0
  0
VERTEX
  5
456
  8
6
 10
-89.979058842106042
 20
-0.4828826069706338
 30
0.0
  0
VERTEX
  5
457
  8
6
 10
-89.123274140054946
 20
0.6430092811499435
 30
0.0
  0
VERTEX
  5
458
  8
6
 10
-87.997382251934354
 20
-0.2127754209009254
 30
0.0
  0
VERTEX
  5
459
  8
6
 10
-87.141597549883485
 20
0.9131164672194245
 30
0.0
  0
VERTEX
  5
45A
  8
6
 10
-86.015705661762922
 20
0.0573317651685557
 30
0.0
  0
VERTEX
  5
45B
  8
6
 10
-85.159920959712039
 20
1.183223653289132
 30
0.0
  0
VERTEX
  5
45C
  8
6
 10
-84.034029071591476
 20
0.3274389512380367
 30
0.0
  0
VERTEX
  5
45D
  8
6
 10
-83.178244369540593
 20
1.4533308393586131
 30
0.0
  0
VERTEX
  5
45E
  8
6
 10
-82.052352481419788
 20
0.5975461373075177
 30
0.0
  0
VERTEX
  5
45F
  8
6
 10
-81.196567779369147
 20
1.7234380254280941
 30
0.0
  0
VERTEX
  5
460
  8
6
 10
-80.070675891248356
 20
0.8676533233772261
 30
0.0
  0
VERTEX
  5
461
  8
6
 10
-54.804299366562191
 20
4.31151994576362
 30
0.0
  0
VERTEX
  5
462
  8
6
 10
-53.948514664511549
 20
5.4374118338841981
 30
0.0
  0
VERTEX
  5
463
  8
6
 10
-52.822622776390972
 20
4.5816271318333293
 30
0.0
  0
VERTEX
  5
464
  8
6
 10
-51.966838074340103
 20
5.7075190199536792
 30
0.0
  0
VERTEX
  5
465
  8
6
 10
-50.840946186219298
 20
4.8517343179028103
 30
0.0
  0
VERTEX
  5
466
  8
6
 10
-49.98516148416843
 20
5.9776262060233867
 30
0.0
  0
VERTEX
  5
467
  8
6
 10
-48.859269596047852
 20
5.1218415039722913
 30
0.0
  0
VERTEX
  5
468
  8
6
 10
-48.00348489399699
 20
6.2477333920928677
 30
0.0
  0
VERTEX
  5
469
  8
6
 10
-46.877593005876399
 20
5.3919486900417724
 30
0.0
  0
VERTEX
  5
46A
  8
6
 10
-44.89591641570496
 20
5.6620558761114799
 30
0.0
  0
VERTEX
  5
46B
  8
6
 10
-21.728568855131471
 20
8.7632155205560593
 30
0.0
 42
0.3748796585741096
  0
VERTEX
  5
46C
  8
6
 10
-20.0
 20
10.744711201498831
 30
0.0
  0
VERTEX
  5
46D
  8
6
 10
-20.0
 20
12.5
 30
0.0
 42
-0.4142135623730959
  0
VERTEX
  5
46E
  8
6
 10
-19.0
 20
13.5
 30
0.0
  0
VERTEX
  5
46F
  8
6
 10
-18.800000000000178
 20
13.5
 30
0.0
 42
-0.4142135623730951
  0
VERTEX
  5
470
  8
6
 10
-18.5
 20
13.199999999999809
 30
0.0
  0
VERTEX
  5
471
  8
6
 10
-18.5
 20
11.799999999999949
 30
0.0
 42
0.4142135623730951
  0
VERTEX
  5
472
  8
6
 10
-18.200000000000269
 20
11.5
 30
0.0
  0
VERTEX
  5
473
  8
6
 10
-16.300000000000178
 20
11.5
 30
0.0
 42
0.4142135623730951
  0
VERTEX
  5
474
  8
6
 10
-16.0
 20
11.799999999999949
 30
0.0
  0
VERTEX
  5
475
  8
6
 10
-16.0
 20
23.199999999999822
 30
0.0
 42
0.4142135623730951
  0
VERTEX
  5
476
  8
6
 10
-16.300000000000178
 20
23.5
 30
0.0
  0
VERTEX
  5
477
  8
6
 10
-18.200000000000269
 20
23.5
 30
0.0
 42
0.4142135623730951
  0
VERTEX
  5
478
  8
6
 10
-18.5
 20
23.199999999999822
 30
0.0
  0
VERTEX
  5
479
  8
6
 10
-18.5
 20
21.799999999999951
 30
0.0
 42
-0.4142135623730951
  0
VERTEX
  5
47A
  8
6
 10
-18.800000000000178
 20
21.499999999999989
 30
0.0
  0
VERTEX
  5
47B
  8
6
 10
-19.0
 20
21.499999999999989
 30
0.0
 42
-0.4142135623730951
  0
VERTEX
  5
47C
  8
6
 10
-20.0
 20
22.5
 30
0.0
  0
VERTEX
  5
47D
  8
6
 10
-20.0
 20
24.699999999999811
 30
0.0
 42
-0.4142135623730951
  0
VERTEX
  5
47E
  8
6
 10
-19.700000000000269
 20
25.0
 30
0.0
  0
VERTEX
  5
47F
  8
6
 10
-12.80000000000018
 20
25.0
 30
0.0
  0
VERTEX
  5
480
  8
6
 10
-11.80000000000018
 20
24.0
 30
0.0
  0
VERTEX
  5
481
  8
6
 10
-10.80000000000018
 20
25.0
 30
0.0
  0
VERTEX
  5
482
  8
6
 10
-7.5
 20
25.0
 30
0.0
  0
VERTEX
  5
483
  8
6
 10
-6.5
 20
24.0
 30
0.0
  0
VERTEX
  5
484
  8
6
 10
-5.5
 20
25.0
 30
0.0
  0
VERTEX
  5
485
  8
6
 10
-4.5
 20
24.0
 30
0.0
  0
VERTEX
  5
486
  8
6
 10
-3.5
 20
25.0
 30
0.0
  0
VERTEX
  5
487
  8
6
 10
-2.5
 20
24.0
 30
0.0
  0
VERTEX
  5
488
  8
6
 10
-1.5
 20
25.0
 30
0.0
  0
VERTEX
  5
489
  8
6
 10
-0.3000000000001819
 20
25.0
 30
0.0
 42
-0.4142135623730951
  0
VERTEX
  5
48A
  8
6
 10
0.0
 20
24.699999999999811
 30
0.0
  0
VERTEX
  5
48B
  8
6
 10
0.0
 20
0.5
 30
0.0
  0
VERTEX
  5
48C
  8
6
 10
0.0
 20
0.1999999999998181
 30
0.0
 42
-0.4142135623730951
  0
VERTEX
  5
48D
  8
6
 10
-0.2000000000002728
 20
0.0
 30
0.0
  0
VERTEX
  5
48E
  8
6
 10
-0.3000000000001819
 20
0.0
 30
0.0
 42
-0.4142135623730951
  0
VERTEX
  5
48F
  8
6
 10
-0.5
 20
0.1999999999998181
 30
0.0
 42
-0.4142135623730951
  0
VERTEX
  5
490
  8
6
 10
-0.7000000000002729
 20
0.0
 30
0.0
  0
VERTEX
  5
491
  8
6
 10
-0.8000000000001818
 20
0.0
 30
0.0
 42
-0.4142135623730951
  0
VERTEX
  5
492
  8
6
 10
-1.0
 20
0.1999999999998181
 30
0.0
 42
-0.4142135623730951
  0
VERTEX
  5
493
  8
6
 10
-1.200000000000272
 20
0.0
 30
0.0
  0
VERTEX
  5
494
  8
6
 10
-1.300000000000181
 20
0.0
 30
0.0
 42
-0.4142135623730951
  0
VERTEX
  5
495
  8
6
 10
-1.5
 20
0.1999999999998181
 30
0.0
 42
-0.4142135623730951
  0
VERTEX
  5
496
  8
6
 10
-1.700000000000272
 20
0.0
 30
0.0
  0
VERTEX
  5
497
  8
6
 10
-1.800000000000181
 20
0.0
 30
0.0
 42
-0.4142135623730951
  0
VERTEX
  5
498
  8
6
 10
-2.0
 20
0.1999999999998181
 30
0.0
 42
-0.4142135623730951
  0
VERTEX
  5
499
  8
6
 10
-2.200000000000272
 20
0.0
 30
0.0
  0
VERTEX
  5
49A
  8
6
 10
-2.300000000000181
 20
0.0
 30
0.0
 42
-0.4142135623730898
  0
VERTEX
  5
49B
  8
6
 10
-2.5
 20
0.1999999999998181
 30
0.0
 42
-0.4142135623730951
  0
VERTEX
  5
49C
  8
6
 10
-2.700000000000272
 20
0.0
 30
0.0
  0
VERTEX
  5
49D
  8
6
 10
-2.800000000000181
 20
0.0
 30
0.0
 42
-0.4142135623730951
  0
VERTEX
  5
49E
  8
6
 10
-3.0
 20
0.1999999999998181
 30
0.0
 42
-0.4142135623730951
  0
VERTEX
  5
49F
  8
6
 10
-3.200000000000272
 20
0.0
 30
0.0
  0
VERTEX
  5
4A0
  8
6
 10
-3.300000000000181
 20
0.0
 30
0.0
 42
-0.4142135623730951
  0
VERTEX
  5
4A1
  8
6
 10
-3.5
 20
0.1999999999998181
 30
0.0
 42
-0.4142135623730951
  0
VERTEX
  5
4A2
  8
6
 10
-3.700000000000272
 20
0.0
 30
0.0
  0
VERTEX
  5
4A3
  8
6
 10
-3.800000000000181
 20
0.0
 30
0.0
 42
-0.4142135623730951
  0
VERTEX
  5
4A4
  8
6
 10
-4.0
 20
0.1999999999998181
 30
0.0
 42
-0.4142135623730951
  0
VERTEX
  5
4A5
  8
6
 10
-4.200000000000272
 20
0.0
 30
0.0
  0
VERTEX
  5
4A6
  8
6
 10
-4.300000000000181
 20
0.0
 30
0.0
 42
-0.4142135623730951
  0
VERTEX
  5
4A7
  8
6
 10
-4.5
 20
0.1999999999998181
 30
0.0
 42
-0.4142135623730951
  0
VERTEX
  5
4A8
  8
6
 10
-4.700000000000272
 20
0.0
 30
0.0
  0
VERTEX
  5
4A9
  8
6
 10
-4.800000000000181
 20
0.0
 30
0.0
 42
-0.4142135623730951
  0
VERTEX
  5
4AA
  8
6
 10
-5.0
 20
0.1999999999998181
 30
0.0
 42
-0.4142135623730951
  0
VERTEX
  5
4AB
  8
6
 10
-5.200000000000272
 20
0.0
 30
0.0
  0
VERTEX
  5
4AC
  8
6
 10
-5.300000000000181
 20
0.0
 30
0.0
 42
-0.4142135623730951
  0
VERTEX
  5
4AD
  8
6
 10
-5.5
 20
0.1999999999998181
 30
0.0
 42
-0.4142135623730951
  0
VERTEX
  5
4AE
  8
6
 10
-5.700000000000272
 20
0.0
 30
0.0
  0
VERTEX
  5
4AF
  8
6
 10
-5.800000000000181
 20
0.0
 30
0.0
 42
-0.4142135623730951
  0
VERTEX
  5
4B0
  8
6
 10
-6.0
 20
0.1999999999998181
 30
0.0
 42
-0.4142135623730951
  0
VERTEX
  5
4B1
  8
6
 10
-6.200000000000272
 20
0.0
 30
0.0
  0
VERTEX
  5
4B2
  8
6
 10
-6.300000000000181
 20
0.0
 30
0.0
 42
-0.4142135623730951
  0
VERTEX
  5
4B3
  8
6
 10
-6.5
 20
0.1999999999998181
 30
0.0
 42
-0.4142135623730951
  0
VERTEX
  5
4B4
  8
6
 10
-6.700000000000272
 20
0.0
 30
0.0
  0
VERTEX
  5
4B5
  8
6
 10
-6.800000000000181
 20
0.0
 30
0.0
 42
-0.4142135623730951
  0
VERTEX
  5
4B6
  8
6
 10
-7.0
 20
0.1999999999998181
 30
0.0
 42
-0.4142135623730951
  0
VERTEX
  5
4B7
  8
6
 10
-7.200000000000272
 20
0.0
 30
0.0
  0
VERTEX
  5
4B8
  8
6
 10
-7.300000000000181
 20
0.0
 30
0.0
 42
-0.4142135623730951
  0
VERTEX
  5
4B9
  8
6
 10
-7.5
 20
0.1999999999998181
 30
0.0
 42
-0.4142135623730951
  0
VERTEX
  5
4BA
  8
6
 10
-7.700000000000272
 20
0.0
 30
0.0
  0
VERTEX
  5
4BB
  8
6
 10
-7.800000000000181
 20
0.0
 30
0.0
 42
-0.4142135623730951
  0
VERTEX
  5
4BC
  8
6
 10
-8.0
 20
0.1999999999998181
 30
0.0
 42
-0.4142135623730951
  0
VERTEX
  5
4BD
  8
6
 10
-8.2000000000002728
 20
0.0
 30
0.0
  0
VERTEX
  5
4BE
  8
6
 10
-8.3000000000001801
 20
0.0
 30
0.0
 42
-0.4142135623730951
  0
VERTEX
  5
4BF
  8
6
 10
-8.5
 20
0.1999999999998181
 30
0.0
 42
-0.4142135623730951
  0
VERTEX
  5
4C0
  8
6
 10
-8.7000000000002728
 20
0.0
 30
0.0
  0
VERTEX
  5
4C1
  8
6
 10
-8.8000000000001801
 20
0.0
 30
0.0
 42
-0.4142135623730951
  0
VERTEX
  5
4C2
  8
6
 10
-9.0
 20
0.2000000000000455
 30
0.0
  0
VERTEX
  5
4C3
  8
6
 10
-9.0
 20
0.5
 30
0.0
 42
-0.4142135623730951
  0
VERTEX
  5
4C4
  8
6
 10
-7.5
 20
2.0
 30
0.0
  0
VERTEX
  5
4C5
  8
6
 10
-2.300000000000181
 20
2.0
 30
0.0
 42
0.4142135623730951
  0
VERTEX
  5
4C6
  8
6
 10
-2.0
 20
2.2999999999999541
 30
0.0
  0
VERTEX
  5
4C7
  8
6
 10
-2.0
 20
20.5
 30
0.0
 42
0.4142135623730951
  0
VERTEX
  5
4C8
  8
6
 10
-3.0
 20
21.499999999999989
 30
0.0
  0
VERTEX
  5
4C9
  8
6
 10
-13.0
 20
21.499999999999989
 30
0.0
 42
0.4142135623730953
  0
VERTEX
  5
4CA
  8
6
 10
-14.0
 20
20.5
 30
0.0
  0
VERTEX
  5
4CB
  8
6
 10
-14.0
 20
11.5
 30
0.0
 42
-0.4142135623730951
  0
VERTEX
  5
4CC
  8
6
 10
-16.0
 20
9.5
 30
0.0
  0
VERTEX
  5
4CD
  8
6
 10
-17.662001434778169
 20
9.5
 30
0.0
  0
VERTEX
  5
4CE
  8
6
 10
-21.26776695296666
 20
5.894234481811508
 30
0.0
 42
0.1989123673796584
  0
VERTEX
  5
4CF
  8
6
 10
-22.0
 20
4.1264675288450681
 30
0.0
  0
VERTEX
  5
4D0
  8
6
 10
-22.0
 20
0.5
 30
0.0
  0
VERTEX
  5
4D1
  8
6
 10
-22.0
 20
0.1999999999998181
 30
0.0
 42
-0.4142135623730951
  0
VERTEX
  5
4D2
  8
6
 10
-22.200000000000269
 20
0.0
 30
0.0
  0
VERTEX
  5
4D3
  8
6
 10
-22.300000000000178
 20
0.0
 30
0.0
 42
-0.4142135623730951
  0
VERTEX
  5
4D4
  8
6
 10
-22.5
 20
0.1999999999998181
 30
0.0
 42
-0.4142135623730951
  0
VERTEX
  5
4D5
  8
6
 10
-22.700000000000269
 20
0.0
 30
0.0
  0
VERTEX
  5
4D6
  8
6
 10
-22.800000000000178
 20
0.0
 30
0.0
 42
-0.4142135623730951
  0
VERTEX
  5
4D7
  8
6
 10
-23.0
 20
0.1999999999998181
 30
0.0
 42
-0.4142135623730951
  0
VERTEX
  5
4D8
  8
6
 10
-23.200000000000269
 20
0.0
 30
0.0
  0
VERTEX
  5
4D9
  8
6
 10
-23.300000000000178
 20
0.0
 30
0.0
 42
-0.4142135623730951
  0
VERTEX
  5
4DA
  8
6
 10
-23.5
 20
0.1999999999998181
 30
0.0
 42
-0.4142135623730951
  0
VERTEX
  5
4DB
  8
6
 10
-23.700000000000269
 20
0.0
 30
0.0
  0
VERTEX
  5
4DC
  8
6
 10
-23.800000000000178
 20
0.0
 30
0.0
 42
-0.4142135623730951
  0
VERTEX
  5
4DD
  8
6
 10
-24.0
 20
0.1999999999998181
 30
0.0
 42
-0.4142135623730951
  0
VERTEX
  5
4DE
  8
6
 10
-24.200000000000269
 20
0.0
 30
0.0
  0
VERTEX
  5
4DF
  8
6
 10
-24.300000000000178
 20
0.0
 30
0.0
 42
-0.4142135623730898
  0
VERTEX
  5
4E0
  8
6
 10
-24.5
 20
0.1999999999998181
 30
0.0
 42
-0.4142135623730951
  0
VERTEX
  5
4E1
  8
6
 10
-24.700000000000269
 20
0.0
 30
0.0
  0
VERTEX
  5
4E2
  8
6
 10
-24.800000000000178
 20
0.0
 30
0.0
 42
-0.4142135623730951
  0
VERTEX
  5
4E3
  8
6
 10
-25.0
 20
0.1999999999998181
 30
0.0
 42
-0.4142135623730951
  0
VERTEX
  5
4E4
  8
6
 10
-25.200000000000269
 20
0.0
 30
0.0
  0
VERTEX
  5
4E5
  8
6
 10
-25.300000000000178
 20
0.0
 30
0.0
 42
-0.4142135623730951
  0
VERTEX
  5
4E6
  8
6
 10
-25.5
 20
0.1999999999998181
 30
0.0
 42
-0.4142135623730951
  0
VERTEX
  5
4E7
  8
6
 10
-25.700000000000269
 20
0.0
 30
0.0
  0
VERTEX
  5
4E8
  8
6
 10
-25.800000000000178
 20
0.0
 30
0.0
 42
-0.4142135623730951
  0
VERTEX
  5
4E9
  8
6
 10
-26.0
 20
0.1999999999998181
 30
0.0
 42
-0.4142135623730951
  0
VERTEX
  5
4EA
  8
6
 10
-26.200000000000269
 20
0.0
 30
0.0
  0
VERTEX
  5
4EB
  8
6
 10
-26.300000000000178
 20
0.0
 30
0.0
 42
-0.4142135623730951
  0
VERTEX
  5
4EC
  8
6
 10
-26.5
 20
0.1999999999998181
 30
0.0
 42
-0.4142135623730951
  0
VERTEX
  5
4ED
  8
6
 10
-26.700000000000269
 20
0.0
 30
0.0
  0
VERTEX
  5
4EE
  8
6
 10
-26.800000000000178
 20
0.0
 30
0.0
 42
-0.4142135623730951
  0
VERTEX
  5
4EF
  8
6
 10
-27.0
 20
0.1999999999998181
 30
0.0
 42
-0.4142135623730951
  0
VERTEX
  5
4F0
  8
6
 10
-27.200000000000269
 20
0.0
 30
0.0
  0
VERTEX
  5
4F1
  8
6
 10
-27.300000000000178
 20
0.0
 30
0.0
 42
-0.4142135623730951
  0
VERTEX
  5
4F2
  8
6
 10
-27.5
 20
0.1999999999998181
 30
0.0
 42
-0.4142135623730951
  0
VERTEX
  5
4F3
  8
6
 10
-27.700000000000269
 20
0.0
 30
0.0
  0
VERTEX
  5
4F4
  8
6
 10
-27.800000000000178
 20
0.0
 30
0.0
 42
-0.4142135623730951
  0
VERTEX
  5
4F5
  8
6
 10
-28.0
 20
0.1999999999998181
 30
0.0
 42
-0.4142135623730951
  0
VERTEX
  5
4F6
  8
6
 10
-28.200000000000269
 20
0.0
 30
0.0
  0
VERTEX
  5
4F7
  8
6
 10
-28.300000000000178
 20
0.0
 30
0.0
 42
-0.4142135623730951
  0
VERTEX
  5
4F8
  8
6
 10
-28.5
 20
0.1999999999998181
 30
0.0
 42
-0.4142135623730951
  0
VERTEX
  5
4F9
  8
6
 10
-28.700000000000269
 20
0.0
 30
0.0
  0
VERTEX
  5
4FA
  8
6
 10
-28.800000000000178
 20
0.0
 30
0.0
 42
-0.4142135623730951
  0
VERTEX
  5
4FB
  8
6
 10
-29.0
 20
0.1999999999998181
 30
0.0
 42
-0.4142135623730951
  0
VERTEX
  5
4FC
  8
6
 10
-29.200000000000269
 20
0.0
 30
0.0
  0
VERTEX
  5
4FD
  8
6
 10
-29.300000000000178
 20
0.0
 30
0.0
 42
-0.4142135623730951
  0
VERTEX
  5
4FE
  8
6
 10
-29.5
 20
0.1999999999998181
 30
0.0
 42
-0.4142135623730951
  0
VERTEX
  5
4FF
  8
6
 10
-29.700000000000269
 20
0.0
 30
0.0
  0
VERTEX
  5
500
  8
6
 10
-29.800000000000178
 20
0.0
 30
0.0
 42
-0.4142135623730951
  0
VERTEX
  5
501
  8
6
 10
-30.0
 20
0.1999999999998181
 30
0.0
 42
-0.4142135623730951
  0
VERTEX
  5
502
  8
6
 10
-30.200000000000269
 20
0.0
 30
0.0
  0
VERTEX
  5
503
  8
6
 10
-30.300000000000178
 20
0.0
 30
0.0
 42
-0.4142135623730951
  0
VERTEX
  5
504
  8
6
 10
-30.5
 20
0.1999999999998181
 30
0.0
 42
-0.4142135623730951
  0
VERTEX
  5
505
  8
6
 10
-30.700000000000269
 20
0.0
 30
0.0
  0
VERTEX
  5
506
  8
6
 10
-30.800000000000178
 20
0.0
 30
0.0
 42
-0.4142135623730951
  0
VERTEX
  5
507
  8
6
 10
-31.0
 20
0.2000000000000455
 30
0.0
  0
SEQEND
  5
508
  8
6
  0
POLYLINE
  5
317
  8
4
 66
     1
 10
0.0
 20
0.0
 30
0.0
  0
VERTEX
  5
509
  8
4
 10
-97.699548765231157
 20
-8.0
 30
0.0
  0
VERTEX
  5
50A
  8
4
 10
-100.0000000000004
 20
-8.0
 30
0.0
  0
VERTEX
  5
50B
  8
4
 10
-100.0000000000004
 20
-1.834907631615124
 30
0.0
  0
VERTEX
  5
50C
  8
4
 10
-20.000000000000451
 20
8.9705341727742507
 30
0.0
  0
VERTEX
  5
50D
  8
4
 10
-20.0
 20
25.0
 30
0.0
  0
VERTEX
  5
50E
  8
4
 10
0.0
 20
25.0
 30
0.0
  0
VERTEX
  5
50F
  8
4
 10
0.0
 20
0.0
 30
0.0
  0
VERTEX
  5
510
  8
4
 10
-31.0
 20
0.0
 30
0.0
  0
VERTEX
  5
511
  8
4
 10
-31.0
 20
2.0
 30
0.0
  0
SEQEND
  5
512
  8
4
  0
DIMENSION
  5
318
  8
1
  2
*D5
 10
12.65989439923737
 20
25.0
 30
0.0
 11
9.8728889422114463
 21
12.5
 31
0.0
 70
     0
 13
0.0
 23
0.0
 33
0.0
 14
0.0
 24
25.0
 34
0.0
 50
90.0
  0
POLYLINE
  5
319
  8
5
 66
     1
 10
0.0
 20
0.0
 30
0.0
  0
VERTEX
  5
513
  8
5
 10
-27.244905488343189
 20
13.999999999999771
 30
0.0
  0
VERTEX
  5
514
  8
5
 10
-23.0
 20
13.999999999999771
 30
0.0
  0
VERTEX
  5
515
  8
5
 10
-23.0
 20
33.930324331516879
 30
0.0
  0
SEQEND
  5
516
  8
5
  0
DIMENSION
  5
31A
  8
1
  2
*D6
 10
-23.0
 20
-11.652600376446109
 30
0.0
 11
-21.499999999999989
 21
-8.8644011950000046
 31
0.0
 70
     0
 13
-20.0
 23
8.9705341727740233
 33
0.0
 14
-23.0
 24
8.9705341727740233
 34
0.0
  0
POLYLINE
  5
31B
  8
6
 66
     1
 10
0.0
 20
0.0
 30
0.0
 70
     1
  0
VERTEX
  5
517
  8
6
 10
-23.0
 20
17.499999999999542
 30
0.0
 42
-0.3348758971066404
  0
VERTEX
  5
518
  8
6
 10
-22.24925778086844
 20
18.724359999999479
 30
0.0
  0
VERTEX
  5
519
  8
6
 10
-22.213336731359949
 20
20.866841127836089
 30
0.0
 42
-0.4158738464929489
  0
VERTEX
  5
51A
  8
6
 10
-20.100440744899512
 20
21.986559934488689
 30
0.0
  0
VERTEX
  5
51B
  8
6
 10
-18.908949912913151
 20
21.155470733634271
 30
0.0
 42
0.9647680298900043
  0
VERTEX
  5
51C
  8
6
 10
-18.135636700523719
 20
21.692684910879962
 30
0.0
  0
VERTEX
  5
51D
  8
6
 10
-18.418794118607359
 20
22.34600064730034
 30
0.0
 42
-0.6694204690004703
  0
VERTEX
  5
51E
  8
6
 10
-17.988730702305929
 20
22.985949553366019
 30
0.0
  0
VERTEX
  5
51F
  8
6
 10
-16.168511822218068
 20
22.55903956357951
 30
0.0
 42
-0.2464814616015845
  0
VERTEX
  5
520
  8
6
 10
-15.999479540944771
 20
22.259254551121781
 30
0.0
 42
-0.0150420667643324
  0
VERTEX
  5
521
  8
6
 10
-15.999479540944771
 20
21.977327331756889
 30
0.0
 42
-0.2063969197888626
  0
VERTEX
  5
522
  8
6
 10
-16.171654759193189
 20
21.60889236045886
 30
0.0
  0
VERTEX
  5
523
  8
6
 10
-16.502358845057181
 20
21.17597237046629
 30
0.0
 42
0.0984306399189399
  0
VERTEX
  5
524
  8
6
 10
-16.820339496737681
 20
20.52783291166406
 30
0.0
  0
VERTEX
  5
525
  8
6
 10
-16.820339496737681
 20
17.499999999999542
 30
0.0
  0
VERTEX
  5
526
  8
6
 10
-16.820339496737681
 20
14.47216708833502
 30
0.0
 42
0.0984306399189399
  0
VERTEX
  5
527
  8
6
 10
-16.502358845057181
 20
13.82402762953279
 30
0.0
  0
VERTEX
  5
528
  8
6
 10
-16.171654759193189
 20
13.39110763954022
 30
0.0
 42
-0.2063969197888626
  0
VERTEX
  5
529
  8
6
 10
-15.999479540944771
 20
13.02267266824219
 30
0.0
 42
-0.0150420667643324
  0
VERTEX
  5
52A
  8
6
 10
-15.999479540944771
 20
12.7407454488773
 30
0.0
 42
-0.2464814616015845
  0
VERTEX
  5
52B
  8
6
 10
-16.168511822218068
 20
12.4409604364198
 30
0.0
  0
VERTEX
  5
52C
  8
6
 10
-17.988730702305929
 20
12.01405044663306
 30
0.0
 42
-0.6345177691905591
  0
VERTEX
  5
52D
  8
6
 10
-18.418794118607359
 20
12.65399935269874
 30
0.0
  0
VERTEX
  5
52E
  8
6
 10
-18.14633687279138
 20
13.281294360421271
 30
0.0
 42
0.9846311026449575
  0
VERTEX
  5
52F
  8
6
 10
-18.908949912913151
 20
13.844529266364811
 30
0.0
  0
VERTEX
  5
530
  8
6
 10
-20.100440744899512
 20
13.013440065510389
 30
0.0
 42
-0.4158738464929489
  0
VERTEX
  5
531
  8
6
 10
-22.213336731359949
 20
14.13315887216322
 30
0.0
  0
VERTEX
  5
532
  8
6
 10
-22.24925778086844
 20
16.275639999999608
 30
0.0
 42
-0.3348758971066357
  0
SEQEND
  5
533
  8
6
  0
POLYLINE
  5
31C
  8
6
 66
     1
 10
0.0
 20
0.0
 30
0.0
  0
VERTEX
  5
534
  8
6
 10
-21.02605626615513
 20
17.504764165460749
 30
0.0
 42
0.0523662851020724
  0
VERTEX
  5
535
  8
6
 10
-21.438194332162311
 20
20.510549786088401
 30
0.0
 42
-0.1698680870516715
  0
VERTEX
  5
536
  8
6
 10
-21.45150466166433
 20
21.109204401099301
 30
0.0
 42
-0.3581952709156561
  0
VERTEX
  5
537
  8
6
 10
-20.47048203472422
 20
21.304817305721819
 30
0.0
  0
VERTEX
  5
538
  8
6
 10
-18.961386320947891
 20
20.291377892165649
 30
0.0
 42
-0.162990172482064
  0
VERTEX
  5
539
  8
6
 10
-18.387523180827881
 20
19.11724287609081
 30
0.0
 42
-0.0297520103796801
  0
VERTEX
  5
53A
  8
6
 10
-18.295959039504851
 20
17.499999999999542
 30
0.0
 42
-0.0297520103796801
  0
VERTEX
  5
53B
  8
6
 10
-18.441461944831641
 20
15.886715332997021
 30
0.0
 42
-0.162990172482064
  0
VERTEX
  5
53C
  8
6
 10
-19.054202368809449
 20
14.73239253915426
 30
0.0
  0
VERTEX
  5
53D
  8
6
 10
-21.04892567442084
 20
13.76989744524235
 30
0.0
 42
-0.5496470159714418
  0
VERTEX
  5
53E
  8
6
 10
-21.636888839532268
 20
13.985258868499839
 30
0.0
 42
-0.0587952726232103
  0
VERTEX
  5
53F
  8
6
 10
-21.53719891701666
 20
14.58091746745958
 30
0.0
 42
0.0523662851020724
  0
VERTEX
  5
540
  8
6
 10
-21.02494586419834
 20
17.571268917122769
 30
0.0
  0
SEQEND
  5
541
  8
6
  0
POINT
  5
31D
  8
5
 10
-16.0
 20
17.499999999999769
 30
0.0
  0
VIEWPORT
  5
22
 67
     1
  8
0
 10
210.0
 20
170.2366863905325
 30
0.0
 40
420.0
 41
340.47337278106511
 68
     1
 69
     1
1001
ACAD
1000
MVIEW
1002
{
1070
    16
1010
0.0
1020
0.0
1030
0.0
1010
0.0
1020
0.0
1030
1.0
1040
0.0
1040
340.47337278106511
1040
210.0
1040
170.2366863905325
1040
50.0
1040
0.0
1040
0.0
1070
     0
1070
   100
1070
     1
1070
     1
1070
     0
1070
     0
1070
     0
1070
     0
1040
0.0
1040
0.0
1040
0.0
1040
5.0
1040
5.0
1040
10.0
1040
10.0
1070
     0
1002
{
1002
}
1002
}
  0
ENDSEC
  0
EOF
