  0
SECTION
  2
HEADER
  9
$ACADVER
  1
AC1009
  9
$INSBASE
 10
0.0
 20
0.0
 30
0.0
  9
$EXTMIN
 10
-83.999999999999545
 20
-17.050471313595828
 30
0.0
  9
$EXTMAX
 10
2.0
 20
20.0
 30
0.0
  9
$LIMMIN
 10
-150.0
 20
-150.0
  9
$LIMMAX
 10
150.0
 20
150.0
  9
$ORTHOMODE
 70
     0
  9
$REGENMODE
 70
     1
  9
$FILLMODE
 70
     1
  9
$QTEXTMODE
 70
     0
  9
$MIRRTEXT
 70
     0
  9
$DRAGMODE
 70
     2
  9
$LTSCALE
 40
4.0
  9
$OSMODE
 70
   111
  9
$ATTMODE
 70
     1
  9
$TEXTSIZE
 40
3.5
  9
$TRACEWID
 40
1.0
  9
$TEXTSTYLE
  7
BESCHLAG
  9
$CLAYER
  8
0
  9
$CELTYPE
  6
BYLAYER
  9
$CECOLOR
 62
   256
  9
$DIMSCALE
 40
1.0
  9
$DIMASZ
 40
2.0
  9
$DIMEXO
 40
2.0
  9
$DIMDLI
 40
0.0
  9
$DIMRND
 40
0.0
  9
$DIMDLE
 40
1.0
  9
$DIMEXE
 40
1.0
  9
$DIMTP
 40
0.0
  9
$DIMTM
 40
0.0
  9
$DIMTXT
 40
3.5
  9
$DIMCEN
 40
0.0
  9
$DIMTSZ
 40
0.0
  9
$DIMTOL
 70
     0
  9
$DIMLIM
 70
     0
  9
$DIMTIH
 70
     0
  9
$DIMTOH
 70
     0
  9
$DIMSE1
 70
     0
  9
$DIMSE2
 70
     0
  9
$DIMTAD
 70
     1
  9
$DIMZIN
 70
     8
  9
$DIMBLK
  1

  9
$DIMASO
 70
     1
  9
$DIMSHO
 70
     1
  9
$DIMPOST
  1

  9
$DIMAPOST
  1

  9
$DIMALT
 70
     0
  9
$DIMALTD
 70
     2
  9
$DIMALTF
 40
0.039370078740157
  9
$DIMLFAC
 40
1.0
  9
$DIMTOFL
 70
     1
  9
$DIMTVP
 40
0.0
  9
$DIMTIX
 70
     1
  9
$DIMSOXD
 70
     0
  9
$DIMSAH
 70
     1
  9
$DIMBLK1
  1
OBLIQUE
  9
$DIMBLK2
  1
OBLIQUE
  9
$DIMSTYLE
  2
OPO-SSTRICH
  9
$DIMCLRD
 70
   256
  9
$DIMCLRE
 70
   256
  9
$DIMCLRT
 70
   256
  9
$DIMTFAC
 40
0.7114285714285716
  9
$DIMGAP
 40
1.0
  9
$LUNITS
 70
     2
  9
$LUPREC
 70
     1
  9
$SKETCHINC
 40
1.0
  9
$FILLETRAD
 40
0.0
  9
$AUNITS
 70
     0
  9
$AUPREC
 70
     1
  9
$MENU
  1
D:\ACL_CGWG\CGTAB13
  9
$ELEVATION
 40
0.0
  9
$PELEVATION
 40
0.0
  9
$THICKNESS
 40
0.0
  9
$LIMCHECK
 70
     0
  9
$BLIPMODE
 70
     0
  9
$CHAMFERA
 40
1.0
  9
$CHAMFERB
 40
1.0
  9
$SKPOLY
 70
     0
  9
$TDCREATE
 40
2451739.872288587
  9
$TDUPDATE
 40
2452087.6218603118
  9
$TDINDWG
 40
0.0007350926
  9
$TDUSRTIMER
 40
0.0007350926
  9
$USRTIMER
 70
     1
  9
$ANGBASE
 50
0.0
  9
$ANGDIR
 70
     0
  9
$PDMODE
 70
    35
  9
$PDSIZE
 40
5.0
  9
$PLINEWID
 40
0.0
  9
$COORDS
 70
     1
  9
$SPLFRAME
 70
     0
  9
$SPLINETYPE
 70
     6
  9
$SPLINESEGS
 70
     8
  9
$ATTDIA
 70
     1
  9
$ATTREQ
 70
     1
  9
$HANDLING
 70
-16383
  9
$HANDSEED
  5
4AA
  9
$SURFTAB1
 70
    12
  9
$SURFTAB2
 70
    12
  9
$SURFTYPE
 70
     6
  9
$SURFU
 70
    12
  9
$SURFV
 70
    12
  9
$UCSNAME
  2

  9
$UCSORG
 10
0.0
 20
0.0
 30
0.0
  9
$UCSXDIR
 10
1.0
 20
0.0
 30
0.0
  9
$UCSYDIR
 10
0.0
 20
1.0
 30
0.0
  9
$PUCSNAME
  2

  9
$PUCSORG
 10
0.0
 20
0.0
 30
0.0
  9
$PUCSXDIR
 10
1.0
 20
0.0
 30
0.0
  9
$PUCSYDIR
 10
0.0
 20
1.0
 30
0.0
  9
$USERI1
 70
     0
  9
$USERI2
 70
     0
  9
$USERI3
 70
     0
  9
$USERI4
 70
     0
  9
$USERI5
 70
     0
  9
$USERR1
 40
0.0
  9
$USERR2
 40
0.0
  9
$USERR3
 40
0.0
  9
$USERR4
 40
0.0
  9
$USERR5
 40
0.0
  9
$WORLDVIEW
 70
     1
  9
$SHADEDGE
 70
     3
  9
$SHADEDIF
 70
    70
  9
$TILEMODE
 70
     1
  9
$MAXACTVP
 70
    48
  9
$PLIMCHECK
 70
     0
  9
$PEXTMIN
 10
1.0000000000000000E+020
 20
1.0000000000000000E+020
 30
1.0000000000000000E+020
  9
$PEXTMAX
 10
-1.0000000000000000E+020
 20
-1.0000000000000000E+020
 30
-1.0000000000000000E+020
  9
$PLIMMIN
 10
0.0
 20
0.0
  9
$PLIMMAX
 10
420.0
 20
297.0
  9
$UNITMODE
 70
     0
  9
$VISRETAIN
 70
     1
  9
$PLINEGEN
 70
     0
  9
$PSLTSCALE
 70
     1
  0
ENDSEC
  0
SECTION
  2
TABLES
  0
TABLE
  2
VPORT
 70
     2
  0
VPORT
  2
*ACTIVE
 70
     0
 10
0.0
 20
0.0
 11
1.0
 21
1.0
 12
-41.004180257446301
 22
2.3902173732965251
 13
0.0
 23
0.0
 14
0.5
 24
0.5
 15
10.0
 25
10.0
 16
0.0
 26
0.0
 36
1.0
 17
0.0
 27
0.0
 37
0.0
 40
53.84029630193325
 41
1.6070460704607039
 42
50.0
 43
0.0
 44
0.0
 50
0.0
 51
0.0
 71
     0
 72
   800
 73
     1
 74
     1
 75
     0
 76
     0
 77
     0
 78
     0
  0
ENDTAB
  0
TABLE
  2
LTYPE
 70
     2
  0
LTYPE
  2
CONTINUOUS
 70
     0
  3
_______________________________________________
 72
    65
 73
     2
 40
1.0
 49
1.0
 49
0.0
  0
LTYPE
  2
STRICHPUNKT
 70
     0
  3
__ . __ . __ . __ . __ . __ . __ . __ . __ . __
 72
    65
 73
     4
 40
1.0
 49
0.5
 49
-0.25
 49
0.0
 49
-0.25
  0
ENDTAB
  0
TABLE
  2
LAYER
 70
     7
  0
LAYER
  2
0
 70
     0
 62
    30
  6
CONTINUOUS
  0
LAYER
  2
1
 70
     0
 62
     2
  6
CONTINUOUS
  0
LAYER
  2
2
 70
     0
 62
     9
  6
CONTINUOUS
  0
LAYER
  2
4
 70
     1
 62
     4
  6
CONTINUOUS
  0
LAYER
  2
5
 70
     0
 62
     1
  6
CONTINUOUS
  0
LAYER
  2
6
 70
     0
 62
     3
  6
CONTINUOUS
  0
LAYER
  2
DEFPOINTS
 70
     0
 62
     7
  6
CONTINUOUS
  0
ENDTAB
  0
TABLE
  2
STYLE
 70
     2
  0
STYLE
  2
STANDARD
 70
     0
 40
0.0
 41
1.0
 50
0.0
 71
     0
 42
2.5
  3
txt
  4

  0
STYLE
  2
BESCHLAG
 70
     0
 40
0.0
 41
1.0
 50
0.0
 71
     0
 42
3.5
  3
txt
  4

  0
ENDTAB
  0
TABLE
  2
VIEW
 70
     0
  0
ENDTAB
  0
TABLE
  2
UCS
 70
     0
  0
ENDTAB
  0
TABLE
  2
APPID
 70
     1
  0
APPID
  2
ACAD
 70
     0
  0
ENDTAB
  0
TABLE
  2
DIMSTYLE
 70
     1
  0
DIMSTYLE
  2
OPO-SSTRICH
 70
     0
  3

  4

  5

  6
OBLIQUE
  7
OBLIQUE
 40
1.0
 41
2.0
 42
2.0
 43
0.0
 44
1.0
 45
0.0
 46
1.0
 47
0.0
 48
0.0
140
3.5
141
0.0
142
0.0
143
0.039370078740157
144
1.0
145
0.0
146
0.7114285714285716
147
1.0
 71
     0
 72
     0
 73
     0
 74
     0
 75
     0
 76
     0
 77
     1
 78
     8
170
     0
171
     2
172
     1
173
     1
174
     1
175
     0
176
   256
177
   256
178
   256
  0
ENDTAB
  0
ENDSEC
  0
SECTION
  2
BLOCKS
  0
BLOCK
  8
0
  2
$MODEL_SPACE
 70
     0
 10
0.0
 20
0.0
 30
0.0
  3
$MODEL_SPACE
  1

  0
ENDBLK
  5
1C
  8
0
  0
BLOCK
 67
     1
  8
0
  2
$PAPER_SPACE
 70
     0
 10
0.0
 20
0.0
 30
0.0
  3
$PAPER_SPACE
  1

  0
ENDBLK
  5
19
 67
     1
  8
0
  0
BLOCK
  8
0
  2
_OBLIQUE
 70
     0
 10
0.0
 20
0.0
 30
0.0
  3
_OBLIQUE
  1

  0
LINE
  5
204
  8
0
 62
     0
 10
-0.5
 20
-0.5
 30
0.0
 11
0.5
 21
0.5
 31
0.0
  0
ENDBLK
  5
206
  8
0
  0
BLOCK
  8
0
  2
NULLPUNKT
 70
     0
 10
0.0
 20
0.0
 30
0.0
  3
NULLPUNKT
  1

  0
SOLID
  5
254
  8
5
 10
0.0
 20
0.0
 30
0.0
 11
2.0
 21
0.0
 31
0.0
 12
0.0
 22
-2.0
 32
0.0
 13
0.0
 23
-2.0
 33
0.0
  0
SOLID
  5
255
  8
5
 10
0.0
 20
0.0
 30
0.0
 11
-2.0
 21
0.0
 31
0.0
 12
0.0
 22
2.0
 32
0.0
 13
0.0
 23
2.0
 33
0.0
  0
POLYLINE
  5
256
  8
5
 66
     1
 10
0.0
 20
0.0
 30
0.0
  0
VERTEX
  5
3F6
  8
5
 10
0.0
 20
2.0
 30
0.0
  0
VERTEX
  5
3F7
  8
5
 10
0.0
 20
-2.0
 30
0.0
  0
SEQEND
  5
3F8
  8
5
  0
POLYLINE
  5
257
  8
5
 66
     1
 10
0.0
 20
0.0
 30
0.0
  0
VERTEX
  5
3F9
  8
5
 10
-2.0
 20
0.0
 30
0.0
  0
VERTEX
  5
3FA
  8
5
 10
2.0
 20
0.0
 30
0.0
  0
SEQEND
  5
3FB
  8
5
  0
CIRCLE
  5
258
  8
5
 10
0.0
 20
0.0
 30
0.0
 40
2.0
  0
ENDBLK
  5
25A
  8
0
  0
BLOCK
  8
0
  2
*X2
 70
     1
 10
0.0
 20
0.0
 30
0.0
  3
*X2
  1

  0
LINE
  5
286
  8
0
 62
     0
 10
207.41279426407209
 20
-232.12478092148569
 30
0.0
 11
210.52731409436899
 21
-229.0102610911888
 31
0.0
  0
LINE
  5
287
  8
0
 62
     0
 10
205.71573798922441
 20
-232.12478092148569
 30
0.0
 11
207.7643013758431
 21
-230.07621753486691
 31
0.0
  0
LINE
  5
288
  8
0
 62
     0
 10
204.01868171437661
 20
-232.12478092148569
 30
0.0
 11
206.8302578192347
 21
-229.3132048166276
 31
0.0
  0
LINE
  5
289
  8
0
 62
     0
 10
202.3216254395289
 20
-232.12478092148569
 30
0.0
 11
205.98172968261341
 21
-228.4646766784013
 31
0.0
  0
LINE
  5
28A
  8
0
 62
     0
 10
200.62456916468119
 20
-232.12478092148569
 30
0.0
 11
203.1332015441005
 21
-229.61614854206641
 31
0.0
  0
LINE
  5
28B
  8
0
 62
     0
 10
198.92751288983351
 20
-232.12478092148569
 30
0.0
 11
202.28467340747909
 21
-228.76762040384011
 31
0.0
  0
LINE
  5
28C
  8
0
 62
     0
 10
197.23045661498571
 20
-232.12478092148569
 30
0.0
 11
199.43614526871301
 21
-229.91909226775849
 31
0.0
  0
LINE
  5
28D
  8
0
 62
     0
 10
195.53340034013809
 20
-232.12478092148569
 30
0.0
 11
198.58761713082609
 21
-229.07056413079769
 31
0.0
  0
LINE
  5
28E
  8
0
 62
     0
 10
193.8363440652904
 20
-232.12478092148569
 30
0.0
 11
195.9177093713013
 21
-230.04341561547469
 31
0.0
  0
LINE
  5
28F
  8
0
 62
     0
 10
192.13928779044269
 20
-232.12478092148569
 30
0.0
 11
194.89056085733239
 21
-229.373507854596
 31
0.0
  0
LINE
  5
290
  8
0
 62
     0
 10
190.4422315155949
 20
-232.12478092148569
 30
0.0
 11
194.0420327206067
 21
-228.52497971647389
 31
0.0
  0
LINE
  5
291
  8
0
 62
     0
 10
188.74517524074719
 20
-232.12478092148569
 30
0.0
 11
191.19350458207651
 21
-229.6764515801564
 31
0.0
  0
LINE
  5
292
  8
0
 62
     0
 10
187.0481189658995
 20
-232.12478092148569
 30
0.0
 11
190.3449764454551
 21
-228.8279234419301
 31
0.0
  0
LINE
  5
293
  8
0
 62
     0
 10
185.35106269105179
 20
-232.12478092148569
 30
0.0
 11
187.4971777128745
 21
-229.9786658996631
 31
0.0
  0
LINE
  5
294
  8
0
 62
     0
 10
175.45400641620409
 20
-240.3247809214858
 30
0.0
 11
177.26729398970559
 21
-238.51149334798421
 31
0.0
  0
LINE
  5
295
  8
0
 62
     0
 10
183.65400641620411
 20
-232.12478092148569
 30
0.0
 11
186.6479201703209
 21
-229.1308671673689
 31
0.0
  0
LINE
  5
296
  8
0
 62
     0
 10
173.81419489266159
 20
-240.26753617018051
 30
0.0
 11
178.75007774962569
 21
-235.33165331321641
 31
0.0
  0
LINE
  5
297
  8
0
 62
     0
 10
181.9569501413564
 20
-232.12478092148569
 30
0.0
 11
185.7569396188153
 21
-228.3247914440268
 31
0.0
  0
LINE
  5
298
  8
0
 62
     0
 10
175.06425671399981
 20
-237.32041807399449
 30
0.0
 11
182.9508638946144
 21
-229.43381089338001
 31
0.0
  0
LINE
  5
299
  8
0
 62
     0
 10
176.54704047391979
 20
-234.1405780392268
 30
0.0
 11
182.1023357572515
 21
-228.58528275589509
 31
0.0
  0
LINE
  5
29A
  8
0
 62
     0
 10
178.0298242338398
 20
-230.9607380044591
 30
0.0
 11
180.6657813168132
 21
-228.32478092148571
 31
0.0
  0
LINE
  5
29B
  8
0
 62
     0
 10
209.1098505389198
 20
-232.12478092148569
 30
0.0
 11
211.3758422309904
 21
-229.85878922941509
 31
0.0
  0
LINE
  5
29C
  8
0
 62
     0
 10
210.80690681376751
 20
-232.12478092148569
 30
0.0
 11
214.22437036950319
 21
-228.70731736574999
 31
0.0
  0
LINE
  5
29D
  8
0
 62
     0
 10
212.50396308861519
 20
-232.12478092148569
 30
0.0
 11
215.07289850612449
 21
-229.55584550397629
 31
0.0
  0
LINE
  5
29E
  8
0
 62
     0
 10
214.2010193634629
 20
-232.12478092148569
 30
0.0
 11
217.92142664463739
 21
-228.40437364031121
 31
0.0
  0
LINE
  5
29F
  8
0
 62
     0
 10
215.8980756383107
 20
-232.12478092148569
 30
0.0
 11
218.7699547812588
 21
-229.25290177853759
 31
0.0
  0
LINE
  5
2A0
  8
0
 62
     0
 10
217.59513191315841
 20
-232.12478092148569
 30
0.0
 11
219.6569060879728
 21
-230.06300674667131
 31
0.0
  0
LINE
  5
2A1
  8
0
 62
     0
 10
235.71842589993059
 20
-214.00148693471351
 30
0.0
 11
236.09813760912081
 21
-213.62177522552329
 31
0.0
  0
LINE
  5
2A2
  8
0
 62
     0
 10
219.29218818800609
 20
-232.12478092148569
 30
0.0
 11
222.46701105639301
 21
-228.94995805309881
 31
0.0
  0
LINE
  5
2A3
  8
0
 62
     0
 10
235.8307589290566
 20
-215.5862101804351
 30
0.0
 11
237.75680214408459
 21
-213.66016696540731
 31
0.0
  0
LINE
  5
2A4
  8
0
 62
     0
 10
220.98924446285369
 20
-232.12478092148569
 30
0.0
 11
223.31553919301439
 21
-229.79848619132511
 31
0.0
  0
LINE
  5
2A5
  8
0
 62
     0
 10
235.96425034784821
 20
-217.14977503649121
 30
0.0
 11
238.65505413171411
 21
-214.45897125262539
 31
0.0
  0
LINE
  5
2A6
  8
0
 62
     0
 10
222.68630073770149
 20
-232.12478092148569
 30
0.0
 11
226.16406733152721
 21
-228.64701432766
 31
0.0
  0
LINE
  5
2A7
  8
0
 62
     0
 10
236.09774176663981
 20
-218.7133398925474
 30
0.0
 11
240.49170139511509
 21
-214.31938026407209
 31
0.0
  0
LINE
  5
2A8
  8
0
 62
     0
 10
224.3833570125492
 20
-232.12478092148569
 30
0.0
 11
227.01259546814859
 21
-229.4955424658863
 31
0.0
  0
LINE
  5
2A9
  8
0
 62
     0
 10
240.3833570125492
 20
-216.12478092148569
 30
0.0
 11
242.8734283157458
 21
-213.63470961828909
 31
0.0
  0
LINE
  5
2AA
  8
0
 62
     0
 10
236.23123318543139
 20
-220.2769047486035
 30
0.0
 11
238.6632993103382
 21
-217.84483862369669
 31
0.0
  0
LINE
  5
2AB
  8
0
 62
     0
 10
226.08041328739691
 20
-232.12478092148569
 30
0.0
 11
229.85555650101779
 21
-228.34963770786479
 31
0.0
  0
LINE
  5
2AC
  8
0
 62
     0
 10
242.08041328739699
 20
-216.12478092148569
 30
0.0
 11
244.73556149372939
 21
-213.4696327151533
 31
0.0
  0
LINE
  5
2AD
  8
0
 62
     0
 10
236.36472460422291
 20
-221.84046960465969
 30
0.0
 11
238.6632993103382
 21
-219.5418948985444
 31
0.0
  0
LINE
  5
2AE
  8
0
 62
     0
 10
227.77746956224459
 20
-232.12478092148569
 30
0.0
 11
230.7096517433306
 21
-229.1925987403998
 31
0.0
  0
LINE
  5
2AF
  8
0
 62
     0
 10
243.64977256709091
 20
-216.25247791663949
 30
0.0
 11
245.6387437250626
 21
-214.2635067586678
 31
0.0
  0
LINE
  5
2B0
  8
0
 62
     0
 10
236.49821602301449
 20
-223.40403446071579
 30
0.0
 11
238.6632993103382
 21
-221.23895117339211
 31
0.0
  0
LINE
  5
2B1
  8
0
 62
     0
 10
229.47452583709239
 20
-232.12478092148569
 30
0.0
 11
231.57033670025399
 21
-230.02897005832401
 31
0.0
  0
LINE
  5
2B2
  8
0
 62
     0
 10
243.66329931033829
 20
-217.93600744823979
 30
0.0
 11
247.4829158398494
 21
-214.11639091872871
 31
0.0
  0
LINE
  5
2B3
  8
0
 62
     0
 10
236.6317074418061
 20
-224.9675993167719
 30
0.0
 11
238.6632993103382
 21
-222.93600744823979
 31
0.0
  0
LINE
  5
2B4
  8
0
 62
     0
 10
231.17158211194001
 20
-232.12478092148569
 30
0.0
 11
238.6632993103382
 21
-224.63306372308759
 31
0.0
  0
LINE
  5
2B5
  8
0
 62
     0
 10
247.67158211194001
 20
-215.62478092148569
 30
0.0
 11
249.3575041129225
 21
-213.93885892050329
 31
0.0
  0
LINE
  5
2B6
  8
0
 62
     0
 10
243.66329931033829
 20
-219.6330637230875
 30
0.0
 11
245.66329931033829
 21
-217.6330637230875
 31
0.0
  0
LINE
  5
2B7
  8
0
 62
     0
 10
243.66329931033829
 20
-221.33011999793521
 30
0.0
 11
245.66329931033829
 21
-219.33011999793521
 31
0.0
  0
LINE
  5
2B8
  8
0
 62
     0
 10
249.36863838678769
 20
-215.62478092148569
 30
0.0
 11
251.81736236040061
 21
-213.17605694787289
 31
0.0
  0
LINE
  5
2B9
  8
0
 62
     0
 10
243.66329931033829
 20
-223.02717627278301
 30
0.0
 11
245.66329931033829
 21
-221.02717627278301
 31
0.0
  0
LINE
  5
2BA
  8
0
 62
     0
 10
251.06569466163549
 20
-215.62478092148569
 30
0.0
 11
253.5433450284475
 21
-213.14713055467379
 31
0.0
  0
LINE
  5
2BB
  8
0
 62
     0
 10
243.66329931033829
 20
-224.72423254763069
 30
0.0
 11
245.66329931033829
 21
-222.72423254763069
 31
0.0
  0
LINE
  5
2BC
  8
0
 62
     0
 10
251.66329931033829
 20
-216.72423254763069
 30
0.0
 11
253.66329931033829
 21
-214.72423254763069
 31
0.0
  0
LINE
  5
2BD
  8
0
 62
     0
 10
243.66329931033829
 20
-226.4212888224784
 30
0.0
 11
245.66329931033829
 21
-224.4212888224784
 31
0.0
  0
LINE
  5
2BE
  8
0
 62
     0
 10
251.66329931033829
 20
-218.4212888224784
 30
0.0
 11
253.66329931033829
 21
-216.4212888224784
 31
0.0
  0
LINE
  5
2BF
  8
0
 62
     0
 10
243.66329931033829
 20
-228.11834509732611
 30
0.0
 11
245.66329931033829
 21
-226.11834509732611
 31
0.0
  0
LINE
  5
2C0
  8
0
 62
     0
 10
243.66329931033829
 20
-229.8154013721738
 30
0.0
 11
245.66329931033829
 21
-227.8154013721738
 31
0.0
  0
LINE
  5
2C1
  8
0
 62
     0
 10
243.66329931033829
 20
-231.51245764702159
 30
0.0
 11
245.70398528659049
 21
-229.4717716707693
 31
0.0
  0
LINE
  5
2C2
  8
0
 62
     0
 10
244.74803231072181
 20
-232.12478092148569
 30
0.0
 11
246.4360963771106
 21
-230.4367168550969
 31
0.0
  0
LINE
  5
2C3
  8
0
 62
     0
 10
246.44508858556949
 20
-232.12478092148569
 30
0.0
 11
247.94508858556949
 21
-230.62478092148569
 31
0.0
  0
LINE
  5
2C4
  8
0
 62
     0
 10
248.1421448604172
 20
-232.12478092148569
 30
0.0
 11
249.6421448604172
 21
-230.62478092148569
 31
0.0
  0
LINE
  5
2C5
  8
0
 62
     0
 10
251.66329931033829
 20
-228.60362647156461
 30
0.0
 11
252.6421448604172
 21
-227.62478092148569
 31
0.0
  0
LINE
  5
2C6
  8
0
 62
     0
 10
249.83920113526489
 20
-232.12478092148569
 30
0.0
 11
251.33920113526489
 21
-230.62478092148569
 31
0.0
  0
LINE
  5
2C7
  8
0
 62
     0
 10
251.66329931033829
 20
-230.30068274641229
 30
0.0
 11
253.6223695195292
 21
-228.34161253722149
 31
0.0
  0
LINE
  5
2C8
  8
0
 62
     0
 10
251.53625741011271
 20
-232.12478092148569
 30
0.0
 11
253.66329931033829
 21
-229.99773902126009
 31
0.0
  0
LINE
  5
2C9
  8
0
 62
     0
 10
253.23331368496039
 20
-232.12478092148569
 30
0.0
 11
253.66329931033829
 21
-231.69479529610791
 31
0.0
  0
ENDBLK
  5
2CB
  8
0
  0
BLOCK
  8
0
  2
*D3
 70
     1
 10
0.0
 20
0.0
 30
0.0
  3
*D3
  1

  0
LINE
  5
31C
  8
1
 10
-2.9999999999995448
 20
-1.7999999999999541
 30
0.0
 11
-2.9999999999995461
 21
-15.586675203713289
 31
0.0
  0
LINE
  5
31D
  8
1
 10
-82.999999999999545
 20
-10.163032306626061
 30
0.0
 11
-82.999999999999545
 21
-15.586675203713289
 31
0.0
  0
LINE
  5
31E
  8
1
 10
-1.9999999999995459
 20
-14.5866752037133
 30
0.0
 11
-83.999999999999545
 21
-14.5866752037133
 31
0.0
  0
INSERT
  5
31F
  8
1
  2
_OBLIQUE
 10
-2.9999999999995461
 20
-14.5866752037133
 30
0.0
 41
2.0
 42
2.0
 43
2.0
  0
INSERT
  5
320
  8
1
  2
_OBLIQUE
 10
-82.999999999999545
 20
-14.5866752037133
 30
0.0
 41
2.0
 42
2.0
 43
2.0
 50
180.0
  0
TEXT
  5
321
  8
0
 10
-45.701398362891773
 20
-13.5198266361826
 30
0.0
 40
3.5
  1
80
  7
BESCHLAG
  0
POINT
  5
322
  8
DEFPOINTS
 62
     0
 10
-2.9999999999995448
 20
0.2000000000000455
 30
0.0
  0
POINT
  5
323
  8
DEFPOINTS
 62
     0
 10
-82.999999999999545
 20
-8.1630323066260644
 30
0.0
  0
POINT
  5
324
  8
DEFPOINTS
 62
     0
 10
-82.999999999999545
 20
-14.5866752037133
 30
0.0
  0
ENDBLK
  5
301
  8
0
  0
BLOCK
  8
0
  2
*D4
 70
     1
 10
0.0
 20
0.0
 30
0.0
  3
*D4
  1

  0
LINE
  5
325
  8
1
 10
-5.0
 20
19.0
 30
0.0
 11
-26.475890698066902
 21
19.0
 31
0.0
  0
LINE
  5
326
  8
1
 10
-2.0
 20
0.0000000000000006
 30
0.0
 11
-26.475890698066902
 21
0.0000000000000075
 31
0.0
  0
LINE
  5
327
  8
1
 10
-25.475890698066902
 20
20.0
 30
0.0
 11
-25.475890698066902
 21
-0.9999999999999927
 31
0.0
  0
INSERT
  5
328
  8
1
  2
_OBLIQUE
 10
-25.475890698066902
 20
19.0
 30
0.0
 41
2.0
 42
2.0
 43
2.0
 50
90.0
  0
INSERT
  5
329
  8
1
  2
_OBLIQUE
 10
-25.475890698066902
 20
0.0000000000000072
 30
0.0
 41
2.0
 42
2.0
 43
2.0
 50
270.0
  0
TEXT
  5
32A
  8
0
 10
-26.5427392655976
 20
6.62193042291951
 30
0.0
 40
3.5
  1
19
 50
90.0
  7
BESCHLAG
  0
POINT
  5
32B
  8
DEFPOINTS
 62
     0
 10
-3.0
 20
19.0
 30
0.0
  0
POINT
  5
32C
  8
DEFPOINTS
 62
     0
 10
0.0
 20
0.0
 30
0.0
  0
POINT
  5
32D
  8
DEFPOINTS
 62
     0
 10
-25.475890698066902
 20
0.0000000000000072
 30
0.0
  0
ENDBLK
  5
30D
  8
0
  0
BLOCK
  8
0
  2
*D5
 70
     1
 10
0.0
 20
0.0
 30
0.0
  3
*D5
  1

  0
LINE
  5
32E
  8
1
 10
-0.0000000000000001
 20
-2.0
 30
0.0
 11
-0.0000000000000008
 21
-13.70183603046098
 31
0.0
  0
LINE
  5
32F
  8
1
 10
-2.9999999999995448
 20
-2.0
 30
0.0
 11
-2.9999999999995461
 21
-13.70183603046098
 31
0.0
  0
LINE
  5
330
  8
1
 10
-0.0000000000000008
 20
-12.70183603046098
 30
0.0
 11
1.9999999999999989
 21
-12.70183603046098
 31
0.0
  0
LINE
  5
331
  8
1
 10
-2.9999999999995461
 20
-12.70183603046098
 30
0.0
 11
-4.9999999999995461
 21
-12.70183603046098
 31
0.0
  0
LINE
  5
332
  8
1
 10
-0.0000000000000008
 20
-12.70183603046098
 30
0.0
 11
-2.9999999999995461
 21
-12.70183603046098
 31
0.0
  0
INSERT
  5
333
  8
1
  2
_OBLIQUE
 10
-0.0000000000000008
 20
-12.70183603046098
 30
0.0
 41
2.0
 42
2.0
 43
2.0
 50
180.0
  0
INSERT
  5
334
  8
1
  2
_OBLIQUE
 10
-2.9999999999995461
 20
-12.70183603046098
 30
0.0
 41
2.0
 42
2.0
 43
2.0
  0
TEXT
  5
335
  8
0
 10
-2.8512960436559802
 20
-11.632600014089901
 30
0.0
 40
3.5
  1
3
  7
BESCHLAG
  0
POINT
  5
336
  8
DEFPOINTS
 62
     0
 10
0.0
 20
0.0
 30
0.0
  0
POINT
  5
337
  8
DEFPOINTS
 62
     0
 10
-2.9999999999995448
 20
0.0
 30
0.0
  0
POINT
  5
338
  8
DEFPOINTS
 62
     0
 10
-2.9999999999995461
 20
-12.70183603046098
 30
0.0
  0
ENDBLK
  5
31B
  8
0
  0
ENDSEC
  0
SECTION
  2
ENTITIES
  0
INSERT
  5
25B
  8
5
  2
NULLPUNKT
 10
0.0
 20
0.0
 30
0.0
  0
DIMENSION
  5
2EA
  8
1
  2
*D3
 10
-82.999999999999545
 20
-14.5866752037133
 30
0.0
 11
-42.999999999999538
 21
-11.799669746687369
 31
0.0
 70
     0
 13
-2.9999999999995448
 23
0.2000000000000455
 33
0.0
 14
-82.999999999999545
 24
-8.1630323066260644
 34
0.0
  0
INSERT
  5
2EB
  8
2
  2
*X2
 10
-256.66329931033778
 20
232.12478092148581
 30
0.0
1001
ACAD
1000
HATCH
1002
{
1070
    16
1000
_U,I
1040
1.1999999999999991
1040
0.7853981633974483
1070
     0
1002
}
  0
POINT
  5
2EC
  8
5
 10
-10.99999999999954
 20
9.0
 30
0.0
  0
DIMENSION
  5
2ED
  8
1
  2
*D4
 10
-25.475890698066902
 20
0.0000000000000072
 30
0.0
 11
-28.262896155092822
 21
9.5000000000000018
 31
0.0
 70
     0
 13
-3.0
 23
19.0
 33
0.0
 14
0.0
 24
0.0
 34
0.0
 50
90.0
  0
DIMENSION
  5
2EE
  8
1
  2
*D5
 10
-2.9999999999995461
 20
-12.70183603046098
 30
0.0
 11
-1.4999999999997731
 21
-9.9136368490148694
 31
0.0
 70
     0
 13
0.0
 23
0.0
 33
0.0
 14
-2.9999999999995448
 24
0.0
 34
0.0
  0
TEXT
  5
2EF
  8
1
 10
-64.909858457457858
 20
5.8519935116994466
 30
0.0
 40
2.4999999499999999
  1
Hebgo 168/510
  0
POLYLINE
  5
2F0
  8
6
 66
     1
 10
0.0
 20
0.0
 30
0.0
 70
     1
  0
VERTEX
  5
3FC
  8
6
 10
-0.3645153253723947
 20
9.0310627181947893
 30
0.0
 42
-0.3396459278126291
  0
VERTEX
  5
3FD
  8
6
 10
-1.3807353633039829
 20
8.0553826549321457
 30
0.0
 42
0.2290384838080409
  0
VERTEX
  5
3FE
  8
6
 10
-1.6392044158533281
 20
7.5870363827389147
 30
0.0
 42
-0.0495274142367796
  0
VERTEX
  5
3FF
  8
6
 10
-1.543201624906487
 20
6.183531342605419
 30
0.0
 42
-0.3865683931477528
  0
VERTEX
  5
400
  8
6
 10
-3.0535372551939872
 20
4.7365553530373736
 30
0.0
  0
VERTEX
  5
401
  8
6
 10
-4.9999999999995453
 20
4.7365553530373736
 30
0.0
  0
VERTEX
  5
402
  8
6
 10
-4.9993019985647598
 20
1.8842827181947539
 30
0.0
  0
VERTEX
  5
403
  8
6
 10
-7.103978494000784
 20
1.8842827181947539
 30
0.0
 42
-0.1456668646717068
  0
VERTEX
  5
404
  8
6
 10
-7.4362958472786431
 20
2.0468848717139281
 30
0.0
  0
VERTEX
  5
405
  8
6
 10
-10.375458115838001
 20
4.6766101065588819
 30
0.0
 42
-0.2175161131445625
  0
VERTEX
  5
406
  8
6
 10
-10.375458115838001
 20
6.028407082043941
 30
0.0
  0
VERTEX
  5
407
  8
6
 10
-8.2633967903288976
 20
8.5103949512556483
 30
0.0
 42
0.1597389130517352
  0
VERTEX
  5
408
  8
6
 10
-8.0709255058950475
 20
9.0310627181947893
 30
0.0
 42
0.1597389130517352
  0
VERTEX
  5
409
  8
6
 10
-8.2633967903288976
 20
9.5517304851339304
 30
0.0
  0
VERTEX
  5
40A
  8
6
 10
-10.375458115838001
 20
12.033718354345631
 30
0.0
 42
-0.2175161131445625
  0
VERTEX
  5
40B
  8
6
 10
-10.375458115838001
 20
13.38551532983046
 30
0.0
  0
VERTEX
  5
40C
  8
6
 10
-7.4362958472786431
 20
16.015240564675651
 30
0.0
 42
-0.1456668646717068
  0
VERTEX
  5
40D
  8
6
 10
-7.103978494000784
 20
16.177842718194821
 30
0.0
  0
VERTEX
  5
40E
  8
6
 10
-4.9993019985647598
 20
16.177842718194821
 30
0.0
  0
VERTEX
  5
40F
  8
6
 10
-4.9999999999995453
 20
13.32557008335197
 30
0.0
  0
VERTEX
  5
410
  8
6
 10
-3.0535372551939872
 20
13.32557008335197
 30
0.0
 42
-0.3865683931477528
  0
VERTEX
  5
411
  8
6
 10
-1.543201624906487
 20
11.87859409378393
 30
0.0
 42
-0.0495274142367796
  0
VERTEX
  5
412
  8
6
 10
-1.6392044158533281
 20
10.47508905365066
 30
0.0
 42
0.2290384838080409
  0
VERTEX
  5
413
  8
6
 10
-1.3807353633039829
 20
10.0067427814572
 30
0.0
 42
-0.3396459278126291
  0
SEQEND
  5
414
  8
6
  0
POLYLINE
  5
2F1
  8
6
 66
     1
 10
0.0
 20
0.0
 30
0.0
 70
     1
  0
VERTEX
  5
415
  8
6
 10
-2.696478878922107
 20
9.0310627181947893
 30
0.0
 42
0.0378881483117028
  0
VERTEX
  5
416
  8
6
 10
-2.4830437094992699
 20
6.3052430720176744
 30
0.0
 42
-0.6807651047950749
  0
VERTEX
  5
417
  8
6
 10
-3.0408653153317569
 20
5.788598996239898
 30
0.0
  0
VERTEX
  5
418
  8
6
 10
-6.2569479026435602
 20
6.7736670522644991
 30
0.0
 42
-0.3537105754507803
  0
VERTEX
  5
419
  8
6
 10
-6.4428884295516582
 20
7.049210550463612
 30
0.0
 42
0.0918688552654281
  0
VERTEX
  5
41A
  8
6
 10
-6.1515426389742061
 20
9.0310627181947893
 30
0.0
 42
0.0918688552654281
  0
VERTEX
  5
41B
  8
6
 10
-6.4428884295516582
 20
11.01291488592573
 30
0.0
 42
-0.3537105754507803
  0
VERTEX
  5
41C
  8
6
 10
-6.2569479026435602
 20
11.28845838412507
 30
0.0
  0
VERTEX
  5
41D
  8
6
 10
-3.0408653153317569
 20
12.27352644014945
 30
0.0
 42
-0.6807651047950749
  0
VERTEX
  5
41E
  8
6
 10
-2.4830437094992699
 20
11.756882364371901
 30
0.0
 42
0.0378881483117028
  0
SEQEND
  5
41F
  8
6
  0
POLYLINE
  5
2F2
  8
5
 66
     1
 10
0.0
 20
0.0
 30
0.0
  0
VERTEX
  5
420
  8
5
 10
0.0
 20
-17.050471313595828
 30
0.0
  0
VERTEX
  5
421
  8
5
 10
0.0
 20
0.0
 30
0.0
  0
VERTEX
  5
422
  8
5
 10
-45.0
 20
0.0
 30
0.0
  0
VERTEX
  5
423
  8
5
 10
-45.0
 20
-4.4984250289921874
 30
0.0
  0
SEQEND
  5
424
  8
5
  0
LINE
  5
2F3
  8
6
  6
STRICHPUNKT
 10
-15.453173677788071
 20
19.325012432759191
 30
0.0
 11
-15.453173677788071
 21
-15.203712118815931
 31
0.0
  0
POLYLINE
  5
2F4
  8
6
 66
     1
 10
0.0
 20
0.0
 30
0.0
 70
     1
  0
VERTEX
  5
425
  8
6
 10
-24.041566400791449
 20
0.0
 30
0.0
  0
VERTEX
  5
426
  8
6
 10
-76.290418353560653
 20
0.0
 30
0.0
 42
0.2914734195860873
  0
VERTEX
  5
427
  8
6
 10
-76.471679910968064
 20
-0.1154763476520202
 30
0.0
  0
VERTEX
  5
428
  8
6
 10
-80.193092447872004
 20
-8.0960712871133182
 30
0.0
 42
-0.2914734195860845
  0
VERTEX
  5
429
  8
6
 10
-80.356227849538527
 20
-8.2000000000000455
 30
0.0
  0
VERTEX
  5
42A
  8
6
 10
-82.717456596118154
 20
-8.2000000000000455
 30
0.0
 42
-0.5486187866266673
  0
VERTEX
  5
42B
  8
6
 10
-82.880591997784904
 20
-7.9439287128866454
 30
0.0
  0
VERTEX
  5
42C
  8
6
 10
-77.458155607385379
 20
3.6845236523481608
 30
0.0
 42
-0.2914734195860876
  0
VERTEX
  5
42D
  8
6
 10
-77.276894049977955
 20
3.7999999999999541
 30
0.0
  0
VERTEX
  5
42E
  8
6
 10
-74.90430809994109
 20
3.7999999999999541
 30
0.0
 42
-0.1989123673796559
  0
VERTEX
  5
42F
  8
6
 10
-74.762886743703802
 20
3.7414213562371961
 30
0.0
  0
VERTEX
  5
430
  8
6
 10
-73.187150812739205
 20
2.165685425045921
 30
0.0
 42
0.4142135621382669
  0
VERTEX
  5
431
  8
6
 10
-72.621465388016986
 20
2.1656854248192299
 30
0.0
  0
VERTEX
  5
432
  8
6
 10
-71.045729453521744
 20
3.7414213565609771
 30
0.0
 42
-0.4142135623730951
  0
VERTEX
  5
433
  8
6
 10
-70.762886741047154
 20
3.7414213565609771
 30
0.0
  0
VERTEX
  5
434
  8
6
 10
-69.187150812966138
 20
2.1656854254995319
 30
0.0
 42
0.4142135623730951
  0
VERTEX
  5
435
  8
6
 10
-68.621465388016986
 20
2.1656854250461488
 30
0.0
  0
VERTEX
  5
436
  8
6
 10
-67.045729453521744
 20
3.7414213565609771
 30
0.0
 42
-0.4142135623730951
  0
VERTEX
  5
437
  8
6
 10
-66.762886741047168
 20
3.7414213565609771
 30
0.0
  0
VERTEX
  5
438
  8
6
 10
-65.187150812966138
 20
2.1656854254995319
 30
0.0
 42
0.4142135623730951
  0
VERTEX
  5
439
  8
6
 10
-64.621465388016986
 20
2.1656854250461488
 30
0.0
  0
VERTEX
  5
43A
  8
6
 10
-63.045729453521737
 20
3.7414213565609771
 30
0.0
 42
-0.4142135623730951
  0
VERTEX
  5
43B
  8
6
 10
-62.762886741047168
 20
3.7414213565609771
 30
0.0
  0
VERTEX
  5
43C
  8
6
 10
-61.187150812966131
 20
2.1656854258867488
 30
0.0
 42
0.4142135627739689
  0
VERTEX
  5
43D
  8
6
 10
-60.621465387629769
 20
2.1656854258203562
 30
0.0
  0
VERTEX
  5
43E
  8
6
 10
-59.045729458609451
 20
3.7414213565609771
 30
0.0
 42
-0.4142135623730992
  0
VERTEX
  5
43F
  8
6
 10
-58.762886746134882
 20
3.7414213565609771
 30
0.0
  0
VERTEX
  5
440
  8
6
 10
-57.187150812579148
 20
2.1656854247253241
 30
0.0
 42
0.4142135619722258
  0
VERTEX
  5
441
  8
6
 10
-56.621465388016993
 20
2.165685424658931
 30
0.0
  0
VERTEX
  5
442
  8
6
 10
-55.045729453521737
 20
3.7414213565609771
 30
0.0
 42
-0.4142135623730951
  0
VERTEX
  5
443
  8
6
 10
-54.762886741047168
 20
3.7414213565609771
 30
0.0
  0
VERTEX
  5
444
  8
6
 10
-53.187150812966131
 20
2.1656854254995319
 30
0.0
 42
0.4142135623730951
  0
VERTEX
  5
445
  8
6
 10
-52.621465388016979
 20
2.1656854250461488
 30
0.0
  0
VERTEX
  5
446
  8
6
 10
-51.045729453521737
 20
3.7414213565609771
 30
0.0
 42
-0.4142135623730951
  0
VERTEX
  5
447
  8
6
 10
-50.762886741047161
 20
3.7414213565609771
 30
0.0
  0
VERTEX
  5
448
  8
6
 10
-49.187150812966138
 20
2.1656854254995319
 30
0.0
 42
0.4142135623730951
  0
VERTEX
  5
449
  8
6
 10
-48.621465388016993
 20
2.1656854250461488
 30
0.0
  0
VERTEX
  5
44A
  8
6
 10
-47.045729453521737
 20
3.7414213565609771
 30
0.0
 42
-0.4142135623730951
  0
VERTEX
  5
44B
  8
6
 10
-46.762886741047168
 20
3.7414213565609771
 30
0.0
  0
VERTEX
  5
44C
  8
6
 10
-45.187150812966138
 20
2.1656854254995319
 30
0.0
 42
0.4142135623730951
  0
VERTEX
  5
44D
  8
6
 10
-44.621465388016979
 20
2.1656854250461488
 30
0.0
  0
VERTEX
  5
44E
  8
6
 10
-43.045729453521737
 20
3.7414213565609771
 30
0.0
 42
-0.4142135623730951
  0
VERTEX
  5
44F
  8
6
 10
-42.762886741047168
 20
3.7414213565609771
 30
0.0
  0
VERTEX
  5
450
  8
6
 10
-41.187150812966131
 20
2.1656854254995319
 30
0.0
 42
0.4142135623730951
  0
VERTEX
  5
451
  8
6
 10
-40.621465388016979
 20
2.1656854250461488
 30
0.0
  0
VERTEX
  5
452
  8
6
 10
-39.045729453521737
 20
3.7414213565609771
 30
0.0
 42
-0.4142135623730951
  0
VERTEX
  5
453
  8
6
 10
-38.762886741047168
 20
3.7414213565609771
 30
0.0
  0
VERTEX
  5
454
  8
6
 10
-37.187150812966131
 20
2.1656854254995319
 30
0.0
 42
0.4142135623730951
  0
VERTEX
  5
455
  8
6
 10
-36.621465388016979
 20
2.1656854250461488
 30
0.0
  0
VERTEX
  5
456
  8
6
 10
-35.045729453521737
 20
3.7414213565609771
 30
0.0
 42
-0.4142135623730951
  0
VERTEX
  5
457
  8
6
 10
-34.762886741047168
 20
3.7414213565609771
 30
0.0
  0
VERTEX
  5
458
  8
6
 10
-33.187150812966131
 20
2.1656854254995319
 30
0.0
 42
0.4142135623730951
  0
VERTEX
  5
459
  8
6
 10
-32.621465388016979
 20
2.1656854250461488
 30
0.0
  0
VERTEX
  5
45A
  8
6
 10
-31.045729453521741
 20
3.7414213565609771
 30
0.0
 42
-0.4142135623730951
  0
VERTEX
  5
45B
  8
6
 10
-30.762886741047161
 20
3.7414213565609771
 30
0.0
  0
VERTEX
  5
45C
  8
6
 10
-29.187150812966141
 20
2.1656854254995319
 30
0.0
 42
0.4142135623730951
  0
VERTEX
  5
45D
  8
6
 10
-28.621465388016979
 20
2.1656854250461488
 30
0.0
  0
VERTEX
  5
45E
  8
6
 10
-27.045729453521741
 20
3.7414213565609771
 30
0.0
 42
-0.4142135623730951
  0
VERTEX
  5
45F
  8
6
 10
-26.762886741047161
 20
3.7414213565609771
 30
0.0
  0
VERTEX
  5
460
  8
6
 10
-25.187150812966141
 20
2.165685425685524
 30
0.0
 42
0.4142135625656104
  0
VERTEX
  5
461
  8
6
 10
-24.621465387830991
 20
2.1656854254179052
 30
0.0
  0
VERTEX
  5
462
  8
6
 10
-20.13153090928903
 20
6.6556199023950731
 30
0.0
 42
0.2211447953950451
  0
VERTEX
  5
463
  8
6
 10
-20.015823523462132
 20
6.9724893569866699
 30
0.0
  0
VERTEX
  5
464
  8
6
 10
-20.954952342140579
 20
17.97236357727456
 30
0.0
 42
-0.4311270769577655
  0
VERTEX
  5
465
  8
6
 10
-20.47064825293478
 20
18.514704215196161
 30
0.0
  0
VERTEX
  5
466
  8
6
 10
-19.084441625139561
 20
18.553209954857032
 30
0.0
 42
-0.202523552024033
  0
VERTEX
  5
467
  8
6
 10
-18.939444105845489
 20
18.496658411463841
 30
0.0
  0
VERTEX
  5
468
  8
6
 10
-18.143371340736842
 20
17.722391711103221
 30
0.0
 42
0.4142135623730836
  0
VERTEX
  5
469
  8
6
 10
-17.860555894153539
 20
17.726318945994532
 30
0.0
  0
VERTEX
  5
46A
  8
6
 10
-17.139444105845541
 20
18.467739770373779
 30
0.0
 42
-0.4142135623730939
  0
VERTEX
  5
46B
  8
6
 10
-16.856628659262238
 20
18.47166700526509
 30
0.0
  0
VERTEX
  5
46C
  8
6
 10
-16.06055589415336
 20
17.69740030490447
 30
0.0
 42
0.2025235520240524
  0
VERTEX
  5
46D
  8
6
 10
-15.9155583748593
 20
17.640848761511052
 30
0.0
  0
VERTEX
  5
46E
  8
6
 10
-15.081189268025801
 20
17.6640256811454
 30
0.0
 42
0.1953061662907211
  0
VERTEX
  5
46F
  8
6
 10
-14.94337134073657
 20
17.724504459429909
 30
0.0
  0
VERTEX
  5
470
  8
6
 10
-14.13944410584554
 20
18.551073103707029
 30
0.0
 42
-0.4142135623730831
  0
VERTEX
  5
471
  8
6
 10
-13.85662865926224
 20
18.55500033859834
 30
0.0
  0
VERTEX
  5
472
  8
6
 10
-13.14337134073684
 20
17.861280599992138
 30
0.0
 42
0.4142135623730836
  0
VERTEX
  5
473
  8
6
 10
-12.86055589415354
 20
17.865207834883439
 30
0.0
  0
VERTEX
  5
474
  8
6
 10
-12.13944410584554
 20
18.606628659262689
 30
0.0
 42
-0.4142135623730792
  0
VERTEX
  5
475
  8
6
 10
-11.85662865926224
 20
18.610555894154
 30
0.0
  0
VERTEX
  5
476
  8
6
 10
-11.14337134073684
 20
17.916836155547792
 30
0.0
 42
0.4142135623730836
  0
VERTEX
  5
477
  8
6
 10
-10.86055589415354
 20
17.920763390438871
 30
0.0
  0
VERTEX
  5
478
  8
6
 10
-10.13944410584554
 20
18.662184214818119
 30
0.0
 42
-0.4142135623730836
  0
VERTEX
  5
479
  8
6
 10
-9.8566286592622419
 20
18.66611144970943
 30
0.0
  0
VERTEX
  5
47A
  8
6
 10
-9.1433713407368487
 20
17.972391711103221
 30
0.0
 42
0.4142135623730798
  0
VERTEX
  5
47B
  8
6
 10
-8.8605558941535492
 20
17.976318945994532
 30
0.0
  0
VERTEX
  5
47C
  8
6
 10
-8.1394441058455413
 20
18.717739770373779
 30
0.0
 42
-0.4142135623730974
  0
VERTEX
  5
47D
  8
6
 10
-7.856628659262241
 20
18.721667005265079
 30
0.0
  0
VERTEX
  5
47E
  8
6
 10
-7.1433713407368478
 20
18.027947266658881
 30
0.0
 42
0.4142135623730874
  0
VERTEX
  5
47F
  8
6
 10
-6.8605558941535492
 20
18.031874501549961
 30
0.0
  0
VERTEX
  5
480
  8
6
 10
-6.0566286592620591
 20
18.858443145827319
 30
0.0
 42
-0.1953061662907325
  0
VERTEX
  5
481
  8
6
 10
-5.918810731972826
 20
18.918921924111821
 30
0.0
  0
VERTEX
  5
482
  8
6
 10
-3.2055534134474319
 20
18.99429018295973
 30
0.0
 42
-0.422370983228467
  0
VERTEX
  5
483
  8
6
 10
-2.9999999999995448
 20
18.794367298829229
 30
0.0
  0
VERTEX
  5
484
  8
6
 10
-2.9999999999995448
 20
14.5
 30
0.0
 42
-0.4142135623730951
  0
VERTEX
  5
485
  8
6
 10
-3.9999999999995448
 20
13.5
 30
0.0
  0
VERTEX
  5
486
  8
6
 10
-4.7999999999994989
 20
13.5
 30
0.0
 42
-0.4142135623730951
  0
VERTEX
  5
487
  8
6
 10
-4.9999999999995453
 20
13.70000000000004
 30
0.0
  0
VERTEX
  5
488
  8
6
 10
-4.9999999999995453
 20
16.299999999999951
 30
0.0
 42
0.4142135623730951
  0
VERTEX
  5
489
  8
6
 10
-5.1999999999993634
 20
16.5
 30
0.0
  0
VERTEX
  5
48A
  8
6
 10
-9.4999999999995453
 20
16.5
 30
0.0
 42
0.4142135623730951
  0
VERTEX
  5
48B
  8
6
 10
-10.99999999999954
 20
15.0
 30
0.0
  0
VERTEX
  5
48C
  8
6
 10
-10.99999999999954
 20
3.0
 30
0.0
 42
0.4142135623730951
  0
VERTEX
  5
48D
  8
6
 10
-9.4999999999995453
 20
1.5
 30
0.0
  0
VERTEX
  5
48E
  8
6
 10
-5.1999999999993634
 20
1.5
 30
0.0
 42
0.4142135623730951
  0
VERTEX
  5
48F
  8
6
 10
-4.9999999999995453
 20
1.700000000000045
 30
0.0
  0
VERTEX
  5
490
  8
6
 10
-4.9999999999995453
 20
4.2999999999999536
 30
0.0
 42
-0.4142135623730951
  0
VERTEX
  5
491
  8
6
 10
-4.7999999999994989
 20
4.5
 30
0.0
  0
VERTEX
  5
492
  8
6
 10
-3.9999999999995448
 20
4.5
 30
0.0
 42
-0.4142135623730951
  0
VERTEX
  5
493
  8
6
 10
-2.9999999999995448
 20
3.5
 30
0.0
  0
VERTEX
  5
494
  8
6
 10
-2.9999999999995448
 20
0.2000000000000455
 30
0.0
 42
-0.4142135623730951
  0
VERTEX
  5
495
  8
6
 10
-3.1999999999993629
 20
0.0
 30
0.0
  0
VERTEX
  5
496
  8
6
 10
-12.7999999999995
 20
0.0
 30
0.0
 42
-0.4142135623730951
  0
VERTEX
  5
497
  8
6
 10
-12.99999999999954
 20
0.2000000000000455
 30
0.0
  0
VERTEX
  5
498
  8
6
 10
-12.99999999999954
 20
15.799999999999949
 30
0.0
 42
0.4142135623730934
  0
VERTEX
  5
499
  8
6
 10
-13.19999999999936
 20
16.0
 30
0.0
  0
VERTEX
  5
49A
  8
6
 10
-17.7999999999995
 20
16.0
 30
0.0
 42
0.4142135623730951
  0
VERTEX
  5
49B
  8
6
 10
-17.999999999999542
 20
15.799999999999949
 30
0.0
  0
VERTEX
  5
49C
  8
6
 10
-17.999999999999542
 20
6.0415664007919068
 30
0.0
 42
-0.198912367379658
  0
VERTEX
  5
49D
  8
6
 10
-18.058578643762068
 20
5.9001450445546189
 30
0.0
  0
VERTEX
  5
49E
  8
6
 10
-23.900145044554161
 20
0.0585786437627576
 30
0.0
 42
-0.1989123673796573
  0
SEQEND
  5
49F
  8
6
  0
POLYLINE
  5
2F5
  8
4
 66
     1
 10
0.0
 20
0.0
 30
0.0
 70
     1
  0
VERTEX
  5
4A0
  8
4
 10
-80.241555202593645
 20
-8.2000000000000455
 30
0.0
  0
VERTEX
  5
4A1
  8
4
 10
-83.0
 20
-8.2000000000000455
 30
0.0
  0
VERTEX
  5
4A2
  8
4
 10
-77.404308102140021
 20
3.7999999999999541
 30
0.0
  0
VERTEX
  5
4A3
  8
4
 10
-22.987150812509519
 20
3.7999999999999541
 30
0.0
  0
VERTEX
  5
4A4
  8
4
 10
-19.99999999988858
 20
6.7871508117580097
 30
0.0
  0
VERTEX
  5
4A5
  8
4
 10
-21.0
 20
18.5
 30
0.0
  0
VERTEX
  5
4A6
  8
4
 10
-3.0
 20
19.0
 30
0.0
  0
VERTEX
  5
4A7
  8
4
 10
-3.0
 20
0.0
 30
0.0
  0
VERTEX
  5
4A8
  8
4
 10
-76.41783240572272
 20
0.0
 30
0.0
  0
SEQEND
  5
4A9
  8
4
  0
VIEWPORT
  5
22
 67
     1
  8
0
 10
210.0
 20
170.2366863905325
 30
0.0
 40
420.0
 41
340.47337278106511
 68
     1
 69
     1
1001
ACAD
1000
MVIEW
1002
{
1070
    16
1010
0.0
1020
0.0
1030
0.0
1010
0.0
1020
0.0
1030
1.0
1040
0.0
1040
340.47337278106511
1040
210.0
1040
170.2366863905325
1040
50.0
1040
0.0
1040
0.0
1070
     0
1070
   100
1070
     1
1070
     1
1070
     0
1070
     0
1070
     0
1070
     0
1040
0.0
1040
0.0
1040
0.0
1040
5.0
1040
5.0
1040
10.0
1040
10.0
1070
     0
1002
{
1002
}
1002
}
  0
ENDSEC
  0
EOF
