  0
SECTION
  2
HEADER
  9
$ACADVER
  1
AC1009
  9
$INSBASE
 10
0.0
 20
0.0
 30
0.0
  9
$EXTMIN
 10
-31.013487932520771
 20
-12.33673009827816
 30
-0.0000000000000058
  9
$EXTMAX
 10
7.2555547315342892
 20
46.760559660336753
 30
0.0000000000000104
  9
$LIMMIN
 10
-150.0
 20
-150.0
  9
$LIMMAX
 10
150.0
 20
150.0
  9
$ORTHOMODE
 70
     0
  9
$REGENMODE
 70
     1
  9
$FILLMODE
 70
     1
  9
$QTEXTMODE
 70
     0
  9
$MIRRTEXT
 70
     0
  9
$DRAGMODE
 70
     2
  9
$LTSCALE
 40
1.0
  9
$OSMODE
 70
   111
  9
$ATTMODE
 70
     1
  9
$TEXTSIZE
 40
3.5
  9
$TRACEWID
 40
1.0
  9
$TEXTSTYLE
  7
BESCHLAG
  9
$CLAYER
  8
0
  9
$CELTYPE
  6
BYLAYER
  9
$CECOLOR
 62
   256
  9
$DIMSCALE
 40
1.0
  9
$DIMASZ
 40
2.0
  9
$DIMEXO
 40
2.0
  9
$DIMDLI
 40
0.0
  9
$DIMRND
 40
0.0
  9
$DIMDLE
 40
1.0
  9
$DIMEXE
 40
1.0
  9
$DIMTP
 40
0.0
  9
$DIMTM
 40
0.0
  9
$DIMTXT
 40
3.5
  9
$DIMCEN
 40
0.0
  9
$DIMTSZ
 40
0.0
  9
$DIMTOL
 70
     0
  9
$DIMLIM
 70
     0
  9
$DIMTIH
 70
     0
  9
$DIMTOH
 70
     0
  9
$DIMSE1
 70
     0
  9
$DIMSE2
 70
     0
  9
$DIMTAD
 70
     1
  9
$DIMZIN
 70
     8
  9
$DIMBLK
  1

  9
$DIMASO
 70
     1
  9
$DIMSHO
 70
     1
  9
$DIMPOST
  1

  9
$DIMAPOST
  1

  9
$DIMALT
 70
     0
  9
$DIMALTD
 70
     2
  9
$DIMALTF
 40
0.039370078740157
  9
$DIMLFAC
 40
1.0
  9
$DIMTOFL
 70
     1
  9
$DIMTVP
 40
0.0
  9
$DIMTIX
 70
     1
  9
$DIMSOXD
 70
     0
  9
$DIMSAH
 70
     1
  9
$DIMBLK1
  1
OBLIQUE
  9
$DIMBLK2
  1
OBLIQUE
  9
$DIMSTYLE
  2
OPO-SSTRICH
  9
$DIMCLRD
 70
   256
  9
$DIMCLRE
 70
   256
  9
$DIMCLRT
 70
   256
  9
$DIMTFAC
 40
0.7114285714285716
  9
$DIMGAP
 40
1.0
  9
$LUNITS
 70
     2
  9
$LUPREC
 70
     1
  9
$SKETCHINC
 40
1.0
  9
$FILLETRAD
 40
0.0
  9
$AUNITS
 70
     0
  9
$AUPREC
 70
     1
  9
$MENU
  1
D:\ACL_CGWG\CGTAB13
  9
$ELEVATION
 40
0.0
  9
$PELEVATION
 40
0.0
  9
$THICKNESS
 40
0.0
  9
$LIMCHECK
 70
     0
  9
$BLIPMODE
 70
     0
  9
$CHAMFERA
 40
1.0
  9
$CHAMFERB
 40
1.0
  9
$SKPOLY
 70
     0
  9
$TDCREATE
 40
2451739.8918406358
  9
$TDUPDATE
 40
2452087.626570208
  9
$TDINDWG
 40
0.0012696644
  9
$TDUSRTIMER
 40
0.0012696644
  9
$USRTIMER
 70
     1
  9
$ANGBASE
 50
0.0
  9
$ANGDIR
 70
     0
  9
$PDMODE
 70
    35
  9
$PDSIZE
 40
5.0
  9
$PLINEWID
 40
0.0
  9
$COORDS
 70
     1
  9
$SPLFRAME
 70
     0
  9
$SPLINETYPE
 70
     6
  9
$SPLINESEGS
 70
     8
  9
$ATTDIA
 70
     1
  9
$ATTREQ
 70
     1
  9
$HANDLING
 70
-16383
  9
$HANDSEED
  5
48B
  9
$SURFTAB1
 70
    12
  9
$SURFTAB2
 70
    12
  9
$SURFTYPE
 70
     6
  9
$SURFU
 70
    12
  9
$SURFV
 70
    12
  9
$UCSNAME
  2

  9
$UCSORG
 10
0.0
 20
0.0
 30
0.0
  9
$UCSXDIR
 10
1.0
 20
0.0
 30
0.0
  9
$UCSYDIR
 10
0.0
 20
1.0
 30
0.0
  9
$PUCSNAME
  2

  9
$PUCSORG
 10
0.0
 20
0.0
 30
0.0
  9
$PUCSXDIR
 10
1.0
 20
0.0
 30
0.0
  9
$PUCSYDIR
 10
0.0
 20
1.0
 30
0.0
  9
$USERI1
 70
     0
  9
$USERI2
 70
     0
  9
$USERI3
 70
     0
  9
$USERI4
 70
     0
  9
$USERI5
 70
     0
  9
$USERR1
 40
0.0
  9
$USERR2
 40
0.0
  9
$USERR3
 40
0.0
  9
$USERR4
 40
0.0
  9
$USERR5
 40
0.0
  9
$WORLDVIEW
 70
     1
  9
$SHADEDGE
 70
     3
  9
$SHADEDIF
 70
    70
  9
$TILEMODE
 70
     1
  9
$MAXACTVP
 70
    48
  9
$PLIMCHECK
 70
     0
  9
$PEXTMIN
 10
1.0000000000000000E+020
 20
1.0000000000000000E+020
 30
1.0000000000000000E+020
  9
$PEXTMAX
 10
-1.0000000000000000E+020
 20
-1.0000000000000000E+020
 30
-1.0000000000000000E+020
  9
$PLIMMIN
 10
0.0
 20
0.0
  9
$PLIMMAX
 10
420.0
 20
297.0
  9
$UNITMODE
 70
     0
  9
$VISRETAIN
 70
     1
  9
$PLINEGEN
 70
     0
  9
$PSLTSCALE
 70
     1
  0
ENDSEC
  0
SECTION
  2
TABLES
  0
TABLE
  2
VPORT
 70
     2
  0
VPORT
  2
*ACTIVE
 70
     0
 10
0.0
 20
0.0
 11
1.0
 21
1.0
 12
-11.878966600493239
 22
17.211914781029289
 13
0.0
 23
0.0
 14
0.5
 24
0.5
 15
10.0
 25
10.0
 16
0.0
 26
0.0
 36
1.0
 17
0.0
 27
0.0
 37
0.0
 40
59.57710537235198
 41
1.6070460704607039
 42
50.0
 43
0.0
 44
0.0
 50
0.0
 51
0.0
 71
     0
 72
   800
 73
     1
 74
     1
 75
     0
 76
     0
 77
     0
 78
     0
  0
ENDTAB
  0
TABLE
  2
LTYPE
 70
     1
  0
LTYPE
  2
CONTINUOUS
 70
     0
  3
_______________________________________________
 72
    65
 73
     2
 40
1.0
 49
1.0
 49
0.0
  0
ENDTAB
  0
TABLE
  2
LAYER
 70
     7
  0
LAYER
  2
0
 70
     0
 62
    30
  6
CONTINUOUS
  0
LAYER
  2
1
 70
     0
 62
     2
  6
CONTINUOUS
  0
LAYER
  2
2
 70
     0
 62
     9
  6
CONTINUOUS
  0
LAYER
  2
4
 70
     1
 62
     4
  6
CONTINUOUS
  0
LAYER
  2
5
 70
     0
 62
     1
  6
CONTINUOUS
  0
LAYER
  2
6
 70
     0
 62
     3
  6
CONTINUOUS
  0
LAYER
  2
DEFPOINTS
 70
     0
 62
     7
  6
CONTINUOUS
  0
ENDTAB
  0
TABLE
  2
STYLE
 70
     2
  0
STYLE
  2
STANDARD
 70
     0
 40
0.0
 41
1.0
 50
0.0
 71
     0
 42
2.5
  3
txt
  4

  0
STYLE
  2
BESCHLAG
 70
     0
 40
0.0
 41
1.0
 50
0.0
 71
     0
 42
3.5
  3
txt
  4

  0
ENDTAB
  0
TABLE
  2
VIEW
 70
     0
  0
ENDTAB
  0
TABLE
  2
UCS
 70
     0
  0
ENDTAB
  0
TABLE
  2
APPID
 70
     1
  0
APPID
  2
ACAD
 70
     0
  0
ENDTAB
  0
TABLE
  2
DIMSTYLE
 70
     1
  0
DIMSTYLE
  2
OPO-SSTRICH
 70
     0
  3

  4

  5

  6
OBLIQUE
  7
OBLIQUE
 40
1.0
 41
2.0
 42
2.0
 43
0.0
 44
1.0
 45
0.0
 46
1.0
 47
0.0
 48
0.0
140
3.5
141
0.0
142
0.0
143
0.039370078740157
144
1.0
145
0.0
146
0.7114285714285716
147
1.0
 71
     0
 72
     0
 73
     0
 74
     0
 75
     0
 76
     0
 77
     1
 78
     8
170
     0
171
     2
172
     1
173
     1
174
     1
175
     0
176
   256
177
   256
178
   256
  0
ENDTAB
  0
ENDSEC
  0
SECTION
  2
BLOCKS
  0
BLOCK
  8
0
  2
$MODEL_SPACE
 70
     0
 10
0.0
 20
0.0
 30
0.0
  3
$MODEL_SPACE
  1

  0
ENDBLK
  5
1C
  8
0
  0
BLOCK
 67
     1
  8
0
  2
$PAPER_SPACE
 70
     0
 10
0.0
 20
0.0
 30
0.0
  3
$PAPER_SPACE
  1

  0
ENDBLK
  5
19
 67
     1
  8
0
  0
BLOCK
  8
0
  2
_OBLIQUE
 70
     0
 10
0.0
 20
0.0
 30
0.0
  3
_OBLIQUE
  1

  0
LINE
  5
204
  8
0
 62
     0
 10
-0.5
 20
-0.5
 30
0.0
 11
0.5
 21
0.5
 31
0.0
  0
ENDBLK
  5
206
  8
0
  0
BLOCK
  8
0
  2
NULLPUNKT
 70
     0
 10
0.0
 20
0.0
 30
0.0
  3
NULLPUNKT
  1

  0
SOLID
  5
254
  8
5
 10
0.0
 20
0.0
 30
0.0
 11
2.0
 21
0.0
 31
0.0
 12
0.0
 22
-2.0
 32
0.0
 13
0.0
 23
-2.0
 33
0.0
  0
SOLID
  5
255
  8
5
 10
0.0
 20
0.0
 30
0.0
 11
-2.0
 21
0.0
 31
0.0
 12
0.0
 22
2.0
 32
0.0
 13
0.0
 23
2.0
 33
0.0
  0
POLYLINE
  5
256
  8
5
 66
     1
 10
0.0
 20
0.0
 30
0.0
  0
VERTEX
  5
400
  8
5
 10
0.0
 20
2.0
 30
0.0
  0
VERTEX
  5
401
  8
5
 10
0.0
 20
-2.0
 30
0.0
  0
SEQEND
  5
402
  8
5
  0
POLYLINE
  5
257
  8
5
 66
     1
 10
0.0
 20
0.0
 30
0.0
  0
VERTEX
  5
403
  8
5
 10
-2.0
 20
0.0
 30
0.0
  0
VERTEX
  5
404
  8
5
 10
2.0
 20
0.0
 30
0.0
  0
SEQEND
  5
405
  8
5
  0
CIRCLE
  5
258
  8
5
 10
0.0
 20
0.0
 30
0.0
 40
2.0
  0
ENDBLK
  5
25A
  8
0
  0
BLOCK
  8
0
  2
*X2
 70
     1
 10
0.0
 20
0.0
 30
0.0
  3
*X2
  1

  0
LINE
  5
29E
  8
0
 62
     0
 10
778.89394369658055
 20
-458.2600806674028
 30
0.0
 11
780.90819081209884
 21
-456.24583355188457
 31
0.0
  0
LINE
  5
29F
  8
0
 62
     0
 10
805.78358825181192
 20
-431.37043611217149
 30
0.0
 11
807.78358825181169
 21
-429.37043611217138
 31
0.0
  0
LINE
  5
2A0
  8
0
 62
     0
 10
802.09394369658071
 20
-435.06008066740281
 30
0.0
 11
804.89394369658021
 21
-432.26008066740297
 31
0.0
  0
LINE
  5
2A1
  8
0
 62
     0
 10
778.89394369658055
 20
-456.56302439255501
 30
0.0
 11
779.95581787964591
 21
-455.50115020948971
 31
0.0
  0
LINE
  5
2A2
  8
0
 62
     0
 10
802.09394369658071
 20
-433.36302439255502
 30
0.0
 11
806.08653197696412
 21
-429.37043611217138
 31
0.0
  0
LINE
  5
2A3
  8
0
 62
     0
 10
802.09394369658071
 20
-431.66596811770722
 30
0.0
 11
804.38947570211633
 21
-429.37043611217138
 31
0.0
  0
LINE
  5
2A4
  8
0
 62
     0
 10
802.09394369658071
 20
-429.9689118428596
 30
0.0
 11
802.69241942726865
 21
-429.37043611217138
 31
0.0
  0
LINE
  5
2A5
  8
0
 62
     0
 10
779.48064452665949
 20
-459.37043611217149
 30
0.0
 11
782.68736496918143
 21
-456.16371566964949
 31
0.0
  0
LINE
  5
2A6
  8
0
 62
     0
 10
807.34494945477286
 20
-431.50613118405801
 30
0.0
 11
808.89394369658032
 21
-429.95713694225071
 31
0.0
  0
LINE
  5
2A7
  8
0
 62
     0
 10
802.09394369658071
 20
-436.75713694225038
 30
0.0
 11
804.89394369658021
 21
-433.95713694225071
 31
0.0
  0
LINE
  5
2A8
  8
0
 62
     0
 10
781.17770080150729
 20
-459.37043611217149
 30
0.0
 11
784.53582224956756
 21
-456.01231466411122
 31
0.0
  0
LINE
  5
2A9
  8
0
 62
     0
 10
807.40331265316593
 20
-433.14482426051268
 30
0.0
 11
808.89394369658032
 21
-431.6541932170984
 31
0.0
  0
LINE
  5
2AA
  8
0
 62
     0
 10
802.09394369658071
 20
-438.45419321709818
 30
0.0
 11
804.89394369658021
 21
-435.6541932170984
 31
0.0
  0
LINE
  5
2AB
  8
0
 62
     0
 10
782.87475707635485
 20
-459.37043611217149
 30
0.0
 11
786.38435038681826
 21
-455.86084280170797
 31
0.0
  0
LINE
  5
2AC
  8
0
 62
     0
 10
802.09394369658071
 20
-440.15124949194569
 30
0.0
 11
804.89394369658021
 21
-437.35124949194591
 31
0.0
  0
LINE
  5
2AD
  8
0
 62
     0
 10
784.57181335120265
 20
-459.37043611217149
 30
0.0
 11
788.23287852423562
 21
-455.70937093913869
 31
0.0
  0
LINE
  5
2AE
  8
0
 62
     0
 10
802.09394369658071
 20
-441.8483057667936
 30
0.0
 11
804.89394369658021
 21
-439.04830576679382
 31
0.0
  0
LINE
  5
2AF
  8
0
 62
     0
 10
786.26886962605045
 20
-459.37043611217149
 30
0.0
 11
790.0799673829672
 21
-455.55933835525468
 31
0.0
  0
LINE
  5
2B0
  8
0
 62
     0
 10
802.09394369658071
 20
-443.5453620416414
 30
0.0
 11
804.89394369658021
 21
-440.74536204164161
 31
0.0
  0
LINE
  5
2B1
  8
0
 62
     0
 10
787.96592590089813
 20
-459.37043611217149
 30
0.0
 11
791.83601601316116
 21
-455.50034599990829
 31
0.0
  0
LINE
  5
2B2
  8
0
 62
     0
 10
802.5299347987393
 20
-444.80642721433031
 30
0.0
 11
804.89394369658021
 21
-442.44241831648918
 31
0.0
  0
LINE
  5
2B3
  8
0
 62
     0
 10
789.66298217574581
 20
-459.37043611217149
 30
0.0
 11
792.80176030317148
 21
-456.23165798474582
 31
0.0
  0
LINE
  5
2B4
  8
0
 62
     0
 10
807.39573721173485
 20
-441.6376810761825
 30
0.0
 11
807.66118866059128
 21
-441.37222962732608
 31
0.0
  0
LINE
  5
2B5
  8
0
 62
     0
 10
803.37846293616315
 20
-445.65495535175421
 30
0.0
 11
805.6629821757457
 21
-443.37043611217149
 31
0.0
  0
LINE
  5
2B6
  8
0
 62
     0
 10
791.36003845059349
 20
-459.37043611217149
 30
0.0
 11
794.62699107362153
 21
-456.10348348914351
 31
0.0
  0
LINE
  5
2B7
  8
0
 62
     0
 10
804.22699107358687
 20
-446.503483489178
 30
0.0
 11
808.7945904445138
 21
-441.93588411825112
 31
0.0
  0
LINE
  5
2B8
  8
0
 62
     0
 10
793.05709472544129
 20
-459.37043611217149
 30
0.0
 11
796.47551921198806
 21
-455.95201162562461
 31
0.0
  0
LINE
  5
2B9
  8
0
 62
     0
 10
805.06383069259357
 20
-447.36370014501921
 30
0.0
 11
808.89394369658032
 21
-443.53358714103229
 31
0.0
  0
LINE
  5
2BA
  8
0
 62
     0
 10
794.75415100028897
 20
-459.37043611217149
 30
0.0
 11
798.32404734957493
 21
-455.80053976288559
 31
0.0
  0
LINE
  5
2BB
  8
0
 62
     0
 10
805.09394369658048
 20
-449.03064341587998
 30
0.0
 11
808.89394369658032
 21
-445.23064341588019
 31
0.0
  0
LINE
  5
2BC
  8
0
 62
     0
 10
796.45120727513665
 20
-459.37043611217149
 30
0.0
 11
799.45120727513654
 21
-456.37043611217149
 31
0.0
  0
LINE
  5
2BD
  8
0
 62
     0
 10
805.09394369658048
 20
-450.7276996907276
 30
0.0
 11
808.89394369658032
 21
-446.92769969072782
 31
0.0
  0
LINE
  5
2BE
  8
0
 62
     0
 10
798.14826354998445
 20
-459.37043611217149
 30
0.0
 11
801.14826354998434
 21
-456.37043611217149
 31
0.0
  0
LINE
  5
2BF
  8
0
 62
     0
 10
805.09394369658048
 20
-452.4247559655754
 30
0.0
 11
808.89394369658032
 21
-448.62475596557562
 31
0.0
  0
LINE
  5
2C0
  8
0
 62
     0
 10
799.84531982483202
 20
-459.37043611217149
 30
0.0
 11
808.89394369658032
 21
-450.32181224042318
 31
0.0
  0
LINE
  5
2C1
  8
0
 62
     0
 10
801.54237609967981
 20
-459.37043611217149
 30
0.0
 11
808.89394369658032
 21
-452.01886851527092
 31
0.0
  0
LINE
  5
2C2
  8
0
 62
     0
 10
803.2394323745275
 20
-459.37043611217149
 30
0.0
 11
808.89394369658032
 21
-453.71592479011872
 31
0.0
  0
LINE
  5
2C3
  8
0
 62
     0
 10
804.93648864937506
 20
-459.37043611217149
 30
0.0
 11
808.89394369658032
 21
-455.41298106496629
 31
0.0
  0
LINE
  5
2C4
  8
0
 62
     0
 10
806.63354492422286
 20
-459.37043611217149
 30
0.0
 11
808.89394369658032
 21
-457.11003733981408
 31
0.0
  0
LINE
  5
2C5
  8
0
 62
     0
 10
808.33060119907066
 20
-459.37043611217149
 30
0.0
 11
808.89394369658032
 21
-458.80709361466182
 31
0.0
  0
ENDBLK
  5
2C7
  8
0
  0
BLOCK
  8
0
  2
*D3
 70
     1
 10
0.0
 20
0.0
 30
0.0
  3
*D3
  1

  0
LINE
  5
31D
  8
1
 10
0.0000000000000001
 20
32.0
 30
0.0
 11
0.0000000000000008
 21
42.264258194861661
 31
0.0
  0
LINE
  5
31E
  8
1
 10
-7.0
 20
32.0
 30
0.0
 11
-6.9999999999999991
 21
42.264258194861661
 31
0.0
  0
LINE
  5
31F
  8
1
 10
1.0
 20
41.264258194861668
 30
0.0
 11
-7.9999999999999991
 21
41.264258194861668
 31
0.0
  0
INSERT
  5
320
  8
1
  2
_OBLIQUE
 10
0.0000000000000007
 20
41.264258194861668
 30
0.0
 41
2.0
 42
2.0
 43
2.0
  0
INSERT
  5
321
  8
1
  2
_OBLIQUE
 10
-6.9999999999999991
 20
41.264258194861668
 30
0.0
 41
2.0
 42
2.0
 43
2.0
 50
180.0
  0
TEXT
  5
322
  8
0
 10
-4.8644270122783082
 20
42.264258194861661
 30
0.0
 40
3.5
  1
7
  7
BESCHLAG
  0
POINT
  5
323
  8
DEFPOINTS
 62
     0
 10
0.0
 20
30.0
 30
0.0
  0
POINT
  5
324
  8
DEFPOINTS
 62
     0
 10
-7.0
 20
30.0
 30
0.0
  0
POINT
  5
325
  8
DEFPOINTS
 62
     0
 10
-6.9999999999999991
 20
41.264258194861668
 30
0.0
  0
ENDBLK
  5
2F6
  8
0
  0
BLOCK
  8
0
  2
*D4
 70
     1
 10
0.0
 20
0.0
 30
0.0
  3
*D4
  1

  0
LINE
  5
326
  8
1
 10
0.0000000000000001
 20
32.0
 30
0.0
 11
0.0000000000000008
 21
42.264258194861661
 31
0.0
  0
LINE
  5
327
  8
1
 10
3.0000000000004539
 20
32.0
 30
0.0
 11
3.0000000000004552
 21
42.264258194861661
 31
0.0
  0
LINE
  5
328
  8
1
 10
0.0000000000000007
 20
41.264258194861668
 30
0.0
 11
-1.9999999999999989
 21
41.264258194861668
 31
0.0
  0
LINE
  5
329
  8
1
 10
3.0000000000004552
 20
41.264258194861668
 30
0.0
 11
5.0000000000004547
 21
41.264258194861668
 31
0.0
  0
LINE
  5
32A
  8
1
 10
0.0000000000000007
 20
41.264258194861668
 30
0.0
 11
3.0000000000004552
 21
41.264258194861668
 31
0.0
  0
INSERT
  5
32B
  8
1
  2
_OBLIQUE
 10
0.0000000000000007
 20
41.264258194861668
 30
0.0
 41
2.0
 42
2.0
 43
2.0
  0
INSERT
  5
32C
  8
1
  2
_OBLIQUE
 10
3.0000000000004552
 20
41.264258194861668
 30
0.0
 41
2.0
 42
2.0
 43
2.0
 50
180.0
  0
TEXT
  5
32D
  8
0
 10
0.1487039563440212
 20
42.33349421123274
 30
0.0
 40
3.5
  1
3
  7
BESCHLAG
  0
POINT
  5
32E
  8
DEFPOINTS
 62
     0
 10
0.0
 20
30.0
 30
0.0
  0
POINT
  5
32F
  8
DEFPOINTS
 62
     0
 10
3.0000000000004539
 20
30.0
 30
0.0
  0
POINT
  5
330
  8
DEFPOINTS
 62
     0
 10
3.0000000000004552
 20
41.264258194861668
 30
0.0
  0
ENDBLK
  5
304
  8
0
  0
BLOCK
  8
0
  2
*D5
 70
     1
 10
0.0
 20
0.0
 30
0.0
  3
*D5
  1

  0
LINE
  5
331
  8
1
 10
-2.0
 20
0.0000000000000006
 30
0.0
 11
-19.397061421196671
 21
0.0000000000000055
 31
0.0
  0
LINE
  5
332
  8
1
 10
-8.7999999999997272
 20
30.0
 30
0.0
 11
-19.397061421196661
 21
30.0
 31
0.0
  0
LINE
  5
333
  8
1
 10
-18.397061421196671
 20
-0.9999999999999948
 30
0.0
 11
-18.397061421196661
 21
31.0
 31
0.0
  0
INSERT
  5
334
  8
1
  2
_OBLIQUE
 10
-18.397061421196671
 20
0.0000000000000052
 30
0.0
 41
2.0
 42
2.0
 43
2.0
 50
270.0
  0
INSERT
  5
335
  8
1
  2
_OBLIQUE
 10
-18.397061421196661
 20
30.0
 30
0.0
 41
2.0
 42
2.0
 43
2.0
 50
90.0
  0
TEXT
  5
336
  8
0
 10
-19.466297437567739
 20
12.2950204638472
 30
0.0
 40
3.5
  1
30
 50
90.0
  7
BESCHLAG
  0
POINT
  5
337
  8
DEFPOINTS
 62
     0
 10
0.0
 20
0.0
 30
0.0
  0
POINT
  5
338
  8
DEFPOINTS
 62
     0
 10
-6.7999999999997272
 20
30.0
 30
0.0
  0
POINT
  5
339
  8
DEFPOINTS
 62
     0
 10
-18.397061421196661
 20
30.0
 30
0.0
  0
ENDBLK
  5
310
  8
0
  0
BLOCK
  8
0
  2
*D6
 70
     1
 10
0.0
 20
0.0
 30
0.0
  3
*D6
  1

  0
LINE
  5
33A
  8
1
 10
-29.999999999999769
 20
-2.0
 30
0.0
 11
-29.999999999999769
 21
-12.335854249698739
 31
0.0
  0
LINE
  5
33B
  8
1
 10
-0.0000000000000001
 20
-2.0
 30
0.0
 11
-0.0000000000000008
 21
-12.335854249698739
 31
0.0
  0
LINE
  5
33C
  8
1
 10
-30.999999999999769
 20
-11.335854249698739
 30
0.0
 11
0.9999999999999992
 21
-11.335854249698739
 31
0.0
  0
INSERT
  5
33D
  8
1
  2
_OBLIQUE
 10
-29.999999999999769
 20
-11.335854249698739
 30
0.0
 41
2.0
 42
2.0
 43
2.0
 50
180.0
  0
INSERT
  5
33E
  8
1
  2
_OBLIQUE
 10
-0.0000000000000007
 20
-11.335854249698739
 30
0.0
 41
2.0
 42
2.0
 43
2.0
  0
TEXT
  5
33F
  8
0
 10
-17.704979536152681
 20
-10.266618233327661
 30
0.0
 40
3.5
  1
30
  7
BESCHLAG
  0
POINT
  5
340
  8
DEFPOINTS
 62
     0
 10
-29.999999999999769
 20
0.0
 30
0.0
  0
POINT
  5
341
  8
DEFPOINTS
 62
     0
 10
0.0
 20
0.0
 30
0.0
  0
POINT
  5
342
  8
DEFPOINTS
 62
     0
 10
-0.0000000000000007
 20
-11.335854249698739
 30
0.0
  0
ENDBLK
  5
31C
  8
0
  0
ENDSEC
  0
SECTION
  2
ENTITIES
  0
INSERT
  5
25B
  8
5
  2
NULLPUNKT
 10
0.0
 20
0.0
 30
0.0
  0
INSERT
  5
2DD
  8
2
  2
*X2
 10
-808.89394369658032
 20
459.3704361121724
 30
0.0
1001
ACAD
1000
HATCH
1002
{
1070
    16
1000
_U,I
1040
1.1999999999999991
1040
0.7853981633974483
1070
     0
1002
}
  0
DIMENSION
  5
2DE
  8
1
  2
*D3
 10
-6.9999999999999991
 20
41.264258194861668
 30
0.0
 11
-3.4999999999999991
 21
44.014258194861661
 31
0.0
 70
     0
 13
0.0
 23
30.0
 33
0.0
 14
-7.0
 24
30.0
 34
0.0
  0
LINE
  5
2DF
  8
5
 10
0.0
 20
7.7097930824743344
 30
0.0
 11
0.0
 21
44.958287476083797
 31
0.0
  0
DIMENSION
  5
2E0
  8
1
  2
*D4
 10
3.0000000000004552
 20
41.264258194861668
 30
0.0
 11
1.500000000000228
 21
44.052457376307771
 31
0.0
 70
     0
 13
0.0
 23
30.0
 33
0.0
 14
3.0000000000004539
 24
30.0
 34
0.0
  0
POINT
  5
2E1
  8
5
 10
-4.0
 20
22.000000000000909
 30
0.0
  0
POINT
  5
2E2
  8
5
 10
-4.0
 20
22.000000000000909
 30
0.0
  0
POLYLINE
  5
2E3
  8
5
 66
     1
 10
0.0
 20
0.0
 30
0.0
  0
VERTEX
  5
406
  8
5
 10
7.2449054883434201
 20
10.0
 30
0.0
  0
VERTEX
  5
407
  8
5
 10
3.0000000000004539
 20
10.0
 30
0.0
  0
VERTEX
  5
408
  8
5
 10
3.0000000000004539
 20
36.419596266785668
 30
0.0
  0
SEQEND
  5
409
  8
5
  0
POLYLINE
  5
2E4
  8
6
 66
     1
 10
0.0
 20
0.0
 30
0.0
 70
     1
  0
VERTEX
  5
40A
  8
6
 10
3.0000000000004539
 20
22.000000000000909
 30
0.0
 42
0.3348758971066404
  0
VERTEX
  5
40B
  8
6
 10
2.2492577808686738
 20
23.224360000000839
 30
0.0
  0
VERTEX
  5
40C
  8
6
 10
2.2133367313601862
 20
25.36684112783723
 30
0.0
 42
0.4158738464929489
  0
VERTEX
  5
40D
  8
6
 10
0.1004407448997426
 20
26.48655993449006
 30
0.0
  0
VERTEX
  5
40E
  8
6
 10
-1.0910500870868409
 20
25.655470733635411
 30
0.0
 42
-0.9647680298900043
  0
VERTEX
  5
40F
  8
6
 10
-1.8643632994760531
 20
26.192684910881319
 30
0.0
  0
VERTEX
  5
410
  8
6
 10
-1.5812058813924059
 20
26.84600064730148
 30
0.0
 42
0.6694204690004703
  0
VERTEX
  5
411
  8
6
 10
-2.0112692976938429
 20
27.48594955336716
 30
0.0
  0
VERTEX
  5
412
  8
6
 10
-3.8314881777816931
 20
27.059039563580651
 30
0.0
 42
0.2464814616015845
  0
VERTEX
  5
413
  8
6
 10
-4.0005204590549956
 20
26.759254551122918
 30
0.0
 42
0.0150420667643324
  0
VERTEX
  5
414
  8
6
 10
-4.0005204590549956
 20
26.477327331758261
 30
0.0
 42
0.2063969197888626
  0
VERTEX
  5
415
  8
6
 10
-3.8283452408065841
 20
26.108892360460001
 30
0.0
  0
VERTEX
  5
416
  8
6
 10
-3.4976411549425839
 20
25.675972370467662
 30
0.0
 42
-0.0984306399189399
  0
VERTEX
  5
417
  8
6
 10
-3.1796605032623111
 20
25.027832911665421
 30
0.0
  0
VERTEX
  5
418
  8
6
 10
-3.1796605032623111
 20
22.000000000000909
 30
0.0
  0
VERTEX
  5
419
  8
6
 10
-3.1796605032623111
 20
18.97216708833616
 30
0.0
 42
-0.0984306399189399
  0
VERTEX
  5
41A
  8
6
 10
-3.4976411549425839
 20
18.324027629533919
 30
0.0
  0
VERTEX
  5
41B
  8
6
 10
-3.8283452408065841
 20
17.89110763954158
 30
0.0
 42
0.2063969197888626
  0
VERTEX
  5
41C
  8
6
 10
-4.0005204590549956
 20
17.522672668243558
 30
0.0
 42
0.0150420667643324
  0
VERTEX
  5
41D
  8
6
 10
-4.0005204590549956
 20
17.24074544887867
 30
0.0
 42
0.2464814616015845
  0
VERTEX
  5
41E
  8
6
 10
-3.8314881777816931
 20
16.94096043642093
 30
0.0
  0
VERTEX
  5
41F
  8
6
 10
-2.0112692976938429
 20
16.514050446634428
 30
0.0
 42
0.6345177691905591
  0
VERTEX
  5
420
  8
6
 10
-1.5812058813924059
 20
17.153999352699881
 30
0.0
  0
VERTEX
  5
421
  8
6
 10
-1.8536631272083921
 20
17.781294360422631
 30
0.0
 42
-0.9846311026449575
  0
VERTEX
  5
422
  8
6
 10
-1.0910500870868409
 20
18.34452926636618
 30
0.0
  0
VERTEX
  5
423
  8
6
 10
0.1004407448997426
 20
17.513440065511759
 30
0.0
 42
0.4158738464929489
  0
VERTEX
  5
424
  8
6
 10
2.2133367313601862
 20
18.633158872164351
 30
0.0
  0
VERTEX
  5
425
  8
6
 10
2.2492577808686738
 20
20.775640000000742
 30
0.0
 42
0.3348758971066357
  0
SEQEND
  5
426
  8
6
  0
POLYLINE
  5
2E5
  8
6
 66
     1
 10
0.0
 20
0.0
 30
0.0
  0
VERTEX
  5
427
  8
6
 10
1.026056266155364
 20
22.004764165461889
 30
0.0
 42
-0.0523662851020724
  0
VERTEX
  5
428
  8
6
 10
1.438194332162311
 20
25.010549786089541
 30
0.0
 42
0.1698680870516715
  0
VERTEX
  5
429
  8
6
 10
1.451504661664557
 20
25.609204401100659
 30
0.0
 42
0.3581952709156561
  0
VERTEX
  5
42A
  8
6
 10
0.4704820347242276
 20
25.804817305723191
 30
0.0
  0
VERTEX
  5
42B
  8
6
 10
-1.038613679051877
 20
24.791377892166789
 30
0.0
 42
0.162990172482064
  0
VERTEX
  5
42C
  8
6
 10
-1.6124768191718879
 20
23.61724287609195
 30
0.0
 42
0.0297520103796801
  0
VERTEX
  5
42D
  8
6
 10
-1.704040960494694
 20
22.000000000000909
 30
0.0
 42
0.0297520103796801
  0
VERTEX
  5
42E
  8
6
 10
-1.5585380551679
 20
20.386715332998389
 30
0.0
 42
0.162990172482064
  0
VERTEX
  5
42F
  8
6
 10
-0.9457976311905441
 20
19.232392539155391
 30
0.0
  0
VERTEX
  5
430
  8
6
 10
1.04892567442107
 20
18.26989744524348
 30
0.0
 42
0.5496470159714418
  0
VERTEX
  5
431
  8
6
 10
1.6368888395325021
 20
18.485258868500971
 30
0.0
 42
0.0587952726232103
  0
VERTEX
  5
432
  8
6
 10
1.537198917016894
 20
19.080917467460939
 30
0.0
 42
-0.0523662851020724
  0
VERTEX
  5
433
  8
6
 10
1.0249458641985709
 20
22.07126891712414
 30
0.0
  0
SEQEND
  5
434
  8
6
  0
DIMENSION
  5
2E6
  8
1
  2
*D5
 10
-18.397061421196661
 20
30.0
 30
0.0
 11
-21.185260602642781
 21
15.0
 31
0.0
 70
     0
 13
0.0
 23
0.0
 33
0.0
 14
-6.7999999999997272
 24
30.0
 34
0.0
 50
90.0
  0
DIMENSION
  5
2E7
  8
1
  2
*D6
 10
-0.0000000000000007
 20
-11.335854249698739
 30
0.0
 11
-14.999999999999879
 21
-8.5476550682526291
 31
0.0
 70
     0
 13
-29.999999999999769
 23
0.0
 33
0.0
 14
0.0
 24
0.0
 34
0.0
  0
TEXT
  5
2E8
  8
1
 10
-29.517949980783669
 20
7.2988435359541191
 30
0.0
 40
2.4999999499999999
  1
Hebgo 170/520
  0
POLYLINE
  5
2E9
  8
6
 66
     1
 10
0.0
 20
0.0
 30
0.0
 70
     1
  0
VERTEX
  5
435
  8
6
 10
0.0
 20
29.500000000000909
 30
0.0
  0
VERTEX
  5
436
  8
6
 10
0.0
 20
27.000000000000909
 30
0.0
 42
-0.4142135623730951
  0
VERTEX
  5
437
  8
6
 10
-1.0
 20
26.000000000000909
 30
0.0
  0
VERTEX
  5
438
  8
6
 10
-1.1999999999998181
 20
26.000000000000909
 30
0.0
 42
-0.4142135623730951
  0
VERTEX
  5
439
  8
6
 10
-1.5
 20
26.30000000000086
 30
0.0
  0
VERTEX
  5
43A
  8
6
 10
-1.5
 20
27.700000000000951
 30
0.0
 42
0.4142135623730951
  0
VERTEX
  5
43B
  8
6
 10
-1.7999999999997269
 20
28.000000000000909
 30
0.0
  0
VERTEX
  5
43C
  8
6
 10
-3.6999999999998181
 20
28.000000000000909
 30
0.0
 42
0.4142135623730951
  0
VERTEX
  5
43D
  8
6
 10
-4.0
 20
27.700000000000951
 30
0.0
  0
VERTEX
  5
43E
  8
6
 10
-4.0
 20
16.30000000000086
 30
0.0
 42
0.4142135623730951
  0
VERTEX
  5
43F
  8
6
 10
-3.6999999999998181
 20
16.000000000000909
 30
0.0
  0
VERTEX
  5
440
  8
6
 10
-1.7999999999997269
 20
16.000000000000909
 30
0.0
 42
0.4142135623730951
  0
VERTEX
  5
441
  8
6
 10
-1.5
 20
16.30000000000086
 30
0.0
  0
VERTEX
  5
442
  8
6
 10
-1.5
 20
17.700000000000951
 30
0.0
 42
-0.4142135623730867
  0
VERTEX
  5
443
  8
6
 10
-1.1999999999998181
 20
18.000000000000909
 30
0.0
  0
VERTEX
  5
444
  8
6
 10
-1.0
 20
18.000000000000909
 30
0.0
 42
-0.4142135623730951
  0
VERTEX
  5
445
  8
6
 10
0.0
 20
17.000000000000899
 30
0.0
  0
VERTEX
  5
446
  8
6
 10
0.0
 20
0.300000000000864
 30
0.0
 42
-0.4142135623730951
  0
VERTEX
  5
447
  8
6
 10
-0.2999999999997271
 20
0.0000000000009095
 30
0.0
  0
VERTEX
  5
448
  8
6
 10
-29.699999999999591
 20
0.0000000000009095
 30
0.0
 42
-0.4142135623730965
  0
VERTEX
  5
449
  8
6
 10
-29.999999999999769
 20
0.300000000000864
 30
0.0
  0
VERTEX
  5
44A
  8
6
 10
-29.999999999999769
 20
2.8757359312889998
 30
0.0
 42
-0.198912367379658
  0
VERTEX
  5
44B
  8
6
 10
-29.912132034355629
 20
3.087867965645045
 30
0.0
  0
VERTEX
  5
44C
  8
6
 10
-29.212132032710311
 20
3.7878679656448631
 30
0.0
 42
-0.4142135623730951
  0
VERTEX
  5
44D
  8
6
 10
-28.787867963998679
 20
3.7878679656448631
 30
0.0
  0
VERTEX
  5
44E
  8
6
 10
-28.21213203318484
 20
3.2121320347998781
 30
0.0
 42
0.4142135626788904
  0
VERTEX
  5
44F
  8
6
 10
-27.787867964251511
 20
3.212132034578417
 30
0.0
  0
VERTEX
  5
450
  8
6
 10
-27.212132033120952
 20
3.787867965329724
 30
0.0
 42
-0.4142135625907076
  0
VERTEX
  5
451
  8
6
 10
-26.787867964251522
 20
3.7878679654872931
 30
0.0
  0
VERTEX
  5
452
  8
6
 10
-26.212132034521801
 20
3.2121320346893749
 30
0.0
 42
0.4142135626025789
  0
VERTEX
  5
453
  8
6
 10
-25.78786796564372
 20
3.2121320345231652
 30
0.0
  0
VERTEX
  5
454
  8
6
 10
-25.212132034333301
 20
3.7878679656896561
 30
0.0
 42
-0.4142135623421978
  0
VERTEX
  5
455
  8
6
 10
-24.787867965643489
 20
3.787867965667373
 30
0.0
  0
VERTEX
  5
456
  8
6
 10
-24.212132032966341
 20
3.2121320343628659
 30
0.0
 42
0.4142135623772527
  0
VERTEX
  5
457
  8
6
 10
-23.787867964251511
 20
3.21213203435991
 30
0.0
  0
VERTEX
  5
458
  8
6
 10
-23.21213203315051
 20
3.7878679652708338
 30
0.0
 42
-0.4142135626313175
  0
VERTEX
  5
459
  8
6
 10
-22.787867964251511
 20
3.7878679654579619
 30
0.0
  0
VERTEX
  5
45A
  8
6
 10
-22.212132034517929
 20
3.2121320346814168
 30
0.0
 42
0.414213562597111
  0
VERTEX
  5
45B
  8
6
 10
-21.7878679656435
 20
3.212132034519072
 30
0.0
  0
VERTEX
  5
45C
  8
6
 10
-21.212132034333759
 20
3.7878679656887471
 30
0.0
 42
-0.4142135623429299
  0
VERTEX
  5
45D
  8
6
 10
-20.7878679656435
 20
3.7878679656669192
 30
0.0
  0
VERTEX
  5
45E
  8
6
 10
-20.21213203131742
 20
3.2121320343628659
 30
0.0
 42
0.4142135623771502
  0
VERTEX
  5
45F
  8
6
 10
-19.78786796260237
 20
3.21213203435991
 30
0.0
  0
VERTEX
  5
460
  8
6
 10
-19.212132032060701
 20
3.7878679648269999
 30
0.0
 42
-0.4142135629378281
  0
VERTEX
  5
461
  8
6
 10
-18.787867962939789
 20
3.7878679652360461
 30
0.0
  0
VERTEX
  5
462
  8
6
 10
-18.212132034664361
 20
3.2121320349747289
 30
0.0
 42
0.4142135627996437
  0
VERTEX
  5
463
  8
6
 10
-17.787867965643489
 20
3.2121320346657281
 30
0.0
  0
VERTEX
  5
464
  8
6
 10
-17.212132037017678
 20
3.7878679657280818
 30
0.0
 42
-0.4142135623156795
  0
VERTEX
  5
465
  8
6
 10
-16.78786796834742
 20
3.7878679656864729
 30
0.0
  0
VERTEX
  5
466
  8
6
 10
-16.212132036700719
 20
3.212132033640045
 30
0.0
 42
0.4142135618782623
  0
VERTEX
  5
467
  8
6
 10
-15.78786796834742
 20
3.2121320339986141
 30
0.0
  0
VERTEX
  5
468
  8
6
 10
-15.21213203403976
 20
3.787867966276508
 30
0.0
 42
-0.4142135619371416
  0
VERTEX
  5
469
  8
6
 10
-14.787867965643491
 20
3.7878679659606851
 30
0.0
  0
VERTEX
  5
46A
  8
6
 10
-14.212132034397881
 20
3.2121320344419919
 30
0.0
 42
0.4142135624317785
  0
VERTEX
  5
46B
  8
6
 10
-13.7878679656435
 20
3.212132034399473
 30
0.0
  0
VERTEX
  5
46C
  8
6
 10
-13.21213203434967
 20
3.78786796565646
 30
0.0
 42
-0.414213562365187
  0
VERTEX
  5
46D
  8
6
 10
-12.7878679656435
 20
3.7878679656507752
 30
0.0
  0
VERTEX
  5
46E
  8
6
 10
-12.21213203131515
 20
3.2121320343585462
 30
0.0
 42
0.4142135623741549
  0
VERTEX
  5
46F
  8
6
 10
-11.787867962602141
 20
3.2121320343576372
 30
0.0
  0
VERTEX
  5
470
  8
6
 10
-11.21213203120328
 20
3.7878679648263178
 30
0.0
 42
-0.4142135629382275
  0
VERTEX
  5
471
  8
6
 10
-10.78786796208214
 20
3.7878679652355909
 30
0.0
  0
VERTEX
  5
472
  8
6
 10
-10.08786796571621
 20
3.0878679660693251
 30
0.0
 42
0.1989123678995158
  0
VERTEX
  5
473
  8
6
 10
-9.8757359309361163
 20
3.0000000000009091
 30
0.0
  0
VERTEX
  5
474
  8
6
 10
-6.9242640687116364
 20
3.0000000000009091
 30
0.0
 42
0.1989123673796592
  0
VERTEX
  5
475
  8
6
 10
-6.7121320343558182
 20
3.087867965645045
 30
0.0
  0
VERTEX
  5
476
  8
6
 10
-3.88786796564409
 20
5.9121320343569996
 30
0.0
 42
0.1989123673796587
  0
VERTEX
  5
477
  8
6
 10
-3.7999999999997272
 20
6.1242640687128178
 30
0.0
  0
VERTEX
  5
478
  8
6
 10
-3.7999999999997272
 20
11.87573593128899
 30
0.0
 42
0.1989123673796567
  0
VERTEX
  5
479
  8
6
 10
-3.88786796564409
 20
12.087867965645041
 30
0.0
  0
VERTEX
  5
47A
  8
6
 10
-6.7121320343558182
 20
14.912132034357001
 30
0.0
 42
-0.1989123673796567
  0
VERTEX
  5
47B
  8
6
 10
-6.7999999999997272
 20
15.12426406871282
 30
0.0
  0
VERTEX
  5
47C
  8
6
 10
-6.7999999999997272
 20
29.80000000000086
 30
0.0
 42
-0.4142135623730945
  0
VERTEX
  5
47D
  8
6
 10
-6.5999999999999091
 20
30.000000000000909
 30
0.0
  0
VERTEX
  5
47E
  8
6
 10
-0.5
 20
30.000000000000909
 30
0.0
 42
-0.4142135623730951
  0
SEQEND
  5
47F
  8
6
  0
POLYLINE
  5
2EA
  8
4
 66
     1
 10
0.0
 20
0.0
 30
0.0
 70
     1
  0
VERTEX
  5
480
  8
4
 10
-29.999999999999769
 20
0.0
 30
0.0
  0
VERTEX
  5
481
  8
4
 10
-29.999999999999769
 20
4.0
 30
0.0
  0
VERTEX
  5
482
  8
4
 10
-6.7999999999997272
 20
4.0
 30
0.0
  0
VERTEX
  5
483
  8
4
 10
-5.8000000000010914
 20
4.0
 30
0.0
  0
VERTEX
  5
484
  8
4
 10
-3.800000000000181
 20
6.0000000000009086
 30
0.0
  0
VERTEX
  5
485
  8
4
 10
-3.800000000000181
 20
12.000000000000901
 30
0.0
  0
VERTEX
  5
486
  8
4
 10
-6.7999999999997272
 20
15.00000000000068
 30
0.0
  0
VERTEX
  5
487
  8
4
 10
-6.7999999999997272
 20
30.0
 30
0.0
  0
VERTEX
  5
488
  8
4
 10
0.0
 20
30.0
 30
0.0
  0
VERTEX
  5
489
  8
4
 10
0.0
 20
0.0
 30
0.0
  0
SEQEND
  5
48A
  8
4
  0
VIEWPORT
  5
22
 67
     1
  8
0
 10
210.0
 20
170.2366863905325
 30
0.0
 40
420.0
 41
340.47337278106511
 68
     1
 69
     1
1001
ACAD
1000
MVIEW
1002
{
1070
    16
1010
0.0
1020
0.0
1030
0.0
1010
0.0
1020
0.0
1030
1.0
1040
0.0
1040
340.47337278106511
1040
210.0
1040
170.2366863905325
1040
50.0
1040
0.0
1040
0.0
1070
     0
1070
   100
1070
     1
1070
     1
1070
     0
1070
     0
1070
     0
1070
     0
1040
0.0
1040
0.0
1040
0.0
1040
5.0
1040
5.0
1040
10.0
1040
10.0
1070
     0
1002
{
1002
}
1002
}
  0
ENDSEC
  0
EOF
