  0
SECTION
  2
HEADER
  9
$ACADVER
  1
AC1009
  9
$INSBASE
 10
0.0
 20
0.0
 30
0.0
  9
$EXTMIN
 10
-31.013487932520771
 20
-12.33673009827816
 30
-0.0000000000000058
  9
$EXTMAX
 10
9.2468267065087275
 20
46.760559660336753
 30
0.0000000000000104
  9
$LIMMIN
 10
-150.0
 20
-150.0
  9
$LIMMAX
 10
150.0
 20
150.0
  9
$ORTHOMODE
 70
     0
  9
$REGENMODE
 70
     1
  9
$FILLMODE
 70
     1
  9
$QTEXTMODE
 70
     0
  9
$MIRRTEXT
 70
     0
  9
$DRAGMODE
 70
     2
  9
$LTSCALE
 40
1.0
  9
$OSMODE
 70
   111
  9
$ATTMODE
 70
     1
  9
$TEXTSIZE
 40
3.5
  9
$TRACEWID
 40
1.0
  9
$TEXTSTYLE
  7
BESCHLAG
  9
$CLAYER
  8
0
  9
$CELTYPE
  6
BYLAYER
  9
$CECOLOR
 62
   256
  9
$DIMSCALE
 40
1.0
  9
$DIMASZ
 40
2.0
  9
$DIMEXO
 40
2.0
  9
$DIMDLI
 40
0.0
  9
$DIMRND
 40
0.0
  9
$DIMDLE
 40
1.0
  9
$DIMEXE
 40
1.0
  9
$DIMTP
 40
0.0
  9
$DIMTM
 40
0.0
  9
$DIMTXT
 40
3.5
  9
$DIMCEN
 40
0.0
  9
$DIMTSZ
 40
0.0
  9
$DIMTOL
 70
     0
  9
$DIMLIM
 70
     0
  9
$DIMTIH
 70
     0
  9
$DIMTOH
 70
     0
  9
$DIMSE1
 70
     0
  9
$DIMSE2
 70
     0
  9
$DIMTAD
 70
     1
  9
$DIMZIN
 70
     8
  9
$DIMBLK
  1

  9
$DIMASO
 70
     1
  9
$DIMSHO
 70
     1
  9
$DIMPOST
  1

  9
$DIMAPOST
  1

  9
$DIMALT
 70
     0
  9
$DIMALTD
 70
     2
  9
$DIMALTF
 40
0.039370078740157
  9
$DIMLFAC
 40
1.0
  9
$DIMTOFL
 70
     1
  9
$DIMTVP
 40
0.0
  9
$DIMTIX
 70
     1
  9
$DIMSOXD
 70
     0
  9
$DIMSAH
 70
     1
  9
$DIMBLK1
  1
OBLIQUE
  9
$DIMBLK2
  1
OBLIQUE
  9
$DIMSTYLE
  2
OPO-SSTRICH
  9
$DIMCLRD
 70
   256
  9
$DIMCLRE
 70
   256
  9
$DIMCLRT
 70
   256
  9
$DIMTFAC
 40
0.7114285714285716
  9
$DIMGAP
 40
1.0
  9
$LUNITS
 70
     2
  9
$LUPREC
 70
     1
  9
$SKETCHINC
 40
1.0
  9
$FILLETRAD
 40
0.0
  9
$AUNITS
 70
     0
  9
$AUPREC
 70
     1
  9
$MENU
  1
D:\ACL_CGWG\CGTAB13
  9
$ELEVATION
 40
0.0
  9
$PELEVATION
 40
0.0
  9
$THICKNESS
 40
0.0
  9
$LIMCHECK
 70
     0
  9
$BLIPMODE
 70
     0
  9
$CHAMFERA
 40
1.0
  9
$CHAMFERB
 40
1.0
  9
$SKPOLY
 70
     0
  9
$TDCREATE
 40
2451739.8928734371
  9
$TDUPDATE
 40
2452087.6269462151
  9
$TDINDWG
 40
0.0006911458
  9
$TDUSRTIMER
 40
0.0006911458
  9
$USRTIMER
 70
     1
  9
$ANGBASE
 50
0.0
  9
$ANGDIR
 70
     0
  9
$PDMODE
 70
    35
  9
$PDSIZE
 40
5.0
  9
$PLINEWID
 40
0.0
  9
$COORDS
 70
     1
  9
$SPLFRAME
 70
     0
  9
$SPLINETYPE
 70
     6
  9
$SPLINESEGS
 70
     8
  9
$ATTDIA
 70
     1
  9
$ATTREQ
 70
     1
  9
$HANDLING
 70
-16383
  9
$HANDSEED
  5
472
  9
$SURFTAB1
 70
    12
  9
$SURFTAB2
 70
    12
  9
$SURFTYPE
 70
     6
  9
$SURFU
 70
    12
  9
$SURFV
 70
    12
  9
$UCSNAME
  2

  9
$UCSORG
 10
0.0
 20
0.0
 30
0.0
  9
$UCSXDIR
 10
1.0
 20
0.0
 30
0.0
  9
$UCSYDIR
 10
0.0
 20
1.0
 30
0.0
  9
$PUCSNAME
  2

  9
$PUCSORG
 10
0.0
 20
0.0
 30
0.0
  9
$PUCSXDIR
 10
1.0
 20
0.0
 30
0.0
  9
$PUCSYDIR
 10
0.0
 20
1.0
 30
0.0
  9
$USERI1
 70
     0
  9
$USERI2
 70
     0
  9
$USERI3
 70
     0
  9
$USERI4
 70
     0
  9
$USERI5
 70
     0
  9
$USERR1
 40
0.0
  9
$USERR2
 40
0.0
  9
$USERR3
 40
0.0
  9
$USERR4
 40
0.0
  9
$USERR5
 40
0.0
  9
$WORLDVIEW
 70
     1
  9
$SHADEDGE
 70
     3
  9
$SHADEDIF
 70
    70
  9
$TILEMODE
 70
     1
  9
$MAXACTVP
 70
    48
  9
$PLIMCHECK
 70
     0
  9
$PEXTMIN
 10
1.0000000000000000E+020
 20
1.0000000000000000E+020
 30
1.0000000000000000E+020
  9
$PEXTMAX
 10
-1.0000000000000000E+020
 20
-1.0000000000000000E+020
 30
-1.0000000000000000E+020
  9
$PLIMMIN
 10
0.0
 20
0.0
  9
$PLIMMAX
 10
420.0
 20
297.0
  9
$UNITMODE
 70
     0
  9
$VISRETAIN
 70
     1
  9
$PLINEGEN
 70
     0
  9
$PSLTSCALE
 70
     1
  0
ENDSEC
  0
SECTION
  2
TABLES
  0
TABLE
  2
VPORT
 70
     2
  0
VPORT
  2
*ACTIVE
 70
     0
 10
0.0
 20
0.0
 11
1.0
 21
1.0
 12
-10.88333061300602
 22
17.211914781029289
 13
0.0
 23
0.0
 14
0.5
 24
0.5
 15
10.0
 25
10.0
 16
0.0
 26
0.0
 36
1.0
 17
0.0
 27
0.0
 37
0.0
 40
59.57710537235198
 41
1.6070460704607039
 42
50.0
 43
0.0
 44
0.0
 50
0.0
 51
0.0
 71
     0
 72
   800
 73
     1
 74
     1
 75
     0
 76
     0
 77
     0
 78
     0
  0
ENDTAB
  0
TABLE
  2
LTYPE
 70
     1
  0
LTYPE
  2
CONTINUOUS
 70
     0
  3
_______________________________________________
 72
    65
 73
     2
 40
1.0
 49
1.0
 49
0.0
  0
ENDTAB
  0
TABLE
  2
LAYER
 70
     7
  0
LAYER
  2
0
 70
     0
 62
    30
  6
CONTINUOUS
  0
LAYER
  2
1
 70
     0
 62
     2
  6
CONTINUOUS
  0
LAYER
  2
2
 70
     0
 62
     9
  6
CONTINUOUS
  0
LAYER
  2
4
 70
     1
 62
     4
  6
CONTINUOUS
  0
LAYER
  2
5
 70
     0
 62
     1
  6
CONTINUOUS
  0
LAYER
  2
6
 70
     0
 62
     3
  6
CONTINUOUS
  0
LAYER
  2
DEFPOINTS
 70
     0
 62
     7
  6
CONTINUOUS
  0
ENDTAB
  0
TABLE
  2
STYLE
 70
     2
  0
STYLE
  2
STANDARD
 70
     0
 40
0.0
 41
1.0
 50
0.0
 71
     0
 42
2.5
  3
txt
  4

  0
STYLE
  2
BESCHLAG
 70
     0
 40
0.0
 41
1.0
 50
0.0
 71
     0
 42
3.5
  3
txt
  4

  0
ENDTAB
  0
TABLE
  2
VIEW
 70
     0
  0
ENDTAB
  0
TABLE
  2
UCS
 70
     0
  0
ENDTAB
  0
TABLE
  2
APPID
 70
     1
  0
APPID
  2
ACAD
 70
     0
  0
ENDTAB
  0
TABLE
  2
DIMSTYLE
 70
     1
  0
DIMSTYLE
  2
OPO-SSTRICH
 70
     0
  3

  4

  5

  6
OBLIQUE
  7
OBLIQUE
 40
1.0
 41
2.0
 42
2.0
 43
0.0
 44
1.0
 45
0.0
 46
1.0
 47
0.0
 48
0.0
140
3.5
141
0.0
142
0.0
143
0.039370078740157
144
1.0
145
0.0
146
0.7114285714285716
147
1.0
 71
     0
 72
     0
 73
     0
 74
     0
 75
     0
 76
     0
 77
     1
 78
     8
170
     0
171
     2
172
     1
173
     1
174
     1
175
     0
176
   256
177
   256
178
   256
  0
ENDTAB
  0
ENDSEC
  0
SECTION
  2
BLOCKS
  0
BLOCK
  8
0
  2
$MODEL_SPACE
 70
     0
 10
0.0
 20
0.0
 30
0.0
  3
$MODEL_SPACE
  1

  0
ENDBLK
  5
1C
  8
0
  0
BLOCK
 67
     1
  8
0
  2
$PAPER_SPACE
 70
     0
 10
0.0
 20
0.0
 30
0.0
  3
$PAPER_SPACE
  1

  0
ENDBLK
  5
19
 67
     1
  8
0
  0
BLOCK
  8
0
  2
_OBLIQUE
 70
     0
 10
0.0
 20
0.0
 30
0.0
  3
_OBLIQUE
  1

  0
LINE
  5
204
  8
0
 62
     0
 10
-0.5
 20
-0.5
 30
0.0
 11
0.5
 21
0.5
 31
0.0
  0
ENDBLK
  5
206
  8
0
  0
BLOCK
  8
0
  2
NULLPUNKT
 70
     0
 10
0.0
 20
0.0
 30
0.0
  3
NULLPUNKT
  1

  0
SOLID
  5
254
  8
5
 10
0.0
 20
0.0
 30
0.0
 11
2.0
 21
0.0
 31
0.0
 12
0.0
 22
-2.0
 32
0.0
 13
0.0
 23
-2.0
 33
0.0
  0
SOLID
  5
255
  8
5
 10
0.0
 20
0.0
 30
0.0
 11
-2.0
 21
0.0
 31
0.0
 12
0.0
 22
2.0
 32
0.0
 13
0.0
 23
2.0
 33
0.0
  0
POLYLINE
  5
256
  8
5
 66
     1
 10
0.0
 20
0.0
 30
0.0
  0
VERTEX
  5
3F8
  8
5
 10
0.0
 20
2.0
 30
0.0
  0
VERTEX
  5
3F9
  8
5
 10
0.0
 20
-2.0
 30
0.0
  0
SEQEND
  5
3FA
  8
5
  0
POLYLINE
  5
257
  8
5
 66
     1
 10
0.0
 20
0.0
 30
0.0
  0
VERTEX
  5
3FB
  8
5
 10
-2.0
 20
0.0
 30
0.0
  0
VERTEX
  5
3FC
  8
5
 10
2.0
 20
0.0
 30
0.0
  0
SEQEND
  5
3FD
  8
5
  0
CIRCLE
  5
258
  8
5
 10
0.0
 20
0.0
 30
0.0
 40
2.0
  0
ENDBLK
  5
25A
  8
0
  0
BLOCK
  8
0
  2
*X2
 70
     1
 10
0.0
 20
0.0
 30
0.0
  3
*X2
  1

  0
LINE
  5
29E
  8
0
 62
     0
 10
866.89394369658055
 20
-458.50700695948387
 30
0.0
 11
869.90600780563159
 21
-455.49494285043289
 31
0.0
  0
LINE
  5
29F
  8
0
 62
     0
 10
894.03051454389299
 20
-431.37043611217149
 30
0.0
 11
896.03051454389299
 21
-429.37043611217138
 31
0.0
  0
LINE
  5
2A0
  8
0
 62
     0
 10
890.0939436965806
 20
-435.30700695948389
 30
0.0
 11
892.89394369658032
 21
-432.50700695948422
 31
0.0
  0
LINE
  5
2A1
  8
0
 62
     0
 10
866.89394369658055
 20
-456.80995068463608
 30
0.0
 11
868.11370098363511
 21
-455.59019339758157
 31
0.0
  0
LINE
  5
2A2
  8
0
 62
     0
 10
890.0939436965806
 20
-433.60995068463609
 30
0.0
 11
894.3334582690452
 21
-429.37043611217138
 31
0.0
  0
LINE
  5
2A3
  8
0
 62
     0
 10
890.0939436965806
 20
-431.91289440978852
 30
0.0
 11
892.6364019941974
 21
-429.37043611217138
 31
0.0
  0
LINE
  5
2A4
  8
0
 62
     0
 10
890.0939436965806
 20
-430.21583813494073
 30
0.0
 11
890.93934571934983
 21
-429.37043611217138
 31
0.0
  0
LINE
  5
2A5
  8
0
 62
     0
 10
867.72757081874045
 20
-459.37043611217149
 30
0.0
 11
870.8544463242871
 21
-456.2435606066249
 31
0.0
  0
LINE
  5
2A6
  8
0
 62
     0
 10
895.39394369658044
 20
-431.7040632343319
 30
0.0
 11
896.89394369658044
 21
-430.20406323433178
 31
0.0
  0
LINE
  5
2A7
  8
0
 62
     0
 10
890.0939436965806
 20
-437.00406323433151
 30
0.0
 11
892.89394369658032
 21
-434.20406323433178
 31
0.0
  0
LINE
  5
2A8
  8
0
 62
     0
 10
869.42462709358836
 20
-459.37043611217149
 30
0.0
 11
872.65928539575532
 21
-456.13577781000453
 31
0.0
  0
LINE
  5
2A9
  8
0
 62
     0
 10
895.49770885512123
 20
-433.29735435063861
 30
0.0
 11
896.89394369658044
 21
-431.90111950917952
 31
0.0
  0
LINE
  5
2AA
  8
0
 62
     0
 10
890.0939436965806
 20
-438.70111950917931
 30
0.0
 11
892.89394369658032
 21
-435.90111950917941
 31
0.0
  0
LINE
  5
2AB
  8
0
 62
     0
 10
871.12168336843604
 20
-459.37043611217149
 30
0.0
 11
874.50781353274715
 21
-455.98430594786049
 31
0.0
  0
LINE
  5
2AC
  8
0
 62
     0
 10
890.0939436965806
 20
-440.39817578402688
 30
0.0
 11
892.89394369658032
 21
-437.59817578402709
 31
0.0
  0
LINE
  5
2AD
  8
0
 62
     0
 10
872.81873964328383
 20
-459.37043611217149
 30
0.0
 11
876.35634167060016
 21
-455.83283408485522
 31
0.0
  0
LINE
  5
2AE
  8
0
 62
     0
 10
890.0939436965806
 20
-442.09523205887473
 30
0.0
 11
892.89394369658032
 21
-439.29523205887489
 31
0.0
  0
LINE
  5
2AF
  8
0
 62
     0
 10
874.5157959181314
 20
-459.37043611217149
 30
0.0
 11
878.20486980833323
 21
-455.68136222196978
 31
0.0
  0
LINE
  5
2B0
  8
0
 62
     0
 10
890.0939436965806
 20
-443.79228833372252
 30
0.0
 11
892.89394369658032
 21
-440.99228833372268
 31
0.0
  0
LINE
  5
2B1
  8
0
 62
     0
 10
876.2128521929792
 20
-459.37043611217149
 30
0.0
 11
880.04675325904554
 21
-455.53653504610509
 31
0.0
  0
LINE
  5
2B2
  8
0
 62
     0
 10
890.65339794477984
 20
-444.92989036037079
 30
0.0
 11
892.89394369658032
 21
-442.68934460857031
 31
0.0
  0
LINE
  5
2B3
  8
0
 62
     0
 10
877.90990846782699
 20
-459.37043611217149
 30
0.0
 11
881.74743883061319
 21
-455.53290574938512
 31
0.0
  0
LINE
  5
2B4
  8
0
 62
     0
 10
895.39394369658044
 20
-441.88640088341822
 30
0.0
 11
895.90978301788834
 21
-441.37056156211008
 31
0.0
  0
LINE
  5
2B5
  8
0
 62
     0
 10
891.50192608220379
 20
-445.77841849779469
 30
0.0
 11
893.90990846782699
 21
-443.37043611217149
 31
0.0
  0
LINE
  5
2B6
  8
0
 62
     0
 10
879.60696474267456
 20
-459.37043611217149
 30
0.0
 11
882.7618670488838
 21
-456.2155338059622
 31
0.0
  0
LINE
  5
2B7
  8
0
 62
     0
 10
892.35045421962741
 20
-446.62694663521859
 30
0.0
 11
896.86110980744809
 21
-442.11629104739802
 31
0.0
  0
LINE
  5
2B8
  8
0
 62
     0
 10
881.30402101752225
 20
-459.37043611217149
 30
0.0
 11
884.59898235835419
 21
-456.07547477133971
 31
0.0
  0
LINE
  5
2B9
  8
0
 62
     0
 10
893.0939436965806
 20
-447.58051343311342
 30
0.0
 11
896.89394369658021
 21
-443.78051343311353
 31
0.0
  0
LINE
  5
2BA
  8
0
 62
     0
 10
883.00107729237016
 20
-459.37043611217149
 30
0.0
 11
886.44751049536865
 21
-455.92400290917311
 31
0.0
  0
LINE
  5
2BB
  8
0
 62
     0
 10
893.0939436965806
 20
-449.27756970796111
 30
0.0
 11
896.89394369658021
 21
-445.47756970796121
 31
0.0
  0
LINE
  5
2BC
  8
0
 62
     0
 10
884.69813356721772
 20
-459.37043611217149
 30
0.0
 11
887.69813356721761
 21
-456.37043611217149
 31
0.0
  0
LINE
  5
2BD
  8
0
 62
     0
 10
893.0939436965806
 20
-450.97462598280867
 30
0.0
 11
896.89394369658021
 21
-447.17462598280889
 31
0.0
  0
LINE
  5
2BE
  8
0
 62
     0
 10
886.39518984206552
 20
-459.37043611217149
 30
0.0
 11
889.39518984206541
 21
-456.37043611217149
 31
0.0
  0
LINE
  5
2BF
  8
0
 62
     0
 10
893.0939436965806
 20
-452.67168225765653
 30
0.0
 11
896.89394369658021
 21
-448.87168225765669
 31
0.0
  0
LINE
  5
2C0
  8
0
 62
     0
 10
888.09224611691332
 20
-459.37043611217149
 30
0.0
 11
896.89394369658021
 21
-450.5687385325042
 31
0.0
  0
LINE
  5
2C1
  8
0
 62
     0
 10
889.78930239176088
 20
-459.37043611217149
 30
0.0
 11
896.89394369658021
 21
-452.26579480735199
 31
0.0
  0
LINE
  5
2C2
  8
0
 62
     0
 10
891.48635866660857
 20
-459.37043611217149
 30
0.0
 11
896.89394369658021
 21
-453.96285108219979
 31
0.0
  0
LINE
  5
2C3
  8
0
 62
     0
 10
893.18341494145636
 20
-459.37043611217149
 30
0.0
 11
896.89394369658021
 21
-455.65990735704742
 31
0.0
  0
LINE
  5
2C4
  8
0
 62
     0
 10
894.88047121630416
 20
-459.37043611217149
 30
0.0
 11
896.89394369658021
 21
-457.35696363189533
 31
0.0
  0
LINE
  5
2C5
  8
0
 62
     0
 10
896.57752749115184
 20
-459.37043611217149
 30
0.0
 11
896.89394369658021
 21
-459.05401990674289
 31
0.0
  0
ENDBLK
  5
2C7
  8
0
  0
BLOCK
  8
0
  2
*D3
 70
     1
 10
0.0
 20
0.0
 30
0.0
  3
*D3
  1

  0
LINE
  5
317
  8
1
 10
-2.0
 20
0.0000000000000006
 30
0.0
 11
-19.397061421196671
 21
0.0000000000000055
 31
0.0
  0
LINE
  5
318
  8
1
 10
-8.7999999999997272
 20
30.0
 30
0.0
 11
-19.397061421196661
 21
30.0
 31
0.0
  0
LINE
  5
319
  8
1
 10
-18.397061421196671
 20
-0.9999999999999948
 30
0.0
 11
-18.397061421196661
 21
31.0
 31
0.0
  0
INSERT
  5
31A
  8
1
  2
_OBLIQUE
 10
-18.397061421196671
 20
0.0000000000000052
 30
0.0
 41
2.0
 42
2.0
 43
2.0
 50
270.0
  0
INSERT
  5
31B
  8
1
  2
_OBLIQUE
 10
-18.397061421196661
 20
30.0
 30
0.0
 41
2.0
 42
2.0
 43
2.0
 50
90.0
  0
TEXT
  5
31C
  8
0
 10
-19.466297437567739
 20
12.2950204638472
 30
0.0
 40
3.5
  1
30
 50
90.0
  7
BESCHLAG
  0
POINT
  5
31D
  8
DEFPOINTS
 62
     0
 10
0.0
 20
0.0
 30
0.0
  0
POINT
  5
31E
  8
DEFPOINTS
 62
     0
 10
-6.7999999999997272
 20
30.0
 30
0.0
  0
POINT
  5
31F
  8
DEFPOINTS
 62
     0
 10
-18.397061421196661
 20
30.0
 30
0.0
  0
ENDBLK
  5
2F2
  8
0
  0
BLOCK
  8
0
  2
*D4
 70
     1
 10
0.0
 20
0.0
 30
0.0
  3
*D4
  1

  0
LINE
  5
320
  8
1
 10
-29.999999999999769
 20
-2.0
 30
0.0
 11
-29.999999999999769
 21
-12.335854249698739
 31
0.0
  0
LINE
  5
321
  8
1
 10
-0.0000000000000001
 20
-2.0
 30
0.0
 11
-0.0000000000000008
 21
-12.335854249698739
 31
0.0
  0
LINE
  5
322
  8
1
 10
-30.999999999999769
 20
-11.335854249698739
 30
0.0
 11
0.9999999999999992
 21
-11.335854249698739
 31
0.0
  0
INSERT
  5
323
  8
1
  2
_OBLIQUE
 10
-29.999999999999769
 20
-11.335854249698739
 30
0.0
 41
2.0
 42
2.0
 43
2.0
 50
180.0
  0
INSERT
  5
324
  8
1
  2
_OBLIQUE
 10
-0.0000000000000007
 20
-11.335854249698739
 30
0.0
 41
2.0
 42
2.0
 43
2.0
  0
TEXT
  5
325
  8
0
 10
-17.704979536152681
 20
-10.266618233327661
 30
0.0
 40
3.5
  1
30
  7
BESCHLAG
  0
POINT
  5
326
  8
DEFPOINTS
 62
     0
 10
-29.999999999999769
 20
0.0
 30
0.0
  0
POINT
  5
327
  8
DEFPOINTS
 62
     0
 10
0.0
 20
0.0
 30
0.0
  0
POINT
  5
328
  8
DEFPOINTS
 62
     0
 10
-0.0000000000000007
 20
-11.335854249698739
 30
0.0
  0
ENDBLK
  5
2FE
  8
0
  0
BLOCK
  8
0
  2
*D5
 70
     1
 10
0.0
 20
0.0
 30
0.0
  3
*D5
  1

  0
LINE
  5
329
  8
1
 10
0.0000000000000001
 20
32.0
 30
0.0
 11
0.0000000000000008
 21
42.264258194861661
 31
0.0
  0
LINE
  5
32A
  8
1
 10
-7.0
 20
32.0
 30
0.0
 11
-6.9999999999999991
 21
42.264258194861661
 31
0.0
  0
LINE
  5
32B
  8
1
 10
1.0
 20
41.264258194861668
 30
0.0
 11
-7.9999999999999991
 21
41.264258194861668
 31
0.0
  0
INSERT
  5
32C
  8
1
  2
_OBLIQUE
 10
0.0000000000000007
 20
41.264258194861668
 30
0.0
 41
2.0
 42
2.0
 43
2.0
  0
INSERT
  5
32D
  8
1
  2
_OBLIQUE
 10
-6.9999999999999991
 20
41.264258194861668
 30
0.0
 41
2.0
 42
2.0
 43
2.0
 50
180.0
  0
TEXT
  5
32E
  8
0
 10
-4.8644270122783082
 20
42.264258194861661
 30
0.0
 40
3.5
  1
7
  7
BESCHLAG
  0
POINT
  5
32F
  8
DEFPOINTS
 62
     0
 10
0.0
 20
30.0
 30
0.0
  0
POINT
  5
330
  8
DEFPOINTS
 62
     0
 10
-7.0
 20
30.0
 30
0.0
  0
POINT
  5
331
  8
DEFPOINTS
 62
     0
 10
-6.9999999999999991
 20
41.264258194861668
 30
0.0
  0
ENDBLK
  5
30A
  8
0
  0
BLOCK
  8
0
  2
*D6
 70
     1
 10
0.0
 20
0.0
 30
0.0
  3
*D6
  1

  0
LINE
  5
332
  8
1
 10
0.0000000000000001
 20
32.0
 30
0.0
 11
0.0000000000000008
 21
42.264258194861441
 31
0.0
  0
LINE
  5
333
  8
1
 10
5.0
 20
32.0
 30
0.0
 11
5.0
 21
42.264258194861441
 31
0.0
  0
LINE
  5
334
  8
1
 10
-0.9999999999999992
 20
41.264258194861441
 30
0.0
 11
6.0
 21
41.264258194861441
 31
0.0
  0
INSERT
  5
335
  8
1
  2
_OBLIQUE
 10
0.0000000000000007
 20
41.264258194861441
 30
0.0
 41
2.0
 42
2.0
 43
2.0
 50
180.0
  0
INSERT
  5
336
  8
1
  2
_OBLIQUE
 10
5.0
 20
41.264258194861441
 30
0.0
 41
2.0
 42
2.0
 43
2.0
  0
TEXT
  5
337
  8
0
 10
1.136766712141883
 20
42.32394441587099
 30
0.0
 40
3.5
  1
5
  7
BESCHLAG
  0
POINT
  5
338
  8
DEFPOINTS
 62
     0
 10
0.0
 20
30.0
 30
0.0
  0
POINT
  5
339
  8
DEFPOINTS
 62
     0
 10
5.0
 20
30.0
 30
0.0
  0
POINT
  5
33A
  8
DEFPOINTS
 62
     0
 10
5.0
 20
41.264258194861441
 30
0.0
  0
ENDBLK
  5
316
  8
0
  0
ENDSEC
  0
SECTION
  2
ENTITIES
  0
INSERT
  5
25B
  8
5
  2
NULLPUNKT
 10
0.0
 20
0.0
 30
0.0
  0
INSERT
  5
2DA
  8
2
  2
*X2
 10
-896.89394369658021
 20
459.3704361121724
 30
0.0
1001
ACAD
1000
HATCH
1002
{
1070
    16
1000
_U,I
1040
1.1999999999999991
1040
0.7853981633974483
1070
     0
1002
}
  0
POINT
  5
2DB
  8
5
 10
-4.0
 20
22.000000000000909
 30
0.0
  0
DIMENSION
  5
2DC
  8
1
  2
*D3
 10
-18.397061421196661
 20
30.0
 30
0.0
 11
-21.185260602642781
 21
15.0
 31
0.0
 70
     0
 13
0.0
 23
0.0
 33
0.0
 14
-6.7999999999997272
 24
30.0
 34
0.0
 50
90.0
  0
POLYLINE
  5
2DD
  8
6
 66
     1
 10
0.0
 20
0.0
 30
0.0
 70
     1
  0
VERTEX
  5
3FE
  8
6
 10
0.0
 20
29.500000000000909
 30
0.0
  0
VERTEX
  5
3FF
  8
6
 10
0.0
 20
27.000000000000909
 30
0.0
 42
-0.4142135623730951
  0
VERTEX
  5
400
  8
6
 10
-1.0
 20
26.000000000000909
 30
0.0
  0
VERTEX
  5
401
  8
6
 10
-1.1999999999998181
 20
26.000000000000909
 30
0.0
 42
-0.4142135623730951
  0
VERTEX
  5
402
  8
6
 10
-1.5
 20
26.30000000000086
 30
0.0
  0
VERTEX
  5
403
  8
6
 10
-1.5
 20
27.700000000000951
 30
0.0
 42
0.4142135623730951
  0
VERTEX
  5
404
  8
6
 10
-1.7999999999997269
 20
28.000000000000909
 30
0.0
  0
VERTEX
  5
405
  8
6
 10
-3.6999999999998181
 20
28.000000000000909
 30
0.0
 42
0.4142135623730951
  0
VERTEX
  5
406
  8
6
 10
-4.0
 20
27.700000000000951
 30
0.0
  0
VERTEX
  5
407
  8
6
 10
-4.0
 20
16.30000000000086
 30
0.0
 42
0.4142135623730951
  0
VERTEX
  5
408
  8
6
 10
-3.6999999999998181
 20
16.000000000000909
 30
0.0
  0
VERTEX
  5
409
  8
6
 10
-1.7999999999997269
 20
16.000000000000909
 30
0.0
 42
0.4142135623730951
  0
VERTEX
  5
40A
  8
6
 10
-1.5
 20
16.30000000000086
 30
0.0
  0
VERTEX
  5
40B
  8
6
 10
-1.5
 20
17.700000000000951
 30
0.0
 42
-0.4142135623730867
  0
VERTEX
  5
40C
  8
6
 10
-1.1999999999998181
 20
18.000000000000909
 30
0.0
  0
VERTEX
  5
40D
  8
6
 10
-1.0
 20
18.000000000000909
 30
0.0
 42
-0.4142135623730951
  0
VERTEX
  5
40E
  8
6
 10
0.0
 20
17.000000000000899
 30
0.0
  0
VERTEX
  5
40F
  8
6
 10
0.0
 20
0.300000000000864
 30
0.0
 42
-0.4142135623730951
  0
VERTEX
  5
410
  8
6
 10
-0.2999999999997271
 20
0.0000000000009095
 30
0.0
  0
VERTEX
  5
411
  8
6
 10
-29.699999999999591
 20
0.0000000000009095
 30
0.0
 42
-0.4142135623730965
  0
VERTEX
  5
412
  8
6
 10
-29.999999999999769
 20
0.300000000000864
 30
0.0
  0
VERTEX
  5
413
  8
6
 10
-29.999999999999769
 20
2.8757359312889998
 30
0.0
 42
-0.198912367379658
  0
VERTEX
  5
414
  8
6
 10
-29.912132034355629
 20
3.087867965645045
 30
0.0
  0
VERTEX
  5
415
  8
6
 10
-29.212132032710311
 20
3.7878679656448631
 30
0.0
 42
-0.4142135623730951
  0
VERTEX
  5
416
  8
6
 10
-28.787867963998679
 20
3.7878679656448631
 30
0.0
  0
VERTEX
  5
417
  8
6
 10
-28.21213203318484
 20
3.2121320347998781
 30
0.0
 42
0.4142135626788904
  0
VERTEX
  5
418
  8
6
 10
-27.787867964251511
 20
3.212132034578417
 30
0.0
  0
VERTEX
  5
419
  8
6
 10
-27.212132033120952
 20
3.787867965329724
 30
0.0
 42
-0.4142135625907076
  0
VERTEX
  5
41A
  8
6
 10
-26.787867964251522
 20
3.7878679654872931
 30
0.0
  0
VERTEX
  5
41B
  8
6
 10
-26.212132034521801
 20
3.2121320346893749
 30
0.0
 42
0.4142135626025789
  0
VERTEX
  5
41C
  8
6
 10
-25.78786796564372
 20
3.2121320345231652
 30
0.0
  0
VERTEX
  5
41D
  8
6
 10
-25.212132034333301
 20
3.7878679656896561
 30
0.0
 42
-0.4142135623421978
  0
VERTEX
  5
41E
  8
6
 10
-24.787867965643489
 20
3.787867965667373
 30
0.0
  0
VERTEX
  5
41F
  8
6
 10
-24.212132032966341
 20
3.2121320343628659
 30
0.0
 42
0.4142135623772527
  0
VERTEX
  5
420
  8
6
 10
-23.787867964251511
 20
3.21213203435991
 30
0.0
  0
VERTEX
  5
421
  8
6
 10
-23.21213203315051
 20
3.7878679652708338
 30
0.0
 42
-0.4142135626313175
  0
VERTEX
  5
422
  8
6
 10
-22.787867964251511
 20
3.7878679654579619
 30
0.0
  0
VERTEX
  5
423
  8
6
 10
-22.212132034517929
 20
3.2121320346814168
 30
0.0
 42
0.414213562597111
  0
VERTEX
  5
424
  8
6
 10
-21.7878679656435
 20
3.212132034519072
 30
0.0
  0
VERTEX
  5
425
  8
6
 10
-21.212132034333759
 20
3.7878679656887471
 30
0.0
 42
-0.4142135623429299
  0
VERTEX
  5
426
  8
6
 10
-20.7878679656435
 20
3.7878679656669192
 30
0.0
  0
VERTEX
  5
427
  8
6
 10
-20.21213203131742
 20
3.2121320343628659
 30
0.0
 42
0.4142135623771502
  0
VERTEX
  5
428
  8
6
 10
-19.78786796260237
 20
3.21213203435991
 30
0.0
  0
VERTEX
  5
429
  8
6
 10
-19.212132032060701
 20
3.7878679648269999
 30
0.0
 42
-0.4142135629378281
  0
VERTEX
  5
42A
  8
6
 10
-18.787867962939789
 20
3.7878679652360461
 30
0.0
  0
VERTEX
  5
42B
  8
6
 10
-18.212132034664361
 20
3.2121320349747289
 30
0.0
 42
0.4142135627996437
  0
VERTEX
  5
42C
  8
6
 10
-17.787867965643489
 20
3.2121320346657281
 30
0.0
  0
VERTEX
  5
42D
  8
6
 10
-17.212132037017678
 20
3.7878679657280818
 30
0.0
 42
-0.4142135623156795
  0
VERTEX
  5
42E
  8
6
 10
-16.78786796834742
 20
3.7878679656864729
 30
0.0
  0
VERTEX
  5
42F
  8
6
 10
-16.212132036700719
 20
3.212132033640045
 30
0.0
 42
0.4142135618782623
  0
VERTEX
  5
430
  8
6
 10
-15.78786796834742
 20
3.2121320339986141
 30
0.0
  0
VERTEX
  5
431
  8
6
 10
-15.21213203403976
 20
3.787867966276508
 30
0.0
 42
-0.4142135619371416
  0
VERTEX
  5
432
  8
6
 10
-14.787867965643491
 20
3.7878679659606851
 30
0.0
  0
VERTEX
  5
433
  8
6
 10
-14.212132034397881
 20
3.2121320344419919
 30
0.0
 42
0.4142135624317785
  0
VERTEX
  5
434
  8
6
 10
-13.7878679656435
 20
3.212132034399473
 30
0.0
  0
VERTEX
  5
435
  8
6
 10
-13.21213203434967
 20
3.78786796565646
 30
0.0
 42
-0.414213562365187
  0
VERTEX
  5
436
  8
6
 10
-12.7878679656435
 20
3.7878679656507752
 30
0.0
  0
VERTEX
  5
437
  8
6
 10
-12.21213203131515
 20
3.2121320343585462
 30
0.0
 42
0.4142135623741549
  0
VERTEX
  5
438
  8
6
 10
-11.787867962602141
 20
3.2121320343576372
 30
0.0
  0
VERTEX
  5
439
  8
6
 10
-11.21213203120328
 20
3.7878679648263178
 30
0.0
 42
-0.4142135629382275
  0
VERTEX
  5
43A
  8
6
 10
-10.78786796208214
 20
3.7878679652355909
 30
0.0
  0
VERTEX
  5
43B
  8
6
 10
-10.08786796571621
 20
3.0878679660693251
 30
0.0
 42
0.1989123678995158
  0
VERTEX
  5
43C
  8
6
 10
-9.8757359309361163
 20
3.0000000000009091
 30
0.0
  0
VERTEX
  5
43D
  8
6
 10
-6.9242640687116364
 20
3.0000000000009091
 30
0.0
 42
0.1989123673796592
  0
VERTEX
  5
43E
  8
6
 10
-6.7121320343558182
 20
3.087867965645045
 30
0.0
  0
VERTEX
  5
43F
  8
6
 10
-3.88786796564409
 20
5.9121320343569996
 30
0.0
 42
0.1989123673796587
  0
VERTEX
  5
440
  8
6
 10
-3.7999999999997272
 20
6.1242640687128178
 30
0.0
  0
VERTEX
  5
441
  8
6
 10
-3.7999999999997272
 20
11.87573593128899
 30
0.0
 42
0.1989123673796567
  0
VERTEX
  5
442
  8
6
 10
-3.88786796564409
 20
12.087867965645041
 30
0.0
  0
VERTEX
  5
443
  8
6
 10
-6.7121320343558182
 20
14.912132034357001
 30
0.0
 42
-0.1989123673796567
  0
VERTEX
  5
444
  8
6
 10
-6.7999999999997272
 20
15.12426406871282
 30
0.0
  0
VERTEX
  5
445
  8
6
 10
-6.7999999999997272
 20
29.80000000000086
 30
0.0
 42
-0.4142135623730945
  0
VERTEX
  5
446
  8
6
 10
-6.5999999999999091
 20
30.000000000000909
 30
0.0
  0
VERTEX
  5
447
  8
6
 10
-0.5
 20
30.000000000000909
 30
0.0
 42
-0.4142135623730951
  0
SEQEND
  5
448
  8
6
  0
POLYLINE
  5
2DE
  8
4
 66
     1
 10
0.0
 20
0.0
 30
0.0
 70
     1
  0
VERTEX
  5
449
  8
4
 10
-29.999999999999769
 20
0.0
 30
0.0
  0
VERTEX
  5
44A
  8
4
 10
-29.999999999999769
 20
4.0
 30
0.0
  0
VERTEX
  5
44B
  8
4
 10
-6.7999999999997272
 20
4.0
 30
0.0
  0
VERTEX
  5
44C
  8
4
 10
-5.8000000000010914
 20
4.0
 30
0.0
  0
VERTEX
  5
44D
  8
4
 10
-3.800000000000181
 20
6.0000000000009086
 30
0.0
  0
VERTEX
  5
44E
  8
4
 10
-3.800000000000181
 20
12.000000000000901
 30
0.0
  0
VERTEX
  5
44F
  8
4
 10
-6.7999999999997272
 20
15.00000000000068
 30
0.0
  0
VERTEX
  5
450
  8
4
 10
-6.7999999999997272
 20
30.0
 30
0.0
  0
VERTEX
  5
451
  8
4
 10
0.0
 20
30.0
 30
0.0
  0
VERTEX
  5
452
  8
4
 10
0.0
 20
0.0
 30
0.0
  0
SEQEND
  5
453
  8
4
  0
DIMENSION
  5
2DF
  8
1
  2
*D4
 10
-0.0000000000000007
 20
-11.335854249698739
 30
0.0
 11
-14.999999999999879
 21
-8.5476550682526291
 31
0.0
 70
     0
 13
-29.999999999999769
 23
0.0
 33
0.0
 14
0.0
 24
0.0
 34
0.0
  0
TEXT
  5
2E0
  8
1
 10
-29.71680610775342
 20
7.2988435359541191
 30
0.0
 40
2.4999999499999999
  1
Hebgo 170/620
  0
LINE
  5
2E1
  8
5
 10
0.0
 20
7.7097930824743344
 30
0.0
 11
0.0
 21
44.958287476083797
 31
0.0
  0
DIMENSION
  5
2E2
  8
1
  2
*D5
 10
-6.9999999999999991
 20
41.264258194861668
 30
0.0
 11
-3.4999999999999991
 21
44.014258194861661
 31
0.0
 70
     0
 13
0.0
 23
30.0
 33
0.0
 14
-7.0
 24
30.0
 34
0.0
  0
DIMENSION
  5
2E3
  8
1
  2
*D6
 10
5.0
 20
41.264258194861441
 30
0.0
 11
2.5
 21
44.044101305366212
 31
0.0
 70
     0
 13
0.0
 23
30.0
 33
0.0
 14
5.0
 24
30.0
 34
0.0
  0
POLYLINE
  5
2E4
  8
5
 66
     1
 10
0.0
 20
0.0
 30
0.0
  0
VERTEX
  5
454
  8
5
 10
9.2449054883429653
 20
15.0
 30
0.0
  0
VERTEX
  5
455
  8
5
 10
5.0
 20
15.0
 30
0.0
  0
VERTEX
  5
456
  8
5
 10
5.0
 20
41.419596266785668
 30
0.0
  0
SEQEND
  5
457
  8
5
  0
POLYLINE
  5
2E5
  8
6
 66
     1
 10
0.0
 20
0.0
 30
0.0
 70
     1
  0
VERTEX
  5
458
  8
6
 10
-4.0
 20
19.313325088944559
 30
0.0
 42
0.6415838065530063
  0
VERTEX
  5
459
  8
6
 10
-3.6174236954409471
 20
24.688897230029848
 30
0.0
 42
-0.5157822426877657
  0
VERTEX
  5
45A
  8
6
 10
-3.7039289605011159
 20
25.999253970001739
 30
0.0
  0
VERTEX
  5
45B
  8
6
 10
-2.3372723755505831
 20
26.79625149267121
 30
0.0
  0
VERTEX
  5
45C
  8
6
 10
-1.6685687309527559
 20
26.79625149267121
 30
0.0
  0
VERTEX
  5
45D
  8
6
 10
-1.6685687309527559
 20
25.96210850165539
 30
0.0
  0
VERTEX
  5
45E
  8
6
 10
-0.2309356594782912
 20
25.96210850165539
 30
0.0
 42
-0.2542712822039416
  0
VERTEX
  5
45F
  8
6
 10
1.3241743497765119
 20
26.909786540928959
 30
0.0
 42
-0.239805045364585
  0
VERTEX
  5
460
  8
6
 10
3.5443628129976328
 20
25.882543598283519
 30
0.0
 42
-0.0952903634792644
  0
VERTEX
  5
461
  8
6
 10
4.4750626397540136
 20
23.760318071710341
 30
0.0
 42
-0.0700993617324612
  0
VERTEX
  5
462
  8
6
 10
4.6300056314751137
 20
18.036364101448271
 30
0.0
 42
-0.9870930961173433
  0
VERTEX
  5
463
  8
6
 10
3.974707692512538
 20
18.134196738845269
 30
0.0
 42
0.0371998225987245
  0
VERTEX
  5
464
  8
6
 10
3.8320511880192489
 20
22.598556315047741
 30
0.0
 42
0.0985543060514419
  0
VERTEX
  5
465
  8
6
 10
3.0455539515855881
 20
24.552019351941219
 30
0.0
 42
0.1211139390109317
  0
VERTEX
  5
466
  8
6
 10
2.107493069581778
 20
25.31870506498489
 30
0.0
 42
0.2870603126370058
  0
VERTEX
  5
467
  8
6
 10
1.138343559716759
 20
25.041182705577739
 30
0.0
 42
0.1002807908351088
  0
VERTEX
  5
468
  8
6
 10
0.6786569676921772
 20
23.788924591373181
 30
0.0
 42
0.0333497571445928
  0
VERTEX
  5
469
  8
6
 10
0.2170733406665022
 20
19.164673721854111
 30
0.0
 42
-0.4545352424188308
  0
VERTEX
  5
46A
  8
6
 10
-0.2849645797498397
 20
18.461626632712751
 30
0.0
  0
VERTEX
  5
46B
  8
6
 10
-1.766484513101886
 20
17.889615062027129
 30
0.0
 42
0.3791917245757989
  0
VERTEX
  5
46C
  8
6
 10
-1.932754147530658
 20
17.21456971400152
 30
0.0
  0
VERTEX
  5
46D
  8
6
 10
-1.6727729186256961
 20
16.503595342988088
 30
0.0
  0
VERTEX
  5
46E
  8
6
 10
-2.0849578429867961
 20
16.10778858778599
 30
0.0
  0
VERTEX
  5
46F
  8
6
 10
-2.2630216894415289
 20
16.097893428627231
 30
0.0
  0
VERTEX
  5
470
  8
6
 10
-4.0
 20
17.135173795321631
 30
0.0
  0
SEQEND
  5
471
  8
6
  0
POINT
  5
2E6
  8
5
 10
-4.0
 20
22.000000000000909
 30
0.0
  0
VIEWPORT
  5
22
 67
     1
  8
0
 10
210.0
 20
170.2366863905325
 30
0.0
 40
420.0
 41
340.47337278106511
 68
     1
 69
     1
1001
ACAD
1000
MVIEW
1002
{
1070
    16
1010
0.0
1020
0.0
1030
0.0
1010
0.0
1020
0.0
1030
1.0
1040
0.0
1040
340.47337278106511
1040
210.0
1040
170.2366863905325
1040
50.0
1040
0.0
1040
0.0
1070
     0
1070
   100
1070
     1
1070
     1
1070
     0
1070
     0
1070
     0
1070
     0
1040
0.0
1040
0.0
1040
0.0
1040
5.0
1040
5.0
1040
10.0
1040
10.0
1070
     0
1002
{
1002
}
1002
}
  0
ENDSEC
  0
EOF
