  0
SECTION
  2
HEADER
  9
$ACADVER
  1
AC1009
  9
$INSBASE
 10
0.0
 20
0.0
 30
0.0
  9
$EXTMIN
 10
-80.402171213016118
 20
-15.999999999999989
 30
0.0
  9
$EXTMAX
 10
7.3360405918501783
 20
48.11223486147572
 30
0.0
  9
$LIMMIN
 10
-150.0
 20
-150.0
  9
$LIMMAX
 10
150.0
 20
150.0
  9
$ORTHOMODE
 70
     0
  9
$REGENMODE
 70
     1
  9
$FILLMODE
 70
     1
  9
$QTEXTMODE
 70
     0
  9
$MIRRTEXT
 70
     0
  9
$DRAGMODE
 70
     2
  9
$LTSCALE
 40
1.0
  9
$OSMODE
 70
   111
  9
$ATTMODE
 70
     1
  9
$TEXTSIZE
 40
3.5
  9
$TRACEWID
 40
1.0
  9
$TEXTSTYLE
  7
BESCHLAG
  9
$CLAYER
  8
0
  9
$CELTYPE
  6
BYLAYER
  9
$CECOLOR
 62
   256
  9
$DIMSCALE
 40
1.0
  9
$DIMASZ
 40
2.0
  9
$DIMEXO
 40
2.0
  9
$DIMDLI
 40
0.0
  9
$DIMRND
 40
0.0
  9
$DIMDLE
 40
1.0
  9
$DIMEXE
 40
1.0
  9
$DIMTP
 40
0.0
  9
$DIMTM
 40
0.0
  9
$DIMTXT
 40
3.5
  9
$DIMCEN
 40
0.0
  9
$DIMTSZ
 40
0.0
  9
$DIMTOL
 70
     0
  9
$DIMLIM
 70
     0
  9
$DIMTIH
 70
     0
  9
$DIMTOH
 70
     0
  9
$DIMSE1
 70
     0
  9
$DIMSE2
 70
     0
  9
$DIMTAD
 70
     1
  9
$DIMZIN
 70
     8
  9
$DIMBLK
  1

  9
$DIMASO
 70
     1
  9
$DIMSHO
 70
     1
  9
$DIMPOST
  1

  9
$DIMAPOST
  1

  9
$DIMALT
 70
     0
  9
$DIMALTD
 70
     2
  9
$DIMALTF
 40
0.039370078740157
  9
$DIMLFAC
 40
1.0
  9
$DIMTOFL
 70
     1
  9
$DIMTVP
 40
0.0
  9
$DIMTIX
 70
     1
  9
$DIMSOXD
 70
     0
  9
$DIMSAH
 70
     1
  9
$DIMBLK1
  1
OBLIQUE
  9
$DIMBLK2
  1
OBLIQUE
  9
$DIMSTYLE
  2
OPO-SSTRICH
  9
$DIMCLRD
 70
   256
  9
$DIMCLRE
 70
   256
  9
$DIMCLRT
 70
   256
  9
$DIMTFAC
 40
0.7114285714285716
  9
$DIMGAP
 40
1.0
  9
$LUNITS
 70
     2
  9
$LUPREC
 70
     1
  9
$SKETCHINC
 40
1.0
  9
$FILLETRAD
 40
0.0
  9
$AUNITS
 70
     0
  9
$AUPREC
 70
     1
  9
$MENU
  1
D:\ACL_CGWG\CGTAB13
  9
$ELEVATION
 40
0.0
  9
$PELEVATION
 40
0.0
  9
$THICKNESS
 40
0.0
  9
$LIMCHECK
 70
     0
  9
$BLIPMODE
 70
     0
  9
$CHAMFERA
 40
1.0
  9
$CHAMFERB
 40
1.0
  9
$SKPOLY
 70
     0
  9
$TDCREATE
 40
2451879.5590854632
  9
$TDUPDATE
 40
2452087.6458617239
  9
$TDINDWG
 40
0.0250509606
  9
$TDUSRTIMER
 40
0.0250507755
  9
$USRTIMER
 70
     1
  9
$ANGBASE
 50
0.0
  9
$ANGDIR
 70
     0
  9
$PDMODE
 70
    35
  9
$PDSIZE
 40
5.0
  9
$PLINEWID
 40
0.0
  9
$COORDS
 70
     1
  9
$SPLFRAME
 70
     0
  9
$SPLINETYPE
 70
     6
  9
$SPLINESEGS
 70
     8
  9
$ATTDIA
 70
     1
  9
$ATTREQ
 70
     1
  9
$HANDLING
 70
-16383
  9
$HANDSEED
  5
9F4
  9
$SURFTAB1
 70
    12
  9
$SURFTAB2
 70
    12
  9
$SURFTYPE
 70
     6
  9
$SURFU
 70
    12
  9
$SURFV
 70
    12
  9
$UCSNAME
  2

  9
$UCSORG
 10
0.0
 20
0.0
 30
0.0
  9
$UCSXDIR
 10
1.0
 20
0.0
 30
0.0
  9
$UCSYDIR
 10
0.0
 20
1.0
 30
0.0
  9
$PUCSNAME
  2

  9
$PUCSORG
 10
0.0
 20
0.0
 30
0.0
  9
$PUCSXDIR
 10
1.0
 20
0.0
 30
0.0
  9
$PUCSYDIR
 10
0.0
 20
1.0
 30
0.0
  9
$USERI1
 70
     0
  9
$USERI2
 70
     0
  9
$USERI3
 70
     0
  9
$USERI4
 70
     0
  9
$USERI5
 70
     0
  9
$USERR1
 40
0.0
  9
$USERR2
 40
0.0
  9
$USERR3
 40
0.0
  9
$USERR4
 40
0.0
  9
$USERR5
 40
0.0
  9
$WORLDVIEW
 70
     1
  9
$SHADEDGE
 70
     3
  9
$SHADEDIF
 70
    70
  9
$TILEMODE
 70
     1
  9
$MAXACTVP
 70
    48
  9
$PLIMCHECK
 70
     0
  9
$PEXTMIN
 10
1.0000000000000000E+020
 20
1.0000000000000000E+020
 30
1.0000000000000000E+020
  9
$PEXTMAX
 10
-1.0000000000000000E+020
 20
-1.0000000000000000E+020
 30
-1.0000000000000000E+020
  9
$PLIMMIN
 10
0.0
 20
0.0
  9
$PLIMMAX
 10
420.0
 20
297.0
  9
$UNITMODE
 70
     0
  9
$VISRETAIN
 70
     1
  9
$PLINEGEN
 70
     0
  9
$PSLTSCALE
 70
     1
  0
ENDSEC
  0
SECTION
  2
TABLES
  0
TABLE
  2
VPORT
 70
     2
  0
VPORT
  2
*ACTIVE
 70
     0
 10
0.0
 20
0.0
 11
1.0
 21
1.0
 12
-36.529540359658988
 22
16.056061508199321
 13
0.0
 23
0.0
 14
0.5
 24
0.5
 15
10.0
 25
10.0
 16
0.0
 26
0.0
 36
1.0
 17
0.0
 27
0.0
 37
0.0
 40
64.676462601282864
 41
1.6070460704607039
 42
50.0
 43
0.0
 44
0.0
 50
0.0
 51
0.0
 71
     0
 72
   800
 73
     1
 74
     1
 75
     0
 76
     0
 77
     0
 78
     0
  0
ENDTAB
  0
TABLE
  2
LTYPE
 70
     1
  0
LTYPE
  2
CONTINUOUS
 70
     0
  3
_______________________________________________
 72
    65
 73
     2
 40
1.0
 49
1.0
 49
0.0
  0
ENDTAB
  0
TABLE
  2
LAYER
 70
     7
  0
LAYER
  2
0
 70
     0
 62
    30
  6
CONTINUOUS
  0
LAYER
  2
1
 70
     0
 62
     2
  6
CONTINUOUS
  0
LAYER
  2
2
 70
     0
 62
     9
  6
CONTINUOUS
  0
LAYER
  2
4
 70
     1
 62
     4
  6
CONTINUOUS
  0
LAYER
  2
5
 70
     0
 62
     1
  6
CONTINUOUS
  0
LAYER
  2
6
 70
     0
 62
     3
  6
CONTINUOUS
  0
LAYER
  2
DEFPOINTS
 70
     0
 62
     7
  6
CONTINUOUS
  0
ENDTAB
  0
TABLE
  2
STYLE
 70
     2
  0
STYLE
  2
STANDARD
 70
     0
 40
0.0
 41
1.0
 50
0.0
 71
     0
 42
2.5
  3
txt
  4

  0
STYLE
  2
BESCHLAG
 70
     0
 40
0.0
 41
1.0
 50
0.0
 71
     0
 42
3.5
  3
txt
  4

  0
ENDTAB
  0
TABLE
  2
VIEW
 70
     0
  0
ENDTAB
  0
TABLE
  2
UCS
 70
     0
  0
ENDTAB
  0
TABLE
  2
APPID
 70
     1
  0
APPID
  2
ACAD
 70
     0
  0
ENDTAB
  0
TABLE
  2
DIMSTYLE
 70
     1
  0
DIMSTYLE
  2
OPO-SSTRICH
 70
     0
  3

  4

  5

  6
OBLIQUE
  7
OBLIQUE
 40
1.0
 41
2.0
 42
2.0
 43
0.0
 44
1.0
 45
0.0
 46
1.0
 47
0.0
 48
0.0
140
3.5
141
0.0
142
0.0
143
0.039370078740157
144
1.0
145
0.0
146
0.7114285714285716
147
1.0
 71
     0
 72
     0
 73
     0
 74
     0
 75
     0
 76
     0
 77
     1
 78
     8
170
     0
171
     2
172
     1
173
     1
174
     1
175
     0
176
   256
177
   256
178
   256
  0
ENDTAB
  0
ENDSEC
  0
SECTION
  2
BLOCKS
  0
BLOCK
  8
0
  2
$MODEL_SPACE
 70
     0
 10
0.0
 20
0.0
 30
0.0
  3
$MODEL_SPACE
  1

  0
ENDBLK
  5
1C
  8
0
  0
BLOCK
 67
     1
  8
0
  2
$PAPER_SPACE
 70
     0
 10
0.0
 20
0.0
 30
0.0
  3
$PAPER_SPACE
  1

  0
ENDBLK
  5
19
 67
     1
  8
0
  0
BLOCK
  8
0
  2
_OBLIQUE
 70
     0
 10
0.0
 20
0.0
 30
0.0
  3
_OBLIQUE
  1

  0
LINE
  5
204
  8
0
 62
     0
 10
-0.5
 20
-0.5
 30
0.0
 11
0.5
 21
0.5
 31
0.0
  0
ENDBLK
  5
206
  8
0
  0
BLOCK
  8
0
  2
NULLPUNKT
 70
     0
 10
0.0
 20
0.0
 30
0.0
  3
NULLPUNKT
  1

  0
SOLID
  5
254
  8
5
 10
0.0
 20
0.0
 30
0.0
 11
2.0
 21
0.0
 31
0.0
 12
0.0
 22
-2.0
 32
0.0
 13
0.0
 23
-2.0
 33
0.0
  0
SOLID
  5
255
  8
5
 10
0.0
 20
0.0
 30
0.0
 11
-2.0
 21
0.0
 31
0.0
 12
0.0
 22
2.0
 32
0.0
 13
0.0
 23
2.0
 33
0.0
  0
POLYLINE
  5
256
  8
5
 66
     1
 10
0.0
 20
0.0
 30
0.0
  0
VERTEX
  5
8BD
  8
5
 10
0.0
 20
2.0
 30
0.0
  0
VERTEX
  5
8BE
  8
5
 10
0.0
 20
-2.0
 30
0.0
  0
SEQEND
  5
8BF
  8
5
  0
POLYLINE
  5
257
  8
5
 66
     1
 10
0.0
 20
0.0
 30
0.0
  0
VERTEX
  5
8C0
  8
5
 10
-2.0
 20
0.0
 30
0.0
  0
VERTEX
  5
8C1
  8
5
 10
2.0
 20
0.0
 30
0.0
  0
SEQEND
  5
8C2
  8
5
  0
CIRCLE
  5
258
  8
5
 10
0.0
 20
0.0
 30
0.0
 40
2.0
  0
ENDBLK
  5
25A
  8
0
  0
BLOCK
  8
0
  2
*D2
 70
     1
 10
0.0
 20
0.0
 30
0.0
  3
*D2
  1

  0
LINE
  5
3DE
  8
1
 10
-69.0
 20
25.0
 30
0.0
 11
-73.882411019765655
 21
25.0
 31
0.0
  0
LINE
  5
3DF
  8
1
 10
-5.0
 20
32.5
 30
0.0
 11
-73.882411019765627
 21
32.500000000000021
 31
0.0
  0
LINE
  5
3E0
  8
1
 10
-72.882411019765655
 20
25.0
 30
0.0
 11
-72.882411019765655
 21
23.0
 31
0.0
  0
LINE
  5
3E1
  8
1
 10
-72.882411019765641
 20
32.500000000000021
 30
0.0
 11
-72.882411019765641
 21
34.500000000000021
 31
0.0
  0
LINE
  5
3E2
  8
1
 10
-72.882411019765655
 20
25.0
 30
0.0
 11
-72.882411019765641
 21
32.500000000000021
 31
0.0
  0
INSERT
  5
3E3
  8
1
  2
_OBLIQUE
 10
-72.882411019765655
 20
25.0
 30
0.0
 41
2.0
 42
2.0
 43
2.0
 50
90.0
  0
INSERT
  5
3E4
  8
1
  2
_OBLIQUE
 10
-72.882411019765641
 20
32.500000000000021
 30
0.0
 41
2.0
 42
2.0
 43
2.0
 50
270.0
  0
TEXT
  5
3E5
  8
0
 10
-73.942097240775183
 20
25.333560709413369
 30
0.0
 40
3.5
  1
7.5
 50
90.0
  7
BESCHLAG
  0
POINT
  5
3E6
  8
DEFPOINTS
 62
     0
 10
-67.0
 20
25.0
 30
0.0
  0
POINT
  5
3E7
  8
DEFPOINTS
 62
     0
 10
-3.0
 20
32.5
 30
0.0
  0
POINT
  5
3E8
  8
DEFPOINTS
 62
     0
 10
-72.882411019765641
 20
32.500000000000021
 30
0.0
  0
ENDBLK
  5
30E
  8
0
  0
BLOCK
  8
0
  2
*D3
 70
     1
 10
0.0
 20
0.0
 30
0.0
  3
*D3
  1

  0
LINE
  5
411
  8
1
 10
-67.0
 20
23.0
 30
0.0
 11
-67.0
 21
-6.9429334947243433
 31
0.0
  0
LINE
  5
412
  8
1
 10
-3.0
 20
-13.0
 30
0.0
 11
-2.9999999999999991
 21
-4.9429334947243433
 31
0.0
  0
LINE
  5
413
  8
1
 10
-68.0
 20
-5.9429334947243433
 30
0.0
 11
-1.9999999999999989
 21
-5.9429334947243433
 31
0.0
  0
INSERT
  5
414
  8
1
  2
_OBLIQUE
 10
-67.0
 20
-5.9429334947243433
 30
0.0
 41
2.0
 42
2.0
 43
2.0
 50
180.0
  0
INSERT
  5
415
  8
1
  2
_OBLIQUE
 10
-2.9999999999999991
 20
-5.9429334947243433
 30
0.0
 41
2.0
 42
2.0
 43
2.0
  0
TEXT
  5
416
  8
0
 10
-37.693042291950889
 20
-4.8760849271936468
 30
0.0
 40
3.5
  1
64
  7
BESCHLAG
  0
POINT
  5
417
  8
DEFPOINTS
 62
     0
 10
-67.0
 20
25.0
 30
0.0
  0
POINT
  5
418
  8
DEFPOINTS
 62
     0
 10
-3.0
 20
-15.0
 30
0.0
  0
POINT
  5
419
  8
DEFPOINTS
 62
     0
 10
-2.9999999999999991
 20
-5.9429334947243433
 30
0.0
  0
ENDBLK
  5
31B
  8
0
  0
BLOCK
  8
0
  2
*D4
 70
     1
 10
0.0
 20
0.0
 30
0.0
  3
*D4
  1

  0
LINE
  5
3B1
  8
1
 10
-11.30000000000018
 20
25.0
 30
0.0
 11
-27.01670098423164
 21
25.0
 31
0.0
  0
LINE
  5
3B2
  8
1
 10
-7.0
 20
-15.0
 30
0.0
 11
-27.01670098423164
 21
-14.999999999999989
 31
0.0
  0
LINE
  5
3B3
  8
1
 10
-26.01670098423163
 20
26.0
 30
0.0
 11
-26.016700984231651
 21
-15.999999999999989
 31
0.0
  0
INSERT
  5
3B4
  8
1
  2
_OBLIQUE
 10
-26.01670098423163
 20
25.0
 30
0.0
 41
2.0
 42
2.0
 43
2.0
 50
90.0
  0
INSERT
  5
3B5
  8
1
  2
_OBLIQUE
 10
-26.016700984231651
 20
-14.999999999999989
 30
0.0
 41
2.0
 42
2.0
 43
2.0
 50
270.0
  0
TEXT
  5
3B6
  8
0
 10
-27.083549551762339
 20
2.3666439290586618
 30
0.0
 40
3.5
  1
40
 50
90.0
  7
BESCHLAG
  0
POINT
  5
3B7
  8
DEFPOINTS
 62
     0
 10
-9.3000000000001801
 20
25.0
 30
0.0
  0
POINT
  5
3B8
  8
DEFPOINTS
 62
     0
 10
-5.0
 20
-15.0
 30
0.0
  0
POINT
  5
3B9
  8
DEFPOINTS
 62
     0
 10
-26.016700984231651
 20
-14.999999999999989
 30
0.0
  0
ENDBLK
  5
328
  8
0
  0
BLOCK
  8
0
  2
*D5
 70
     1
 10
0.0
 20
0.0
 30
0.0
  3
*D5
  1

  0
LINE
  5
3BA
  8
1
 10
-11.30000000000018
 20
25.0
 30
0.0
 11
-19.559372845558752
 21
25.0
 31
0.0
  0
LINE
  5
3BB
  8
1
 10
-11.30000000000018
 20
15.0
 30
0.0
 11
-19.559372845558752
 21
15.0
 31
0.0
  0
LINE
  5
3BC
  8
1
 10
-18.559372845558752
 20
26.0
 30
0.0
 11
-18.559372845558752
 21
14.0
 31
0.0
  0
INSERT
  5
3BD
  8
1
  2
_OBLIQUE
 10
-18.559372845558752
 20
25.0
 30
0.0
 41
2.0
 42
2.0
 43
2.0
 50
90.0
  0
INSERT
  5
3BE
  8
1
  2
_OBLIQUE
 10
-18.559372845558752
 20
15.0
 30
0.0
 41
2.0
 42
2.0
 43
2.0
 50
270.0
  0
TEXT
  5
3BF
  8
0
 10
-19.62622141308945
 20
17.13148021828103
 30
0.0
 40
3.5
  1
10
 50
90.0
  7
BESCHLAG
  0
POINT
  5
3C0
  8
DEFPOINTS
 62
     0
 10
-9.3000000000001801
 20
25.0
 30
0.0
  0
POINT
  5
3C1
  8
DEFPOINTS
 62
     0
 10
-9.3000000000001801
 20
15.0
 30
0.0
  0
POINT
  5
3C2
  8
DEFPOINTS
 62
     0
 10
-18.559372845558752
 20
15.0
 30
0.0
  0
ENDBLK
  5
335
  8
0
  0
BLOCK
  8
0
  2
*D6
 70
     1
 10
0.0
 20
0.0
 30
0.0
  3
*D6
  1

  0
LINE
  5
3FF
  8
1
 10
-9.3000000000001801
 20
13.0
 30
0.0
 11
-9.3000000000001801
 21
3.3660619812217192
 31
0.0
  0
LINE
  5
400
  8
1
 10
-3.0
 20
13.0
 30
0.0
 11
-3.0
 21
3.3660619812217192
 31
0.0
  0
LINE
  5
401
  8
1
 10
-10.30000000000018
 20
4.3660619812217192
 30
0.0
 11
-2.0
 21
4.3660619812217192
 31
0.0
  0
TEXT
  5
402
  8
0
 10
-16.364220006736211
 20
5.4352979975927971
 30
0.0
 40
3.5
  1
6.3
  7
BESCHLAG
  0
INSERT
  5
403
  8
1
  2
_OBLIQUE
 10
-9.3000000000001801
 20
4.3660619812217192
 30
0.0
 41
2.0
 42
2.0
 43
2.0
 50
180.0
  0
INSERT
  5
404
  8
1
  2
_OBLIQUE
 10
-3.0
 20
4.3660619812217192
 30
0.0
 41
2.0
 42
2.0
 43
2.0
  0
POINT
  5
405
  8
DEFPOINTS
 62
     0
 10
-9.3000000000001801
 20
15.0
 30
0.0
  0
POINT
  5
406
  8
DEFPOINTS
 62
     0
 10
-3.0
 20
15.0
 30
0.0
  0
POINT
  5
407
  8
DEFPOINTS
 62
     0
 10
-3.0
 20
4.3660619812217192
 30
0.0
  0
ENDBLK
  5
342
  8
0
  0
BLOCK
  8
0
  2
*D7
 70
     1
 10
0.0
 20
0.0
 30
0.0
  3
*D7
  1

  0
LINE
  5
3E9
  8
1
 10
-3.0
 20
34.5
 30
0.0
 11
-2.9999999999999991
 21
43.616668695036417
 31
0.0
  0
LINE
  5
3EA
  8
1
 10
-0.0000000000000001
 20
46.058064848369213
 30
0.0
 11
-0.0000000000000004
 21
41.616668695036417
 31
0.0
  0
LINE
  5
3EB
  8
1
 10
-2.9999999999999991
 20
42.616668695036417
 30
0.0
 11
-5.0
 21
42.616668695036417
 31
0.0
  0
LINE
  5
3EC
  8
1
 10
-0.0000000000000003
 20
42.616668695036417
 30
0.0
 11
1.9999999999999989
 21
42.616668695036417
 31
0.0
  0
LINE
  5
3ED
  8
1
 10
-2.9999999999999991
 20
42.616668695036417
 30
0.0
 11
-0.0000000000000003
 21
42.616668695036417
 31
0.0
  0
INSERT
  5
3EE
  8
1
  2
_OBLIQUE
 10
-2.9999999999999991
 20
42.616668695036417
 30
0.0
 41
2.0
 42
2.0
 43
2.0
  0
INSERT
  5
3EF
  8
1
  2
_OBLIQUE
 10
-0.0000000000000003
 20
42.616668695036417
 30
0.0
 41
2.0
 42
2.0
 43
2.0
 50
180.0
  0
TEXT
  5
3F0
  8
0
 10
-2.8512960436562071
 20
43.685904711407503
 30
0.0
 40
3.5
  1
3
  7
BESCHLAG
  0
POINT
  5
3F1
  8
DEFPOINTS
 62
     0
 10
-3.0
 20
32.5
 30
0.0
  0
POINT
  5
3F2
  8
DEFPOINTS
 62
     0
 10
0.0
 20
48.058064848369213
 30
0.0
  0
POINT
  5
3F3
  8
DEFPOINTS
 62
     0
 10
-0.0000000000000003
 20
42.616668695036417
 30
0.0
  0
ENDBLK
  5
34F
  8
0
  0
BLOCK
  8
0
  2
*X8
 70
     1
 10
0.0
 20
0.0
 30
0.0
  3
*X8
  1

  0
LINE
  5
90A
  8
0
 62
     0
 10
-3.1489086001197961
 20
-15.000000000000011
 30
0.0
 11
-3.0000000000000142
 21
-14.851091399880231
 31
0.0
  0
LINE
  5
90B
  8
0
 62
     0
 10
-5.0000000000000284
 20
-14.60602736961296
 30
0.0
 11
-3.0000000000000142
 21
-12.60602736961294
 31
0.0
  0
LINE
  5
90C
  8
0
 62
     0
 10
-5.0000000000000142
 20
-12.360963339345661
 30
0.0
 11
-3.0
 21
-10.360963339345631
 31
0.0
  0
LINE
  5
90D
  8
0
 62
     0
 10
-4.7920503454607219
 20
-9.9079496545390668
 30
0.0
 11
-3.0000000000000142
 21
-8.1158993090783582
 31
0.0
  0
LINE
  5
90E
  8
0
 62
     0
 10
-5.0000000000000142
 20
-7.8708352788110707
 30
0.0
 11
-3.0000000000000142
 21
-5.8708352788110707
 31
0.0
  0
LINE
  5
90F
  8
0
 62
     0
 10
-5.0
 20
-5.6257712485437841
 30
0.0
 11
-3.0000000000000142
 21
-3.6257712485437841
 31
0.0
  0
LINE
  5
910
  8
0
 62
     0
 10
-5.0000000000000142
 20
-3.3807072182765121
 30
0.0
 11
-3.0
 21
-1.3807072182764839
 31
0.0
  0
LINE
  5
911
  8
0
 62
     0
 10
-5.0000000000000142
 20
-1.135643188009211
 30
0.0
 11
-3.0
 21
0.8643568119908024
 31
0.0
  0
LINE
  5
912
  8
0
 62
     0
 10
-5.0000000000000142
 20
1.109420842258074
 30
0.0
 11
-3.0000000000000142
 21
3.109420842258074
 31
0.0
  0
LINE
  5
913
  8
0
 62
     0
 10
-5.0
 20
3.3544848725253611
 30
0.0
 11
-3.0000000000000142
 21
5.3544848725253607
 31
0.0
  0
LINE
  5
914
  8
0
 62
     0
 10
-5.0
 20
5.5995489027926624
 30
0.0
 11
-3.0
 21
7.5995489027926482
 31
0.0
  0
LINE
  5
915
  8
0
 62
     0
 10
-5.0000000000000142
 20
7.8446129330599339
 30
0.0
 11
-3.0
 21
9.844612933059949
 31
0.0
  0
LINE
  5
916
  8
0
 62
     0
 10
-4.8948384816635411
 20
10.194838481663689
 30
0.0
 11
-3.0
 21
12.08967696332723
 31
0.0
  0
LINE
  5
917
  8
0
 62
     0
 10
-5.0
 20
12.334740993594499
 30
0.0
 11
-3.0000000000000142
 21
14.334740993594499
 31
0.0
  0
LINE
  5
918
  8
0
 62
     0
 10
-5.0
 20
14.5798050238618
 30
0.0
 11
-3.0
 21
16.579805023861791
 31
0.0
  0
LINE
  5
919
  8
0
 62
     0
 10
-4.5000000000000284
 20
17.324869054129081
 30
0.0
 11
-3.0000000000000142
 21
18.824869054129088
 31
0.0
  0
LINE
  5
91A
  8
0
 62
     0
 10
-6.824869054129123
 20
14.99999999999998
 30
0.0
 11
-4.5248690541291552
 21
17.299999999999951
 31
0.0
  0
LINE
  5
91B
  8
0
 62
     0
 10
-9.0699330843963963
 20
15.0
 30
0.0
 11
-6.7699330843964409
 21
17.29999999999994
 31
0.0
  0
LINE
  5
91C
  8
0
 62
     0
 10
-9.3000000000002103
 20
17.01499711466348
 30
0.0
 11
-7.0000000000009228
 21
19.31499711466277
 31
0.0
  0
LINE
  5
91D
  8
0
 62
     0
 10
-9.3000000000001961
 20
19.26006114493077
 30
0.0
 11
-7.000000000000937
 21
21.560061144930039
 31
0.0
  0
LINE
  5
91E
  8
0
 62
     0
 10
-3.5051251751983301
 20
27.29999999999994
 30
0.0
 11
-3.0000000000000142
 21
27.80512517519827
 31
0.0
  0
LINE
  5
91F
  8
0
 62
     0
 10
-9.3000000000002103
 20
21.505125175198071
 30
0.0
 11
-7.0000000000009228
 21
23.805125175197361
 31
0.0
  0
LINE
  5
920
  8
0
 62
     0
 10
-4.5000000000000142
 20
28.550189205465529
 30
0.0
 11
-2.5971399301556479
 21
30.453049275309901
 31
0.0
  0
LINE
  5
921
  8
0
 62
     0
 10
-9.3000000000001961
 20
23.750189205465361
 30
0.0
 11
-7.0000000000009228
 21
26.05018920546463
 31
0.0
  0
LINE
  5
922
  8
0
 62
     0
 10
-5.9952532357328741
 20
29.299999999999951
 30
0.0
 11
-3.6110166233924721
 21
31.684236612340349
 31
0.0
  0
LINE
  5
923
  8
0
 62
     0
 10
-10.29525323573284
 20
24.999999999999979
 30
0.0
 11
-7.0000000000008811
 21
28.295253235731931
 31
0.0
  0
LINE
  5
924
  8
0
 62
     0
 10
-5.4011433705664578
 20
32.139173895433672
 30
0.0
 11
-5.0432464000088819
 21
32.497070865991248
 31
0.0
  0
LINE
  5
925
  8
0
 62
     0
 10
-12.540317266000139
 20
24.999999999999979
 30
0.0
 11
-5.840317266000155
 21
31.69999999999996
 31
0.0
  0
LINE
  5
926
  8
0
 62
     0
 10
-10.48369771919949
 20
29.301683577067919
 30
0.0
 11
-9.8382871980797262
 21
29.947094098187701
 31
0.0
  0
LINE
  5
927
  8
0
 62
     0
 10
-11.88363826487153
 20
27.901743031395888
 30
0.0
 11
-11.260470737094961
 21
28.524910559172461
 31
0.0
  0
LINE
  5
928
  8
0
 62
     0
 10
-9.0212591734559453
 20
30.764122122811479
 30
0.0
 11
-8.4704646634257301
 21
31.314916632841701
 31
0.0
  0
LINE
  5
929
  8
0
 62
     0
 10
-14.785381296267429
 20
25.0
 30
0.0
 11
-12.185381296267259
 21
27.600000000000161
 31
0.0
  0
LINE
  5
92A
  8
0
 62
     0
 10
-17.0304453265347
 20
24.999999999999979
 30
0.0
 11
-14.430445326534331
 21
27.60000000000036
 31
0.0
  0
LINE
  5
92B
  8
0
 62
     0
 10
-19.27550935680199
 20
24.999999999999979
 30
0.0
 11
-16.67550935680158
 21
27.600000000000389
 31
0.0
  0
LINE
  5
92C
  8
0
 62
     0
 10
-21.520573387069291
 20
24.999999999999979
 30
0.0
 11
-18.826788019167871
 21
27.693785367901398
 31
0.0
  0
LINE
  5
92D
  8
0
 62
     0
 10
-23.765637417336588
 20
24.999999999999972
 30
0.0
 11
-20.916487679561001
 21
27.849149737775559
 31
0.0
  0
LINE
  5
92E
  8
0
 62
     0
 10
-26.01070144760385
 20
24.999999999999979
 30
0.0
 11
-23.00618733995411
 21
28.00451410764974
 31
0.0
  0
LINE
  5
92F
  8
0
 62
     0
 10
-28.25576547787113
 20
24.999999999999979
 30
0.0
 11
-25.095887000347219
 21
28.1598784775239
 31
0.0
  0
LINE
  5
930
  8
0
 62
     0
 10
-30.50082950813843
 20
24.999999999999979
 30
0.0
 11
-27.186141660567589
 21
28.314687847570809
 31
0.0
  0
LINE
  5
931
  8
0
 62
     0
 10
-29.628793979705591
 20
28.117099558700129
 30
0.0
 11
-29.345934682583302
 21
28.399958855822419
 31
0.0
  0
LINE
  5
932
  8
0
 62
     0
 10
-32.745893538405717
 20
25.0
 30
0.0
 11
-30.14589353840519
 21
27.60000000000052
 31
0.0
  0
LINE
  5
933
  8
0
 62
     0
 10
-34.990957568672997
 20
25.000000000000011
 30
0.0
 11
-32.39095756867254
 21
27.600000000000449
 31
0.0
  0
LINE
  5
934
  8
0
 62
     0
 10
-37.236021598940312
 20
24.999999999999979
 30
0.0
 11
-34.636021598939898
 21
27.600000000000389
 31
0.0
  0
LINE
  5
935
  8
0
 62
     0
 10
-39.481085629207577
 20
25.0
 30
0.0
 11
-36.812334496690433
 21
27.668751132517141
 31
0.0
  0
LINE
  5
936
  8
0
 62
     0
 10
-41.726149659474871
 20
25.0
 30
0.0
 11
-38.902034157083563
 21
27.824115502391301
 31
0.0
  0
LINE
  5
937
  8
0
 62
     0
 10
-43.971213689742171
 20
24.999999999999979
 30
0.0
 11
-40.991733817476671
 21
27.979479872265479
 31
0.0
  0
LINE
  5
938
  8
0
 62
     0
 10
-46.216277720009472
 20
24.999999999999979
 30
0.0
 11
-43.081433477869801
 21
28.13484424213965
 31
0.0
  0
LINE
  5
939
  8
0
 62
     0
 10
-48.461341750276731
 20
25.0
 30
0.0
 11
-45.171133138262903
 21
28.290208612013821
 31
0.0
  0
LINE
  5
93A
  8
0
 62
     0
 10
-47.682735260618642
 20
28.023670519925371
 30
0.0
 11
-47.31036973062875
 21
28.396036049915281
 31
0.0
  0
LINE
  5
93B
  8
0
 62
     0
 10
-50.706405780544031
 20
25.0
 30
0.0
 11
-48.106405780543483
 21
27.600000000000531
 31
0.0
  0
LINE
  5
93C
  8
0
 62
     0
 10
-52.951469810811311
 20
24.999999999999979
 30
0.0
 11
-50.351469810810833
 21
27.60000000000047
 31
0.0
  0
LINE
  5
93D
  8
0
 62
     0
 10
-55.196533841078612
 20
24.999999999999979
 30
0.0
 11
-52.596533841078198
 21
27.600000000000399
 31
0.0
  0
LINE
  5
93E
  8
0
 62
     0
 10
-57.441597871345913
 20
25.0
 30
0.0
 11
-54.797880974213022
 21
27.643716897132869
 31
0.0
  0
LINE
  5
93F
  8
0
 62
     0
 10
-59.686661901613213
 20
24.999999999999972
 30
0.0
 11
-56.887580634606117
 21
27.79908126700705
 31
0.0
  0
LINE
  5
940
  8
0
 62
     0
 10
-61.931725931880479
 20
24.999999999999972
 30
0.0
 11
-58.977280294999197
 21
27.954445636881228
 31
0.0
  0
LINE
  5
941
  8
0
 62
     0
 10
-64.176789962147765
 20
24.999999999999979
 30
0.0
 11
-61.138451764843879
 21
28.038338197303869
 31
0.0
  0
LINE
  5
942
  8
0
 62
     0
 10
-65.349158414920609
 20
26.072695577494439
 30
0.0
 11
-64.798249973911894
 21
26.623604018503158
 31
0.0
  0
LINE
  5
943
  8
0
 62
     0
 10
-66.421853992415066
 20
24.999999999999979
 30
0.0
 11
-65.753958256912398
 21
25.66789573550265
 31
0.0
  0
ENDBLK
  5
945
  8
0
  0
ENDSEC
  0
SECTION
  2
ENTITIES
  0
INSERT
  5
25B
  8
5
  2
NULLPUNKT
 10
0.0
 20
0.0
 30
0.0
  0
POLYLINE
  5
2E4
  8
4
 66
     1
 10
0.0
 20
0.0
 30
0.0
  0
VERTEX
  5
8C3
  8
4
 10
-12.01479759462563
 20
28.400000000000539
 30
0.0
  0
VERTEX
  5
8C4
  8
4
 10
-67.0
 20
28.400000000000539
 30
0.0
  0
VERTEX
  5
8C5
  8
4
 10
-67.0
 20
25.0
 30
0.0
  0
VERTEX
  5
8C6
  8
4
 10
-9.3000000000001801
 20
25.0
 30
0.0
  0
VERTEX
  5
8C7
  8
4
 10
-9.3000000000001801
 20
15.0
 30
0.0
  0
VERTEX
  5
8C8
  8
4
 10
-5.0
 20
15.0
 30
0.0
  0
VERTEX
  5
8C9
  8
4
 10
-5.0
 20
-15.0
 30
0.0
  0
VERTEX
  5
8CA
  8
4
 10
-3.0
 20
-15.0
 30
0.0
  0
VERTEX
  5
8CB
  8
4
 10
-3.0
 20
19.299999999999951
 30
0.0
  0
VERTEX
  5
8CC
  8
4
 10
-4.5
 20
19.299999999999951
 30
0.0
  0
VERTEX
  5
8CD
  8
4
 10
-4.5248690541291552
 20
17.299999999999951
 30
0.0
  0
VERTEX
  5
8CE
  8
4
 10
-7.0000000000009086
 20
17.299999999999951
 30
0.0
  0
VERTEX
  5
8CF
  8
4
 10
-7.0000000000009086
 20
29.299999999999951
 30
0.0
  0
VERTEX
  5
8D0
  8
4
 10
-4.5
 20
29.299999999999951
 30
0.0
  0
VERTEX
  5
8D1
  8
4
 10
-4.5
 20
27.299999999999951
 30
0.0
  0
VERTEX
  5
8D2
  8
4
 10
-3.0
 20
27.299999999999951
 30
0.0
  0
VERTEX
  5
8D3
  8
4
 10
-3.0
 20
32.5
 30
0.0
  0
VERTEX
  5
8D4
  8
4
 10
-5.0773502674946931
 20
32.5
 30
0.0
  0
VERTEX
  5
8D5
  8
4
 10
-7.0318626605139789
 20
32.387590380584697
 30
0.0
  0
VERTEX
  5
8D6
  8
4
 10
-8.9802079694527492
 20
31.44227604892512
 30
0.0
  0
VERTEX
  5
8D7
  8
4
 10
-10.62577058327315
 20
29.984406005791008
 30
0.0
  0
VERTEX
  5
8D8
  8
4
 10
-12.050264373120619
 20
28.35954450389135
 30
0.0
  0
SEQEND
  5
8D9
  8
4
  0
POLYLINE
  5
2E5
  8
6
 66
     1
 10
0.0
 20
0.0
 30
0.0
 70
     1
  0
VERTEX
  5
8DA
  8
6
 10
0.2999999999988176
 20
23.299999999999489
 30
0.0
 42
-0.2980932138127738
  0
VERTEX
  5
8DB
  8
6
 10
-0.7507422191324622
 20
22.07563999999979
 30
0.0
  0
VERTEX
  5
8DC
  8
6
 10
-0.7866632686407229
 20
19.933158872163169
 30
0.0
 42
-0.4158738464929489
  0
VERTEX
  5
8DD
  8
6
 10
-2.8995592551013938
 20
18.813440065510569
 30
0.0
  0
VERTEX
  5
8DE
  8
6
 10
-4.0910500870877513
 20
19.644529266364991
 30
0.0
 42
0.9647680298900043
  0
VERTEX
  5
8DF
  8
6
 10
-4.8643632994771897
 20
19.10731508911908
 30
0.0
  0
VERTEX
  5
8E0
  8
6
 10
-4.4040231230274003
 20
18.550631549657961
 30
0.0
 42
-0.8268679352160262
  0
VERTEX
  5
8E1
  8
6
 10
-4.7132074683181591
 20
17.808383646962959
 30
0.0
  0
VERTEX
  5
8E2
  8
6
 10
-6.8314881777828296
 20
18.240960436419979
 30
0.0
 42
-0.2464814616015845
  0
VERTEX
  5
8E3
  8
6
 10
-7.0005204590561334
 20
18.54074544887748
 30
0.0
 42
-0.0150420667643324
  0
VERTEX
  5
8E4
  8
6
 10
-7.0005204590561334
 20
18.822672668242141
 30
0.0
 42
-0.2063969197888626
  0
VERTEX
  5
8E5
  8
6
 10
-6.8283452408077201
 20
19.191107639540629
 30
0.0
  0
VERTEX
  5
8E6
  8
6
 10
-6.4976411549437207
 20
19.62402762953274
 30
0.0
 42
0.0984306399189399
  0
VERTEX
  5
8E7
  8
6
 10
-6.1796605032632206
 20
20.272167088334982
 30
0.0
  0
VERTEX
  5
8E8
  8
6
 10
-6.1796605032632206
 20
23.299999999999489
 30
0.0
  0
VERTEX
  5
8E9
  8
6
 10
-6.1796605032632206
 20
26.327832911664469
 30
0.0
 42
0.0984306399189399
  0
VERTEX
  5
8EA
  8
6
 10
-6.4976411549437207
 20
26.9759723704667
 30
0.0
  0
VERTEX
  5
8EB
  8
6
 10
-6.8283452408077201
 20
27.408892360458822
 30
0.0
 42
-0.2063969197888626
  0
VERTEX
  5
8EC
  8
6
 10
-7.0005204590561334
 20
27.777327331756851
 30
0.0
 42
-0.0150420667643324
  0
VERTEX
  5
8ED
  8
6
 10
-7.0005204590561334
 20
28.05925455112197
 30
0.0
 42
-0.2464814616015845
  0
VERTEX
  5
8EE
  8
6
 10
-6.8314881777828296
 20
28.359039563579469
 30
0.0
  0
VERTEX
  5
8EF
  8
6
 10
-4.7950173523609001
 20
28.77307247448902
 30
0.0
 42
-0.8428517067280497
  0
VERTEX
  5
8F0
  8
6
 10
-4.3612560294741343
 20
28.0969058716862
 30
0.0
  0
VERTEX
  5
8F1
  8
6
 10
-4.8536631272095292
 20
27.518705639577771
 30
0.0
 42
0.9846311026449575
  0
VERTEX
  5
8F2
  8
6
 10
-4.0910500870877513
 20
26.955470733634449
 30
0.0
  0
VERTEX
  5
8F3
  8
6
 10
-2.8995592551013938
 20
27.786559934488881
 30
0.0
 42
-0.4158738464929489
  0
VERTEX
  5
8F4
  8
6
 10
-0.7866632686407229
 20
26.666841127836271
 30
0.0
  0
VERTEX
  5
8F5
  8
6
 10
-0.7507422191324622
 20
24.52435999999966
 30
0.0
 42
-0.2980932138127738
  0
SEQEND
  5
8F6
  8
6
  0
POLYLINE
  5
2E6
  8
6
 66
     1
 10
0.0
 20
0.0
 30
0.0
  0
VERTEX
  5
8F7
  8
6
 10
-1.973943733845771
 20
23.295235834538509
 30
0.0
 42
0.0523662851020724
  0
VERTEX
  5
8F8
  8
6
 10
-1.5618056678385981
 20
20.289450213910861
 30
0.0
 42
-0.1698680870516715
  0
VERTEX
  5
8F9
  8
6
 10
-1.5484953383365789
 20
19.69079559889974
 30
0.0
 42
-0.3581952709156561
  0
VERTEX
  5
8FA
  8
6
 10
-2.529517965276681
 20
19.495182694277219
 30
0.0
  0
VERTEX
  5
8FB
  8
6
 10
-4.0386136790530136
 20
20.50862210783384
 30
0.0
 42
-0.162990172482064
  0
VERTEX
  5
8FC
  8
6
 10
-4.6124768191730254
 20
21.682757123908448
 30
0.0
 42
-0.0297520103796801
  0
VERTEX
  5
8FD
  8
6
 10
-4.7040409604956031
 20
23.299999999999489
 30
0.0
 42
-0.0297520103796801
  0
VERTEX
  5
8FE
  8
6
 10
-4.5585380551688104
 20
24.91328466700201
 30
0.0
 42
-0.162990172482064
  0
VERTEX
  5
8FF
  8
6
 10
-3.9457976311914531
 20
26.067607460845231
 30
0.0
  0
VERTEX
  5
900
  8
6
 10
-1.951074325580066
 20
27.03010255475715
 30
0.0
 42
-0.5496470159714418
  0
VERTEX
  5
901
  8
6
 10
-1.363111160468633
 20
26.814741131499652
 30
0.0
 42
-0.0587952726232103
  0
VERTEX
  5
902
  8
6
 10
-1.4628010829842419
 20
26.21908253253946
 30
0.0
 42
0.0523662851020724
  0
VERTEX
  5
903
  8
6
 10
-1.9750541358023379
 20
23.228731082876259
 30
0.0
  0
SEQEND
  5
904
  8
6
  0
POLYLINE
  5
2E7
  8
5
 66
     1
 10
0.0
 20
0.0
 30
0.0
  0
VERTEX
  5
905
  8
5
 10
7.3360405918501783
 20
0.0
 30
0.0
  0
VERTEX
  5
906
  8
5
 10
0.0
 20
0.0
 30
0.0
  0
VERTEX
  5
907
  8
5
 10
0.0
 20
48.058064848369213
 30
0.0
  0
SEQEND
  5
908
  8
5
  0
DIMENSION
  5
2E9
  8
1
  2
*D2
 10
-72.882411019765641
 20
32.500000000000021
 30
0.0
 11
-75.662254130270426
 21
28.75
 31
0.0
 70
     0
 13
-67.0
 23
25.0
 33
0.0
 14
-3.0
 24
32.5
 34
0.0
 50
90.0
  0
INSERT
  5
2EA
  8
2
  6
CONTINUOUS
  2
*X8
 10
0.0
 20
0.0
 30
0.0
1001
ACAD
1000
HATCH
1002
{
1070
    19
1000
ANSI31
1040
0.5
1040
0.0
1000
ASC_BOUNDS
1070
     1
1070
     2
1070
     1
1005
2ED
1000
ASC_SEEDPOINT
1011
-207.84345518079681
1021
0.0
1031
-2.7199639397584409E+075
1021
-19.883847886888361
1031
0.0
1000
R14_HATCH_DATA
1000
2EA
1011
1.0
1021
0.0
1031
-2.7199639397584409E+075
1021
0.0
1031
0.0
1011
0.0
1021
0.0
1031
-2.7199639397584409E+075
1021
1.0
1031
0.0
1011
0.0
1021
0.0
1031
-2.7199639397584409E+075
1021
0.0
1031
1.0
1040
0.0
1010
0.0
1020
0.0
1030
1.0
1000
ANSI31
1070
     0
1070
     1
1071
        1
1071
        1
1071
      167
1070
     1
1040
-23.176786198729129
1040
28.30000000000064
1040
-22.772641011991251
1040
27.60000000000036
1070
     1
1040
-22.772641011991251
1040
27.60000000000036
1040
-21.927341550371231
1040
27.600000000000591
1070
     1
1040
-21.927341550371231
1040
27.600000000000591
1040
-21.523196360242761
1040
28.30000000000064
1070
     2
1040
-21.349991279485941
1040
28.200000000000731
1040
0.1999999999998922
1040
3.6651914291878782
1040
5.7595865315815011
1070
     0
1070
     1
1040
-21.176786198729129
1040
28.30000000000064
1040
-20.772641011991251
1040
27.60000000000036
1070
     1
1040
-20.772641011991251
1040
27.60000000000036
1040
-19.927341550371239
1040
27.600000000000591
1070
     1
1040
-19.927341550371239
1040
27.600000000000591
1040
-19.523196360242761
1040
28.30000000000064
1070
     2
1040
-19.349991279485948
1040
28.200000000000731
1040
0.1999999999998922
1040
3.6651914291878782
1040
5.7595865315815011
1070
     0
1070
     1
1040
-19.176786198729129
1040
28.30000000000064
1040
-18.772641011991251
1040
27.60000000000036
1070
     1
1040
-18.772641011991251
1040
27.60000000000036
1040
-17.927341550371231
1040
27.600000000000591
1070
     1
1040
-17.927341550371231
1040
27.600000000000591
1040
-17.523196360242761
1040
28.30000000000064
1070
     2
1040
-17.349991279485948
1040
28.200000000000731
1040
0.1999999999998922
1040
3.6651914291878782
1040
5.7595865315815011
1070
     0
1070
     1
1040
-17.176786198729129
1040
28.30000000000064
1040
-16.772641011991251
1040
27.60000000000036
1070
     1
1040
-16.772641011991251
1040
27.60000000000036
1040
-15.92734155037123
1040
27.600000000000591
1070
     1
1040
-15.92734155037123
1040
27.600000000000591
1040
-15.523196360242761
1040
28.30000000000064
1070
     2
1040
-15.349991279485939
1040
28.200000000000731
1040
0.1999999999998922
1040
3.6651914291878782
1040
5.7595865315815011
1070
     0
1070
     1
1040
-15.176786198729131
1040
28.30000000000064
1040
-14.772641011991251
1040
27.60000000000036
1070
     1
1040
-14.772641011991251
1040
27.60000000000036
1040
-13.92734155037123
1040
27.60000000000036
1070
     1
1040
-13.92734155037123
1040
27.60000000000036
1040
-13.523196360242761
1040
28.300000000000399
1070
     2
1040
-13.349991279485939
1040
28.200000000000269
1040
0.2000000000000059
1040
3.6651914291888619
1040
5.759586531580517
1070
     0
1070
     1
1040
-13.176786198729131
1040
28.300000000000399
1040
-12.772641011991251
1040
27.600000000000129
1070
     1
1040
-12.772641011991251
1040
27.600000000000129
1040
-11.773812783667379
1040
27.600000000000129
1070
     1
1040
-11.773812783667379
1040
27.600000000000129
1040
-12.050264373120619
1040
28.35954450389135
1070
     2
1040
-11.86232584896333
1040
28.427948532557188
1040
0.200000000000342
1040
2.7925268031877981
1040
4.886921905582013
1070
     0
1070
     1
1040
-11.82759621343029
1040
28.624910083160099
1040
-11.03158558469749
1040
28.48455193089239
1070
     1
1040
-11.03158558469749
1040
28.48455193089239
1040
-10.384048629352939
1040
29.027899951296831
1070
     1
1040
-10.384048629352939
1040
29.027899951296831
1040
-10.66050021880619
1040
29.787444455188052
1070
     2
1040
-10.472561694648901
1040
29.85584848385389
1040
0.200000000000342
1040
2.7925268031877981
1040
4.886921905582013
1070
     0
1070
     1
1040
-10.437832059115861
1040
30.05281003445679
1040
-9.6418214303830592
1040
29.912451882189089
1070
     1
1040
-9.6418214303830592
1040
29.912451882189089
1040
-8.994284475038512
1040
30.45579990259375
1070
     1
1040
-8.994284475038512
1040
30.45579990259375
1040
-9.0647316218000924
1040
31.261014491517919
1070
     2
1040
-8.8654926821818663
1040
31.278445640067709
1040
0.1999999999998994
1040
3.0543261909887729
1040
5.1487212933789372
1070
     0
1070
     1
1040
-8.7809690298345231
1040
31.459707197475382
1040
-8.0484091684829764
1040
31.118108922450119
1070
     1
1040
-8.0484091684829764
1040
31.118108922450119
1040
-7.4615231413536094
1040
31.499488355759691
1070
     1
1040
-7.4615231413536094
1040
31.499488355759691
1040
-7.185071549140047
1040
32.25903285864706
1070
     2
1040
-6.9971330249827579
1040
32.19062882998157
1040
0.2000000000002205
1040
3.4906585039901179
1040
5.585053606384065
1070
     0
1070
     1
1040
-6.8439241363585088
1040
32.319186351918688
1040
-6.324365098749694
1040
31.699999999999822
1070
     1
1040
-6.324365098749694
1040
31.699999999999822
1040
-5.6547005383799842
1040
31.700000000000038
1070
     1
1040
-5.6547005383799842
1040
31.700000000000038
1040
-5.2505553482515088
1040
32.400000000000091
1070
     2
1040
-5.0773502674946931
1040
32.300000000000182
1040
0.1999999999998922
1040
3.6651914291878782
1040
5.7595865315815011
1070
     0
1070
     1
1040
-4.9041451867378782
1040
32.400000000000091
1040
-4.5
1040
31.699999999999822
1070
     1
1040
-4.5
1040
31.699999999999822
1040
-3.956500545331437
1040
31.516255030547651
1070
     1
1040
-3.956500545331437
1040
31.516255030547651
1040
-3.2295816106134221
1040
31.86969837402853
1070
     2
1040
-3.142127063449152
1040
31.689832584673521
1040
0.2000000000000173
1040
4.2598251053432969
1040
6.3542202077353167
1070
     0
1070
     1
1040
-2.9426314470138091
1040
31.675637549516971
1040
-3.0
1040
30.685640646056299
1070
     1
1040
-3.0
1040
30.685640646056299
1040
-2.0999999999994539
1040
30.16602540160488
1070
     2
1040
-2.1999999999989082
1040
29.992820320848061
1040
0.1999999999996648
1040
5.2359877559808048
1040
7.3303828583783659
1070
     0
1070
     1
1040
-2.0999999999994539
1040
29.819615240091249
1040
-3.0
1040
29.299999999999951
1070
     1
1040
-3.0
1040
29.299999999999951
1040
-3.0
1040
27.299999999999951
1070
     1
1040
-3.0
1040
27.299999999999951
1040
-4.5
1040
27.299999999999951
1070
     1
1040
-4.5
1040
27.299999999999951
1040
-4.5
1040
29.299999999999951
1070
     1
1040
-4.5
1040
29.299999999999951
1040
-7.0000000000009086
1040
29.299999999999951
1070
     1
1040
-7.0000000000009086
1040
29.299999999999951
1040
-7.0000000000009086
1040
17.299999999999951
1070
     1
1040
-7.0000000000009086
1040
17.299999999999951
1040
-4.5
1040
17.299999999999951
1070
     1
1040
-4.5
1040
17.299999999999951
1040
-4.5
1040
19.299999999999951
1070
     1
1040
-4.5
1040
19.299999999999951
1040
-3.0
1040
19.299999999999951
1070
     1
1040
-3.0
1040
19.299999999999951
1040
-3.0
1040
-15.0
1070
     1
1040
-3.0
1040
-15.0
1040
-5.0
1040
-15.0
1070
     1
1040
-5.0
1040
-15.0
1040
-5.0
1040
-10.30000000000018
1070
     1
1040
-5.0
1040
-10.30000000000018
1040
-4.6999999999998181
1040
-10.0
1070
     1
1040
-4.6999999999998181
1040
-10.0
1040
-5.0
1040
-9.6999999999998181
1070
     1
1040
-5.0
1040
-9.6999999999998181
1040
-5.0
1040
-5.300000000000181
1070
     1
1040
-5.0
1040
-5.300000000000181
1040
-4.6999999999998181
1040
-5.0
1070
     1
1040
-4.6999999999998181
1040
-5.0
1040
-5.0
1040
-4.6999999999998181
1070
     1
1040
-5.0
1040
-4.6999999999998181
1040
-5.0
1040
-0.3000000000001819
1070
     1
1040
-5.0
1040
-0.3000000000001819
1040
-4.6999999999998181
1040
0.0
1070
     1
1040
-4.6999999999998181
1040
0.0
1040
-5.0
1040
0.3000000000001819
1070
     1
1040
-5.0
1040
0.3000000000001819
1040
-5.0
1040
4.6999999999998181
1070
     1
1040
-5.0
1040
4.6999999999998181
1040
-4.6999999999998181
1040
5.0
1070
     1
1040
-4.6999999999998181
1040
5.0
1040
-5.0
1040
5.300000000000181
1070
     1
1040
-5.0
1040
5.300000000000181
1040
-5.0
1040
9.6999999999998181
1070
     1
1040
-5.0
1040
9.6999999999998181
1040
-4.6999999999998181
1040
10.0
1070
     1
1040
-4.6999999999998181
1040
10.0
1040
-5.0
1040
10.30000000000018
1070
     1
1040
-5.0
1040
10.30000000000018
1040
-5.0
1040
15.0
1070
     1
1040
-5.0
1040
15.0
1040
-9.3000000000001801
1040
15.0
1070
     1
1040
-9.3000000000001801
1040
15.0
1040
-9.3000000000001801
1040
25.0
1070
     1
1040
-9.3000000000001801
1040
25.0
1040
-67.0
1040
25.0
1070
     1
1040
-67.0
1040
25.0
1040
-66.455576669424772
1040
25.688722873690491
1070
     2
1040
-66.291945987706754
1040
25.573722873689341
1040
0.1999999999994176
1040
3.7541968016474652
1040
4.9140071418426254
1070
     0
1070
     1
1040
-66.251894992514281
1040
25.769671636849122
1040
-65.459977495531334
1040
25.60780746559044
1070
     1
1040
-65.459977495531334
1040
25.60780746559044
1040
-65.306220291880891
1040
25.751335338158238
1070
     1
1040
-65.306220291880891
1040
25.751335338158238
1040
-65.413267630504379
1040
26.552505858083801
1070
     2
1040
-65.215029338469662
1040
26.578993205460272
1040
0.1999999999997086
1040
3.0087656833154548
1040
5.1031607857089281
1070
     0
1070
     1
1040
-65.138848908159162
1040
26.763916276053351
1040
-64.391491217395924
1040
26.456036731391119
1070
     1
1040
-64.391491217395924
1040
26.456036731391119
1040
-63.731141162702443
1040
26.83729316067388
1070
     1
1040
-63.731141162702443
1040
26.83729316067388
1040
-63.62409954818213
1040
27.638464445396941
1070
     2
1040
-63.425861066812843
1040
27.61197851508858
1040
0.1999999999997526
1040
3.274412475560843
1040
5.3688075779545148
1070
     0
1070
     1
1040
-63.303804337638212
1040
27.770415110807789
1040
-62.66349046088817
1040
27.27712871204357
1070
     1
1040
-62.66349046088817
1040
27.27712871204357
1040
-61.958765487936951
1040
27.464795759471141
1070
     1
1040
-61.958765487936951
1040
27.464795759471141
1040
-61.648578778324008
1040
28.211198827446871
1070
     2
1040
-61.463891915998602
1040
28.134447522022882
1040
0.1999999999997286
1040
3.5354535244865128
1040
5.6298486268801708
1070
     0
1070
     1
1040
-61.305079904564991
1040
28.25601538382989
1040
-60.81376924207143
1040
27.61418428074716
1070
     1
1040
-60.81376924207143
1040
27.61418428074716
1040
-59.927341550371239
1040
27.600000000000591
1070
     1
1040
-59.927341550371239
1040
27.600000000000591
1040
-59.523196360242757
1040
28.30000000000064
1070
     2
1040
-59.349991279485948
1040
28.200000000000731
1040
0.1999999999998922
1040
3.6651914291878782
1040
5.7595865315815011
1070
     0
1070
     1
1040
-59.176786198729133
1040
28.30000000000064
1040
-58.772641011991247
1040
27.60000000000036
1070
     1
1040
-58.772641011991247
1040
27.60000000000036
1040
-57.927341550371231
1040
27.600000000000591
1070
     1
1040
-57.927341550371231
1040
27.600000000000591
1040
-57.523196360242757
1040
28.30000000000064
1070
     2
1040
-57.349991279485948
1040
28.200000000000731
1040
0.1999999999998922
1040
3.6651914291878782
1040
5.7595865315815011
1070
     0
1070
     1
1040
-57.176786198729133
1040
28.30000000000064
1040
-56.772641011991247
1040
27.60000000000036
1070
     1
1040
-56.772641011991247
1040
27.60000000000036
1040
-55.927341550371239
1040
27.600000000000591
1070
     1
1040
-55.927341550371239
1040
27.600000000000591
1040
-55.523196360242757
1040
28.30000000000064
1070
     2
1040
-55.349991279485941
1040
28.200000000000731
1040
0.1999999999998922
1040
3.6651914291878782
1040
5.7595865315815011
1070
     0
1070
     1
1040
-55.176786198729133
1040
28.30000000000064
1040
-54.772641011991247
1040
27.60000000000036
1070
     1
1040
-54.772641011991247
1040
27.60000000000036
1040
-53.927341550371239
1040
27.600000000000591
1070
     1
1040
-53.927341550371239
1040
27.600000000000591
1040
-53.523196360242757
1040
28.30000000000064
1070
     2
1040
-53.349991279485948
1040
28.200000000000731
1040
0.1999999999998922
1040
3.6651914291878782
1040
5.7595865315815011
1070
     0
1070
     1
1040
-53.176786198729133
1040
28.30000000000064
1040
-52.772641011991261
1040
27.60000000000036
1070
     1
1040
-52.772641011991261
1040
27.60000000000036
1040
-51.927341550371239
1040
27.600000000000591
1070
     1
1040
-51.927341550371239
1040
27.600000000000591
1040
-51.523196360242771
1040
28.30000000000064
1070
     2
1040
-51.349991279485948
1040
28.200000000000731
1040
0.1999999999998922
1040
3.6651914291878782
1040
5.7595865315815011
1070
     0
1070
     1
1040
-51.176786198729133
1040
28.30000000000064
1040
-50.772641011991247
1040
27.60000000000036
1070
     1
1040
-50.772641011991247
1040
27.60000000000036
1040
-49.927341550371239
1040
27.600000000000591
1070
     1
1040
-49.927341550371239
1040
27.600000000000591
1040
-49.523196360242757
1040
28.30000000000064
1070
     2
1040
-49.349991279485948
1040
28.200000000000731
1040
0.1999999999998922
1040
3.6651914291878782
1040
5.7595865315815011
1070
     0
1070
     1
1040
-49.176786198729133
1040
28.30000000000064
1040
-48.772641011991247
1040
27.60000000000036
1070
     1
1040
-48.772641011991247
1040
27.60000000000036
1040
-47.927341550371231
1040
27.600000000000591
1070
     1
1040
-47.927341550371231
1040
27.600000000000591
1040
-47.523196360242757
1040
28.30000000000064
1070
     2
1040
-47.349991279485948
1040
28.200000000000731
1040
0.1999999999998922
1040
3.6651914291878782
1040
5.7595865315815011
1070
     0
1070
     1
1040
-47.176786198729133
1040
28.30000000000064
1040
-46.772641011991247
1040
27.60000000000036
1070
     1
1040
-46.772641011991247
1040
27.60000000000036
1040
-45.927341550371231
1040
27.600000000000591
1070
     1
1040
-45.927341550371231
1040
27.600000000000591
1040
-45.523196360242757
1040
28.30000000000064
1070
     2
1040
-45.349991279485941
1040
28.200000000000731
1040
0.1999999999998922
1040
3.6651914291878782
1040
5.7595865315815011
1070
     0
1070
     1
1040
-45.176786198729133
1040
28.30000000000064
1040
-44.772641011991247
1040
27.60000000000036
1070
     1
1040
-44.772641011991247
1040
27.60000000000036
1040
-43.927341550371239
1040
27.600000000000591
1070
     1
1040
-43.927341550371239
1040
27.600000000000591
1040
-43.523196360242757
1040
28.30000000000064
1070
     2
1040
-43.349991279485941
1040
28.200000000000731
1040
0.1999999999998922
1040
3.6651914291878782
1040
5.7595865315815011
1070
     0
1070
     1
1040
-43.176786198729133
1040
28.30000000000064
1040
-42.772641011991247
1040
27.60000000000036
1070
     1
1040
-42.772641011991247
1040
27.60000000000036
1040
-41.927341550371239
1040
27.600000000000591
1070
     1
1040
-41.927341550371239
1040
27.600000000000591
1040
-41.523196360242757
1040
28.30000000000064
1070
     2
1040
-41.349991279485948
1040
28.200000000000731
1040
0.1999999999998922
1040
3.6651914291878782
1040
5.7595865315815011
1070
     0
1070
     1
1040
-41.176786198729133
1040
28.30000000000064
1040
-40.772641011991247
1040
27.60000000000036
1070
     1
1040
-40.772641011991247
1040
27.60000000000036
1040
-39.927341550371239
1040
27.600000000000591
1070
     1
1040
-39.927341550371239
1040
27.600000000000591
1040
-39.523196360242757
1040
28.30000000000064
1070
     2
1040
-39.349991279485948
1040
28.200000000000731
1040
0.1999999999998922
1040
3.6651914291878782
1040
5.7595865315815011
1070
     0
1070
     1
1040
-39.176786198729133
1040
28.30000000000064
1040
-38.772641011991247
1040
27.60000000000036
1070
     1
1040
-38.772641011991247
1040
27.60000000000036
1040
-37.927341550371231
1040
27.600000000000591
1070
     1
1040
-37.927341550371231
1040
27.600000000000591
1040
-37.523196360242757
1040
28.30000000000064
1070
     2
1040
-37.349991279485948
1040
28.200000000000731
1040
0.1999999999998922
1040
3.6651914291878782
1040
5.7595865315815011
1070
     0
1070
     1
1040
-37.176786198729133
1040
28.30000000000064
1040
-36.772641011991247
1040
27.60000000000036
1070
     1
1040
-36.772641011991247
1040
27.60000000000036
1040
-35.927341550371239
1040
27.600000000000591
1070
     1
1040
-35.927341550371239
1040
27.600000000000591
1040
-35.523196360242757
1040
28.30000000000064
1070
     2
1040
-35.349991279485941
1040
28.200000000000731
1040
0.1999999999998922
1040
3.6651914291878782
1040
5.7595865315815011
1070
     0
1070
     1
1040
-35.176786198729133
1040
28.30000000000064
1040
-34.772641011991247
1040
27.60000000000036
1070
     1
1040
-34.772641011991247
1040
27.60000000000036
1040
-33.927341550371231
1040
27.600000000000591
1070
     1
1040
-33.927341550371231
1040
27.600000000000591
1040
-33.523196360242757
1040
28.30000000000064
1070
     2
1040
-33.349991279485948
1040
28.200000000000731
1040
0.1999999999998922
1040
3.6651914291878782
1040
5.7595865315815011
1070
     0
1070
     1
1040
-33.176786198729133
1040
28.30000000000064
1040
-32.772641011991247
1040
27.60000000000036
1070
     1
1040
-32.772641011991247
1040
27.60000000000036
1040
-31.927341550371239
1040
27.600000000000591
1070
     1
1040
-31.927341550371239
1040
27.600000000000591
1040
-31.523196360242761
1040
28.30000000000064
1070
     2
1040
-31.349991279485941
1040
28.200000000000731
1040
0.1999999999998922
1040
3.6651914291878782
1040
5.7595865315815011
1070
     0
1070
     1
1040
-31.176786198729129
1040
28.30000000000064
1040
-30.772641011991251
1040
27.60000000000036
1070
     1
1040
-30.772641011991251
1040
27.60000000000036
1040
-29.927341550371239
1040
27.600000000000591
1070
     1
1040
-29.927341550371239
1040
27.600000000000591
1040
-29.523196360242761
1040
28.30000000000064
1070
     2
1040
-29.349991279485948
1040
28.200000000000731
1040
0.1999999999998922
1040
3.6651914291878782
1040
5.7595865315815011
1070
     0
1070
     1
1040
-29.176786198729129
1040
28.30000000000064
1040
-28.772641011991251
1040
27.60000000000036
1070
     1
1040
-28.772641011991251
1040
27.60000000000036
1040
-27.927341550371231
1040
27.600000000000591
1070
     1
1040
-27.927341550371231
1040
27.600000000000591
1040
-27.523196360242761
1040
28.30000000000064
1070
     2
1040
-27.349991279485948
1040
28.200000000000731
1040
0.1999999999998922
1040
3.6651914291878782
1040
5.7595865315815011
1070
     0
1070
     1
1040
-27.176786198729129
1040
28.30000000000064
1040
-26.772641011991251
1040
27.60000000000036
1070
     1
1040
-26.772641011991251
1040
27.60000000000036
1040
-25.927341550371239
1040
27.600000000000591
1070
     1
1040
-25.927341550371239
1040
27.600000000000591
1040
-25.523196360242761
1040
28.30000000000064
1070
     2
1040
-25.349991279485941
1040
28.200000000000731
1040
0.1999999999998922
1040
3.6651914291878782
1040
5.7595865315815011
1070
     0
1070
     1
1040
-25.176786198729129
1040
28.30000000000064
1040
-24.772641011991251
1040
27.60000000000036
1070
     1
1040
-24.772641011991251
1040
27.60000000000036
1040
-23.927341550371231
1040
27.600000000000591
1070
     1
1040
-23.927341550371231
1040
27.600000000000591
1040
-23.523196360242761
1040
28.30000000000064
1070
     2
1040
-23.349991279485948
1040
28.200000000000731
1040
0.1999999999998922
1040
3.6651914291878782
1040
5.7595865315815011
1070
     0
1071
        1
1005
2ED
1070
     0
1070
     1
1040
0.0
1040
0.5
1070
     0
1070
     1
1040
0.7853981633974483
1040
-207.84345518079681
1040
-19.883847886888361
1040
-1.1225320151336431
1040
1.122532015133644
1070
     0
1071
        1
1040
-207.84345518079681
1040
-19.883847886888361
1040
0.0
1002
}
  0
DIMENSION
  5
2EB
  8
1
  2
*D3
 10
-2.9999999999999991
 20
-5.9429334947243433
 30
0.0
 11
-35.0
 21
-3.155928037698422
 31
0.0
 70
     0
 13
-67.0
 23
25.0
 33
0.0
 14
-3.0
 24
-15.0
 34
0.0
  0
DIMENSION
  5
2EC
  8
1
  2
*D4
 10
-26.016700984231651
 20
-14.999999999999989
 30
0.0
 11
-28.80370644125756
 21
5.0
 31
0.0
 70
     0
 13
-9.3000000000001801
 23
25.0
 33
0.0
 14
-5.0
 24
-15.0
 34
0.0
 50
90.0
  0
POLYLINE
  5
2ED
  8
6
 66
     1
 10
0.0
 20
0.0
 30
0.0
 70
     1
1001
ACAD
1000
ASC_BOUNDS
1002
{
1070
    19
1005
2EA
1002
}
  0
VERTEX
  5
946
  8
6
 10
-23.176786198729129
 20
28.30000000000064
 30
0.0
  0
VERTEX
  5
947
  8
6
 10
-22.772641011991251
 20
27.60000000000036
 30
0.0
  0
VERTEX
  5
948
  8
6
 10
-21.927341550371231
 20
27.600000000000591
 30
0.0
  0
VERTEX
  5
949
  8
6
 10
-21.523196360242761
 20
28.30000000000064
 30
0.0
 42
-0.5773502691897683
  0
VERTEX
  5
94A
  8
6
 10
-21.176786198729129
 20
28.30000000000064
 30
0.0
  0
VERTEX
  5
94B
  8
6
 10
-20.772641011991251
 20
27.60000000000036
 30
0.0
  0
VERTEX
  5
94C
  8
6
 10
-19.927341550371239
 20
27.600000000000591
 30
0.0
  0
VERTEX
  5
94D
  8
6
 10
-19.523196360242761
 20
28.30000000000064
 30
0.0
 42
-0.5773502691897683
  0
VERTEX
  5
94E
  8
6
 10
-19.176786198729129
 20
28.30000000000064
 30
0.0
  0
VERTEX
  5
94F
  8
6
 10
-18.772641011991251
 20
27.60000000000036
 30
0.0
  0
VERTEX
  5
950
  8
6
 10
-17.927341550371231
 20
27.600000000000591
 30
0.0
  0
VERTEX
  5
951
  8
6
 10
-17.523196360242761
 20
28.30000000000064
 30
0.0
 42
-0.5773502691897683
  0
VERTEX
  5
952
  8
6
 10
-17.176786198729129
 20
28.30000000000064
 30
0.0
  0
VERTEX
  5
953
  8
6
 10
-16.772641011991251
 20
27.60000000000036
 30
0.0
  0
VERTEX
  5
954
  8
6
 10
-15.92734155037123
 20
27.600000000000591
 30
0.0
  0
VERTEX
  5
955
  8
6
 10
-15.523196360242761
 20
28.30000000000064
 30
0.0
 42
-0.5773502691897683
  0
VERTEX
  5
956
  8
6
 10
-15.176786198729131
 20
28.30000000000064
 30
0.0
  0
VERTEX
  5
957
  8
6
 10
-14.772641011991251
 20
27.60000000000036
 30
0.0
  0
VERTEX
  5
958
  8
6
 10
-13.92734155037123
 20
27.60000000000036
 30
0.0
  0
VERTEX
  5
959
  8
6
 10
-13.523196360242761
 20
28.300000000000399
 30
0.0
 42
-0.577350269189112
  0
VERTEX
  5
95A
  8
6
 10
-13.176786198729131
 20
28.300000000000399
 30
0.0
  0
VERTEX
  5
95B
  8
6
 10
-12.772641011991251
 20
27.600000000000129
 30
0.0
  0
VERTEX
  5
95C
  8
6
 10
-11.773812783667379
 20
27.600000000000129
 30
0.0
  0
VERTEX
  5
95D
  8
6
 10
-12.050264373120619
 20
28.35954450389135
 30
0.0
 42
-0.5773502691898603
  0
VERTEX
  5
95E
  8
6
 10
-11.82759621343029
 20
28.624910083160099
 30
0.0
  0
VERTEX
  5
95F
  8
6
 10
-11.03158558469749
 20
28.48455193089239
 30
0.0
  0
VERTEX
  5
960
  8
6
 10
-10.384048629352939
 20
29.027899951296831
 30
0.0
  0
VERTEX
  5
961
  8
6
 10
-10.66050021880619
 20
29.787444455188052
 30
0.0
 42
-0.5773502691898603
  0
VERTEX
  5
962
  8
6
 10
-10.437832059115861
 20
30.05281003445679
 30
0.0
  0
VERTEX
  5
963
  8
6
 10
-9.6418214303830592
 20
29.912451882189089
 30
0.0
  0
VERTEX
  5
964
  8
6
 10
-8.994284475038512
 20
30.45579990259375
 30
0.0
  0
VERTEX
  5
965
  8
6
 10
-9.0647316218000924
 20
31.261014491517919
 30
0.0
 42
-0.5773502691885331
  0
VERTEX
  5
966
  8
6
 10
-8.7809690298345231
 20
31.459707197475382
 30
0.0
  0
VERTEX
  5
967
  8
6
 10
-8.0484091684829764
 20
31.118108922450119
 30
0.0
  0
VERTEX
  5
968
  8
6
 10
-7.4615231413536094
 20
31.499488355759691
 30
0.0
  0
VERTEX
  5
969
  8
6
 10
-7.185071549140047
 20
32.25903285864706
 30
0.0
 42
-0.577350269189868
  0
VERTEX
  5
96A
  8
6
 10
-6.8439241363585088
 20
32.319186351918688
 30
0.0
  0
VERTEX
  5
96B
  8
6
 10
-6.324365098749694
 20
31.699999999999822
 30
0.0
  0
VERTEX
  5
96C
  8
6
 10
-5.6547005383799842
 20
31.700000000000038
 30
0.0
  0
VERTEX
  5
96D
  8
6
 10
-5.2505553482515088
 20
32.400000000000091
 30
0.0
 42
-0.5773502691897683
  0
VERTEX
  5
96E
  8
6
 10
-4.9041451867378782
 20
32.400000000000091
 30
0.0
  0
VERTEX
  5
96F
  8
6
 10
-4.5
 20
31.699999999999822
 30
0.0
  0
VERTEX
  5
970
  8
6
 10
-3.956500545331437
 20
31.516255030547651
 30
0.0
  0
VERTEX
  5
971
  8
6
 10
-3.2295816106134221
 20
31.86969837402853
 30
0.0
 42
-0.5773502691892638
  0
VERTEX
  5
972
  8
6
 10
-2.9426314470138091
 20
31.675637549516971
 30
0.0
  0
VERTEX
  5
973
  8
6
 10
-3.0
 20
30.685640646056299
 30
0.0
  0
VERTEX
  5
974
  8
6
 10
-2.0999999999994539
 20
30.16602540160488
 30
0.0
 42
-0.5773502691910811
  0
VERTEX
  5
975
  8
6
 10
-2.0999999999994539
 20
29.819615240091249
 30
0.0
  0
VERTEX
  5
976
  8
6
 10
-3.0
 20
29.299999999999951
 30
0.0
  0
VERTEX
  5
977
  8
6
 10
-3.0
 20
27.299999999999951
 30
0.0
  0
VERTEX
  5
978
  8
6
 10
-4.5
 20
27.299999999999951
 30
0.0
  0
VERTEX
  5
979
  8
6
 10
-4.5
 20
29.299999999999951
 30
0.0
  0
VERTEX
  5
97A
  8
6
 10
-7.0000000000009086
 20
29.299999999999951
 30
0.0
  0
VERTEX
  5
97B
  8
6
 10
-7.0000000000009086
 20
17.299999999999951
 30
0.0
  0
VERTEX
  5
97C
  8
6
 10
-4.5
 20
17.299999999999951
 30
0.0
  0
VERTEX
  5
97D
  8
6
 10
-4.5
 20
19.299999999999951
 30
0.0
  0
VERTEX
  5
97E
  8
6
 10
-3.0
 20
19.299999999999951
 30
0.0
  0
VERTEX
  5
97F
  8
6
 10
-3.0
 20
-15.0
 30
0.0
  0
VERTEX
  5
980
  8
6
 10
-5.0
 20
-15.0
 30
0.0
  0
VERTEX
  5
981
  8
6
 10
-5.0
 20
-10.30000000000018
 30
0.0
  0
VERTEX
  5
982
  8
6
 10
-4.6999999999998181
 20
-10.0
 30
0.0
  0
VERTEX
  5
983
  8
6
 10
-5.0
 20
-9.6999999999998181
 30
0.0
  0
VERTEX
  5
984
  8
6
 10
-5.0
 20
-5.300000000000181
 30
0.0
  0
VERTEX
  5
985
  8
6
 10
-4.6999999999998181
 20
-5.0
 30
0.0
  0
VERTEX
  5
986
  8
6
 10
-5.0
 20
-4.6999999999998181
 30
0.0
  0
VERTEX
  5
987
  8
6
 10
-5.0
 20
-0.3000000000001819
 30
0.0
  0
VERTEX
  5
988
  8
6
 10
-4.6999999999998181
 20
0.0
 30
0.0
  0
VERTEX
  5
989
  8
6
 10
-5.0
 20
0.3000000000001819
 30
0.0
  0
VERTEX
  5
98A
  8
6
 10
-5.0
 20
4.6999999999998181
 30
0.0
  0
VERTEX
  5
98B
  8
6
 10
-4.6999999999998181
 20
5.0
 30
0.0
  0
VERTEX
  5
98C
  8
6
 10
-5.0
 20
5.300000000000181
 30
0.0
  0
VERTEX
  5
98D
  8
6
 10
-5.0
 20
9.6999999999998181
 30
0.0
  0
VERTEX
  5
98E
  8
6
 10
-4.6999999999998181
 20
10.0
 30
0.0
  0
VERTEX
  5
98F
  8
6
 10
-5.0
 20
10.30000000000018
 30
0.0
  0
VERTEX
  5
990
  8
6
 10
-5.0
 20
15.0
 30
0.0
  0
VERTEX
  5
991
  8
6
 10
-9.3000000000001801
 20
15.0
 30
0.0
  0
VERTEX
  5
992
  8
6
 10
-9.3000000000001801
 20
25.0
 30
0.0
  0
VERTEX
  5
993
  8
6
 10
-67.0
 20
25.0
 30
0.0
  0
VERTEX
  5
994
  8
6
 10
-66.455576669424772
 20
25.688722873690491
 30
0.0
 42
-0.2983611500383397
  0
VERTEX
  5
995
  8
6
 10
-66.251894992514281
 20
25.769671636849122
 30
0.0
  0
VERTEX
  5
996
  8
6
 10
-65.459977495531334
 20
25.60780746559044
 30
0.0
  0
VERTEX
  5
997
  8
6
 10
-65.306220291880891
 20
25.751335338158238
 30
0.0
  0
VERTEX
  5
998
  8
6
 10
-65.413267630504379
 20
26.552505858083801
 30
0.0
 42
-0.5773502691897683
  0
VERTEX
  5
999
  8
6
 10
-65.138848908159162
 20
26.763916276053351
 30
0.0
  0
VERTEX
  5
99A
  8
6
 10
-64.391491217395924
 20
26.456036731391119
 30
0.0
  0
VERTEX
  5
99B
  8
6
 10
-63.731141162702443
 20
26.83729316067388
 30
0.0
  0
VERTEX
  5
99C
  8
6
 10
-63.62409954818213
 20
27.638464445396941
 30
0.0
 42
-0.5773502691897683
  0
VERTEX
  5
99D
  8
6
 10
-63.303804337638212
 20
27.770415110807789
 30
0.0
  0
VERTEX
  5
99E
  8
6
 10
-62.66349046088817
 20
27.27712871204357
 30
0.0
  0
VERTEX
  5
99F
  8
6
 10
-61.958765487936951
 20
27.464795759471141
 30
0.0
  0
VERTEX
  5
9A0
  8
6
 10
-61.648578778324008
 20
28.211198827446871
 30
0.0
 42
-0.5773502691897683
  0
VERTEX
  5
9A1
  8
6
 10
-61.305079904564991
 20
28.25601538382989
 30
0.0
  0
VERTEX
  5
9A2
  8
6
 10
-60.81376924207143
 20
27.61418428074716
 30
0.0
  0
VERTEX
  5
9A3
  8
6
 10
-59.927341550371239
 20
27.600000000000591
 30
0.0
  0
VERTEX
  5
9A4
  8
6
 10
-59.523196360242757
 20
28.30000000000064
 30
0.0
 42
-0.5773502691897683
  0
VERTEX
  5
9A5
  8
6
 10
-59.176786198729133
 20
28.30000000000064
 30
0.0
  0
VERTEX
  5
9A6
  8
6
 10
-58.772641011991247
 20
27.60000000000036
 30
0.0
  0
VERTEX
  5
9A7
  8
6
 10
-57.927341550371231
 20
27.600000000000591
 30
0.0
  0
VERTEX
  5
9A8
  8
6
 10
-57.523196360242757
 20
28.30000000000064
 30
0.0
 42
-0.5773502691897683
  0
VERTEX
  5
9A9
  8
6
 10
-57.176786198729133
 20
28.30000000000064
 30
0.0
  0
VERTEX
  5
9AA
  8
6
 10
-56.772641011991247
 20
27.60000000000036
 30
0.0
  0
VERTEX
  5
9AB
  8
6
 10
-55.927341550371239
 20
27.600000000000591
 30
0.0
  0
VERTEX
  5
9AC
  8
6
 10
-55.523196360242757
 20
28.30000000000064
 30
0.0
 42
-0.5773502691897683
  0
VERTEX
  5
9AD
  8
6
 10
-55.176786198729133
 20
28.30000000000064
 30
0.0
  0
VERTEX
  5
9AE
  8
6
 10
-54.772641011991247
 20
27.60000000000036
 30
0.0
  0
VERTEX
  5
9AF
  8
6
 10
-53.927341550371239
 20
27.600000000000591
 30
0.0
  0
VERTEX
  5
9B0
  8
6
 10
-53.523196360242757
 20
28.30000000000064
 30
0.0
 42
-0.5773502691897683
  0
VERTEX
  5
9B1
  8
6
 10
-53.176786198729133
 20
28.30000000000064
 30
0.0
  0
VERTEX
  5
9B2
  8
6
 10
-52.772641011991261
 20
27.60000000000036
 30
0.0
  0
VERTEX
  5
9B3
  8
6
 10
-51.927341550371239
 20
27.600000000000591
 30
0.0
  0
VERTEX
  5
9B4
  8
6
 10
-51.523196360242771
 20
28.30000000000064
 30
0.0
 42
-0.5773502691897683
  0
VERTEX
  5
9B5
  8
6
 10
-51.176786198729133
 20
28.30000000000064
 30
0.0
  0
VERTEX
  5
9B6
  8
6
 10
-50.772641011991247
 20
27.60000000000036
 30
0.0
  0
VERTEX
  5
9B7
  8
6
 10
-49.927341550371239
 20
27.600000000000591
 30
0.0
  0
VERTEX
  5
9B8
  8
6
 10
-49.523196360242757
 20
28.30000000000064
 30
0.0
 42
-0.5773502691897683
  0
VERTEX
  5
9B9
  8
6
 10
-49.176786198729133
 20
28.30000000000064
 30
0.0
  0
VERTEX
  5
9BA
  8
6
 10
-48.772641011991247
 20
27.60000000000036
 30
0.0
  0
VERTEX
  5
9BB
  8
6
 10
-47.927341550371231
 20
27.600000000000591
 30
0.0
  0
VERTEX
  5
9BC
  8
6
 10
-47.523196360242757
 20
28.30000000000064
 30
0.0
 42
-0.5773502691897683
  0
VERTEX
  5
9BD
  8
6
 10
-47.176786198729133
 20
28.30000000000064
 30
0.0
  0
VERTEX
  5
9BE
  8
6
 10
-46.772641011991247
 20
27.60000000000036
 30
0.0
  0
VERTEX
  5
9BF
  8
6
 10
-45.927341550371231
 20
27.600000000000591
 30
0.0
  0
VERTEX
  5
9C0
  8
6
 10
-45.523196360242757
 20
28.30000000000064
 30
0.0
 42
-0.5773502691897683
  0
VERTEX
  5
9C1
  8
6
 10
-45.176786198729133
 20
28.30000000000064
 30
0.0
  0
VERTEX
  5
9C2
  8
6
 10
-44.772641011991247
 20
27.60000000000036
 30
0.0
  0
VERTEX
  5
9C3
  8
6
 10
-43.927341550371239
 20
27.600000000000591
 30
0.0
  0
VERTEX
  5
9C4
  8
6
 10
-43.523196360242757
 20
28.30000000000064
 30
0.0
 42
-0.5773502691897683
  0
VERTEX
  5
9C5
  8
6
 10
-43.176786198729133
 20
28.30000000000064
 30
0.0
  0
VERTEX
  5
9C6
  8
6
 10
-42.772641011991247
 20
27.60000000000036
 30
0.0
  0
VERTEX
  5
9C7
  8
6
 10
-41.927341550371239
 20
27.600000000000591
 30
0.0
  0
VERTEX
  5
9C8
  8
6
 10
-41.523196360242757
 20
28.30000000000064
 30
0.0
 42
-0.5773502691897683
  0
VERTEX
  5
9C9
  8
6
 10
-41.176786198729133
 20
28.30000000000064
 30
0.0
  0
VERTEX
  5
9CA
  8
6
 10
-40.772641011991247
 20
27.60000000000036
 30
0.0
  0
VERTEX
  5
9CB
  8
6
 10
-39.927341550371239
 20
27.600000000000591
 30
0.0
  0
VERTEX
  5
9CC
  8
6
 10
-39.523196360242757
 20
28.30000000000064
 30
0.0
 42
-0.5773502691897683
  0
VERTEX
  5
9CD
  8
6
 10
-39.176786198729133
 20
28.30000000000064
 30
0.0
  0
VERTEX
  5
9CE
  8
6
 10
-38.772641011991247
 20
27.60000000000036
 30
0.0
  0
VERTEX
  5
9CF
  8
6
 10
-37.927341550371231
 20
27.600000000000591
 30
0.0
  0
VERTEX
  5
9D0
  8
6
 10
-37.523196360242757
 20
28.30000000000064
 30
0.0
 42
-0.5773502691897683
  0
VERTEX
  5
9D1
  8
6
 10
-37.176786198729133
 20
28.30000000000064
 30
0.0
  0
VERTEX
  5
9D2
  8
6
 10
-36.772641011991247
 20
27.60000000000036
 30
0.0
  0
VERTEX
  5
9D3
  8
6
 10
-35.927341550371239
 20
27.600000000000591
 30
0.0
  0
VERTEX
  5
9D4
  8
6
 10
-35.523196360242757
 20
28.30000000000064
 30
0.0
 42
-0.5773502691897683
  0
VERTEX
  5
9D5
  8
6
 10
-35.176786198729133
 20
28.30000000000064
 30
0.0
  0
VERTEX
  5
9D6
  8
6
 10
-34.772641011991247
 20
27.60000000000036
 30
0.0
  0
VERTEX
  5
9D7
  8
6
 10
-33.927341550371231
 20
27.600000000000591
 30
0.0
  0
VERTEX
  5
9D8
  8
6
 10
-33.523196360242757
 20
28.30000000000064
 30
0.0
 42
-0.5773502691897683
  0
VERTEX
  5
9D9
  8
6
 10
-33.176786198729133
 20
28.30000000000064
 30
0.0
  0
VERTEX
  5
9DA
  8
6
 10
-32.772641011991247
 20
27.60000000000036
 30
0.0
  0
VERTEX
  5
9DB
  8
6
 10
-31.927341550371239
 20
27.600000000000591
 30
0.0
  0
VERTEX
  5
9DC
  8
6
 10
-31.523196360242761
 20
28.30000000000064
 30
0.0
 42
-0.5773502691897683
  0
VERTEX
  5
9DD
  8
6
 10
-31.176786198729129
 20
28.30000000000064
 30
0.0
  0
VERTEX
  5
9DE
  8
6
 10
-30.772641011991251
 20
27.60000000000036
 30
0.0
  0
VERTEX
  5
9DF
  8
6
 10
-29.927341550371239
 20
27.600000000000591
 30
0.0
  0
VERTEX
  5
9E0
  8
6
 10
-29.523196360242761
 20
28.30000000000064
 30
0.0
 42
-0.5773502691897683
  0
VERTEX
  5
9E1
  8
6
 10
-29.176786198729129
 20
28.30000000000064
 30
0.0
  0
VERTEX
  5
9E2
  8
6
 10
-28.772641011991251
 20
27.60000000000036
 30
0.0
  0
VERTEX
  5
9E3
  8
6
 10
-27.927341550371231
 20
27.600000000000591
 30
0.0
  0
VERTEX
  5
9E4
  8
6
 10
-27.523196360242761
 20
28.30000000000064
 30
0.0
 42
-0.5773502691897683
  0
VERTEX
  5
9E5
  8
6
 10
-27.176786198729129
 20
28.30000000000064
 30
0.0
  0
VERTEX
  5
9E6
  8
6
 10
-26.772641011991251
 20
27.60000000000036
 30
0.0
  0
VERTEX
  5
9E7
  8
6
 10
-25.927341550371239
 20
27.600000000000591
 30
0.0
  0
VERTEX
  5
9E8
  8
6
 10
-25.523196360242761
 20
28.30000000000064
 30
0.0
 42
-0.5773502691897683
  0
VERTEX
  5
9E9
  8
6
 10
-25.176786198729129
 20
28.30000000000064
 30
0.0
  0
VERTEX
  5
9EA
  8
6
 10
-24.772641011991251
 20
27.60000000000036
 30
0.0
  0
VERTEX
  5
9EB
  8
6
 10
-23.927341550371231
 20
27.600000000000591
 30
0.0
  0
VERTEX
  5
9EC
  8
6
 10
-23.523196360242761
 20
28.30000000000064
 30
0.0
 42
-0.5773502691897683
  0
SEQEND
  5
9ED
  8
6
  0
DIMENSION
  5
2EE
  8
1
  2
*D5
 10
-18.559372845558752
 20
15.0
 30
0.0
 11
-21.346378302584672
 21
19.999999999999989
 31
0.0
 70
     0
 13
-9.3000000000001801
 23
25.0
 33
0.0
 14
-9.3000000000001801
 24
15.0
 34
0.0
 50
90.0
  0
DIMENSION
  5
2EF
  8
1
  2
*D6
 10
-3.0
 20
4.3660619812217192
 30
0.0
 11
-12.9847861731755
 21
7.1542611626678321
 31
0.0
 70
   128
 13
-9.3000000000001801
 23
15.0
 33
0.0
 14
-3.0
 24
15.0
 34
0.0
  0
POLYLINE
  5
2F1
  8
5
 66
     1
 10
0.0
 20
0.0
 30
0.0
  0
VERTEX
  5
9EE
  8
5
 10
-3.0
 20
-15.0
 30
0.0
  0
VERTEX
  5
9EF
  8
5
 10
7.3360405918501783
 20
-15.0
 30
0.0
  0
SEQEND
  5
9F0
  8
5
  0
POLYLINE
  5
2F2
  8
5
 66
     1
 10
0.0
 20
0.0
 30
0.0
  0
VERTEX
  5
9F1
  8
5
 10
-67.0
 20
25.0
 30
0.0
  0
VERTEX
  5
9F2
  8
5
 10
-80.402171213016118
 20
25.0
 30
0.0
  0
SEQEND
  5
9F3
  8
5
  0
TEXT
  5
2F3
  8
1
 10
-51.82926795855564
 20
35.376492064528968
 30
0.0
 40
3.5
  1
HEBGO 175/520
  7
BESCHLAG
  0
DIMENSION
  5
2F4
  8
1
  2
*D7
 10
-0.0000000000000003
 20
42.616668695036417
 30
0.0
 11
-1.4999999999999989
 21
45.404867876482527
 31
0.0
 70
     0
 13
-3.0
 23
32.5
 33
0.0
 14
0.0
 24
48.058064848369213
 34
0.0
  0
VIEWPORT
  5
22
 67
     1
  8
0
 10
210.0
 20
170.2366863905325
 30
0.0
 40
420.0
 41
340.47337278106511
 68
     1
 69
     1
1001
ACAD
1000
MVIEW
1002
{
1070
    16
1010
0.0
1020
0.0
1030
0.0
1010
0.0
1020
0.0
1030
1.0
1040
0.0
1040
340.47337278106511
1040
210.0
1040
170.2366863905325
1040
50.0
1040
0.0
1040
0.0
1070
     0
1070
   100
1070
     1
1070
     1
1070
     0
1070
     0
1070
     0
1070
     0
1040
0.0
1040
0.0
1040
0.0
1040
5.0
1040
5.0
1040
10.0
1040
10.0
1070
     0
1002
{
1002
}
1002
}
  0
ENDSEC
  0
EOF
