  0
SECTION
  2
HEADER
  9
$ACADVER
  1
AC1015
  9
$ACADMAINTVER
 70
    13
  9
$DWGCODEPAGE
  3
ANSI_1252
  9
$INSBASE
 10
0.0
 20
0.0
 30
0.0
  9
$EXTMIN
 10
-98.78417833961306
 20
-7.832634944714076
 30
0.0
  9
$EXTMAX
 10
17.9321013467802
 20
46.75982436129982
 30
0.0
  9
$LIMMIN
 10
-150.0
 20
-150.0
  9
$LIMMAX
 10
150.0
 20
150.0
  9
$ORTHOMODE
 70
     0
  9
$REGENMODE
 70
     1
  9
$FILLMODE
 70
     1
  9
$QTEXTMODE
 70
     0
  9
$MIRRTEXT
 70
     0
  9
$LTSCALE
 40
1.0
  9
$ATTMODE
 70
     1
  9
$TEXTSIZE
 40
3.5
  9
$TRACEWID
 40
1.0
  9
$TEXTSTYLE
  7
Beschlag
  9
$CLAYER
  8
2
  9
$CELTYPE
  6
BYLAYER
  9
$CECOLOR
 62
   256
  9
$CELTSCALE
 40
1.0
  9
$DISPSILH
 70
     1
  9
$DIMSCALE
 40
1.0
  9
$DIMASZ
 40
2.0
  9
$DIMEXO
 40
2.0
  9
$DIMDLI
 40
0.0
  9
$DIMRND
 40
0.0
  9
$DIMDLE
 40
1.0
  9
$DIMEXE
 40
1.0
  9
$DIMTP
 40
0.0
  9
$DIMTM
 40
0.0
  9
$DIMTXT
 40
3.5
  9
$DIMCEN
 40
0.0
  9
$DIMTSZ
 40
0.0
  9
$DIMTOL
 70
     0
  9
$DIMLIM
 70
     0
  9
$DIMTIH
 70
     0
  9
$DIMTOH
 70
     0
  9
$DIMSE1
 70
     0
  9
$DIMSE2
 70
     0
  9
$DIMTAD
 70
     1
  9
$DIMZIN
 70
     8
  9
$DIMBLK
  1

  9
$DIMASO
 70
     1
  9
$DIMSHO
 70
     1
  9
$DIMPOST
  1

  9
$DIMAPOST
  1

  9
$DIMALT
 70
     0
  9
$DIMALTD
 70
     2
  9
$DIMALTF
 40
0.039370078740157
  9
$DIMLFAC
 40
1.0
  9
$DIMTOFL
 70
     1
  9
$DIMTVP
 40
0.0
  9
$DIMTIX
 70
     1
  9
$DIMSOXD
 70
     0
  9
$DIMSAH
 70
     1
  9
$DIMBLK1
  1
Oblique
  9
$DIMBLK2
  1
Oblique
  9
$DIMSTYLE
  2
OPO-SSTRICH
  9
$DIMCLRD
 70
   256
  9
$DIMCLRE
 70
   256
  9
$DIMCLRT
 70
   256
  9
$DIMTFAC
 40
0.7114285714285716
  9
$DIMGAP
 40
1.0
  9
$DIMJUST
 70
     0
  9
$DIMSD1
 70
     0
  9
$DIMSD2
 70
     0
  9
$DIMTOLJ
 70
     1
  9
$DIMTZIN
 70
     8
  9
$DIMALTZ
 70
     8
  9
$DIMALTTZ
 70
     8
  9
$DIMUPT
 70
     0
  9
$DIMDEC
 70
     1
  9
$DIMTDEC
 70
     1
  9
$DIMALTU
 70
     2
  9
$DIMALTTD
 70
     2
  9
$DIMTXSTY
  7
Beschlag
  9
$DIMAUNIT
 70
     0
  9
$DIMADEC
 70
     1
  9
$DIMALTRND
 40
0.0
  9
$DIMAZIN
 70
     2
  9
$DIMDSEP
 70
    46
  9
$DIMATFIT
 70
     3
  9
$DIMFRAC
 70
     0
  9
$DIMLDRBLK
  1
Oblique
  9
$DIMLUNIT
 70
     2
  9
$DIMLWD
 70
    -2
  9
$DIMLWE
 70
    -2
  9
$DIMTMOVE
 70
     2
  9
$LUNITS
 70
     2
  9
$LUPREC
 70
     1
  9
$SKETCHINC
 40
1.0
  9
$FILLETRAD
 40
0.0
  9
$AUNITS
 70
     0
  9
$AUPREC
 70
     1
  9
$MENU
  1
D:\ACL_CGWG\CGTAB13
  9
$ELEVATION
 40
0.0
  9
$PELEVATION
 40
0.0
  9
$THICKNESS
 40
0.0
  9
$LIMCHECK
 70
     0
  9
$CHAMFERA
 40
1.0
  9
$CHAMFERB
 40
1.0
  9
$CHAMFERC
 40
1.0
  9
$CHAMFERD
 40
0.7853981633974483
  9
$SKPOLY
 70
     0
  9
$TDCREATE
 40
2451739.895879803
  9
$TDUCREATE
 40
2451739.854213137
  9
$TDUPDATE
 40
2452243.472303067
  9
$TDUUPDATE
 40
2452243.430636400
  9
$TDINDWG
 40
0.0111341435
  9
$TDUSRTIMER
 40
0.0111341435
  9
$USRTIMER
 70
     1
  9
$ANGBASE
 50
0.0
  9
$ANGDIR
 70
     0
  9
$PDMODE
 70
    35
  9
$PDSIZE
 40
5.0
  9
$PLINEWID
 40
0.0
  9
$SPLFRAME
 70
     0
  9
$SPLINETYPE
 70
     6
  9
$SPLINESEGS
 70
     8
  9
$HANDSEED
  5
5D6
  9
$SURFTAB1
 70
    12
  9
$SURFTAB2
 70
    12
  9
$SURFTYPE
 70
     6
  9
$SURFU
 70
    12
  9
$SURFV
 70
    12
  9
$UCSBASE
  2

  9
$UCSNAME
  2

  9
$UCSORG
 10
0.0
 20
0.0
 30
0.0
  9
$UCSXDIR
 10
1.0
 20
0.0
 30
0.0
  9
$UCSYDIR
 10
0.0
 20
1.0
 30
0.0
  9
$UCSORTHOREF
  2

  9
$UCSORTHOVIEW
 70
     0
  9
$UCSORGTOP
 10
0.0
 20
0.0
 30
0.0
  9
$UCSORGBOTTOM
 10
0.0
 20
0.0
 30
0.0
  9
$UCSORGLEFT
 10
0.0
 20
0.0
 30
0.0
  9
$UCSORGRIGHT
 10
0.0
 20
0.0
 30
0.0
  9
$UCSORGFRONT
 10
0.0
 20
0.0
 30
0.0
  9
$UCSORGBACK
 10
0.0
 20
0.0
 30
0.0
  9
$PUCSBASE
  2

  9
$PUCSNAME
  2

  9
$PUCSORG
 10
0.0
 20
0.0
 30
0.0
  9
$PUCSXDIR
 10
1.0
 20
0.0
 30
0.0
  9
$PUCSYDIR
 10
0.0
 20
1.0
 30
0.0
  9
$PUCSORTHOREF
  2

  9
$PUCSORTHOVIEW
 70
     0
  9
$PUCSORGTOP
 10
0.0
 20
0.0
 30
0.0
  9
$PUCSORGBOTTOM
 10
0.0
 20
0.0
 30
0.0
  9
$PUCSORGLEFT
 10
0.0
 20
0.0
 30
0.0
  9
$PUCSORGRIGHT
 10
0.0
 20
0.0
 30
0.0
  9
$PUCSORGFRONT
 10
0.0
 20
0.0
 30
0.0
  9
$PUCSORGBACK
 10
0.0
 20
0.0
 30
0.0
  9
$USERI1
 70
     0
  9
$USERI2
 70
     0
  9
$USERI3
 70
     0
  9
$USERI4
 70
     0
  9
$USERI5
 70
     0
  9
$USERR1
 40
0.0
  9
$USERR2
 40
0.0
  9
$USERR3
 40
0.0
  9
$USERR4
 40
0.0
  9
$USERR5
 40
0.0
  9
$WORLDVIEW
 70
     1
  9
$SHADEDGE
 70
     3
  9
$SHADEDIF
 70
    70
  9
$TILEMODE
 70
     1
  9
$MAXACTVP
 70
    48
  9
$PINSBASE
 10
0.0
 20
0.0
 30
0.0
  9
$PLIMCHECK
 70
     0
  9
$PEXTMIN
 10
1.000000000000000E+20
 20
1.000000000000000E+20
 30
1.000000000000000E+20
  9
$PEXTMAX
 10
-1.000000000000000E+20
 20
-1.000000000000000E+20
 30
-1.000000000000000E+20
  9
$PLIMMIN
 10
0.0
 20
0.0
  9
$PLIMMAX
 10
420.0
 20
297.0
  9
$UNITMODE
 70
     0
  9
$VISRETAIN
 70
     1
  9
$PLINEGEN
 70
     0
  9
$PSLTSCALE
 70
     1
  9
$TREEDEPTH
 70
  3020
  9
$CMLSTYLE
  2
STANDARD
  9
$CMLJUST
 70
     0
  9
$CMLSCALE
 40
1.0
  9
$PROXYGRAPHICS
 70
     1
  9
$MEASUREMENT
 70
     1
  9
$CELWEIGHT
370
    -1
  9
$ENDCAPS
280
     0
  9
$JOINSTYLE
280
     0
  9
$LWDISPLAY
290
     0
  9
$INSUNITS
 70
     0
  9
$HYPERLINKBASE
  1

  9
$STYLESHEET
  1
Hebgo Laser.ctb
  9
$XEDIT
290
     1
  9
$CEPSNTYPE
380
     0
  9
$PSTYLEMODE
290
     1
  9
$FINGERPRINTGUID
  2
{DEF6964E-5F8B-11D3-8AEE-0008C71A8CF4}
  9
$VERSIONGUID
  2
{1F9FED8F-A109-4650-BD9F-5C6A2413EE5B}
  9
$EXTNAMES
290
     1
  9
$PSVPSCALE
 40
0.0
  9
$OLESTARTUP
290
     0
  0
ENDSEC
  0
SECTION
  2
CLASSES
  0
CLASS
  1
ACDBDICTIONARYWDFLT
  2
AcDbDictionaryWithDefault
  3
AutoCAD 2000
 90
        0
280
     0
281
     0
  0
CLASS
  1
ACDBPLACEHOLDER
  2
AcDbPlaceHolder
  3
AutoCAD 2000
 90
        0
280
     0
281
     0
  0
CLASS
  1
LAYOUT
  2
AcDbLayout
  3
AutoCAD 2000
 90
        0
280
     0
281
     0
  0
CLASS
  1
DICTIONARYVAR
  2
AcDbDictionaryVar
  3
AutoCAD 2000
 90
        0
280
     0
281
     0
  0
CLASS
  1
LONG_TRANSACTION
  2
AcDbLongTransaction
  3
AutoCAD 2000
 90
    32768
280
     0
281
     0
  0
CLASS
  1
LWPOLYLINE
  2
AcDbPolyline
  3
AutoCAD 2000
 90
    32768
280
     0
281
     1
  0
CLASS
  1
HATCH
  2
AcDbHatch
  3
AutoCAD 2000
 90
    32768
280
     0
281
     1
  0
CLASS
  1
XRECORD
  2
AcDbXrecord
  3
AutoCAD 2000
 90
    32768
280
     0
281
     0
  0
CLASS
  1
PLOTSETTINGS
  2
AcDbPlotSettings
  3
AutoCAD 2000
 90
        0
280
     0
281
     0
  0
CLASS
  1
LONG_TRANSACTION
  2
AcDbLongTransaction
  3
AutoCAD 2000
 90
    32768
280
     0
281
     0
  0
CLASS
  1
LWPOLYLINE
  2
AcDbPolyline
  3
AutoCAD 2000
 90
    32768
280
     0
281
     1
  0
CLASS
  1
HATCH
  2
AcDbHatch
  3
AutoCAD 2000
 90
    32768
280
     0
281
     1
  0
CLASS
  1
XRECORD
  2
AcDbXrecord
  3
AutoCAD 2000
 90
    32768
280
     0
281
     0
  0
CLASS
  1
LONG_TRANSACTION
  2
AcDbLongTransaction
  3
AutoCAD 2000
 90
    32768
280
     0
281
     0
  0
CLASS
  1
LWPOLYLINE
  2
AcDbPolyline
  3
AutoCAD 2000
 90
    32768
280
     0
281
     1
  0
CLASS
  1
HATCH
  2
AcDbHatch
  3
AutoCAD 2000
 90
    32768
280
     0
281
     1
  0
CLASS
  1
XRECORD
  2
AcDbXrecord
  3
AutoCAD 2000
 90
    32768
280
     0
281
     0
  0
CLASS
  1
LONG_TRANSACTION
  2
AcDbLongTransaction
  3
AutoCAD 2000
 90
    32768
280
     0
281
     0
  0
CLASS
  1
LWPOLYLINE
  2
AcDbPolyline
  3
AutoCAD 2000
 90
    32768
280
     0
281
     1
  0
CLASS
  1
HATCH
  2
AcDbHatch
  3
AutoCAD 2000
 90
    32768
280
     0
281
     1
  0
CLASS
  1
XRECORD
  2
AcDbXrecord
  3
AutoCAD 2000
 90
    32768
280
     0
281
     0
  0
CLASS
  1
LONG_TRANSACTION
  2
AcDbLongTransaction
  3
AutoCAD 2000
 90
    32768
280
     0
281
     0
  0
CLASS
  1
LWPOLYLINE
  2
AcDbPolyline
  3
AutoCAD 2000
 90
    32768
280
     0
281
     1
  0
CLASS
  1
HATCH
  2
AcDbHatch
  3
AutoCAD 2000
 90
    32768
280
     0
281
     1
  0
CLASS
  1
XRECORD
  2
AcDbXrecord
  3
AutoCAD 2000
 90
    32768
280
     0
281
     0
  0
CLASS
  1
LONG_TRANSACTION
  2
AcDbLongTransaction
  3
AutoCAD 2000
 90
    32768
280
     0
281
     0
  0
CLASS
  1
LWPOLYLINE
  2
AcDbPolyline
  3
AutoCAD 2000
 90
    32768
280
     0
281
     1
  0
CLASS
  1
HATCH
  2
AcDbHatch
  3
AutoCAD 2000
 90
    32768
280
     0
281
     1
  0
CLASS
  1
XRECORD
  2
AcDbXrecord
  3
AutoCAD 2000
 90
    32768
280
     0
281
     0
  0
CLASS
  1
SORTENTSTABLE
  2
AcDbSortentsTable
  3
AutoCAD 2000
 90
        0
280
     0
281
     0
  0
ENDSEC
  0
SECTION
  2
TABLES
  0
TABLE
  2
VPORT
  5
8
330
0
100
AcDbSymbolTable
 70
     2
  0
VPORT
  5
5D5
330
8
100
AcDbSymbolTableRecord
100
AcDbViewportTableRecord
  2
*Active
 70
     0
 10
0.0
 20
0.0
 11
1.0
 21
1.0
 12
-40.42053157512623
 22
19.45495677582806
 13
0.0
 23
0.0
 14
0.5
 24
0.5
 15
10.0
 25
10.0
 16
0.0
 26
0.0
 36
1.0
 17
0.0
 27
0.0
 37
0.0
 40
74.1785677950046
 41
1.581486310299869
 42
50.0
 43
0.0
 44
0.0
 50
0.0
 51
0.0
 71
     0
 72
   800
 73
     1
 74
     1
 75
     0
 76
     0
 77
     0
 78
     0
281
     0
 65
     1
110
0.0
120
0.0
130
0.0
111
1.0
121
0.0
131
0.0
112
0.0
122
1.0
132
0.0
 79
     0
146
0.0
  0
ENDTAB
  0
TABLE
  2
LTYPE
  5
5
330
0
100
AcDbSymbolTable
 70
     1
  0
LTYPE
  5
14
330
5
100
AcDbSymbolTableRecord
100
AcDbLinetypeTableRecord
  2
BYBLOCK
 70
     0
  3

 72
    65
 73
     0
 40
0.0
  0
LTYPE
  5
15
330
5
100
AcDbSymbolTableRecord
100
AcDbLinetypeTableRecord
  2
BYLAYER
 70
     0
  3

 72
    65
 73
     0
 40
0.0
  0
LTYPE
  5
16
330
5
100
AcDbSymbolTableRecord
100
AcDbLinetypeTableRecord
  2
CONTINUOUS
 70
     0
  3
_______________________________________________
 72
    65
 73
     2
 40
1.0
 49
1.0
 74
     0
 49
0.0
 74
     0
  0
ENDTAB
  0
TABLE
  2
LAYER
  5
2
330
0
100
AcDbSymbolTable
 70
     7
  0
LAYER
  5
F
330
2
100
AcDbSymbolTableRecord
100
AcDbLayerTableRecord
  2
0
 70
     0
 62
    30
  6
CONTINUOUS
370
    -3
390
F3
  0
LAYER
  5
120
330
2
100
AcDbSymbolTableRecord
100
AcDbLayerTableRecord
  2
1
 70
     0
 62
     2
  6
CONTINUOUS
370
    -3
390
F3
  0
LAYER
  5
121
330
2
100
AcDbSymbolTableRecord
100
AcDbLayerTableRecord
  2
2
 70
     0
 62
     9
  6
CONTINUOUS
370
    -3
390
F3
  0
LAYER
  5
123
330
2
100
AcDbSymbolTableRecord
100
AcDbLayerTableRecord
  2
4
 70
     1
 62
     4
  6
CONTINUOUS
370
    -3
390
F3
  0
LAYER
  5
124
330
2
100
AcDbSymbolTableRecord
100
AcDbLayerTableRecord
  2
5
 70
     0
 62
     1
  6
CONTINUOUS
370
    -3
390
F3
  0
LAYER
  5
125
330
2
100
AcDbSymbolTableRecord
100
AcDbLayerTableRecord
  2
6
 70
     0
 62
     3
  6
CONTINUOUS
370
    35
390
F3
  0
LAYER
  5
207
330
2
100
AcDbSymbolTableRecord
100
AcDbLayerTableRecord
  2
Defpoints
 70
     0
 62
     7
  6
CONTINUOUS
290
     0
370
    -3
390
F3
  0
ENDTAB
  0
TABLE
  2
STYLE
  5
3
330
0
100
AcDbSymbolTable
 70
     2
  0
STYLE
  5
10
330
3
100
AcDbSymbolTableRecord
100
AcDbTextStyleTableRecord
  2
STANDARD
 70
     0
 40
0.0
 41
1.0
 50
0.0
 71
     0
 42
2.5
  3
ARIAL.TTF
  4

1001
ACAD
1000
Arial
1071
       34
  0
STYLE
  5
12B
330
3
100
AcDbSymbolTableRecord
100
AcDbTextStyleTableRecord
  2
Beschlag
 70
     0
 40
0.0
 41
1.0
 50
0.0
 71
     0
 42
3.5
  3
ARIAL.TTF
  4

1001
ACAD
1000
Arial
1071
       34
  0
ENDTAB
  0
TABLE
  2
VIEW
  5
6
330
0
100
AcDbSymbolTable
 70
     0
  0
ENDTAB
  0
TABLE
  2
UCS
  5
7
330
0
100
AcDbSymbolTable
 70
     0
  0
ENDTAB
  0
TABLE
  2
APPID
  5
9
330
0
100
AcDbSymbolTable
 70
     1
  0
APPID
  5
11
330
9
100
AcDbSymbolTableRecord
100
AcDbRegAppTableRecord
  2
ACAD
 70
     0
  0
ENDTAB
  0
TABLE
  2
DIMSTYLE
  5
A
330
0
100
AcDbSymbolTable
 70
     1
100
AcDbDimStyleTable
 71
     0
  0
DIMSTYLE
105
209
102
{ACAD_REACTORS
330
2FE
330
302
330
303
330
306
102
}
330
A
100
AcDbSymbolTableRecord
100
AcDbDimStyleTableRecord
  2
OPO-SSTRICH
 70
     0
 41
2.0
 42
2.0
 43
0.0
 44
1.0
 46
1.0
 73
     0
 74
     0
 77
     1
 78
     8
 79
     2
140
3.5
141
0.0
143
0.039370078740157
146
0.7114285714285716
147
1.0
172
     1
173
     1
174
     1
176
   256
177
   256
178
   256
179
     1
271
     1
272
     1
279
     2
284
     8
285
     8
286
     8
340
12B
341
203
343
203
344
203
  0
ENDTAB
  0
TABLE
  2
BLOCK_RECORD
  5
1
330
0
100
AcDbSymbolTable
 70
     7
  0
BLOCK_RECORD
  5
1A
102
{ACAD_XDICTIONARY
360
1F6
102
}
330
1
100
AcDbSymbolTableRecord
100
AcDbBlockTableRecord
  2
*MODEL_SPACE
340
F6
  0
BLOCK_RECORD
  5
17
102
{ACAD_XDICTIONARY
360
1F4
102
}
330
1
100
AcDbSymbolTableRecord
100
AcDbBlockTableRecord
  2
*PAPER_SPACE
340
F7
  0
BLOCK_RECORD
  5
203
330
1
100
AcDbSymbolTableRecord
100
AcDbBlockTableRecord
  2
_Oblique
340
0
102
{BLKREFS
331
354
331
355
331
366
331
367
331
36F
331
370
331
37A
331
37B
102
}
  0
BLOCK_RECORD
  5
253
330
1
100
AcDbSymbolTableRecord
100
AcDbBlockTableRecord
  2
NullPunkt
340
0
102
{BLKREFS
331
25B
102
}
  0
BLOCK_RECORD
  5
2A9
330
1
100
AcDbSymbolTableRecord
100
AcDbBlockTableRecord
  2
*X2
340
0
102
{BLKREFS
331
2FD
102
}
  0
BLOCK_RECORD
  5
313
330
1
100
AcDbSymbolTableRecord
100
AcDbBlockTableRecord
  2
*D3
340
0
  0
BLOCK_RECORD
  5
32B
330
1
100
AcDbSymbolTableRecord
100
AcDbBlockTableRecord
  2
*D4
340
0
  0
BLOCK_RECORD
  5
337
330
1
100
AcDbSymbolTableRecord
100
AcDbBlockTableRecord
  2
*D5
340
0
  0
BLOCK_RECORD
  5
343
330
1
100
AcDbSymbolTableRecord
100
AcDbBlockTableRecord
  2
*D6
340
0
  0
ENDTAB
  0
ENDSEC
  0
SECTION
  2
BLOCKS
  0
BLOCK
  5
1B
330
1A
100
AcDbEntity
  8
0
100
AcDbBlockBegin
  2
*MODEL_SPACE
 70
     0
 10
0.0
 20
0.0
 30
0.0
  3
*MODEL_SPACE
  1

  0
ENDBLK
  5
1C
330
1A
100
AcDbEntity
  8
0
100
AcDbBlockEnd
  0
BLOCK
  5
18
330
17
100
AcDbEntity
 67
     1
  8
0
100
AcDbBlockBegin
  2
*PAPER_SPACE
 70
     0
 10
0.0
 20
0.0
 30
0.0
  3
*PAPER_SPACE
  1

  0
ENDBLK
  5
19
330
17
100
AcDbEntity
 67
     1
  8
0
100
AcDbBlockEnd
  0
BLOCK
  5
205
330
203
100
AcDbEntity
  8
0
100
AcDbBlockBegin
  2
_Oblique
 70
     0
 10
0.0
 20
0.0
 30
0.0
  3
_Oblique
  1

  0
LINE
  5
204
330
203
100
AcDbEntity
  8
0
 62
     0
370
    -2
100
AcDbLine
 10
-0.5
 20
-0.5
 30
0.0
 11
0.5
 21
0.5
 31
0.0
  0
ENDBLK
  5
206
330
203
100
AcDbEntity
  8
0
100
AcDbBlockEnd
  0
BLOCK
  5
259
330
253
100
AcDbEntity
  8
0
100
AcDbBlockBegin
  2
NullPunkt
 70
     0
 10
0.0
 20
0.0
 30
0.0
  3
NullPunkt
  1

  0
SOLID
  5
254
330
253
100
AcDbEntity
  8
5
100
AcDbTrace
 10
0.0
 20
0.0
 30
0.0
 11
2.0
 21
0.0
 31
0.0
 12
0.0
 22
-2.0
 32
0.0
 13
0.0
 23
-2.0
 33
0.0
  0
SOLID
  5
255
330
253
100
AcDbEntity
  8
5
100
AcDbTrace
 10
0.0
 20
0.0
 30
0.0
 11
-2.0
 21
0.0
 31
0.0
 12
0.0
 22
2.0
 32
0.0
 13
0.0
 23
2.0
 33
0.0
  0
LWPOLYLINE
  5
256
330
253
100
AcDbEntity
  8
5
100
AcDbPolyline
 90
        2
 70
     0
 43
0.0
 10
0.0
 20
2.0
 10
0.0
 20
-2.0
  0
LWPOLYLINE
  5
257
330
253
100
AcDbEntity
  8
5
100
AcDbPolyline
 90
        2
 70
     0
 43
0.0
 10
-2.0
 20
0.0
 10
2.0
 20
0.0
  0
CIRCLE
  5
258
330
253
100
AcDbEntity
  8
5
100
AcDbCircle
 10
0.0
 20
0.0
 30
0.0
 40
2.0
  0
ENDBLK
  5
25A
330
253
100
AcDbEntity
  8
0
100
AcDbBlockEnd
  0
BLOCK
  5
2DE
330
2A9
100
AcDbEntity
  8
0
100
AcDbBlockBegin
  2
*X2
 70
     1
 10
0.0
 20
0.0
 30
0.0
  3
*X2
  1

  0
LINE
  5
2AA
330
2A9
100
AcDbEntity
  8
0
 62
     0
100
AcDbLine
 10
1052.197325370108
 20
-537.9444041621992
 30
0.0
 11
1054.697325370108
 21
-535.4444041621992
 31
0.0
  0
LINE
  5
2AB
330
2A9
100
AcDbEntity
  8
0
 62
     0
100
AcDbLine
 10
1077.400127023562
 20
-512.7416025087451
 30
0.0
 11
1078.197325370108
 21
-511.9444041621992
 31
0.0
  0
LINE
  5
2AC
330
2A9
100
AcDbEntity
  8
0
 62
     0
100
AcDbLine
 10
1046.500269095261
 20
-541.9444041621992
 30
0.0
 11
1047.84161939771
 21
-540.6030538597494
 31
0.0
  0
LINE
  5
2AD
330
2A9
100
AcDbEntity
  8
0
 62
     0
100
AcDbLine
 10
1050.50026909526
 20
-537.9444041621992
 30
0.0
 11
1053.00026909526
 21
-535.4444041621992
 31
0.0
  0
LINE
  5
2AE
330
2A9
100
AcDbEntity
  8
0
 62
     0
100
AcDbLine
 10
1044.803212820413
 20
-541.9444041621992
 30
0.0
 11
1046.203212820413
 21
-540.5444041621991
 31
0.0
  0
LINE
  5
2AF
330
2A9
100
AcDbEntity
  8
0
 62
     0
100
AcDbLine
 10
1048.803212820413
 20
-537.9444041621992
 30
0.0
 11
1051.303212820413
 21
-535.4444041621992
 31
0.0
  0
LINE
  5
2B0
330
2A9
100
AcDbEntity
  8
0
 62
     0
100
AcDbLine
 10
1043.900127023562
 20
-541.1504336842019
 30
0.0
 11
1045.900127023562
 21
-539.1504336842019
 31
0.0
  0
LINE
  5
2B1
330
2A9
100
AcDbEntity
  8
0
 62
     0
100
AcDbLine
 10
1047.106156545565
 20
-537.9444041621992
 30
0.0
 11
1049.606156545565
 21
-535.4444041621992
 31
0.0
  0
LINE
  5
2B2
330
2A9
100
AcDbEntity
  8
0
 62
     0
100
AcDbLine
 10
1043.900127023562
 20
-539.4533774093542
 30
0.0
 11
1047.909100270717
 21
-535.4444041621992
 31
0.0
  0
LINE
  5
2B3
330
2A9
100
AcDbEntity
  8
0
 62
     0
100
AcDbLine
 10
1043.900127023562
 20
-537.7563211345063
 30
0.0
 11
1046.212043995869
 21
-535.4444041621992
 31
0.0
  0
LINE
  5
2B4
330
2A9
100
AcDbEntity
  8
0
 62
     0
100
AcDbLine
 10
1043.900127023562
 20
-536.0592648596589
 30
0.0
 11
1044.514987721022
 21
-535.4444041621992
 31
0.0
  0
LINE
  5
2B5
330
2A9
100
AcDbEntity
  8
0
 62
     0
100
AcDbLine
 10
1053.894381644956
 20
-537.9444041621992
 30
0.0
 11
1056.394381644956
 21
-535.4444041621992
 31
0.0
  0
LINE
  5
2B6
330
2A9
100
AcDbEntity
  8
0
 62
     0
100
AcDbLine
 10
1077.400127023562
 20
-514.4386587835929
 30
0.0
 11
1079.894381644956
 21
-511.9444041621992
 31
0.0
  0
LINE
  5
2B7
330
2A9
100
AcDbEntity
  8
0
 62
     0
100
AcDbLine
 10
1055.591437919803
 20
-537.9444041621992
 30
0.0
 11
1058.091437919803
 21
-535.4444041621992
 31
0.0
  0
LINE
  5
2B8
330
2A9
100
AcDbEntity
  8
0
 62
     0
100
AcDbLine
 10
1077.400127023562
 20
-516.1357150584406
 30
0.0
 11
1081.591437919803
 21
-511.9444041621992
 31
0.0
  0
LINE
  5
2B9
330
2A9
100
AcDbEntity
  8
0
 62
     0
100
AcDbLine
 10
1057.288494194651
 20
-537.9444041621992
 30
0.0
 11
1059.344310609107
 21
-535.8885877477438
 31
0.0
  0
LINE
  5
2BA
330
2A9
100
AcDbEntity
  8
0
 62
     0
100
AcDbLine
 10
1081.288494194651
 20
-513.9444041621992
 30
0.0
 11
1083.288494194651
 21
-511.9444041621992
 31
0.0
  0
LINE
  5
2BB
330
2A9
100
AcDbEntity
  8
0
 62
     0
100
AcDbLine
 10
1077.400127023562
 20
-517.8327713332885
 30
0.0
 11
1079.900127023562
 21
-515.3327713332884
 31
0.0
  0
LINE
  5
2BC
330
2A9
100
AcDbEntity
  8
0
 62
     0
100
AcDbLine
 10
1055.903498935611
 20
-541.0264556960869
 30
0.0
 11
1056.385550469499
 21
-540.5444041621991
 31
0.0
  0
LINE
  5
2BD
330
2A9
100
AcDbEntity
  8
0
 62
     0
100
AcDbLine
 10
1082.500127023562
 20
-514.4298276081362
 30
0.0
 11
1083.900127023562
 21
-513.0298276081362
 31
0.0
  0
LINE
  5
2BE
330
2A9
100
AcDbEntity
  8
0
 62
     0
100
AcDbLine
 10
1057.900127023562
 20
-539.029827608136
 30
0.0
 11
1060.192838746531
 21
-536.7371158851677
 31
0.0
  0
LINE
  5
2BF
330
2A9
100
AcDbEntity
  8
0
 62
     0
100
AcDbLine
 10
1077.442838746549
 20
-519.4871158851496
 30
0.0
 11
1079.900127023562
 21
-517.0298276081362
 31
0.0
  0
LINE
  5
2C0
330
2A9
100
AcDbEntity
  8
0
 62
     0
100
AcDbLine
 10
1056.702358079612
 20
-541.9246528269341
 30
0.0
 11
1061.041366883954
 21
-537.5856440225915
 31
0.0
  0
LINE
  5
2C1
330
2A9
100
AcDbEntity
  8
0
 62
     0
100
AcDbLine
 10
1082.683314638147
 20
-515.9436962683987
 30
0.0
 11
1083.900127023562
 21
-514.7268838829837
 31
0.0
  0
LINE
  5
2C2
330
2A9
100
AcDbEntity
  8
0
 62
     0
100
AcDbLine
 10
1077.400127023562
 20
-521.2268838829836
 30
0.0
 11
1079.900127023562
 21
-518.7268838829836
 31
0.0
  0
LINE
  5
2C3
330
2A9
100
AcDbEntity
  8
0
 62
     0
100
AcDbLine
 10
1058.379663019194
 20
-541.9444041621992
 30
0.0
 11
1061.889895021378
 21
-538.4341721600154
 31
0.0
  0
LINE
  5
2C4
330
2A9
100
AcDbEntity
  8
0
 62
     0
100
AcDbLine
 10
1077.400127023562
 20
-522.9239401578314
 30
0.0
 11
1079.900127023562
 21
-520.4239401578314
 31
0.0
  0
LINE
  5
2C5
330
2A9
100
AcDbEntity
  8
0
 62
     0
100
AcDbLine
 10
1060.076719294042
 20
-541.9444041621992
 30
0.0
 11
1063.376719294042
 21
-538.6444041621992
 31
0.0
  0
LINE
  5
2C6
330
2A9
100
AcDbEntity
  8
0
 62
     0
100
AcDbLine
 10
1077.400127023562
 20
-524.6209964326791
 30
0.0
 11
1079.900127023562
 21
-522.1209964326792
 31
0.0
  0
LINE
  5
2C7
330
2A9
100
AcDbEntity
  8
0
 62
     0
100
AcDbLine
 10
1061.77377556889
 20
-541.9444041621992
 30
0.0
 11
1065.07377556889
 21
-538.6444041621992
 31
0.0
  0
LINE
  5
2C8
330
2A9
100
AcDbEntity
  8
0
 62
     0
100
AcDbLine
 10
1077.400127023562
 20
-526.3180527075269
 30
0.0
 11
1079.900127023562
 21
-523.818052707527
 31
0.0
  0
LINE
  5
2C9
330
2A9
100
AcDbEntity
  8
0
 62
     0
100
AcDbLine
 10
1063.470831843738
 20
-541.9444041621992
 30
0.0
 11
1066.770831843738
 21
-538.6444041621992
 31
0.0
  0
LINE
  5
2CA
330
2A9
100
AcDbEntity
  8
0
 62
     0
100
AcDbLine
 10
1077.93547943365
 20
-527.4797565722869
 30
0.0
 11
1079.900127023562
 21
-525.5151089823747
 31
0.0
  0
LINE
  5
2CB
330
2A9
100
AcDbEntity
  8
0
 62
     0
100
AcDbLine
 10
1065.167888118585
 20
-541.9444041621992
 30
0.0
 11
1068.467888118585
 21
-538.6444041621992
 31
0.0
  0
LINE
  5
2CC
330
2A9
100
AcDbEntity
  8
0
 62
     0
100
AcDbLine
 10
1082.500127023562
 20
-524.6121652572222
 30
0.0
 11
1083.138950995256
 21
-523.9733412855285
 31
0.0
  0
LINE
  5
2CD
330
2A9
100
AcDbEntity
  8
0
 62
     0
100
AcDbLine
 10
1078.784007571073
 20
-528.3282847097108
 30
0.0
 11
1081.167888118585
 21
-525.9444041621992
 31
0.0
  0
LINE
  5
2CE
330
2A9
100
AcDbEntity
  8
0
 62
     0
100
AcDbLine
 10
1066.864944393433
 20
-541.9444041621992
 30
0.0
 11
1070.164944393433
 21
-538.6444041621992
 31
0.0
  0
LINE
  5
2CF
330
2A9
100
AcDbEntity
  8
0
 62
     0
100
AcDbLine
 10
1079.632535708497
 20
-529.1768128471346
 30
0.0
 11
1083.899528803858
 21
-524.9098197517737
 31
0.0
  0
LINE
  5
2D0
330
2A9
100
AcDbEntity
  8
0
 62
     0
100
AcDbLine
 10
1068.562000668281
 20
-541.9444041621992
 30
0.0
 11
1071.862000668281
 21
-538.6444041621992
 31
0.0
  0
LINE
  5
2D1
330
2A9
100
AcDbEntity
  8
0
 62
     0
100
AcDbLine
 10
1080.481063845921
 20
-530.0253409845586
 30
0.0
 11
1083.900127023562
 21
-526.6062778069176
 31
0.0
  0
LINE
  5
2D2
330
2A9
100
AcDbEntity
  8
0
 62
     0
100
AcDbLine
 10
1070.259056943128
 20
-541.9444041621992
 30
0.0
 11
1073.559056943128
 21
-538.6444041621992
 31
0.0
  0
LINE
  5
2D3
330
2A9
100
AcDbEntity
  8
0
 62
     0
100
AcDbLine
 10
1080.600127023562
 20
-531.6033340817658
 30
0.0
 11
1083.900127023562
 21
-528.3033340817654
 31
0.0
  0
LINE
  5
2D4
330
2A9
100
AcDbEntity
  8
0
 62
     0
100
AcDbLine
 10
1071.956113217976
 20
-541.9444041621992
 30
0.0
 11
1075.256113217976
 21
-538.6444041621992
 31
0.0
  0
LINE
  5
2D5
330
2A9
100
AcDbEntity
  8
0
 62
     0
100
AcDbLine
 10
1080.600127023562
 20
-533.3003903566136
 30
0.0
 11
1083.900127023562
 21
-530.0003903566132
 31
0.0
  0
LINE
  5
2D6
330
2A9
100
AcDbEntity
  8
0
 62
     0
100
AcDbLine
 10
1073.653169492824
 20
-541.9444041621992
 30
0.0
 11
1076.953169492824
 21
-538.6444041621992
 31
0.0
  0
LINE
  5
2D7
330
2A9
100
AcDbEntity
  8
0
 62
     0
100
AcDbLine
 10
1080.600127023562
 20
-534.9974466314611
 30
0.0
 11
1083.900127023562
 21
-531.6974466314607
 31
0.0
  0
LINE
  5
2D8
330
2A9
100
AcDbEntity
  8
0
 62
     0
100
AcDbLine
 10
1075.350225767671
 20
-541.9444041621992
 30
0.0
 11
1083.900127023562
 21
-533.3945029063085
 31
0.0
  0
LINE
  5
2D9
330
2A9
100
AcDbEntity
  8
0
 62
     0
100
AcDbLine
 10
1077.047282042519
 20
-541.9444041621992
 30
0.0
 11
1083.900127023562
 21
-535.0915591811562
 31
0.0
  0
LINE
  5
2DA
330
2A9
100
AcDbEntity
  8
0
 62
     0
100
AcDbLine
 10
1078.744338317367
 20
-541.9444041621992
 30
0.0
 11
1083.900127023562
 21
-536.7886154560039
 31
0.0
  0
LINE
  5
2DB
330
2A9
100
AcDbEntity
  8
0
 62
     0
100
AcDbLine
 10
1080.441394592215
 20
-541.9444041621992
 30
0.0
 11
1083.900127023562
 21
-538.4856717308517
 31
0.0
  0
LINE
  5
2DC
330
2A9
100
AcDbEntity
  8
0
 62
     0
100
AcDbLine
 10
1082.138450867063
 20
-541.9444041621992
 30
0.0
 11
1083.900127023562
 21
-540.1827280056992
 31
0.0
  0
LINE
  5
2DD
330
2A9
100
AcDbEntity
  8
0
 62
     0
100
AcDbLine
 10
1083.83550714191
 20
-541.9444041621992
 30
0.0
 11
1083.900127023562
 21
-541.879784280547
 31
0.0
  0
ENDBLK
  5
2DF
330
2A9
100
AcDbEntity
  8
0
100
AcDbBlockEnd
  0
BLOCK
  5
31D
330
313
100
AcDbEntity
  8
0
100
AcDbBlockBegin
  2
*D3
 70
     1
 10
0.0
 20
0.0
 30
0.0
  3
*D3
  1

  0
LINE
  5
351
330
313
100
AcDbEntity
  8
1
370
    -2
100
AcDbLine
 10
2.0
 20
-0.0000000000000006
 30
0.0
 11
12.92523463458064
 21
-0.0000000000000037
 31
0.0
  0
LINE
  5
352
330
313
100
AcDbEntity
  8
1
370
    -2
100
AcDbLine
 10
2.0
 20
30.0
 30
0.0
 11
12.92523463458064
 21
30.0
 31
0.0
  0
LINE
  5
353
330
313
100
AcDbEntity
  8
1
370
    -2
100
AcDbLine
 10
11.92523463458064
 20
-1.000000000000003
 30
0.0
 11
11.92523463458064
 21
30.99999999999999
 31
0.0
  0
INSERT
  5
354
330
313
100
AcDbEntity
  8
1
370
    -2
100
AcDbBlockReference
  2
_Oblique
 10
11.92523463458064
 20
-0.0000000000000034
 30
0.0
 41
2.0
 42
2.0
 43
2.0
 50
270.0
  0
INSERT
  5
355
330
313
100
AcDbEntity
  8
1
370
    -2
100
AcDbBlockReference
  2
_Oblique
 10
11.92523463458064
 20
30.0
 30
0.0
 41
2.0
 42
2.0
 43
2.0
 50
90.0
  0
MTEXT
  5
356
330
313
100
AcDbEntity
  8
1
100
AcDbMText
 10
9.137035453134529
 20
15.0
 30
0.0
 40
3.5
 41
0.0
 71
     5
 72
     1
  1
\A1;30
  7
Beschlag
 11
0.0000000000000001
 21
1.0
 31
0.0
 73
     1
 44
1.0
  0
POINT
  5
357
330
313
100
AcDbEntity
  8
Defpoints
 62
     0
100
AcDbPoint
 10
0.0
 20
0.0
 30
0.0
  0
POINT
  5
358
330
313
100
AcDbEntity
  8
Defpoints
 62
     0
100
AcDbPoint
 10
0.0
 20
30.0
 30
0.0
  0
POINT
  5
359
330
313
100
AcDbEntity
  8
Defpoints
 62
     0
100
AcDbPoint
 10
11.92523463458064
 20
30.0
 30
0.0
  0
ENDBLK
  5
31E
330
313
100
AcDbEntity
  8
0
100
AcDbBlockEnd
  0
BLOCK
  5
335
330
32B
100
AcDbEntity
  8
0
100
AcDbBlockBegin
  2
*D4
 70
     1
 10
0.0
 20
0.0
 30
0.0
  3
*D4
  1

  0
LINE
  5
363
330
32B
100
AcDbEntity
  8
1
370
    -2
100
AcDbLine
 10
0.0000000000000001
 20
32.0
 30
0.0
 11
0.0000000000000008
 21
42.26425819486076
 31
0.0
  0
LINE
  5
364
330
32B
100
AcDbEntity
  8
1
370
    -2
100
AcDbLine
 10
-7.0
 20
32.0
 30
0.0
 11
-6.999999999999999
 21
42.26425819486076
 31
0.0
  0
LINE
  5
365
330
32B
100
AcDbEntity
  8
1
370
    -2
100
AcDbLine
 10
1.0
 20
41.26425819486075
 30
0.0
 11
-7.999999999999999
 21
41.26425819486075
 31
0.0
  0
INSERT
  5
366
330
32B
100
AcDbEntity
  8
1
370
    -2
100
AcDbBlockReference
  2
_Oblique
 10
0.0000000000000007
 20
41.26425819486075
 30
0.0
 41
2.0
 42
2.0
 43
2.0
  0
INSERT
  5
367
330
32B
100
AcDbEntity
  8
1
370
    -2
100
AcDbBlockReference
  2
_Oblique
 10
-6.999999999999999
 20
41.26425819486075
 30
0.0
 41
2.0
 42
2.0
 43
2.0
 50
180.0
  0
MTEXT
  5
368
330
32B
100
AcDbEntity
  8
1
100
AcDbMText
 10
-3.499999999999999
 20
44.01425819486076
 30
0.0
 40
3.5
 41
0.0
 71
     5
 72
     1
  1
\A1;7
  7
Beschlag
 73
     1
 44
1.0
  0
POINT
  5
369
330
32B
100
AcDbEntity
  8
Defpoints
 62
     0
100
AcDbPoint
 10
0.0
 20
30.0
 30
0.0
  0
POINT
  5
36A
330
32B
100
AcDbEntity
  8
Defpoints
 62
     0
100
AcDbPoint
 10
-7.0
 20
30.0
 30
0.0
  0
POINT
  5
36B
330
32B
100
AcDbEntity
  8
Defpoints
 62
     0
100
AcDbPoint
 10
-6.999999999999999
 20
41.26425819486075
 30
0.0
  0
ENDBLK
  5
336
330
32B
100
AcDbEntity
  8
0
100
AcDbBlockEnd
  0
BLOCK
  5
341
330
337
100
AcDbEntity
  8
0
100
AcDbBlockBegin
  2
*D5
 70
     1
 10
0.0
 20
0.0
 30
0.0
  3
*D5
  1

  0
LINE
  5
36C
330
337
100
AcDbEntity
  8
1
370
    -2
100
AcDbLine
 10
0.0000000000000001
 20
2.0
 30
0.0
 11
0.0000000000000012
 21
20.10846832030097
 31
0.0
  0
LINE
  5
36D
330
337
100
AcDbEntity
  8
1
370
    -2
100
AcDbLine
 10
-40.0
 20
8.5
 30
0.0
 11
-40.0
 21
20.10846832030097
 31
0.0
  0
LINE
  5
36E
330
337
100
AcDbEntity
  8
1
370
    -2
100
AcDbLine
 10
1.000000000000001
 20
19.10846832030097
 30
0.0
 11
-41.0
 21
19.10846832030097
 31
0.0
  0
INSERT
  5
36F
330
337
100
AcDbEntity
  8
1
370
    -2
100
AcDbBlockReference
  2
_Oblique
 10
0.0000000000000012
 20
19.10846832030097
 30
0.0
 41
2.0
 42
2.0
 43
2.0
  0
INSERT
  5
370
330
337
100
AcDbEntity
  8
1
370
    -2
100
AcDbBlockReference
  2
_Oblique
 10
-40.0
 20
19.10846832030097
 30
0.0
 41
2.0
 42
2.0
 43
2.0
 50
180.0
  0
MTEXT
  5
371
330
337
100
AcDbEntity
  8
1
100
AcDbMText
 10
-20.0
 20
21.89547377732689
 30
0.0
 40
3.5
 41
0.0
 71
     5
 72
     1
  1
\A1;40
  7
Beschlag
 73
     1
 44
1.0
  0
POINT
  5
372
330
337
100
AcDbEntity
  8
Defpoints
 62
     0
100
AcDbPoint
 10
0.0
 20
0.0
 30
0.0
  0
POINT
  5
373
330
337
100
AcDbEntity
  8
Defpoints
 62
     0
100
AcDbPoint
 10
-40.0
 20
6.5
 30
0.0
  0
POINT
  5
374
330
337
100
AcDbEntity
  8
Defpoints
 62
     0
100
AcDbPoint
 10
-40.0
 20
19.10846832030097
 30
0.0
  0
ENDBLK
  5
342
330
337
100
AcDbEntity
  8
0
100
AcDbBlockEnd
  0
BLOCK
  5
34F
330
343
100
AcDbEntity
  8
0
100
AcDbBlockBegin
  2
*D6
 70
     1
 10
0.0
 20
0.0
 30
0.0
  3
*D6
  1

  0
LINE
  5
375
330
343
100
AcDbEntity
  8
1
370
    -2
100
AcDbLine
 10
0.0000000000000001
 20
31.99999999999886
 30
0.0
 11
0.0000000000000008
 21
42.26425819486053
 31
0.0
  0
LINE
  5
376
330
343
100
AcDbEntity
  8
1
370
    -2
100
AcDbLine
 10
3.000000000000454
 20
31.99999999999886
 30
0.0
 11
3.000000000000455
 21
42.26425819486053
 31
0.0
  0
LINE
  5
377
330
343
100
AcDbEntity
  8
1
370
    -2
100
AcDbLine
 10
0.0000000000000007
 20
41.26425819486053
 30
0.0
 11
-1.999999999999999
 21
41.26425819486053
 31
0.0
  0
LINE
  5
378
330
343
100
AcDbEntity
  8
1
370
    -2
100
AcDbLine
 10
3.000000000000455
 20
41.26425819486053
 30
0.0
 11
5.000000000000455
 21
41.26425819486053
 31
0.0
  0
LINE
  5
379
330
343
100
AcDbEntity
  8
1
370
    -2
100
AcDbLine
 10
0.0000000000000007
 20
41.26425819486053
 30
0.0
 11
3.000000000000455
 21
41.26425819486053
 31
0.0
  0
INSERT
  5
37A
330
343
100
AcDbEntity
  8
1
370
    -2
100
AcDbBlockReference
  2
_Oblique
 10
0.0000000000000007
 20
41.26425819486053
 30
0.0
 41
2.0
 42
2.0
 43
2.0
  0
INSERT
  5
37B
330
343
100
AcDbEntity
  8
1
370
    -2
100
AcDbBlockReference
  2
_Oblique
 10
3.000000000000455
 20
41.26425819486053
 30
0.0
 41
2.0
 42
2.0
 43
2.0
 50
180.0
  0
MTEXT
  5
37C
330
343
100
AcDbEntity
  8
1
100
AcDbMText
 10
1.500000000000228
 20
44.05245737630663
 30
0.0
 40
3.5
 41
0.0
 71
     5
 72
     1
  1
\A1;3
  7
Beschlag
 73
     1
 44
1.0
  0
POINT
  5
37D
330
343
100
AcDbEntity
  8
Defpoints
 62
     0
100
AcDbPoint
 10
0.0
 20
29.99999999999886
 30
0.0
  0
POINT
  5
37E
330
343
100
AcDbEntity
  8
Defpoints
 62
     0
100
AcDbPoint
 10
3.000000000000454
 20
29.99999999999886
 30
0.0
  0
POINT
  5
37F
330
343
100
AcDbEntity
  8
Defpoints
 62
     0
100
AcDbPoint
 10
3.000000000000455
 20
41.26425819486053
 30
0.0
  0
ENDBLK
  5
350
330
343
100
AcDbEntity
  8
0
100
AcDbBlockEnd
  0
ENDSEC
  0
SECTION
  2
ENTITIES
  0
INSERT
  5
25B
330
1A
100
AcDbEntity
  8
5
100
AcDbBlockReference
  2
NullPunkt
 10
0.0
 20
0.0
 30
0.0
  0
TEXT
  5
2FC
330
1A
100
AcDbEntity
  8
1
100
AcDbText
 10
-81.41405760912903
 20
-7.092525818997842
 30
0.0
 40
2.49999995
  1
Hebgo 906
100
AcDbText
  0
INSERT
  5
2FD
330
1A
100
AcDbEntity
  8
2
100
AcDbBlockReference
  2
*X2
 10
-1083.900127023562
 20
541.9444041621992
 30
0.0
1001
ACAD
1000
HATCH
1002
{
1070
    16
1000
_U,I
1040
1.199999999999999
1040
0.7853981633974483
1070
     0
1002
}
  0
DIMENSION
  5
2FE
330
1A
100
AcDbEntity
  8
1
100
AcDbDimension
  2
*D3
 10
11.92523463458064
 20
30.0
 30
0.0
 11
9.137035453134529
 21
15.0
 31
0.0
 70
    32
 71
     5
 42
-1.0
  3
OPO-SSTRICH
100
AcDbAlignedDimension
 13
0.0
 23
0.0
 33
0.0
 14
0.0
 24
30.0
 34
0.0
 50
90.0
100
AcDbRotatedDimension
  0
TEXT
  5
301
330
1A
100
AcDbEntity
  8
1
100
AcDbText
 10
-35.38985308968995
 20
9.430800978916636
 30
0.0
 40
2.49999995
  1
Hebgo 180/520
100
AcDbText
  0
DIMENSION
  5
302
330
1A
100
AcDbEntity
  8
1
100
AcDbDimension
  2
*D4
 10
-6.999999999999999
 20
41.26425819486075
 30
0.0
 11
-3.499999999999999
 21
44.01425819486076
 31
0.0
 70
    32
 71
     5
 42
-1.0
  3
OPO-SSTRICH
100
AcDbAlignedDimension
 13
0.0
 23
30.0
 33
0.0
 14
-7.0
 24
30.0
 34
0.0
100
AcDbRotatedDimension
  0
DIMENSION
  5
303
330
1A
100
AcDbEntity
  8
1
100
AcDbDimension
  2
*D5
 10
-40.0
 20
19.10846832030097
 30
0.0
 11
-20.0
 21
21.89547377732689
 31
0.0
 70
    32
 71
     5
 42
-1.0
  3
OPO-SSTRICH
100
AcDbAlignedDimension
 13
0.0
 23
0.0
 33
0.0
 14
-40.0
 24
6.5
 34
0.0
100
AcDbRotatedDimension
  0
LWPOLYLINE
  5
304
102
{ACAD_REACTORS
330
5CB
102
}
330
1A
100
AcDbEntity
  8
6
100
AcDbPolyline
 90
       53
 70
     1
 43
0.0
 10
-6.5
 20
3.299999999999954
 10
-3.300000000000181
 20
6.5
 10
-3.300000000000181
 20
11.79999999999995
 10
-6.5
 20
15.0
 10
-6.5
 20
21.45857864383674
 42
-0.1989123670509405
 10
-6.470710678207979
 20
21.52928932186591
 10
-6.070710678118757
 20
21.9292893229674
 42
0.4142135623730907
 10
-6.070710678118757
 20
22.07071067920469
 10
-6.470710678118848
 20
22.47071067811862
 42
-0.198912367379658
 10
-6.5
 20
22.54142135623737
 10
-6.5
 20
29.79999999999995
 42
-0.4142135623730951
 10
-6.300000000000181
 20
30.0
 10
-0.1999999999998181
 20
30.0
 42
-0.4142135623730951
 10
0.0
 20
29.79999999999995
 10
0.0
 20
27.0
 42
-0.4142135623730951
 10
-1.0
 20
26.0
 10
-1.199999999999818
 20
26.0
 42
-0.4142135623730951
 10
-1.40000000000009
 20
26.20000000000004
 10
-1.40000000000009
 20
27.79999999999995
 42
0.4142135623730951
 10
-1.599999999999909
 20
28.0
 10
-3.800000000000181
 20
28.0
 42
0.4142135623730988
 10
-4.0
 20
27.79999999999995
 10
-4.0
 20
16.20000000000004
 42
0.4142135623730951
 10
-3.800000000000181
 20
16.0
 10
-1.599999999999909
 20
16.0
 42
0.4142135623730914
 10
-1.40000000000009
 20
16.20000000000004
 10
-1.40000000000009
 20
17.79999999999995
 42
-0.4142135623730951
 10
-1.199999999999818
 20
18.0
 10
-1.0
 20
18.0
 42
-0.4142135623730948
 10
0.0
 20
17.0
 10
0.0
 20
0.0
 10
-27.0
 20
0.0
 42
-0.4142135623730948
 10
-28.0
 20
1.0
 10
-28.0
 20
1.200000000000045
 42
-0.4142135623730951
 10
-27.80000000000018
 20
1.40000000000009
 10
-26.19999999999981
 20
1.40000000000009
 42
0.4142135623730951
 10
-26.0
 20
1.599999999999909
 10
-26.0
 20
3.799999999999954
 42
0.4142135623730951
 10
-26.19999999999981
 20
4.0
 10
-37.80000000000018
 20
4.0
 42
0.4142135623730944
 10
-38.0
 20
3.799999999999954
 10
-38.0
 20
1.599999999999909
 42
0.4142135623730951
 10
-37.80000000000018
 20
1.40000000000009
 10
-36.19999999999981
 20
1.40000000000009
 42
-0.4142135623730951
 10
-36.0
 20
1.200000000000045
 10
-36.0
 20
1.0
 42
-0.4142135623730951
 10
-37.0
 20
0.0
 10
-39.80000000000018
 20
0.0
 42
-0.4142135623730951
 10
-40.0
 20
0.2000000000000455
 10
-40.0
 20
6.299999999999954
 42
-0.4142135623730951
 10
-39.80000000000018
 20
6.5
 10
-25.0
 20
6.5
 10
-21.80000000000018
 20
3.299999999999954
  0
LWPOLYLINE
  5
305
330
1A
100
AcDbEntity
  8
4
100
AcDbPolyline
 90
       11
 70
     1
 43
0.0
 10
0.0
 20
30.0
 10
-6.5
 20
30.0
 10
-6.5
 20
15.0
 10
-3.300000000000181
 20
11.79999999999995
 10
-3.300000000000181
 20
6.5
 10
-6.5
 20
3.299999999999954
 10
-21.80000000000018
 20
3.299999999999954
 10
-25.0
 20
6.5
 10
-40.0
 20
6.5
 10
-40.0
 20
0.0
 10
0.0
 20
0.0
  0
DIMENSION
  5
306
330
1A
100
AcDbEntity
  8
1
100
AcDbDimension
  2
*D6
 10
3.000000000000455
 20
41.26425819486053
 30
0.0
 11
1.500000000000228
 21
44.05245737630663
 31
0.0
 70
    32
 71
     5
 42
-1.0
  3
OPO-SSTRICH
100
AcDbAlignedDimension
 13
0.0
 23
29.99999999999886
 33
0.0
 14
3.000000000000454
 24
29.99999999999886
 34
0.0
100
AcDbRotatedDimension
  0
LWPOLYLINE
  5
308
102
{ACAD_REACTORS
330
5CB
102
}
330
1A
100
AcDbEntity
  8
6
100
AcDbPolyline
 90
       28
 70
     1
 43
0.0
 10
3.000000000000454
 20
21.99999999999977
 42
0.3348758971066404
 10
2.249257780868902
 20
23.2243599999997
 10
2.213336731360413
 20
25.36684112783632
 42
0.4158738464929489
 10
0.10044074489997
 20
26.48655993448892
 10
-1.091050087086841
 20
25.6554707336345
 42
-0.9647680298900043
 10
-1.864363299475826
 20
26.19268491088019
 10
-1.581205881392179
 20
26.84600064730057
 42
0.6694204690004703
 10
-2.011269297693615
 20
27.48594955336625
 10
-3.831488177781466
 20
27.05903956357974
 42
0.2464814616015845
 10
-4.000520459054769
 20
26.75925455112201
 42
0.0150420667643324
 10
-4.000520459054769
 20
26.47732733175712
 42
0.2063969197888626
 10
-3.828345240806356
 20
26.10889236045909
 10
-3.497641154942357
 20
25.67597237046652
 42
-0.0984306399189399
 10
-3.179660503262311
 20
25.02783291166429
 10
-3.179660503262311
 20
21.99999999999977
 10
-3.179660503262311
 20
18.97216708833525
 42
-0.0984306399189399
 10
-3.497641154942357
 20
18.32402762953302
 10
-3.828345240806356
 20
17.89110763954045
 42
0.2063969197888626
 10
-4.000520459054769
 20
17.52267266824242
 42
0.0150420667643324
 10
-4.000520459054769
 20
17.24074544887753
 42
0.2464814616015845
 10
-3.831488177781466
 20
16.94096043642002
 10
-2.011269297693615
 20
16.51405044663329
 42
0.6345177691905591
 10
-1.581205881392179
 20
17.15399935269897
 10
-1.853663127208164
 20
17.78129436042149
 42
-0.9846311026449575
 10
-1.091050087086841
 20
18.34452926636504
 10
0.10044074489997
 20
17.51344006551062
 42
0.4158738464929489
 10
2.213336731360413
 20
18.63315887216344
 10
2.249257780868902
 20
20.77563999999984
 42
0.3348758971066357
  0
LWPOLYLINE
  5
309
102
{ACAD_REACTORS
330
5CB
102
}
330
1A
100
AcDbEntity
  8
6
100
AcDbPolyline
 90
       13
 70
     0
 43
0.0
 10
1.026056266155592
 20
22.00476416546098
 42
-0.0523662851020724
 10
1.438194332162311
 20
25.01054978608863
 42
0.1698680870516715
 10
1.451504661664785
 20
25.60920440109953
 42
0.3581952709156561
 10
0.4704820347242276
 20
25.80481730572205
 10
-1.03861367905165
 20
24.79137789216588
 42
0.162990172482064
 10
-1.612476819171661
 20
23.61724287609104
 42
0.0297520103796801
 10
-1.704040960494694
 20
21.99999999999977
 42
0.0297520103796801
 10
-1.5585380551679
 20
20.38671533299725
 42
0.162990172482064
 10
-0.945797631190544
 20
19.23239253915449
 10
1.048925674421298
 20
18.26989744524257
 42
0.5496470159714418
 10
1.63688883953273
 20
18.48525886850007
 42
0.0587952726232103
 10
1.537198917017121
 20
19.08091746745981
 42
-0.0523662851020724
 10
1.024945864198798
 20
22.071268917123
  0
LWPOLYLINE
  5
30A
102
{ACAD_REACTORS
330
5CB
102
}
330
1A
100
AcDbEntity
  8
5
100
AcDbPolyline
 90
        3
 70
     0
 43
0.0
 10
3.0
 20
38.88387920552077
 10
3.0
 20
5.0
 10
17.9321013467802
 20
5.0
  0
LWPOLYLINE
  5
30B
330
1A
100
AcDbEntity
  8
6
100
AcDbPolyline
 90
       19
 70
     1
 43
0.0
 10
-26.5
 20
3.700000000000045
 10
-33.17818298123779
 20
3.699999999999931
 42
0.2979024853978631
 10
-35.01028880616832
 20
2.502114858518211
 10
-36.2508498236815
 20
0.0023065905892281
 42
-0.2979024853978892
 10
-36.70887627991419
 20
-0.2971646947812587
 10
-39.75020276315945
 20
-0.2971646947812587
 42
-0.4142135623730951
 10
-40.25020276315944
 20
0.2028353052187413
 10
-40.25020276315944
 20
6.024998256854928
 42
-0.1564024178525488
 10
-40.15697281359826
 20
6.315752665361515
 10
-38.18761656285596
 20
8.072143522514352
 10
-39.51882007820268
 20
9.564757739493643
 10
-41.59060439905693
 20
7.717015342571244
 42
0.1880239795834631
 10
-42.25020276315945
 20
6.024998256801609
 10
-42.25020276315945
 20
0.2028353052187413
 42
0.4142135623730951
 10
-39.75020276315945
 20
-2.297164694781258
 10
-36.7088762799334
 20
-2.297164694781258
 42
0.2906967135076304
 10
-34.44614220032121
 20
-0.860195496329652
 10
-33.17561326788075
 20
1.700000000000159
 10
-26.5
 20
1.700000000000045
  0
LWPOLYLINE
  5
30C
330
1A
100
AcDbEntity
  8
6
100
AcDbPolyline
 90
       10
 70
     0
 43
0.0
 10
-26.5
 20
3.200000000000045
 10
-33.17818298123779
 20
3.199999999999931
 42
0.2999244947259431
 10
-34.55669100147577
 20
2.291367599834416
 10
-35.7985506455193
 20
-0.2110574820134161
 42
-0.294080808329901
 10
-36.70887627991419
 20
-0.7971646947812588
 10
-39.75020276315945
 20
-0.7971646947812588
 42
-0.4142135623730951
 10
-40.75020276315945
 20
0.2028353052187413
 10
-40.75020276315945
 20
6.024998256854928
 42
-0.1731346391236261
 10
-40.52415300667735
 20
6.658244670591216
 10
-38.52041744169264
 20
8.445297076759175
  0
LWPOLYLINE
  5
30D
330
1A
100
AcDbEntity
  8
6
100
AcDbPolyline
 90
       10
 70
     0
 43
0.0
 10
-26.5
 20
2.700000000000045
 10
-33.17818298123575
 20
2.700000000000045
 42
0.3033220033015464
 10
-34.1020279142109
 20
2.082766952356564
 10
-35.34727970797053
 20
-0.4264935239518764
 42
-0.2923904282578467
 10
-36.70887627993659
 20
-1.297164694781258
 10
-39.75020276315945
 20
-1.297164694781258
 42
-0.4142135623730951
 10
-41.25020276315945
 20
0.2028353052187413
 10
-41.25020276315945
 20
6.024998256816502
 42
-0.1805621658660177
 10
-40.88328541323903
 20
7.007914177938232
 10
-38.85321832052932
 20
8.818450631003997
  0
LWPOLYLINE
  5
30E
330
1A
100
AcDbEntity
  8
6
100
AcDbPolyline
 90
       10
 70
     0
 43
0.0
 10
-26.5
 20
2.200000000000045
 10
-33.17818298123586
 20
2.200000000000045
 42
0.3110176465481184
 10
-33.64530533485106
 20
1.878316310637501
 10
-34.89654092879641
 20
-0.6430018983962782
 42
-0.2913835292343037
 10
-36.70887627993113
 20
-1.797164694781258
 10
-39.75020276315945
 20
-1.797164694781258
 42
-0.4142135623730951
 10
-41.75020276315945
 20
0.2028353052187413
 10
-41.75020276315945
 20
6.02499825676864
 42
-0.184995633674859
 10
-41.23826845854989
 20
7.36128433627789
 10
-39.186019199366
 20
9.19160418524882
  0
LWPOLYLINE
  5
30F
330
1A
100
AcDbEntity
  8
6
100
AcDbPolyline
 90
       18
 70
     0
 43
0.0
 10
-39.70020276315972
 20
-0.2971646947812587
 10
-53.90502207413295
 20
-0.297164694781145
 10
-63.59124566468882
 20
4.853396223599133
 42
0.2418206986979301
 10
-67.24625281558224
 20
4.90524628449566
 10
-76.55294295811405
 20
0.2902407400135871
 10
-85.89152629727653
 20
4.921061496674269
 42
0.2343261328240422
 10
-89.44559500045034
 20
4.921061496674155
 10
-98.78417833961306
 20
0.2902407400135871
 10
-97.89566116381969
 20
-1.501556466234887
 10
-88.55707782465662
 20
3.129264290425794
 42
-0.2343261328239351
 10
-86.78004347307012
 20
3.12926429042568
 10
-77.4414601339073
 20
-1.501556466234887
 42
0.2343261328239322
 10
-75.6644257823209
 20
-1.501556466234887
 10
-66.35773563978887
 20
3.113449078247185
 42
-0.2418206986978837
 10
-64.53023206434227
 20
3.087524047798865
 10
-54.84400847378629
 20
-2.063036870581527
 42
0.1227907796755793
 10
-53.90502207413328
 20
-2.297164694781258
 10
-39.70020276315972
 20
-2.297164694781258
  0
LWPOLYLINE
  5
310
330
1A
100
AcDbEntity
  8
6
100
AcDbPolyline
 90
       10
 70
     0
 43
0.0
 10
-39.70020276315972
 20
-1.797164694781258
 10
-53.90502207413283
 20
-1.797164694781145
 42
-0.1227907796755781
 10
-54.60926187387258
 20
-1.621568826631687
 10
-64.29548546442891
 20
3.528992091748932
 42
0.2418206986979325
 10
-66.57986493373744
 20
3.561398379809133
 10
-75.8865550762689
 20
-1.053607164672712
 42
-0.2343261328240303
 10
-77.21933083995941
 20
-1.053607164672598
 10
-86.55791417912155
 20
3.577213591987742
 42
0.2343261328240438
 10
-88.77920711860543
 20
3.577213591987742
 10
-98.11779045776802
 20
-1.053607164672826
 42
-0.2343261328240571
  0
LWPOLYLINE
  5
311
330
1A
100
AcDbEntity
  8
6
100
AcDbPolyline
 90
       10
 70
     0
 43
0.0
 10
-39.70020276315972
 20
-1.297164694781258
 10
-53.90502207413317
 20
-1.297164694781145
 42
-0.1227907796755804
 10
-54.37451527395956
 20
-1.180100782681392
 10
-64.06073886451543
 20
3.970460135698999
 42
0.2418206986979378
 10
-66.80199422768566
 20
4.009347681371309
 10
-76.10868437021713
 20
-0.6056578631105367
 42
-0.2343261328240147
 10
-76.99720154601095
 20
-0.6056578631105367
 10
-86.3357848851732
 20
4.025162893549918
 42
0.2343261328240469
 10
-89.00133641255377
 20
4.025162893549918
 10
-98.33991975171636
 20
-0.6056578631106504
 42
-0.2343261328240553
  0
LWPOLYLINE
  5
312
330
1A
100
AcDbEntity
  8
6
100
AcDbPolyline
 90
       10
 70
     0
 43
0.0
 10
-39.70020276315972
 20
-0.7971646947812588
 10
-53.90502207413317
 20
-0.7971646947811451
 42
-0.1227907796755586
 10
-54.1397686740462
 20
-0.7386327387313259
 10
-63.82599226460206
 20
4.411928179649066
 42
0.2418206986979313
 10
-67.02412352163389
 20
4.457296982933485
 10
-76.33081366416536
 20
-0.1577085615483611
 42
-0.2343261328240752
 10
-76.77507225206273
 20
-0.1577085615483611
 10
-86.11365559122488
 20
4.473112195112094
 42
0.2343261328240394
 10
-89.223465706502
 20
4.473112195112094
 10
-98.56204904566471
 20
-0.1577085615484748
 42
-0.2343261328240224
  0
HATCH
  5
5CB
330
1A
100
AcDbEntity
  8
2
100
AcDbHatch
 10
0.0
 20
0.0
 30
0.0
210
0.0
220
0.0
230
1.0
  2
SOLID
 70
     1
 71
     1
 91
        2
 92
        7
 72
     1
 73
     1
 93
       29
 10
2.213336731360413
 20
25.36684112783632
 42
0.415873846492949
 10
0.1004407448999671
 20
26.48655993448892
 42
0.0
 10
-1.091050087086845
 20
25.6554707336345
 42
-0.9647680298899464
 10
-1.864363299475827
 20
26.19268491088018
 42
0.0
 10
-1.581205881392182
 20
26.84600064730056
 42
0.6694204690004614
 10
-2.011269297693596
 20
27.48594955336626
 42
0.0
 10
-3.831488177781464
 20
27.05903956357974
 42
0.2383059889346768
 10
-4.0
 20
26.77067893941475
 42
0.0
 10
-4.0
 20
26.46497705386333
 42
0.2001309387220775
 10
-3.828345240806355
 20
26.10889236045909
 42
0.0
 10
-3.4976411549424
 20
25.67597237046658
 42
-0.0984306399189497
 10
-3.179660503262311
 20
25.02783291166429
 42
0.0
 10
-3.179660503262311
 20
21.99999999999977
 42
0.0
 10
-3.179660503262311
 20
18.97216708833525
 42
-0.0984306399189501
 10
-3.4976411549424
 20
18.32402762953296
 42
0.0
 10
-3.828345240806355
 20
17.89110763954045
 42
0.2001309387220758
 10
-4.0
 20
17.53502294613621
 42
0.0
 10
-4.0
 20
17.22932106058485
 42
0.2383059889347176
 10
-3.831488177781464
 20
16.94096043642002
 42
0.0
 10
-2.011269297693588
 20
16.51405044663328
 42
0.6345177691905448
 10
-1.581205881392181
 20
17.15399935269897
 42
0.0
 10
-1.853663127208165
 20
17.78129436042149
 42
-0.9846311026449413
 10
-1.091050087086842
 20
18.34452926636504
 42
0.0
 10
0.1004407448999677
 20
17.51344006551062
 42
0.4158738464929492
 10
2.213336731360413
 20
18.63315887216344
 42
0.0
 10
2.249257780868902
 20
20.77563999999984
 42
0.2821744804505975
 10
3.0
 20
21.77086329197384
 42
0.0
 10
3.0
 20
22.22913670802571
 42
0.2821744804505982
 10
2.249257780868902
 20
23.2243599999997
 42
0.0
 97
        3
330
308
330
304
330
30A
 92
       22
 72
     1
 73
     1
 93
       12
 10
-1.612476819171638
 20
23.61724287609121
 42
-0.1629901724820425
 10
-1.03861367905165
 20
24.79137789216588
 42
0.0
 10
0.4704820347242118
 20
25.80481730572204
 42
-0.3581952709156625
 10
1.451504661664785
 20
25.60920440109953
 42
-0.1698680870516618
 10
1.438194332162322
 20
25.01054978608866
 42
0.0517915719561764
 10
1.027147388933029
 20
22.03804402926873
 42
0.0517915719561465
 10
1.537198917017095
 20
19.0809174674599
 42
-0.0587952726232196
 10
1.636888839532729
 20
18.48525886850007
 42
-0.5496470159714372
 10
1.0489256744213
 20
18.26989744524257
 42
0.0
 10
-0.9457976311905403
 20
19.23239253915449
 42
-0.1629901724820858
 10
-1.558538055167929
 20
20.38671533299742
 42
-0.0297520103796791
 10
-1.704040960494697
 20
21.99999999999989
 42
-0.0297520103796811
 97
        1
330
309
 75
     0
 76
     1
 47
0.0295795130389274
 98
        2
 10
-2.185426089539021
 20
23.41379925953177
 10
-2.185426089539021
 20
23.41379925953177
  0
VIEWPORT
  5
22
330
17
100
AcDbEntity
 67
     1
  8
0
100
AcDbViewport
 10
210.0
 20
170.2366863905325
 30
0.0
 40
420.0
 41
340.4733727810651
 68
     1
 69
     1
 12
210.0
 22
170.2366863905325
 13
0.0
 23
0.0
 14
5.0
 24
5.0
 15
10.0
 25
10.0
 16
0.0
 26
0.0
 36
1.0
 17
0.0
 27
0.0
 37
0.0
 42
50.0
 43
0.0
 44
0.0
 45
340.4733727810651
 50
0.0
 51
0.0
 72
   100
 90
    32800
  1

281
     0
 71
     1
 74
     0
110
0.0
120
0.0
130
0.0
111
1.0
121
0.0
131
0.0
112
0.0
122
1.0
132
0.0
 79
     0
146
0.0
  0
ENDSEC
  0
SECTION
  2
OBJECTS
  0
DICTIONARY
  5
C
330
0
100
AcDbDictionary
281
     1
  3
ACAD_GROUP
350
D
  3
ACAD_LAYOUT
350
F4
  3
ACAD_MLINESTYLE
350
E
  3
ACAD_PLOTSETTINGS
350
F5
  3
ACAD_PLOTSTYLENAME
350
F2
  3
AcDbVariableDictionary
350
136
  3
DWGPROPS
350
55B
  0
DICTIONARY
  5
1F6
330
1A
100
AcDbDictionary
280
     1
281
     1
  3
ACAD_LAYOUTSELFREF
360
58B
  3
ACAD_SORTENTS
360
5CC
  0
DICTIONARY
  5
1F4
330
17
100
AcDbDictionary
280
     1
281
     1
  3
ACAD_LAYOUTSELFREF
360
58A
  0
DICTIONARY
  5
D
102
{ACAD_REACTORS
330
C
102
}
330
C
100
AcDbDictionary
281
     1
  0
DICTIONARY
  5
F4
102
{ACAD_REACTORS
330
C
102
}
330
C
100
AcDbDictionary
281
     1
  3
Layout1
350
F7
  3
Model
350
F6
  0
DICTIONARY
  5
E
102
{ACAD_REACTORS
330
C
102
}
330
C
100
AcDbDictionary
281
     1
  3
STANDARD
350
13
  0
DICTIONARY
  5
F5
102
{ACAD_REACTORS
330
C
102
}
330
C
100
AcDbDictionary
281
     1
  3
e Plot 1zu1
350
25C
  3
e Plot angepasst
350
25D
  3
Laser A4
350
25E
  0
ACDBDICTIONARYWDFLT
  5
F2
102
{ACAD_REACTORS
330
C
102
}
330
C
100
AcDbDictionary
281
     1
  3
Normal
350
F3
100
AcDbDictionaryWithDefault
340
F3
  0
DICTIONARY
  5
136
102
{ACAD_REACTORS
330
C
102
}
330
C
100
AcDbDictionary
281
     1
  3
DIMASSOC
350
59A
  3
SORTENTS
350
137
  0
XRECORD
  5
55B
102
{ACAD_REACTORS
330
C
102
}
330
C
100
AcDbXrecord
280
     1
  1
DWGPROPS COOKIE
  2
Datenaufbau HEBGO
  3
Format 14/2000 mit DWF-Format
  4
robert koch cad-support, ch-2540 grenchen
  6
Anpassung für DWF Format und ^M^JZeichnungsvorschau, ^M^Jrobert koch cad-support, ch-2540 grenchen
  7

  8
robert koch
  9

300
=
301
=
302
=
303
=
304
=
305
=
306
=
307
=
308
=
309
=
 40
0.0075545601851852
 41
2451739.895879803
 42
2452087.636493738
  1

 90
        0
  0
XRECORD
  5
58B
102
{ACAD_REACTORS
330
1F6
102
}
330
1F6
100
AcDbXrecord
280
     1
340
1A
  0
SORTENTSTABLE
  5
5CC
102
{ACAD_REACTORS
330
1F6
102
}
330
1F6
100
AcDbSortentsTable
330
1A
331
305
  5
306
331
309
  5
30A
331
30E
  5
30F
331
308
  5
309
331
304
  5
305
331
2FE
  5
301
331
30D
  5
30E
331
312
  5
5CB
331
303
  5
304
331
25B
  5
2FD
331
30C
  5
30D
331
2FD
  5
25B
331
302
  5
303
331
311
  5
312
331
30B
  5
30C
331
2FC
  5
2FE
331
301
  5
302
331
310
  5
311
331
30A
  5
30B
331
306
  5
308
331
5CB
  5
2FC
331
30F
  5
310
  0
XRECORD
  5
58A
102
{ACAD_REACTORS
330
1F4
102
}
330
1F4
100
AcDbXrecord
280
     1
340
17
  0
LAYOUT
  5
F7
102
{ACAD_REACTORS
330
F4
102
}
330
F4
100
AcDbPlotSettings
  1

  2
D:\AC2000\ACAD2000\plotters\DesignJet 650C test A3.pc3
  4

  6

 40
0.0
 41
0.0
 42
0.0
 43
0.0
 44
0.0
 45
0.0
 46
0.0
 47
0.0
 48
0.0
 49
0.0
140
0.0
141
0.0
142
1.0
143
1.0
 70
   688
 72
     0
 73
     0
 74
     5
  7
Hebgo Laser.ctb
 75
    16
147
1.0
148
0.0
149
0.0
100
AcDbLayout
  1
Layout1
 70
     1
 71
     1
 10
0.0
 20
0.0
 11
420.0
 21
297.0
 12
0.0
 22
0.0
 32
0.0
 14
1.000000000000000E+20
 24
1.000000000000000E+20
 34
1.000000000000000E+20
 15
-1.000000000000000E+20
 25
-1.000000000000000E+20
 35
-1.000000000000000E+20
146
0.0
 13
0.0
 23
0.0
 33
0.0
 16
1.0
 26
0.0
 36
0.0
 17
0.0
 27
1.0
 37
0.0
 76
     0
330
17
331
22
  0
LAYOUT
  5
F6
102
{ACAD_REACTORS
330
F4
102
}
330
F4
100
AcDbPlotSettings
  1

  2
2 Xerox N24.pc3
  4
A4
  6

 40
7.143749713897705
 41
6.170062541961669
 42
7.736404418945312
 43
7.14373779296875
 44
209.9733276367187
 45
296.9683227539062
 46
42.93999999999999
 47
25.1
 48
0.0
 49
0.0
140
0.0
141
0.0
142
1.0
143
0.5
 70
 28324
 72
     1
 73
     1
 74
     1
  7
Hebgo Laser.ctb
 75
     0
147
2.0
148
98.78539963251137
149
7.850646108680621
100
AcDbLayout
  1
Model
 70
     1
 71
     0
 10
0.0
 20
0.0
 11
12.0
 21
9.0
 12
0.0
 22
0.0
 32
0.0
 14
0.0
 24
0.0
 34
0.0
 15
0.0
 25
0.0
 35
0.0
146
0.0
 13
0.0
 23
0.0
 33
0.0
 16
1.0
 26
0.0
 36
0.0
 17
0.0
 27
1.0
 37
0.0
 76
     0
330
1A
  0
MLINESTYLE
  5
13
102
{ACAD_REACTORS
330
E
102
}
330
E
100
AcDbMlineStyle
  2
STANDARD
 70
     0
  3

 62
     0
 51
90.0
 52
90.0
 71
     2
 49
0.5
 62
   256
  6
BYLAYER
 49
-0.5
 62
   256
  6
BYLAYER
  0
PLOTSETTINGS
  5
25C
102
{ACAD_REACTORS
330
F5
102
}
330
F5
100
AcDbPlotSettings
  1
e Plot 1zu1
  2
DWF ePlot.pc3
  4
UserDefinedMetric (210.00 x 297.00MM)
  6

 40
13.0
 41
13.0
 42
13.0
 43
13.0
 44
210.0
 45
297.0
 46
58.27
 47
107.6999999999999
 48
0.0
 49
0.0
140
0.0
141
0.0
142
1.0
143
1.0
 70
  1716
 72
     1
 73
     0
 74
     1
  7
OPO_DWF.ctb
 75
    16
147
1.0
148
17.16613684218157
149
24.55902015156925
  0
PLOTSETTINGS
  5
25D
102
{ACAD_REACTORS
330
F5
102
}
330
F5
100
AcDbPlotSettings
  1
e Plot angepasst
  2
DWF ePlot.pc3
  4
UserDefinedMetric (210.00 x 297.00MM)
  6

 40
13.0
 41
13.0
 42
13.0
 43
13.0
 44
210.0
 45
297.0
 46
0.0
 47
59.67
 48
0.0
 49
0.0
140
0.0
141
0.0
142
1.0
143
0.3665841129351039
 70
  1716
 72
     1
 73
     0
 74
     1
  7
OPO_DWF.ctb
 75
     0
147
2.727886901571834
148
17.16613684218157
149
24.55902015156925
  0
PLOTSETTINGS
  5
25E
102
{ACAD_REACTORS
330
F5
102
}
330
F5
100
AcDbPlotSettings
  1
Laser A4
  2
4 Xerox XL.pc3
  4
A4
  6

 40
5.111750125885009
 41
5.11176061630249
 42
5.111740112304687
 43
5.11175537109375
 44
209.9733276367187
 45
296.9259948730469
 46
0.0
 47
43.47999999999999
 48
0.0
 49
0.0
140
0.0
141
0.0
142
1.0
143
0.020166824766453
 70
  1716
 72
     1
 73
     0
 74
     1
  7
OPO.ctb
 75
     0
147
49.58638811913882
148
2.014159285479877
149
2.014159285479877
  0
ACDBPLACEHOLDER
  5
F3
102
{ACAD_REACTORS
330
F2
102
}
330
F2
  0
DICTIONARYVAR
  5
59A
102
{ACAD_REACTORS
330
136
102
}
330
136
100
DictionaryVariables
280
     0
  1
1
  0
DICTIONARYVAR
  5
137
102
{ACAD_REACTORS
330
136
102
}
330
136
100
DictionaryVariables
280
     0
  1
127
  0
ENDSEC
  0
EOF
