  0
SECTION
  2
HEADER
  9
$ACADVER
  1
AC1009
  9
$INSBASE
 10
0.0
 20
0.0
 30
0.0
  9
$EXTMIN
 10
-88.806151574019054
 20
-12.931822872408359
 30
-0.000000000000013
  9
$EXTMAX
 10
17.944336482258901
 20
56.762695902449423
 30
0.0000000000000023
  9
$LIMMIN
 10
-150.0
 20
-150.0
  9
$LIMMAX
 10
150.0
 20
150.0
  9
$ORTHOMODE
 70
     0
  9
$REGENMODE
 70
     1
  9
$FILLMODE
 70
     1
  9
$QTEXTMODE
 70
     0
  9
$MIRRTEXT
 70
     0
  9
$DRAGMODE
 70
     2
  9
$LTSCALE
 40
1.0
  9
$OSMODE
 70
   111
  9
$ATTMODE
 70
     1
  9
$TEXTSIZE
 40
3.5
  9
$TRACEWID
 40
1.0
  9
$TEXTSTYLE
  7
BESCHLAG
  9
$CLAYER
  8
0
  9
$CELTYPE
  6
BYLAYER
  9
$CECOLOR
 62
   256
  9
$DIMSCALE
 40
1.0
  9
$DIMASZ
 40
2.0
  9
$DIMEXO
 40
2.0
  9
$DIMDLI
 40
0.0
  9
$DIMRND
 40
0.0
  9
$DIMDLE
 40
1.0
  9
$DIMEXE
 40
1.0
  9
$DIMTP
 40
0.0
  9
$DIMTM
 40
0.0
  9
$DIMTXT
 40
3.5
  9
$DIMCEN
 40
0.0
  9
$DIMTSZ
 40
0.0
  9
$DIMTOL
 70
     0
  9
$DIMLIM
 70
     0
  9
$DIMTIH
 70
     0
  9
$DIMTOH
 70
     0
  9
$DIMSE1
 70
     0
  9
$DIMSE2
 70
     0
  9
$DIMTAD
 70
     1
  9
$DIMZIN
 70
     8
  9
$DIMBLK
  1

  9
$DIMASO
 70
     1
  9
$DIMSHO
 70
     1
  9
$DIMPOST
  1

  9
$DIMAPOST
  1

  9
$DIMALT
 70
     0
  9
$DIMALTD
 70
     2
  9
$DIMALTF
 40
0.039370078740157
  9
$DIMLFAC
 40
1.0
  9
$DIMTOFL
 70
     1
  9
$DIMTVP
 40
0.0
  9
$DIMTIX
 70
     1
  9
$DIMSOXD
 70
     0
  9
$DIMSAH
 70
     1
  9
$DIMBLK1
  1
OBLIQUE
  9
$DIMBLK2
  1
OBLIQUE
  9
$DIMSTYLE
  2
OPO-SSTRICH
  9
$DIMCLRD
 70
   256
  9
$DIMCLRE
 70
   256
  9
$DIMCLRT
 70
   256
  9
$DIMTFAC
 40
0.7114285714285716
  9
$DIMGAP
 40
1.0
  9
$LUNITS
 70
     2
  9
$LUPREC
 70
     1
  9
$SKETCHINC
 40
1.0
  9
$FILLETRAD
 40
0.0
  9
$AUNITS
 70
     0
  9
$AUPREC
 70
     1
  9
$MENU
  1
D:\ACL_CGWG\CGTAB13
  9
$ELEVATION
 40
0.0
  9
$PELEVATION
 40
0.0
  9
$THICKNESS
 40
0.0
  9
$LIMCHECK
 70
     0
  9
$BLIPMODE
 70
     0
  9
$CHAMFERA
 40
1.0
  9
$CHAMFERB
 40
1.0
  9
$SKPOLY
 70
     0
  9
$TDCREATE
 40
2451739.8942979509
  9
$TDUPDATE
 40
2452087.6303072912
  9
$TDINDWG
 40
0.0021324884
  9
$TDUSRTIMER
 40
0.0021323148
  9
$USRTIMER
 70
     1
  9
$ANGBASE
 50
0.0
  9
$ANGDIR
 70
     0
  9
$PDMODE
 70
    35
  9
$PDSIZE
 40
5.0
  9
$PLINEWID
 40
0.0
  9
$COORDS
 70
     1
  9
$SPLFRAME
 70
     0
  9
$SPLINETYPE
 70
     6
  9
$SPLINESEGS
 70
     8
  9
$ATTDIA
 70
     1
  9
$ATTREQ
 70
     1
  9
$HANDLING
 70
-16383
  9
$HANDSEED
  5
572
  9
$SURFTAB1
 70
    12
  9
$SURFTAB2
 70
    12
  9
$SURFTYPE
 70
     6
  9
$SURFU
 70
    12
  9
$SURFV
 70
    12
  9
$UCSNAME
  2

  9
$UCSORG
 10
0.0
 20
0.0
 30
0.0
  9
$UCSXDIR
 10
1.0
 20
0.0
 30
0.0
  9
$UCSYDIR
 10
0.0
 20
1.0
 30
0.0
  9
$PUCSNAME
  2

  9
$PUCSORG
 10
0.0
 20
0.0
 30
0.0
  9
$PUCSXDIR
 10
1.0
 20
0.0
 30
0.0
  9
$PUCSYDIR
 10
0.0
 20
1.0
 30
0.0
  9
$USERI1
 70
     0
  9
$USERI2
 70
     0
  9
$USERI3
 70
     0
  9
$USERI4
 70
     0
  9
$USERI5
 70
     0
  9
$USERR1
 40
0.0
  9
$USERR2
 40
0.0
  9
$USERR3
 40
0.0
  9
$USERR4
 40
0.0
  9
$USERR5
 40
0.0
  9
$WORLDVIEW
 70
     1
  9
$SHADEDGE
 70
     3
  9
$SHADEDIF
 70
    70
  9
$TILEMODE
 70
     1
  9
$MAXACTVP
 70
    48
  9
$PLIMCHECK
 70
     0
  9
$PEXTMIN
 10
1.0000000000000000E+020
 20
1.0000000000000000E+020
 30
1.0000000000000000E+020
  9
$PEXTMAX
 10
-1.0000000000000000E+020
 20
-1.0000000000000000E+020
 30
-1.0000000000000000E+020
  9
$PLIMMIN
 10
0.0
 20
0.0
  9
$PLIMMAX
 10
420.0
 20
297.0
  9
$UNITMODE
 70
     0
  9
$VISRETAIN
 70
     1
  9
$PLINEGEN
 70
     0
  9
$PSLTSCALE
 70
     1
  0
ENDSEC
  0
SECTION
  2
TABLES
  0
TABLE
  2
VPORT
 70
     2
  0
VPORT
  2
*ACTIVE
 70
     0
 10
0.0
 20
0.0
 11
1.0
 21
1.0
 12
-35.430907545880068
 22
21.91543651502052
 13
0.0
 23
0.0
 14
0.5
 24
0.5
 15
10.0
 25
10.0
 16
0.0
 26
0.0
 36
1.0
 17
0.0
 27
0.0
 37
0.0
 40
70.260374137035242
 41
1.6070460704607039
 42
50.0
 43
0.0
 44
0.0
 50
0.0
 51
0.0
 71
     0
 72
   800
 73
     1
 74
     1
 75
     0
 76
     0
 77
     0
 78
     0
  0
ENDTAB
  0
TABLE
  2
LTYPE
 70
     1
  0
LTYPE
  2
CONTINUOUS
 70
     0
  3
_______________________________________________
 72
    65
 73
     2
 40
1.0
 49
1.0
 49
0.0
  0
ENDTAB
  0
TABLE
  2
LAYER
 70
     7
  0
LAYER
  2
0
 70
     0
 62
    30
  6
CONTINUOUS
  0
LAYER
  2
1
 70
     0
 62
     2
  6
CONTINUOUS
  0
LAYER
  2
2
 70
     0
 62
     9
  6
CONTINUOUS
  0
LAYER
  2
4
 70
     1
 62
     4
  6
CONTINUOUS
  0
LAYER
  2
5
 70
     0
 62
     1
  6
CONTINUOUS
  0
LAYER
  2
6
 70
     0
 62
     3
  6
CONTINUOUS
  0
LAYER
  2
DEFPOINTS
 70
     0
 62
     7
  6
CONTINUOUS
  0
ENDTAB
  0
TABLE
  2
STYLE
 70
     2
  0
STYLE
  2
STANDARD
 70
     0
 40
0.0
 41
1.0
 50
0.0
 71
     0
 42
2.5
  3
txt
  4

  0
STYLE
  2
BESCHLAG
 70
     0
 40
0.0
 41
1.0
 50
0.0
 71
     0
 42
3.5
  3
txt
  4

  0
ENDTAB
  0
TABLE
  2
VIEW
 70
     0
  0
ENDTAB
  0
TABLE
  2
UCS
 70
     0
  0
ENDTAB
  0
TABLE
  2
APPID
 70
     1
  0
APPID
  2
ACAD
 70
     0
  0
ENDTAB
  0
TABLE
  2
DIMSTYLE
 70
     1
  0
DIMSTYLE
  2
OPO-SSTRICH
 70
     0
  3

  4

  5

  6
OBLIQUE
  7
OBLIQUE
 40
1.0
 41
2.0
 42
2.0
 43
0.0
 44
1.0
 45
0.0
 46
1.0
 47
0.0
 48
0.0
140
3.5
141
0.0
142
0.0
143
0.039370078740157
144
1.0
145
0.0
146
0.7114285714285716
147
1.0
 71
     0
 72
     0
 73
     0
 74
     0
 75
     0
 76
     0
 77
     1
 78
     8
170
     0
171
     2
172
     1
173
     1
174
     1
175
     0
176
   256
177
   256
178
   256
  0
ENDTAB
  0
ENDSEC
  0
SECTION
  2
BLOCKS
  0
BLOCK
  8
0
  2
$MODEL_SPACE
 70
     0
 10
0.0
 20
0.0
 30
0.0
  3
$MODEL_SPACE
  1

  0
ENDBLK
  5
1C
  8
0
  0
BLOCK
 67
     1
  8
0
  2
$PAPER_SPACE
 70
     0
 10
0.0
 20
0.0
 30
0.0
  3
$PAPER_SPACE
  1

  0
ENDBLK
  5
19
 67
     1
  8
0
  0
BLOCK
  8
0
  2
_OBLIQUE
 70
     0
 10
0.0
 20
0.0
 30
0.0
  3
_OBLIQUE
  1

  0
LINE
  5
204
  8
0
 62
     0
 10
-0.5
 20
-0.5
 30
0.0
 11
0.5
 21
0.5
 31
0.0
  0
ENDBLK
  5
206
  8
0
  0
BLOCK
  8
0
  2
NULLPUNKT
 70
     0
 10
0.0
 20
0.0
 30
0.0
  3
NULLPUNKT
  1

  0
SOLID
  5
254
  8
5
 10
0.0
 20
0.0
 30
0.0
 11
2.0
 21
0.0
 31
0.0
 12
0.0
 22
-2.0
 32
0.0
 13
0.0
 23
-2.0
 33
0.0
  0
SOLID
  5
255
  8
5
 10
0.0
 20
0.0
 30
0.0
 11
-2.0
 21
0.0
 31
0.0
 12
0.0
 22
2.0
 32
0.0
 13
0.0
 23
2.0
 33
0.0
  0
POLYLINE
  5
256
  8
5
 66
     1
 10
0.0
 20
0.0
 30
0.0
  0
VERTEX
  5
492
  8
5
 10
0.0
 20
2.0
 30
0.0
  0
VERTEX
  5
493
  8
5
 10
0.0
 20
-2.0
 30
0.0
  0
SEQEND
  5
494
  8
5
  0
POLYLINE
  5
257
  8
5
 66
     1
 10
0.0
 20
0.0
 30
0.0
  0
VERTEX
  5
495
  8
5
 10
-2.0
 20
0.0
 30
0.0
  0
VERTEX
  5
496
  8
5
 10
2.0
 20
0.0
 30
0.0
  0
SEQEND
  5
497
  8
5
  0
CIRCLE
  5
258
  8
5
 10
0.0
 20
0.0
 30
0.0
 40
2.0
  0
ENDBLK
  5
25A
  8
0
  0
BLOCK
  8
0
  2
*X2
 70
     1
 10
0.0
 20
0.0
 30
0.0
  3
*X2
  1

  0
LINE
  5
29E
  8
0
 62
     0
 10
847.93922877842465
 20
-616.620336415152
 30
0.0
 11
849.11516103137762
 21
-615.44440416219925
 31
0.0
  0
LINE
  5
29F
  8
0
 62
     0
 10
871.43922877842465
 20
-593.12033641515211
 30
0.0
 11
873.93922877842465
 21
-590.62033641515211
 31
0.0
  0
LINE
  5
2A0
  8
0
 62
     0
 10
871.43922877842465
 20
-591.42328014030466
 30
0.0
 11
873.93922877842465
 21
-588.92328014030466
 31
0.0
  0
LINE
  5
2A1
  8
0
 62
     0
 10
876.91810475653017
 20
-585.94440416219925
 30
0.0
 11
877.93922877842488
 21
-584.92328014030466
 31
0.0
  0
LINE
  5
2A2
  8
0
 62
     0
 10
871.43922877842465
 20
-589.72622386545686
 30
0.0
 11
873.93922877842465
 21
-587.22622386545686
 31
0.0
  0
LINE
  5
2A3
  8
0
 62
     0
 10
876.53922877842456
 20
-584.62622386545695
 30
0.0
 11
877.93922877842488
 21
-583.22622386545686
 31
0.0
  0
LINE
  5
2A4
  8
0
 62
     0
 10
871.43922877842465
 20
-588.02916759060906
 30
0.0
 11
873.93922877842465
 21
-585.52916759060918
 31
0.0
  0
LINE
  5
2A5
  8
0
 62
     0
 10
875.52399220683458
 20
-583.94440416219925
 30
0.0
 11
877.52399220683458
 21
-581.94440416219925
 31
0.0
  0
LINE
  5
2A6
  8
0
 62
     0
 10
871.43922877842465
 20
-586.33211131576127
 30
0.0
 11
875.82693593198678
 21
-581.94440416219925
 31
0.0
  0
LINE
  5
2A7
  8
0
 62
     0
 10
871.43922877842465
 20
-584.63505504091358
 30
0.0
 11
874.12987965713899
 21
-581.94440416219925
 31
0.0
  0
LINE
  5
2A8
  8
0
 62
     0
 10
871.43922877842465
 20
-582.93799876606613
 30
0.0
 11
872.43282338229142
 21
-581.94440416219925
 31
0.0
  0
LINE
  5
2A9
  8
0
 62
     0
 10
847.93922877842465
 20
-618.31739268999968
 30
0.0
 11
850.81221730622565
 21
-615.44440416219925
 31
0.0
  0
LINE
  5
2AA
  8
0
 62
     0
 10
871.43922877842465
 20
-594.81739268999991
 30
0.0
 11
873.93922877842465
 21
-592.31739268999979
 31
0.0
  0
LINE
  5
2AB
  8
0
 62
     0
 10
847.93922877842465
 20
-620.01444896484759
 30
0.0
 11
852.50927358107344
 21
-615.44440416219925
 31
0.0
  0
LINE
  5
2AC
  8
0
 62
     0
 10
871.43922877842465
 20
-596.51444896484759
 30
0.0
 11
873.93922877842465
 21
-594.0144489648477
 31
0.0
  0
LINE
  5
2AD
  8
0
 62
     0
 10
847.93922877842465
 20
-621.71150523969538
 30
0.0
 11
849.93922877842476
 21
-619.7115052396955
 31
0.0
  0
LINE
  5
2AE
  8
0
 62
     0
 10
872.07277931717294
 20
-597.57795470094732
 30
0.0
 11
873.93922877842465
 21
-595.7115052396955
 31
0.0
  0
LINE
  5
2AF
  8
0
 62
     0
 10
851.7063298559209
 20
-617.94440416219936
 30
0.0
 11
854.20632985592113
 21
-615.44440416219925
 31
0.0
  0
LINE
  5
2B0
  8
0
 62
     0
 10
849.40338613076881
 20
-621.94440416219925
 30
0.0
 11
850.8033861307689
 21
-620.54440416219916
 31
0.0
  0
LINE
  5
2B1
  8
0
 62
     0
 10
876.53922877842456
 20
-594.80856151454327
 30
0.0
 11
877.32569125954797
 21
-594.02209903342009
 31
0.0
  0
LINE
  5
2B2
  8
0
 62
     0
 10
853.40338613076892
 20
-617.94440416219936
 30
0.0
 11
855.67130745432155
 21
-615.67648283864651
 31
0.0
  0
LINE
  5
2B3
  8
0
 62
     0
 10
872.92130745459667
 20
-598.42648283837127
 30
0.0
 11
875.40338613076881
 21
-595.94440416219925
 31
0.0
  0
LINE
  5
2B4
  8
0
 62
     0
 10
851.11623216282965
 20
-621.92861440498575
 30
0.0
 11
851.92343902121115
 21
-621.12140754660425
 31
0.0
  0
LINE
  5
2B5
  8
0
 62
     0
 10
873.76983559202051
 20
-599.275010975795
 30
0.0
 11
877.93922877842465
 21
-595.10561778939075
 31
0.0
  0
LINE
  5
2B6
  8
0
 62
     0
 10
855.10044240561626
 20
-617.94440416219936
 30
0.0
 11
857.60044240561615
 21
-615.44440416219913
 31
0.0
  0
LINE
  5
2B7
  8
0
 62
     0
 10
856.79749868046406
 20
-617.94440416219936
 30
0.0
 11
859.29749868046395
 21
-615.44440416219913
 31
0.0
  0
LINE
  5
2B8
  8
0
 62
     0
 10
874.61836372944435
 20
-600.12353911321884
 30
0.0
 11
877.93922877842465
 21
-596.80267406423854
 31
0.0
  0
LINE
  5
2B9
  8
0
 62
     0
 10
858.49455495531186
 20
-617.94440416219936
 30
0.0
 11
860.99455495531174
 21
-615.44440416219913
 31
0.0
  0
LINE
  5
2BA
  8
0
 62
     0
 10
874.63922877842458
 20
-601.7997303390863
 30
0.0
 11
877.93922877842465
 21
-598.49973033908634
 31
0.0
  0
LINE
  5
2BB
  8
0
 62
     0
 10
860.19161123015965
 20
-617.94440416219936
 30
0.0
 11
862.69161123015954
 21
-615.44440416219913
 31
0.0
  0
LINE
  5
2BC
  8
0
 62
     0
 10
874.63922877842458
 20
-603.4967866139342
 30
0.0
 11
877.93922877842465
 21
-600.19678661393414
 31
0.0
  0
LINE
  5
2BD
  8
0
 62
     0
 10
861.85309155463915
 20
-617.97998011256743
 30
0.0
 11
863.66394814171599
 21
-616.16912352549059
 31
0.0
  0
LINE
  5
2BE
  8
0
 62
     0
 10
874.63922877842458
 20
-605.193842888782
 30
0.0
 11
877.93922877842465
 21
-601.89384288878182
 31
0.0
  0
LINE
  5
2BF
  8
0
 62
     0
 10
860.07781683530175
 20
-621.45231110675218
 30
0.0
 11
860.98572377985477
 21
-620.54440416219916
 31
0.0
  0
LINE
  5
2C0
  8
0
 62
     0
 10
874.63922877842458
 20
-606.89089916362946
 30
0.0
 11
877.93922877842465
 21
-603.59089916362927
 31
0.0
  0
LINE
  5
2C1
  8
0
 62
     0
 10
861.93922877842465
 20
-619.59089916362927
 30
0.0
 11
864.51247627913983
 21
-617.01765166291432
 31
0.0
  0
LINE
  5
2C2
  8
0
 62
     0
 10
861.28278005470247
 20
-621.94440416219925
 30
0.0
 11
865.36100441656356
 21
-617.86617980033805
 31
0.0
  0
LINE
  5
2C3
  8
0
 62
     0
 10
874.63922877842458
 20
-608.58795543847725
 30
0.0
 11
877.93922877842465
 21
-605.28795543847696
 31
0.0
  0
LINE
  5
2C4
  8
0
 62
     0
 10
862.97983632955038
 20
-621.94440416219925
 30
0.0
 11
866.27983632955045
 21
-618.64440416219907
 31
0.0
  0
LINE
  5
2C5
  8
0
 62
     0
 10
874.63922877842458
 20
-610.28501171332493
 30
0.0
 11
877.93922877842465
 21
-606.98501171332475
 31
0.0
  0
LINE
  5
2C6
  8
0
 62
     0
 10
864.67689260439795
 20
-621.94440416219925
 30
0.0
 11
867.97689260439824
 21
-618.64440416219907
 31
0.0
  0
LINE
  5
2C7
  8
0
 62
     0
 10
874.63922877842458
 20
-611.98206798817273
 30
0.0
 11
877.93922877842465
 21
-608.68206798817255
 31
0.0
  0
LINE
  5
2C8
  8
0
 62
     0
 10
866.37394887924575
 20
-621.94440416219925
 30
0.0
 11
869.67394887924593
 21
-618.64440416219907
 31
0.0
  0
LINE
  5
2C9
  8
0
 62
     0
 10
874.63922877842458
 20
-613.67912426302053
 30
0.0
 11
877.93922877842465
 21
-610.37912426302046
 31
0.0
  0
LINE
  5
2CA
  8
0
 62
     0
 10
868.0710051540932
 20
-621.94440416219925
 30
0.0
 11
871.3710051540935
 21
-618.64440416219907
 31
0.0
  0
LINE
  5
2CB
  8
0
 62
     0
 10
874.63922877842458
 20
-615.37618053786787
 30
0.0
 11
877.93922877842465
 21
-612.07618053786791
 31
0.0
  0
LINE
  5
2CC
  8
0
 62
     0
 10
869.768061428941
 20
-621.94440416219925
 30
0.0
 11
877.93922877842465
 21
-613.7732368127156
 31
0.0
  0
LINE
  5
2CD
  8
0
 62
     0
 10
871.46511770378902
 20
-621.94440416219925
 30
0.0
 11
877.93922877842465
 21
-615.4702930875635
 31
0.0
  0
LINE
  5
2CE
  8
0
 62
     0
 10
873.1621739786367
 20
-621.94440416219925
 30
0.0
 11
877.93922877842465
 21
-617.16734936241119
 31
0.0
  0
LINE
  5
2CF
  8
0
 62
     0
 10
874.8592302534845
 20
-621.94440416219925
 30
0.0
 11
877.93922877842465
 21
-618.86440563725898
 31
0.0
  0
LINE
  5
2D0
  8
0
 62
     0
 10
876.55628652833195
 20
-621.94440416219925
 30
0.0
 11
877.93922877842465
 21
-620.56146191210644
 31
0.0
  0
ENDBLK
  5
2D2
  8
0
  0
BLOCK
  8
0
  2
*D3
 70
     1
 10
0.0
 20
0.0
 30
0.0
  3
*D3
  1

  0
LINE
  5
336
  8
1
 10
0.0000000000000001
 20
41.999999999998863
 30
0.0
 11
0.0000000000000008
 21
52.264258194860531
 31
0.0
  0
LINE
  5
337
  8
1
 10
3.0000000000004539
 20
41.999999999998863
 30
0.0
 11
3.0000000000004552
 21
52.264258194860531
 31
0.0
  0
LINE
  5
338
  8
1
 10
0.0000000000000007
 20
51.264258194860531
 30
0.0
 11
-1.9999999999999989
 21
51.264258194860531
 31
0.0
  0
LINE
  5
339
  8
1
 10
3.0000000000004552
 20
51.264258194860531
 30
0.0
 11
5.0000000000004547
 21
51.264258194860531
 31
0.0
  0
LINE
  5
33A
  8
1
 10
0.0000000000000007
 20
51.264258194860531
 30
0.0
 11
3.0000000000004552
 21
51.264258194860531
 31
0.0
  0
INSERT
  5
33B
  8
1
  2
_OBLIQUE
 10
0.0000000000000007
 20
51.264258194860531
 30
0.0
 41
2.0
 42
2.0
 43
2.0
  0
INSERT
  5
33C
  8
1
  2
_OBLIQUE
 10
3.0000000000004552
 20
51.264258194860531
 30
0.0
 41
2.0
 42
2.0
 43
2.0
 50
180.0
  0
TEXT
  5
33D
  8
0
 10
0.1487039563440212
 20
52.33349421123161
 30
0.0
 40
3.5
  1
3
  7
BESCHLAG
  0
POINT
  5
33E
  8
DEFPOINTS
 62
     0
 10
0.0
 20
39.999999999998863
 30
0.0
  0
POINT
  5
33F
  8
DEFPOINTS
 62
     0
 10
3.0000000000004539
 20
39.999999999998863
 30
0.0
  0
POINT
  5
340
  8
DEFPOINTS
 62
     0
 10
3.0000000000004552
 20
51.264258194860531
 30
0.0
  0
ENDBLK
  5
311
  8
0
  0
BLOCK
  8
0
  2
*D4
 70
     1
 10
0.0
 20
0.0
 30
0.0
  3
*D4
  1

  0
LINE
  5
341
  8
1
 10
0.0000000000000001
 20
42.0
 30
0.0
 11
0.0000000000000008
 21
52.264258194860759
 31
0.0
  0
LINE
  5
342
  8
1
 10
-7.0
 20
42.0
 30
0.0
 11
-6.9999999999999991
 21
52.264258194860759
 31
0.0
  0
LINE
  5
343
  8
1
 10
1.0
 20
51.264258194860759
 30
0.0
 11
-7.9999999999999991
 21
51.264258194860759
 31
0.0
  0
INSERT
  5
344
  8
1
  2
_OBLIQUE
 10
0.0000000000000007
 20
51.264258194860759
 30
0.0
 41
2.0
 42
2.0
 43
2.0
  0
INSERT
  5
345
  8
1
  2
_OBLIQUE
 10
-6.9999999999999991
 20
51.264258194860759
 30
0.0
 41
2.0
 42
2.0
 43
2.0
 50
180.0
  0
TEXT
  5
346
  8
0
 10
-4.8644270122783082
 20
52.264258194860759
 30
0.0
 40
3.5
  1
7
  7
BESCHLAG
  0
POINT
  5
347
  8
DEFPOINTS
 62
     0
 10
0.0
 20
40.0
 30
0.0
  0
POINT
  5
348
  8
DEFPOINTS
 62
     0
 10
-7.0
 20
40.0
 30
0.0
  0
POINT
  5
349
  8
DEFPOINTS
 62
     0
 10
-6.9999999999999991
 20
51.264258194860759
 30
0.0
  0
ENDBLK
  5
31D
  8
0
  0
BLOCK
  8
0
  2
*D5
 70
     1
 10
0.0
 20
0.0
 30
0.0
  3
*D5
  1

  0
LINE
  5
34A
  8
1
 10
-30.0
 20
-2.0
 30
0.0
 11
-30.0
 21
-12.92523463458042
 31
0.0
  0
LINE
  5
34B
  8
1
 10
-0.0000000000000001
 20
-2.0
 30
0.0
 11
-0.0000000000000008
 21
-12.92523463458042
 31
0.0
  0
LINE
  5
34C
  8
1
 10
-31.0
 20
-11.925234634580409
 30
0.0
 11
0.9999999999999992
 21
-11.925234634580409
 31
0.0
  0
INSERT
  5
34D
  8
1
  2
_OBLIQUE
 10
-30.0
 20
-11.925234634580409
 30
0.0
 41
2.0
 42
2.0
 43
2.0
 50
180.0
  0
INSERT
  5
34E
  8
1
  2
_OBLIQUE
 10
-0.0000000000000007
 20
-11.925234634580409
 30
0.0
 41
2.0
 42
2.0
 43
2.0
  0
TEXT
  5
34F
  8
0
 10
-17.704979536152791
 20
-10.855998618209339
 30
0.0
 40
3.5
  1
30
  7
BESCHLAG
  0
POINT
  5
350
  8
DEFPOINTS
 62
     0
 10
-30.0
 20
0.0
 30
0.0
  0
POINT
  5
351
  8
DEFPOINTS
 62
     0
 10
0.0
 20
0.0
 30
0.0
  0
POINT
  5
352
  8
DEFPOINTS
 62
     0
 10
-0.0000000000000007
 20
-11.925234634580409
 30
0.0
  0
ENDBLK
  5
329
  8
0
  0
BLOCK
  8
0
  2
*D6
 70
     1
 10
0.0
 20
0.0
 30
0.0
  3
*D6
  1

  0
LINE
  5
353
  8
1
 10
-2.0
 20
0.0000000000000006
 30
0.0
 11
-20.10846832030121
 21
0.0000000000000057
 31
0.0
  0
LINE
  5
354
  8
1
 10
-8.5
 20
40.0
 30
0.0
 11
-20.108468320301188
 21
40.0
 31
0.0
  0
LINE
  5
355
  8
1
 10
-19.108468320301199
 20
-0.9999999999999945
 30
0.0
 11
-19.108468320301188
 21
41.0
 31
0.0
  0
INSERT
  5
356
  8
1
  2
_OBLIQUE
 10
-19.108468320301199
 20
0.0000000000000054
 30
0.0
 41
2.0
 42
2.0
 43
2.0
 50
270.0
  0
INSERT
  5
357
  8
1
  2
_OBLIQUE
 10
-19.108468320301188
 20
40.0
 30
0.0
 41
2.0
 42
2.0
 43
2.0
 50
90.0
  0
TEXT
  5
358
  8
0
 10
-20.175316887831901
 20
17.366643929058661
 30
0.0
 40
3.5
  1
40
 50
90.0
  7
BESCHLAG
  0
POINT
  5
359
  8
DEFPOINTS
 62
     0
 10
0.0
 20
0.0
 30
0.0
  0
POINT
  5
35A
  8
DEFPOINTS
 62
     0
 10
-6.5
 20
40.0
 30
0.0
  0
POINT
  5
35B
  8
DEFPOINTS
 62
     0
 10
-19.108468320301188
 20
40.0
 30
0.0
  0
ENDBLK
  5
335
  8
0
  0
ENDSEC
  0
SECTION
  2
ENTITIES
  0
INSERT
  5
25B
  8
5
  2
NULLPUNKT
 10
0.0
 20
0.0
 30
0.0
  0
POLYLINE
  5
2EE
  8
6
 66
     1
 10
0.0
 20
0.0
 30
0.0
  0
VERTEX
  5
498
  8
6
 10
-16.5
 20
2.200000000000045
 30
0.0
  0
VERTEX
  5
499
  8
6
 10
-23.17818298123586
 20
2.200000000000045
 30
0.0
 42
0.3110176465481184
  0
VERTEX
  5
49A
  8
6
 10
-23.645305334851059
 20
1.8783163106375009
 30
0.0
  0
VERTEX
  5
49B
  8
6
 10
-24.896540928796409
 20
-0.6430018983962782
 30
0.0
 42
-0.2913835292343037
  0
VERTEX
  5
49C
  8
6
 10
-26.708876279931129
 20
-1.7971646947812581
 30
0.0
  0
VERTEX
  5
49D
  8
6
 10
-29.75020276315945
 20
-1.7971646947812581
 30
0.0
 42
-0.4142135623730951
  0
VERTEX
  5
49E
  8
6
 10
-31.75020276315945
 20
0.2028353052187413
 30
0.0
  0
VERTEX
  5
49F
  8
6
 10
-31.75020276315945
 20
6.0249982567686402
 30
0.0
 42
-0.184995633674859
  0
VERTEX
  5
4A0
  8
6
 10
-31.238268458549889
 20
7.3612843362778904
 30
0.0
  0
VERTEX
  5
4A1
  8
6
 10
-29.186019199366001
 20
9.1916041852488206
 30
0.0
  0
SEQEND
  5
4A2
  8
6
  0
POLYLINE
  5
2EF
  8
6
 66
     1
 10
0.0
 20
0.0
 30
0.0
  0
VERTEX
  5
4A3
  8
6
 10
-16.5
 20
2.700000000000045
 30
0.0
  0
VERTEX
  5
4A4
  8
6
 10
-23.17818298123575
 20
2.700000000000045
 30
0.0
 42
0.3033220033015464
  0
VERTEX
  5
4A5
  8
6
 10
-24.1020279142109
 20
2.0827669523565642
 30
0.0
  0
VERTEX
  5
4A6
  8
6
 10
-25.347279707970529
 20
-0.4264935239518764
 30
0.0
 42
-0.2923904282578467
  0
VERTEX
  5
4A7
  8
6
 10
-26.70887627993659
 20
-1.2971646947812581
 30
0.0
  0
VERTEX
  5
4A8
  8
6
 10
-29.75020276315945
 20
-1.2971646947812581
 30
0.0
 42
-0.4142135623730951
  0
VERTEX
  5
4A9
  8
6
 10
-31.25020276315945
 20
0.2028353052187413
 30
0.0
  0
VERTEX
  5
4AA
  8
6
 10
-31.25020276315945
 20
6.0249982568165024
 30
0.0
 42
-0.1805621658660177
  0
VERTEX
  5
4AB
  8
6
 10
-30.88328541323903
 20
7.0079141779382317
 30
0.0
  0
VERTEX
  5
4AC
  8
6
 10
-28.853218320529319
 20
8.8184506310039978
 30
0.0
  0
SEQEND
  5
4AD
  8
6
  0
POLYLINE
  5
2F0
  8
6
 66
     1
 10
0.0
 20
0.0
 30
0.0
  0
VERTEX
  5
4AE
  8
6
 10
-16.5
 20
3.200000000000045
 30
0.0
  0
VERTEX
  5
4AF
  8
6
 10
-23.178182981237789
 20
3.1999999999999309
 30
0.0
 42
0.2999244947259431
  0
VERTEX
  5
4B0
  8
6
 10
-24.55669100147577
 20
2.2913675998344161
 30
0.0
  0
VERTEX
  5
4B1
  8
6
 10
-25.798550645519299
 20
-0.2110574820134161
 30
0.0
 42
-0.294080808329901
  0
VERTEX
  5
4B2
  8
6
 10
-26.70887627991419
 20
-0.7971646947812588
 30
0.0
  0
VERTEX
  5
4B3
  8
6
 10
-29.75020276315945
 20
-0.7971646947812588
 30
0.0
 42
-0.4142135623730951
  0
VERTEX
  5
4B4
  8
6
 10
-30.75020276315945
 20
0.2028353052187413
 30
0.0
  0
VERTEX
  5
4B5
  8
6
 10
-30.75020276315945
 20
6.0249982568549276
 30
0.0
 42
-0.1731346391236261
  0
VERTEX
  5
4B6
  8
6
 10
-30.524153006677349
 20
6.6582446705912162
 30
0.0
  0
VERTEX
  5
4B7
  8
6
 10
-28.52041744169264
 20
8.4452970767591751
 30
0.0
  0
SEQEND
  5
4B8
  8
6
  0
INSERT
  5
2F1
  8
2
  2
*X2
 10
-877.93922877842465
 20
621.94440416219925
 30
0.0
1001
ACAD
1000
HATCH
1002
{
1070
    16
1000
_U,I
1040
1.1999999999999991
1040
0.7853981633974483
1070
     0
1002
}
  0
DIMENSION
  5
2F2
  8
1
  2
*D3
 10
3.0000000000004552
 20
51.264258194860531
 30
0.0
 11
1.500000000000228
 21
54.052457376306641
 31
0.0
 70
     0
 13
0.0
 23
39.999999999998863
 33
0.0
 14
3.0000000000004539
 24
39.999999999998863
 34
0.0
  0
POINT
  5
2F3
  8
5
 10
-4.0
 20
32.0
 30
0.0
  0
POLYLINE
  5
2F4
  8
6
 66
     1
 10
0.0
 20
0.0
 30
0.0
 70
     1
  0
VERTEX
  5
4B9
  8
6
 10
3.0000000000004539
 20
31.999999999999769
 30
0.0
 42
0.3348758971066404
  0
VERTEX
  5
4BA
  8
6
 10
2.2492577808684469
 20
33.224359999999699
 30
0.0
  0
VERTEX
  5
4BB
  8
6
 10
2.2133367313599588
 20
35.366841127836317
 30
0.0
 42
0.4158738464929489
  0
VERTEX
  5
4BC
  8
6
 10
0.1004407448995153
 20
36.486559934488923
 30
0.0
  0
VERTEX
  5
4BD
  8
6
 10
-1.0910500870868409
 20
35.655470733634502
 30
0.0
 42
-0.9647680298900043
  0
VERTEX
  5
4BE
  8
6
 10
-1.8643632994762811
 20
36.192684910880189
 30
0.0
  0
VERTEX
  5
4BF
  8
6
 10
-1.581205881392634
 20
36.846000647300571
 30
0.0
 42
0.6694204690004703
  0
VERTEX
  5
4C0
  8
6
 10
-2.0112692976940698
 20
37.485949553366247
 30
0.0
  0
VERTEX
  5
4C1
  8
6
 10
-3.8314881777819201
 20
37.059039563579738
 30
0.0
 42
0.2464814616015845
  0
VERTEX
  5
4C2
  8
6
 10
-4.000520459055223
 20
36.759254551122012
 30
0.0
 42
0.0150420667643324
  0
VERTEX
  5
4C3
  8
6
 10
-4.000520459055223
 20
36.477327331757117
 30
0.0
 42
0.2063969197888626
  0
VERTEX
  5
4C4
  8
6
 10
-3.828345240806811
 20
36.108892360459087
 30
0.0
  0
VERTEX
  5
4C5
  8
6
 10
-3.4976411549428121
 20
35.675972370466518
 30
0.0
 42
-0.0984306399189399
  0
VERTEX
  5
4C6
  8
6
 10
-3.1796605032623111
 20
35.027832911664291
 30
0.0
  0
VERTEX
  5
4C7
  8
6
 10
-3.1796605032623111
 20
31.999999999999769
 30
0.0
  0
VERTEX
  5
4C8
  8
6
 10
-3.1796605032623111
 20
28.972167088335251
 30
0.0
 42
-0.0984306399189399
  0
VERTEX
  5
4C9
  8
6
 10
-3.4976411549428121
 20
28.32402762953302
 30
0.0
  0
VERTEX
  5
4CA
  8
6
 10
-3.828345240806811
 20
27.891107639540451
 30
0.0
 42
0.2063969197888626
  0
VERTEX
  5
4CB
  8
6
 10
-4.000520459055223
 20
27.522672668242421
 30
0.0
 42
0.0150420667643324
  0
VERTEX
  5
4CC
  8
6
 10
-4.000520459055223
 20
27.240745448877529
 30
0.0
 42
0.2464814616015845
  0
VERTEX
  5
4CD
  8
6
 10
-3.8314881777819201
 20
26.940960436420021
 30
0.0
  0
VERTEX
  5
4CE
  8
6
 10
-2.0112692976940698
 20
26.514050446633291
 30
0.0
 42
0.6345177691905591
  0
VERTEX
  5
4CF
  8
6
 10
-1.581205881392634
 20
27.153999352698971
 30
0.0
  0
VERTEX
  5
4D0
  8
6
 10
-1.853663127208619
 20
27.781294360421491
 30
0.0
 42
-0.9846311026449575
  0
VERTEX
  5
4D1
  8
6
 10
-1.0910500870868409
 20
28.34452926636504
 30
0.0
  0
VERTEX
  5
4D2
  8
6
 10
0.1004407448995153
 20
27.513440065510618
 30
0.0
 42
0.4158738464929489
  0
VERTEX
  5
4D3
  8
6
 10
2.2133367313599588
 20
28.633158872163438
 30
0.0
  0
VERTEX
  5
4D4
  8
6
 10
2.2492577808684469
 20
30.775639999999839
 30
0.0
 42
0.3348758971066357
  0
SEQEND
  5
4D5
  8
6
  0
POLYLINE
  5
2F5
  8
6
 66
     1
 10
0.0
 20
0.0
 30
0.0
  0
VERTEX
  5
4D6
  8
6
 10
1.0260562661551369
 20
32.004764165460983
 30
0.0
 42
-0.0523662851020724
  0
VERTEX
  5
4D7
  8
6
 10
1.438194332162311
 20
35.010549786088632
 30
0.0
 42
0.1698680870516715
  0
VERTEX
  5
4D8
  8
6
 10
1.4515046616643299
 20
35.609204401099532
 30
0.0
 42
0.3581952709156561
  0
VERTEX
  5
4D9
  8
6
 10
0.4704820347242276
 20
35.804817305722047
 30
0.0
  0
VERTEX
  5
4DA
  8
6
 10
-1.0386136790521041
 20
34.791377892165883
 30
0.0
 42
0.162990172482064
  0
VERTEX
  5
4DB
  8
6
 10
-1.6124768191721151
 20
33.617242876091041
 30
0.0
 42
0.0297520103796801
  0
VERTEX
  5
4DC
  8
6
 10
-1.704040960494694
 20
31.999999999999769
 30
0.0
 42
0.0297520103796801
  0
VERTEX
  5
4DD
  8
6
 10
-1.5585380551679
 20
30.386715332997252
 30
0.0
 42
0.162990172482064
  0
VERTEX
  5
4DE
  8
6
 10
-0.9457976311905441
 20
29.232392539154489
 30
0.0
  0
VERTEX
  5
4DF
  8
6
 10
1.0489256744208431
 20
28.269897445242581
 30
0.0
 42
0.5496470159714418
  0
VERTEX
  5
4E0
  8
6
 10
1.6368888395322749
 20
28.485258868500068
 30
0.0
 42
0.0587952726232103
  0
VERTEX
  5
4E1
  8
6
 10
1.5371989170166671
 20
29.080917467459809
 30
0.0
 42
-0.0523662851020724
  0
VERTEX
  5
4E2
  8
6
 10
1.0249458641983431
 20
32.071268917123007
 30
0.0
  0
SEQEND
  5
4E3
  8
6
  0
POLYLINE
  5
2F6
  8
5
 66
     1
 10
0.0
 20
0.0
 30
0.0
  0
VERTEX
  5
4E4
  8
5
 10
3.0
 20
48.88387920552077
 30
0.0
  0
VERTEX
  5
4E5
  8
5
 10
3.0
 20
15.0
 30
0.0
  0
VERTEX
  5
4E6
  8
5
 10
17.932101346779739
 20
15.0
 30
0.0
  0
SEQEND
  5
4E7
  8
5
  0
DIMENSION
  5
2F7
  8
1
  2
*D4
 10
-6.9999999999999991
 20
51.264258194860759
 30
0.0
 11
-3.4999999999999991
 21
54.014258194860759
 31
0.0
 70
     0
 13
0.0
 23
40.0
 33
0.0
 14
-7.0
 24
40.0
 34
0.0
  0
TEXT
  5
2F8
  8
1
 10
-30.236922721208881
 20
11.67519116845437
 30
0.0
 40
2.4999999499999999
  1
Hebgo 180/520 a
  0
TEXT
  5
2F9
  8
1
 10
-71.414057609129031
 20
-7.0925258189976139
 30
0.0
 40
2.4999999499999999
  1
Hebgo 906
  0
POLYLINE
  5
2FA
  8
4
 66
     1
 10
0.0
 20
0.0
 30
0.0
 70
     1
  0
VERTEX
  5
4E8
  8
4
 10
-30.0
 20
0.0
 30
0.0
  0
VERTEX
  5
4E9
  8
4
 10
-30.0
 20
6.5
 30
0.0
  0
VERTEX
  5
4EA
  8
4
 10
-15.0
 20
6.5
 30
0.0
  0
VERTEX
  5
4EB
  8
4
 10
-11.80000000000018
 20
3.300000000000181
 30
0.0
  0
VERTEX
  5
4EC
  8
4
 10
-6.5
 20
3.300000000000181
 30
0.0
  0
VERTEX
  5
4ED
  8
4
 10
-3.300000000000181
 20
6.5
 30
0.0
  0
VERTEX
  5
4EE
  8
4
 10
-3.300000000000181
 20
21.800000000000178
 30
0.0
  0
VERTEX
  5
4EF
  8
4
 10
-6.5
 20
25.0
 30
0.0
  0
VERTEX
  5
4F0
  8
4
 10
-6.5
 20
40.0
 30
0.0
  0
VERTEX
  5
4F1
  8
4
 10
0.0
 20
40.0
 30
0.0
  0
VERTEX
  5
4F2
  8
4
 10
0.0
 20
0.0
 30
0.0
  0
SEQEND
  5
4F3
  8
4
  0
POLYLINE
  5
2FB
  8
6
 66
     1
 10
0.0
 20
0.0
 30
0.0
 70
     1
  0
VERTEX
  5
4F4
  8
6
 10
-3.300000000000181
 20
6.5
 30
0.0
  0
VERTEX
  5
4F5
  8
6
 10
-6.5
 20
3.300000000000181
 30
0.0
  0
VERTEX
  5
4F6
  8
6
 10
-11.80000000000018
 20
3.300000000000181
 30
0.0
  0
VERTEX
  5
4F7
  8
6
 10
-15.0
 20
6.5
 30
0.0
  0
VERTEX
  5
4F8
  8
6
 10
-21.458578643836969
 20
6.5
 30
0.0
 42
0.1989123670509405
  0
VERTEX
  5
4F9
  8
6
 10
-21.529289321866141
 20
6.4707106782079791
 30
0.0
  0
VERTEX
  5
4FA
  8
6
 10
-21.92928932296763
 20
6.0707106781187568
 30
0.0
 42
-0.4142135623730907
  0
VERTEX
  5
4FB
  8
6
 10
-22.070710679204691
 20
6.0707106781187568
 30
0.0
  0
VERTEX
  5
4FC
  8
6
 10
-22.470710678118849
 20
6.4707106781188477
 30
0.0
 42
0.198912367379658
  0
VERTEX
  5
4FD
  8
6
 10
-22.541421356237599
 20
6.5
 30
0.0
  0
VERTEX
  5
4FE
  8
6
 10
-29.800000000000178
 20
6.5
 30
0.0
 42
0.4142135623730951
  0
VERTEX
  5
4FF
  8
6
 10
-30.0
 20
6.300000000000181
 30
0.0
  0
VERTEX
  5
500
  8
6
 10
-30.0
 20
0.1999999999998181
 30
0.0
 42
0.4142135623730951
  0
VERTEX
  5
501
  8
6
 10
-29.800000000000178
 20
0.0
 30
0.0
  0
VERTEX
  5
502
  8
6
 10
-27.0
 20
0.0
 30
0.0
 42
0.4142135623730951
  0
VERTEX
  5
503
  8
6
 10
-26.0
 20
1.0
 30
0.0
  0
VERTEX
  5
504
  8
6
 10
-26.0
 20
1.1999999999998181
 30
0.0
 42
0.4142135623730951
  0
VERTEX
  5
505
  8
6
 10
-26.200000000000269
 20
1.4000000000000901
 30
0.0
  0
VERTEX
  5
506
  8
6
 10
-27.800000000000178
 20
1.4000000000000901
 30
0.0
 42
-0.4142135623730951
  0
VERTEX
  5
507
  8
6
 10
-28.0
 20
1.5999999999999091
 30
0.0
  0
VERTEX
  5
508
  8
6
 10
-28.0
 20
3.800000000000181
 30
0.0
 42
-0.4142135623730988
  0
VERTEX
  5
509
  8
6
 10
-27.800000000000178
 20
4.0
 30
0.0
  0
VERTEX
  5
50A
  8
6
 10
-16.200000000000269
 20
4.0
 30
0.0
 42
-0.4142135623730951
  0
VERTEX
  5
50B
  8
6
 10
-16.0
 20
3.800000000000181
 30
0.0
  0
VERTEX
  5
50C
  8
6
 10
-16.0
 20
1.5999999999999091
 30
0.0
 42
-0.4142135623730914
  0
VERTEX
  5
50D
  8
6
 10
-16.200000000000269
 20
1.4000000000000901
 30
0.0
  0
VERTEX
  5
50E
  8
6
 10
-17.800000000000178
 20
1.4000000000000901
 30
0.0
 42
0.4142135623730951
  0
VERTEX
  5
50F
  8
6
 10
-18.0
 20
1.1999999999998181
 30
0.0
  0
VERTEX
  5
510
  8
6
 10
-18.0
 20
1.0
 30
0.0
 42
0.4142135623730948
  0
VERTEX
  5
511
  8
6
 10
-17.0
 20
0.0
 30
0.0
  0
VERTEX
  5
512
  8
6
 10
0.0
 20
0.0
 30
0.0
  0
VERTEX
  5
513
  8
6
 10
0.0
 20
27.0
 30
0.0
 42
0.4142135623730948
  0
VERTEX
  5
514
  8
6
 10
-1.0
 20
28.0
 30
0.0
  0
VERTEX
  5
515
  8
6
 10
-1.200000000000272
 20
28.0
 30
0.0
 42
0.4142135623730951
  0
VERTEX
  5
516
  8
6
 10
-1.4000000000000901
 20
27.800000000000178
 30
0.0
  0
VERTEX
  5
517
  8
6
 10
-1.4000000000000901
 20
26.199999999999811
 30
0.0
 42
-0.4142135623730951
  0
VERTEX
  5
518
  8
6
 10
-1.5999999999999091
 20
26.0
 30
0.0
  0
VERTEX
  5
519
  8
6
 10
-3.800000000000181
 20
26.0
 30
0.0
 42
-0.4142135623730951
  0
VERTEX
  5
51A
  8
6
 10
-4.0
 20
26.199999999999811
 30
0.0
  0
VERTEX
  5
51B
  8
6
 10
-4.0
 20
37.800000000000182
 30
0.0
 42
-0.4142135623730944
  0
VERTEX
  5
51C
  8
6
 10
-3.800000000000181
 20
38.0
 30
0.0
  0
VERTEX
  5
51D
  8
6
 10
-1.5999999999999091
 20
38.0
 30
0.0
 42
-0.4142135623730951
  0
VERTEX
  5
51E
  8
6
 10
-1.4000000000000901
 20
37.800000000000182
 30
0.0
  0
VERTEX
  5
51F
  8
6
 10
-1.4000000000000901
 20
36.199999999999811
 30
0.0
 42
0.4142135623730951
  0
VERTEX
  5
520
  8
6
 10
-1.200000000000272
 20
36.0
 30
0.0
  0
VERTEX
  5
521
  8
6
 10
-1.0
 20
36.0
 30
0.0
 42
0.4142135623730951
  0
VERTEX
  5
522
  8
6
 10
0.0
 20
37.0
 30
0.0
  0
VERTEX
  5
523
  8
6
 10
0.0
 20
39.800000000000182
 30
0.0
 42
0.4142135623730951
  0
VERTEX
  5
524
  8
6
 10
-0.2000000000002728
 20
40.0
 30
0.0
  0
VERTEX
  5
525
  8
6
 10
-6.300000000000181
 20
40.0
 30
0.0
 42
0.4142135623730951
  0
VERTEX
  5
526
  8
6
 10
-6.5
 20
39.800000000000182
 30
0.0
  0
VERTEX
  5
527
  8
6
 10
-6.5
 20
25.0
 30
0.0
  0
VERTEX
  5
528
  8
6
 10
-3.300000000000181
 20
21.800000000000178
 30
0.0
  0
SEQEND
  5
529
  8
6
  0
POINT
  5
2FC
  8
5
 10
-4.0
 20
32.0
 30
0.0
  0
DIMENSION
  5
2FD
  8
1
  2
*D5
 10
-0.0000000000000007
 20
-11.925234634580409
 30
0.0
 11
-15.0
 21
-9.1370354531343079
 31
0.0
 70
     0
 13
-30.0
 23
0.0
 33
0.0
 14
0.0
 24
0.0
 34
0.0
  0
DIMENSION
  5
2FE
  8
1
  2
*D6
 10
-19.108468320301188
 20
40.0
 30
0.0
 11
-21.89547377732713
 21
20.0
 31
0.0
 70
     0
 13
0.0
 23
0.0
 33
0.0
 14
-6.5
 24
40.0
 34
0.0
 50
90.0
  0
POLYLINE
  5
2FF
  8
6
 66
     1
 10
0.0
 20
0.0
 30
0.0
  0
VERTEX
  5
52A
  8
6
 10
-29.700202763159719
 20
-0.7971646947812588
 30
0.0
  0
VERTEX
  5
52B
  8
6
 10
-43.905022074133171
 20
-0.797164694781145
 30
0.0
 42
-0.1227907796755586
  0
VERTEX
  5
52C
  8
6
 10
-44.139768674046202
 20
-0.738632738731326
 30
0.0
  0
VERTEX
  5
52D
  8
6
 10
-53.825992264602057
 20
4.4119281796490659
 30
0.0
 42
0.2418206986979313
  0
VERTEX
  5
52E
  8
6
 10
-57.024123521633889
 20
4.4572969829334852
 30
0.0
  0
VERTEX
  5
52F
  8
6
 10
-66.330813664165362
 20
-0.1577085615483611
 30
0.0
 42
-0.2343261328240752
  0
VERTEX
  5
530
  8
6
 10
-66.775072252062728
 20
-0.1577085615483611
 30
0.0
  0
VERTEX
  5
531
  8
6
 10
-76.11365559122487
 20
4.473112195112094
 30
0.0
 42
0.2343261328240394
  0
VERTEX
  5
532
  8
6
 10
-79.223465706501997
 20
4.473112195112094
 30
0.0
  0
VERTEX
  5
533
  8
6
 10
-88.562049045664708
 20
-0.1577085615484748
 30
0.0
 42
-0.2343261328240224
  0
SEQEND
  5
534
  8
6
  0
POLYLINE
  5
300
  8
6
 66
     1
 10
0.0
 20
0.0
 30
0.0
  0
VERTEX
  5
535
  8
6
 10
-29.700202763159719
 20
-1.2971646947812581
 30
0.0
  0
VERTEX
  5
536
  8
6
 10
-43.905022074133171
 20
-1.297164694781145
 30
0.0
 42
-0.1227907796755804
  0
VERTEX
  5
537
  8
6
 10
-44.37451527395956
 20
-1.1801007826813921
 30
0.0
  0
VERTEX
  5
538
  8
6
 10
-54.060738864515429
 20
3.9704601356989988
 30
0.0
 42
0.2418206986979378
  0
VERTEX
  5
539
  8
6
 10
-56.801994227685661
 20
4.0093476813713087
 30
0.0
  0
VERTEX
  5
53A
  8
6
 10
-66.108684370217134
 20
-0.6056578631105367
 30
0.0
 42
-0.2343261328240147
  0
VERTEX
  5
53B
  8
6
 10
-66.997201546010956
 20
-0.6056578631105367
 30
0.0
  0
VERTEX
  5
53C
  8
6
 10
-76.335784885173211
 20
4.0251628935499184
 30
0.0
 42
0.2343261328240469
  0
VERTEX
  5
53D
  8
6
 10
-79.001336412553769
 20
4.0251628935499184
 30
0.0
  0
VERTEX
  5
53E
  8
6
 10
-88.339919751716366
 20
-0.6056578631106504
 30
0.0
 42
-0.2343261328240553
  0
SEQEND
  5
53F
  8
6
  0
POLYLINE
  5
301
  8
6
 66
     1
 10
0.0
 20
0.0
 30
0.0
  0
VERTEX
  5
540
  8
6
 10
-29.700202763159719
 20
-1.7971646947812581
 30
0.0
  0
VERTEX
  5
541
  8
6
 10
-43.90502207413283
 20
-1.797164694781145
 30
0.0
 42
-0.1227907796755781
  0
VERTEX
  5
542
  8
6
 10
-44.609261873872583
 20
-1.621568826631687
 30
0.0
  0
VERTEX
  5
543
  8
6
 10
-54.295485464428907
 20
3.5289920917489321
 30
0.0
 42
0.2418206986979325
  0
VERTEX
  5
544
  8
6
 10
-56.57986493373744
 20
3.5613983798091331
 30
0.0
  0
VERTEX
  5
545
  8
6
 10
-65.886555076268905
 20
-1.0536071646727121
 30
0.0
 42
-0.2343261328240303
  0
VERTEX
  5
546
  8
6
 10
-67.219330839959412
 20
-1.053607164672598
 30
0.0
  0
VERTEX
  5
547
  8
6
 10
-76.557914179121553
 20
3.5772135919877419
 30
0.0
 42
0.2343261328240438
  0
VERTEX
  5
548
  8
6
 10
-78.779207118605427
 20
3.5772135919877419
 30
0.0
  0
VERTEX
  5
549
  8
6
 10
-88.117790457768024
 20
-1.053607164672826
 30
0.0
 42
-0.2343261328240571
  0
SEQEND
  5
54A
  8
6
  0
POLYLINE
  5
302
  8
6
 66
     1
 10
0.0
 20
0.0
 30
0.0
  0
VERTEX
  5
54B
  8
6
 10
-29.700202763159719
 20
-0.2971646947812587
 30
0.0
  0
VERTEX
  5
54C
  8
6
 10
-43.905022074132937
 20
-0.297164694781145
 30
0.0
  0
VERTEX
  5
54D
  8
6
 10
-53.59124566468882
 20
4.853396223599133
 30
0.0
 42
0.2418206986979301
  0
VERTEX
  5
54E
  8
6
 10
-57.246252815582238
 20
4.9052462844956599
 30
0.0
  0
VERTEX
  5
54F
  8
6
 10
-66.552942958114045
 20
0.2902407400135871
 30
0.0
  0
VERTEX
  5
550
  8
6
 10
-75.891526297276528
 20
4.9210614966742687
 30
0.0
 42
0.2343261328240422
  0
VERTEX
  5
551
  8
6
 10
-79.445595000450339
 20
4.921061496674155
 30
0.0
  0
VERTEX
  5
552
  8
6
 10
-88.784178339613064
 20
0.2902407400135871
 30
0.0
  0
VERTEX
  5
553
  8
6
 10
-87.895661163819668
 20
-1.501556466234887
 30
0.0
  0
VERTEX
  5
554
  8
6
 10
-78.557077824656631
 20
3.1292642904257941
 30
0.0
 42
-0.2343261328239351
  0
VERTEX
  5
555
  8
6
 10
-76.780043473070123
 20
3.12926429042568
 30
0.0
  0
VERTEX
  5
556
  8
6
 10
-67.441460133907299
 20
-1.501556466234887
 30
0.0
 42
0.2343261328239322
  0
VERTEX
  5
557
  8
6
 10
-65.664425782320905
 20
-1.501556466234887
 30
0.0
  0
VERTEX
  5
558
  8
6
 10
-56.357735639788871
 20
3.1134490782471849
 30
0.0
 42
-0.2418206986978837
  0
VERTEX
  5
559
  8
6
 10
-54.530232064342272
 20
3.087524047798865
 30
0.0
  0
VERTEX
  5
55A
  8
6
 10
-44.844008473786289
 20
-2.0630368705815272
 30
0.0
 42
0.1227907796755793
  0
VERTEX
  5
55B
  8
6
 10
-43.905022074133278
 20
-2.2971646947812578
 30
0.0
  0
VERTEX
  5
55C
  8
6
 10
-29.700202763159719
 20
-2.2971646947812578
 30
0.0
  0
SEQEND
  5
55D
  8
6
  0
POLYLINE
  5
303
  8
6
 66
     1
 10
0.0
 20
0.0
 30
0.0
 70
     1
  0
VERTEX
  5
55E
  8
6
 10
-16.5
 20
3.700000000000045
 30
0.0
  0
VERTEX
  5
55F
  8
6
 10
-23.178182981237789
 20
3.6999999999999309
 30
0.0
 42
0.2979024853978631
  0
VERTEX
  5
560
  8
6
 10
-25.010288806168319
 20
2.5021148585182109
 30
0.0
  0
VERTEX
  5
561
  8
6
 10
-26.250849823681499
 20
0.0023065905892281
 30
0.0
 42
-0.2979024853978892
  0
VERTEX
  5
562
  8
6
 10
-26.70887627991419
 20
-0.2971646947812587
 30
0.0
  0
VERTEX
  5
563
  8
6
 10
-29.75020276315945
 20
-0.2971646947812587
 30
0.0
 42
-0.4142135623730951
  0
VERTEX
  5
564
  8
6
 10
-30.25020276315945
 20
0.2028353052187413
 30
0.0
  0
VERTEX
  5
565
  8
6
 10
-30.25020276315945
 20
6.0249982568549276
 30
0.0
 42
-0.1564024178525488
  0
VERTEX
  5
566
  8
6
 10
-30.156972813598252
 20
6.315752665361515
 30
0.0
  0
VERTEX
  5
567
  8
6
 10
-28.187616562855961
 20
8.0721435225143523
 30
0.0
  0
VERTEX
  5
568
  8
6
 10
-29.51882007820268
 20
9.5647577394936434
 30
0.0
  0
VERTEX
  5
569
  8
6
 10
-31.590604399056922
 20
7.7170153425712442
 30
0.0
 42
0.1880239795834631
  0
VERTEX
  5
56A
  8
6
 10
-32.25020276315945
 20
6.0249982568016094
 30
0.0
  0
VERTEX
  5
56B
  8
6
 10
-32.25020276315945
 20
0.2028353052187413
 30
0.0
 42
0.4142135623730951
  0
VERTEX
  5
56C
  8
6
 10
-29.75020276315945
 20
-2.2971646947812578
 30
0.0
  0
VERTEX
  5
56D
  8
6
 10
-26.708876279933399
 20
-2.2971646947812578
 30
0.0
 42
0.2906967135076304
  0
VERTEX
  5
56E
  8
6
 10
-24.446142200321209
 20
-0.860195496329652
 30
0.0
  0
VERTEX
  5
56F
  8
6
 10
-23.175613267880738
 20
1.7000000000001589
 30
0.0
  0
VERTEX
  5
570
  8
6
 10
-16.5
 20
1.700000000000045
 30
0.0
  0
SEQEND
  5
571
  8
6
  0
VIEWPORT
  5
22
 67
     1
  8
0
 10
210.0
 20
170.2366863905325
 30
0.0
 40
420.0
 41
340.47337278106511
 68
     1
 69
     1
1001
ACAD
1000
MVIEW
1002
{
1070
    16
1010
0.0
1020
0.0
1030
0.0
1010
0.0
1020
0.0
1030
1.0
1040
0.0
1040
340.47337278106511
1040
210.0
1040
170.2366863905325
1040
50.0
1040
0.0
1040
0.0
1070
     0
1070
   100
1070
     1
1070
     1
1070
     0
1070
     0
1070
     0
1070
     0
1040
0.0
1040
0.0
1040
0.0
1040
5.0
1040
5.0
1040
10.0
1040
10.0
1070
     0
1002
{
1002
}
1002
}
  0
ENDSEC
  0
EOF
