  0
SECTION
  2
HEADER
  9
$ACADVER
  1
AC1009
  9
$INSBASE
 10
0.0
 20
0.0
 30
0.0
  9
$EXTMIN
 10
-98.785399632511371
 20
-7.8506461086806212
 30
-0.000000000000013
  9
$EXTMAX
 10
19.935608457233339
 20
46.760559660336753
 30
0.0000000000000023
  9
$LIMMIN
 10
-150.0
 20
-150.0
  9
$LIMMAX
 10
150.0
 20
150.0
  9
$ORTHOMODE
 70
     0
  9
$REGENMODE
 70
     1
  9
$FILLMODE
 70
     1
  9
$QTEXTMODE
 70
     0
  9
$MIRRTEXT
 70
     0
  9
$DRAGMODE
 70
     2
  9
$LTSCALE
 40
1.0
  9
$OSMODE
 70
   111
  9
$ATTMODE
 70
     1
  9
$TEXTSIZE
 40
3.5
  9
$TRACEWID
 40
1.0
  9
$TEXTSTYLE
  7
BESCHLAG
  9
$CLAYER
  8
0
  9
$CELTYPE
  6
BYLAYER
  9
$CECOLOR
 62
   256
  9
$DIMSCALE
 40
1.0
  9
$DIMASZ
 40
2.0
  9
$DIMEXO
 40
2.0
  9
$DIMDLI
 40
0.0
  9
$DIMRND
 40
0.0
  9
$DIMDLE
 40
1.0
  9
$DIMEXE
 40
1.0
  9
$DIMTP
 40
0.0
  9
$DIMTM
 40
0.0
  9
$DIMTXT
 40
3.5
  9
$DIMCEN
 40
0.0
  9
$DIMTSZ
 40
0.0
  9
$DIMTOL
 70
     0
  9
$DIMLIM
 70
     0
  9
$DIMTIH
 70
     0
  9
$DIMTOH
 70
     0
  9
$DIMSE1
 70
     0
  9
$DIMSE2
 70
     0
  9
$DIMTAD
 70
     1
  9
$DIMZIN
 70
     8
  9
$DIMBLK
  1

  9
$DIMASO
 70
     1
  9
$DIMSHO
 70
     1
  9
$DIMPOST
  1

  9
$DIMAPOST
  1

  9
$DIMALT
 70
     0
  9
$DIMALTD
 70
     2
  9
$DIMALTF
 40
0.039370078740157
  9
$DIMLFAC
 40
1.0
  9
$DIMTOFL
 70
     1
  9
$DIMTVP
 40
0.0
  9
$DIMTIX
 70
     1
  9
$DIMSOXD
 70
     0
  9
$DIMSAH
 70
     1
  9
$DIMBLK1
  1
OBLIQUE
  9
$DIMBLK2
  1
OBLIQUE
  9
$DIMSTYLE
  2
OPO-SSTRICH
  9
$DIMCLRD
 70
   256
  9
$DIMCLRE
 70
   256
  9
$DIMCLRT
 70
   256
  9
$DIMTFAC
 40
0.7114285714285716
  9
$DIMGAP
 40
1.0
  9
$LUNITS
 70
     2
  9
$LUPREC
 70
     1
  9
$SKETCHINC
 40
1.0
  9
$FILLETRAD
 40
0.0
  9
$AUNITS
 70
     0
  9
$AUPREC
 70
     1
  9
$MENU
  1
D:\ACL_CGWG\CGTAB13
  9
$ELEVATION
 40
0.0
  9
$PELEVATION
 40
0.0
  9
$THICKNESS
 40
0.0
  9
$LIMCHECK
 70
     0
  9
$BLIPMODE
 70
     0
  9
$CHAMFERA
 40
1.0
  9
$CHAMFERB
 40
1.0
  9
$SKPOLY
 70
     0
  9
$TDCREATE
 40
2451739.8965225229
  9
$TDUPDATE
 40
2452087.6316821869
  9
$TDINDWG
 40
0.0011885069
  9
$TDUSRTIMER
 40
0.0011885069
  9
$USRTIMER
 70
     1
  9
$ANGBASE
 50
0.0
  9
$ANGDIR
 70
     0
  9
$PDMODE
 70
    35
  9
$PDSIZE
 40
5.0
  9
$PLINEWID
 40
0.0
  9
$COORDS
 70
     1
  9
$SPLFRAME
 70
     0
  9
$SPLINETYPE
 70
     6
  9
$SPLINESEGS
 70
     8
  9
$ATTDIA
 70
     1
  9
$ATTREQ
 70
     1
  9
$HANDLING
 70
-16383
  9
$HANDSEED
  5
544
  9
$SURFTAB1
 70
    12
  9
$SURFTAB2
 70
    12
  9
$SURFTYPE
 70
     6
  9
$SURFU
 70
    12
  9
$SURFV
 70
    12
  9
$UCSNAME
  2

  9
$UCSORG
 10
0.0
 20
0.0
 30
0.0
  9
$UCSXDIR
 10
1.0
 20
0.0
 30
0.0
  9
$UCSYDIR
 10
0.0
 20
1.0
 30
0.0
  9
$PUCSNAME
  2

  9
$PUCSORG
 10
0.0
 20
0.0
 30
0.0
  9
$PUCSXDIR
 10
1.0
 20
0.0
 30
0.0
  9
$PUCSYDIR
 10
0.0
 20
1.0
 30
0.0
  9
$USERI1
 70
     0
  9
$USERI2
 70
     0
  9
$USERI3
 70
     0
  9
$USERI4
 70
     0
  9
$USERI5
 70
     0
  9
$USERR1
 40
0.0
  9
$USERR2
 40
0.0
  9
$USERR3
 40
0.0
  9
$USERR4
 40
0.0
  9
$USERR5
 40
0.0
  9
$WORLDVIEW
 70
     1
  9
$SHADEDGE
 70
     3
  9
$SHADEDIF
 70
    70
  9
$TILEMODE
 70
     1
  9
$MAXACTVP
 70
    48
  9
$PLIMCHECK
 70
     0
  9
$PEXTMIN
 10
1.0000000000000000E+020
 20
1.0000000000000000E+020
 30
1.0000000000000000E+020
  9
$PEXTMAX
 10
-1.0000000000000000E+020
 20
-1.0000000000000000E+020
 30
-1.0000000000000000E+020
  9
$PLIMMIN
 10
0.0
 20
0.0
  9
$PLIMMAX
 10
420.0
 20
297.0
  9
$UNITMODE
 70
     0
  9
$VISRETAIN
 70
     1
  9
$PLINEGEN
 70
     0
  9
$PSLTSCALE
 70
     1
  0
ENDSEC
  0
SECTION
  2
TABLES
  0
TABLE
  2
VPORT
 70
     2
  0
VPORT
  2
*ACTIVE
 70
     0
 10
0.0
 20
0.0
 11
1.0
 21
1.0
 12
-39.424895587639007
 22
19.454956775828059
 13
0.0
 23
0.0
 14
0.5
 24
0.5
 15
10.0
 25
10.0
 16
0.0
 26
0.0
 36
1.0
 17
0.0
 27
0.0
 37
0.0
 40
74.248529478523238
 41
1.6070460704607039
 42
50.0
 43
0.0
 44
0.0
 50
0.0
 51
0.0
 71
     0
 72
   800
 73
     1
 74
     1
 75
     0
 76
     0
 77
     0
 78
     0
  0
ENDTAB
  0
TABLE
  2
LTYPE
 70
     1
  0
LTYPE
  2
CONTINUOUS
 70
     0
  3
_______________________________________________
 72
    65
 73
     2
 40
1.0
 49
1.0
 49
0.0
  0
ENDTAB
  0
TABLE
  2
LAYER
 70
     7
  0
LAYER
  2
0
 70
     0
 62
    30
  6
CONTINUOUS
  0
LAYER
  2
1
 70
     0
 62
     2
  6
CONTINUOUS
  0
LAYER
  2
2
 70
     0
 62
     9
  6
CONTINUOUS
  0
LAYER
  2
4
 70
     1
 62
     4
  6
CONTINUOUS
  0
LAYER
  2
5
 70
     0
 62
     1
  6
CONTINUOUS
  0
LAYER
  2
6
 70
     0
 62
     3
  6
CONTINUOUS
  0
LAYER
  2
DEFPOINTS
 70
     0
 62
     7
  6
CONTINUOUS
  0
ENDTAB
  0
TABLE
  2
STYLE
 70
     2
  0
STYLE
  2
STANDARD
 70
     0
 40
0.0
 41
1.0
 50
0.0
 71
     0
 42
2.5
  3
txt
  4

  0
STYLE
  2
BESCHLAG
 70
     0
 40
0.0
 41
1.0
 50
0.0
 71
     0
 42
3.5
  3
txt
  4

  0
ENDTAB
  0
TABLE
  2
VIEW
 70
     0
  0
ENDTAB
  0
TABLE
  2
UCS
 70
     0
  0
ENDTAB
  0
TABLE
  2
APPID
 70
     1
  0
APPID
  2
ACAD
 70
     0
  0
ENDTAB
  0
TABLE
  2
DIMSTYLE
 70
     1
  0
DIMSTYLE
  2
OPO-SSTRICH
 70
     0
  3

  4

  5

  6
OBLIQUE
  7
OBLIQUE
 40
1.0
 41
2.0
 42
2.0
 43
0.0
 44
1.0
 45
0.0
 46
1.0
 47
0.0
 48
0.0
140
3.5
141
0.0
142
0.0
143
0.039370078740157
144
1.0
145
0.0
146
0.7114285714285716
147
1.0
 71
     0
 72
     0
 73
     0
 74
     0
 75
     0
 76
     0
 77
     1
 78
     8
170
     0
171
     2
172
     1
173
     1
174
     1
175
     0
176
   256
177
   256
178
   256
  0
ENDTAB
  0
ENDSEC
  0
SECTION
  2
BLOCKS
  0
BLOCK
  8
0
  2
$MODEL_SPACE
 70
     0
 10
0.0
 20
0.0
 30
0.0
  3
$MODEL_SPACE
  1

  0
ENDBLK
  5
1C
  8
0
  0
BLOCK
 67
     1
  8
0
  2
$PAPER_SPACE
 70
     0
 10
0.0
 20
0.0
 30
0.0
  3
$PAPER_SPACE
  1

  0
ENDBLK
  5
19
 67
     1
  8
0
  0
BLOCK
  8
0
  2
_OBLIQUE
 70
     0
 10
0.0
 20
0.0
 30
0.0
  3
_OBLIQUE
  1

  0
LINE
  5
204
  8
0
 62
     0
 10
-0.5
 20
-0.5
 30
0.0
 11
0.5
 21
0.5
 31
0.0
  0
ENDBLK
  5
206
  8
0
  0
BLOCK
  8
0
  2
NULLPUNKT
 70
     0
 10
0.0
 20
0.0
 30
0.0
  3
NULLPUNKT
  1

  0
SOLID
  5
254
  8
5
 10
0.0
 20
0.0
 30
0.0
 11
2.0
 21
0.0
 31
0.0
 12
0.0
 22
-2.0
 32
0.0
 13
0.0
 23
-2.0
 33
0.0
  0
SOLID
  5
255
  8
5
 10
0.0
 20
0.0
 30
0.0
 11
-2.0
 21
0.0
 31
0.0
 12
0.0
 22
2.0
 32
0.0
 13
0.0
 23
2.0
 33
0.0
  0
POLYLINE
  5
256
  8
5
 66
     1
 10
0.0
 20
0.0
 30
0.0
  0
VERTEX
  5
475
  8
5
 10
0.0
 20
2.0
 30
0.0
  0
VERTEX
  5
476
  8
5
 10
0.0
 20
-2.0
 30
0.0
  0
SEQEND
  5
477
  8
5
  0
POLYLINE
  5
257
  8
5
 66
     1
 10
0.0
 20
0.0
 30
0.0
  0
VERTEX
  5
478
  8
5
 10
-2.0
 20
0.0
 30
0.0
  0
VERTEX
  5
479
  8
5
 10
2.0
 20
0.0
 30
0.0
  0
SEQEND
  5
47A
  8
5
  0
CIRCLE
  5
258
  8
5
 10
0.0
 20
0.0
 30
0.0
 40
2.0
  0
ENDBLK
  5
25A
  8
0
  0
BLOCK
  8
0
  2
*X2
 70
     1
 10
0.0
 20
0.0
 30
0.0
  3
*X2
  1

  0
LINE
  5
2AA
  8
0
 62
     0
 10
1051.9589702879509
 20
-617.94440416219925
 30
0.0
 11
1054.4589702879509
 21
-615.44440416219913
 31
0.0
  0
LINE
  5
2AB
  8
0
 62
     0
 10
1077.4001270235619
 20
-592.50324742658779
 30
0.0
 11
1077.9589702879509
 21
-591.94440416219925
 31
0.0
  0
LINE
  5
2AC
  8
0
 62
     0
 10
1046.261914013103
 20
-621.94440416219925
 30
0.0
 11
1047.6619140131029
 21
-620.54440416219916
 31
0.0
  0
LINE
  5
2AD
  8
0
 62
     0
 10
1050.261914013103
 20
-617.94440416219925
 30
0.0
 11
1052.761914013103
 21
-615.44440416219913
 31
0.0
  0
LINE
  5
2AE
  8
0
 62
     0
 10
1044.5648577382549
 20
-621.94440416219925
 30
0.0
 11
1045.994824361288
 21
-620.51443753916658
 31
0.0
  0
LINE
  5
2AF
  8
0
 62
     0
 10
1048.5648577382549
 20
-617.94440416219925
 30
0.0
 11
1051.0648577382549
 21
-615.44440416219913
 31
0.0
  0
LINE
  5
2B0
  8
0
 62
     0
 10
1043.9001270235619
 20
-620.91207860204463
 30
0.0
 11
1045.9001270235619
 21
-618.91207860204463
 31
0.0
  0
LINE
  5
2B1
  8
0
 62
     0
 10
1046.8678014634079
 20
-617.94440416219925
 30
0.0
 11
1049.3678014634079
 21
-615.44440416219913
 31
0.0
  0
LINE
  5
2B2
  8
0
 62
     0
 10
1043.9001270235619
 20
-619.21502232719695
 30
0.0
 11
1047.67074518856
 21
-615.44440416219913
 31
0.0
  0
LINE
  5
2B3
  8
0
 62
     0
 10
1043.9001270235619
 20
-617.51796605234915
 30
0.0
 11
1045.9736889137121
 21
-615.44440416219913
 31
0.0
  0
LINE
  5
2B4
  8
0
 62
     0
 10
1043.9001270235619
 20
-615.82090977750136
 30
0.0
 11
1044.2766326388639
 21
-615.44440416219913
 31
0.0
  0
LINE
  5
2B5
  8
0
 62
     0
 10
1053.6560265627979
 20
-617.94440416219925
 30
0.0
 11
1056.1560265627979
 21
-615.44440416219913
 31
0.0
  0
LINE
  5
2B6
  8
0
 62
     0
 10
1077.4001270235619
 20
-594.20030370143547
 30
0.0
 11
1079.6560265627979
 21
-591.94440416219925
 31
0.0
  0
LINE
  5
2B7
  8
0
 62
     0
 10
1055.3530828376461
 20
-617.94440416219925
 30
0.0
 11
1057.8530828376461
 21
-615.44440416219913
 31
0.0
  0
LINE
  5
2B8
  8
0
 62
     0
 10
1077.4001270235619
 20
-595.89735997628338
 30
0.0
 11
1081.3530828376461
 21
-591.94440416219925
 31
0.0
  0
LINE
  5
2B9
  8
0
 62
     0
 10
1057.050139112494
 20
-617.94440416219925
 30
0.0
 11
1059.2251330680281
 21
-615.76941020666504
 31
0.0
  0
LINE
  5
2BA
  8
0
 62
     0
 10
1081.050139112494
 20
-593.94440416219925
 30
0.0
 11
1083.050139112494
 21
-591.94440416219925
 31
0.0
  0
LINE
  5
2BB
  8
0
 62
     0
 10
1077.4001270235619
 20
-597.59441625113084
 30
0.0
 11
1079.9001270235619
 21
-595.09441625113084
 31
0.0
  0
LINE
  5
2BC
  8
0
 62
     0
 10
1055.9001270235619
 20
-620.79147252597863
 30
0.0
 11
1056.147195387342
 21
-620.54440416219916
 31
0.0
  0
LINE
  5
2BD
  8
0
 62
     0
 10
1082.5001270235621
 20
-594.19147252597861
 30
0.0
 11
1083.9001270235619
 21
-592.79147252597863
 31
0.0
  0
LINE
  5
2BE
  8
0
 62
     0
 10
1057.9001270235619
 20
-618.79147252597852
 30
0.0
 11
1060.073661205452
 21
-616.617938344089
 31
0.0
  0
LINE
  5
2BF
  8
0
 62
     0
 10
1077.4001270235619
 20
-599.29147252597863
 30
0.0
 11
1079.9001270235619
 21
-596.79147252597863
 31
0.0
  0
LINE
  5
2C0
  8
0
 62
     0
 10
1056.5195163049759
 20
-621.86913951941199
 30
0.0
 11
1060.922189342876
 21
-617.46646648151284
 31
0.0
  0
LINE
  5
2C1
  8
0
 62
     0
 10
1082.533554982158
 20
-595.85510084223085
 30
0.0
 11
1083.9001270235619
 21
-594.48852880082643
 31
0.0
  0
LINE
  5
2C2
  8
0
 62
     0
 10
1077.4001270235619
 20
-600.98852880082632
 30
0.0
 11
1079.9001270235619
 21
-598.48852880082632
 31
0.0
  0
LINE
  5
2C3
  8
0
 62
     0
 10
1058.141307937037
 20
-621.94440416219925
 30
0.0
 11
1061.770717480299
 21
-618.31499461893668
 31
0.0
  0
LINE
  5
2C4
  8
0
 62
     0
 10
1077.4001270235619
 20
-602.685585075674
 30
0.0
 11
1079.9001270235619
 21
-600.18558507567411
 31
0.0
  0
LINE
  5
2C5
  8
0
 62
     0
 10
1059.8383642118849
 20
-621.94440416219925
 30
0.0
 11
1063.1383642118849
 21
-618.64440416219918
 31
0.0
  0
LINE
  5
2C6
  8
0
 62
     0
 10
1077.4001270235619
 20
-604.38264135052191
 30
0.0
 11
1079.9001270235619
 21
-601.88264135052191
 31
0.0
  0
LINE
  5
2C7
  8
0
 62
     0
 10
1061.5354204867319
 20
-621.94440416219925
 30
0.0
 11
1064.8354204867319
 21
-618.64440416219918
 31
0.0
  0
LINE
  5
2C8
  8
0
 62
     0
 10
1077.4001270235619
 20
-606.07969762536925
 30
0.0
 11
1079.9001270235619
 21
-603.57969762536925
 31
0.0
  0
LINE
  5
2C9
  8
0
 62
     0
 10
1063.2324767615801
 20
-621.94440416219925
 30
0.0
 11
1066.53247676158
 21
-618.64440416219918
 31
0.0
  0
LINE
  5
2CA
  8
0
 62
     0
 10
1077.8163018925709
 20
-607.3605790312082
 30
0.0
 11
1079.9001270235619
 21
-605.27675390021716
 31
0.0
  0
LINE
  5
2CB
  8
0
 62
     0
 10
1064.929533036428
 20
-621.94440416219925
 30
0.0
 11
1068.2295330364279
 21
-618.64440416219918
 31
0.0
  0
LINE
  5
2CC
  8
0
 62
     0
 10
1082.5001270235621
 20
-604.37381017506493
 30
0.0
 11
1082.92911285882
 21
-603.94482433980659
 31
0.0
  0
LINE
  5
2CD
  8
0
 62
     0
 10
1078.6648300299951
 20
-608.20910716863204
 30
0.0
 11
1080.929533036428
 21
-605.94440416219925
 31
0.0
  0
LINE
  5
2CE
  8
0
 62
     0
 10
1066.6265893112759
 20
-621.94440416219925
 30
0.0
 11
1069.9265893112761
 21
-618.64440416219918
 31
0.0
  0
LINE
  5
2CF
  8
0
 62
     0
 10
1079.513358167419
 20
-609.05763530605611
 30
0.0
 11
1083.8700402391189
 21
-604.70095323435555
 31
0.0
  0
LINE
  5
2D0
  8
0
 62
     0
 10
1068.323645586124
 20
-621.94440416219925
 30
0.0
 11
1071.6236455861231
 21
-618.64440416219918
 31
0.0
  0
LINE
  5
2D1
  8
0
 62
     0
 10
1080.361886304843
 20
-609.90616344347995
 30
0.0
 11
1083.9001270235619
 21
-606.36792272476032
 31
0.0
  0
LINE
  5
2D2
  8
0
 62
     0
 10
1070.020701860971
 20
-621.94440416219925
 30
0.0
 11
1073.320701860971
 21
-618.64440416219918
 31
0.0
  0
LINE
  5
2D3
  8
0
 62
     0
 10
1080.600127023562
 20
-611.36497899960807
 30
0.0
 11
1083.9001270235619
 21
-608.06497899960789
 31
0.0
  0
LINE
  5
2D4
  8
0
 62
     0
 10
1071.7177581358189
 20
-621.94440416219925
 30
0.0
 11
1075.0177581358189
 21
-618.64440416219918
 31
0.0
  0
LINE
  5
2D5
  8
0
 62
     0
 10
1080.600127023562
 20
-613.06203527445598
 30
0.0
 11
1083.9001270235619
 21
-609.76203527445557
 31
0.0
  0
LINE
  5
2D6
  8
0
 62
     0
 10
1073.4148144106659
 20
-621.94440416219925
 30
0.0
 11
1076.7148144106659
 21
-618.64440416219918
 31
0.0
  0
LINE
  5
2D7
  8
0
 62
     0
 10
1080.600127023562
 20
-614.75909154930366
 30
0.0
 11
1083.9001270235619
 21
-611.45909154930337
 31
0.0
  0
LINE
  5
2D8
  8
0
 62
     0
 10
1075.1118706855141
 20
-621.94440416219925
 30
0.0
 11
1083.9001270235619
 21
-613.15614782415105
 31
0.0
  0
LINE
  5
2D9
  8
0
 62
     0
 10
1076.808926960362
 20
-621.94440416219925
 30
0.0
 11
1083.9001270235619
 21
-614.85320409899884
 31
0.0
  0
LINE
  5
2DA
  8
0
 62
     0
 10
1078.505983235209
 20
-621.94440416219925
 30
0.0
 11
1083.9001270235619
 21
-616.55026037384641
 31
0.0
  0
LINE
  5
2DB
  8
0
 62
     0
 10
1080.2030395100569
 20
-621.94440416219925
 30
0.0
 11
1083.9001270235619
 21
-618.24731664869421
 31
0.0
  0
LINE
  5
2DC
  8
0
 62
     0
 10
1081.900095784905
 20
-621.94440416219925
 30
0.0
 11
1083.9001270235619
 21
-619.94437292354201
 31
0.0
  0
LINE
  5
2DD
  8
0
 62
     0
 10
1083.5971520597529
 20
-621.94440416219925
 30
0.0
 11
1083.9001270235619
 21
-621.64142919838957
 31
0.0
  0
ENDBLK
  5
2DF
  8
0
  0
BLOCK
  8
0
  2
*D3
 70
     1
 10
0.0
 20
0.0
 30
0.0
  3
*D3
  1

  0
LINE
  5
34D
  8
1
 10
2.0
 20
-0.0000000000000006
 30
0.0
 11
12.92523463458064
 21
-0.0000000000000037
 31
0.0
  0
LINE
  5
34E
  8
1
 10
2.0
 20
30.0
 30
0.0
 11
12.92523463458064
 21
30.0
 31
0.0
  0
LINE
  5
34F
  8
1
 10
11.92523463458064
 20
-1.0000000000000031
 30
0.0
 11
11.92523463458064
 21
30.999999999999989
 31
0.0
  0
INSERT
  5
350
  8
1
  2
_OBLIQUE
 10
11.92523463458064
 20
-0.0000000000000034
 30
0.0
 41
2.0
 42
2.0
 43
2.0
 50
270.0
  0
INSERT
  5
351
  8
1
  2
_OBLIQUE
 10
11.92523463458064
 20
30.0
 30
0.0
 41
2.0
 42
2.0
 43
2.0
 50
90.0
  0
TEXT
  5
352
  8
0
 10
10.85599861820956
 20
12.2950204638472
 30
0.0
 40
3.5
  1
30
 50
90.0
  7
BESCHLAG
  0
POINT
  5
353
  8
DEFPOINTS
 62
     0
 10
0.0
 20
0.0
 30
0.0
  0
POINT
  5
354
  8
DEFPOINTS
 62
     0
 10
0.0
 20
30.0
 30
0.0
  0
POINT
  5
355
  8
DEFPOINTS
 62
     0
 10
11.92523463458064
 20
30.0
 30
0.0
  0
ENDBLK
  5
31C
  8
0
  0
BLOCK
  8
0
  2
*D4
 70
     1
 10
0.0
 20
0.0
 30
0.0
  3
*D4
  1

  0
LINE
  5
356
  8
1
 10
0.0000000000000001
 20
2.0
 30
0.0
 11
0.0000000000000012
 21
20.108468320300972
 31
0.0
  0
LINE
  5
357
  8
1
 10
-40.0
 20
8.5
 30
0.0
 11
-40.0
 21
20.108468320300972
 31
0.0
  0
LINE
  5
358
  8
1
 10
1.0000000000000011
 20
19.108468320300972
 30
0.0
 11
-41.0
 21
19.108468320300972
 31
0.0
  0
INSERT
  5
359
  8
1
  2
_OBLIQUE
 10
0.0000000000000012
 20
19.108468320300972
 30
0.0
 41
2.0
 42
2.0
 43
2.0
  0
INSERT
  5
35A
  8
1
  2
_OBLIQUE
 10
-40.0
 20
19.108468320300972
 30
0.0
 41
2.0
 42
2.0
 43
2.0
 50
180.0
  0
TEXT
  5
35B
  8
0
 10
-22.633356070941339
 20
20.175316887831659
 30
0.0
 40
3.5
  1
40
  7
BESCHLAG
  0
POINT
  5
35C
  8
DEFPOINTS
 62
     0
 10
0.0
 20
0.0
 30
0.0
  0
POINT
  5
35D
  8
DEFPOINTS
 62
     0
 10
-40.0
 20
6.5
 30
0.0
  0
POINT
  5
35E
  8
DEFPOINTS
 62
     0
 10
-40.0
 20
19.108468320300972
 30
0.0
  0
ENDBLK
  5
328
  8
0
  0
BLOCK
  8
0
  2
*D5
 70
     1
 10
0.0
 20
0.0
 30
0.0
  3
*D5
  1

  0
LINE
  5
35F
  8
1
 10
0.0000000000000001
 20
32.0
 30
0.0
 11
0.0000000000000008
 21
42.264258194860759
 31
0.0
  0
LINE
  5
360
  8
1
 10
-7.0
 20
32.0
 30
0.0
 11
-6.9999999999999991
 21
42.264258194860759
 31
0.0
  0
LINE
  5
361
  8
1
 10
1.0
 20
41.264258194860751
 30
0.0
 11
-7.9999999999999991
 21
41.264258194860751
 31
0.0
  0
INSERT
  5
362
  8
1
  2
_OBLIQUE
 10
0.0000000000000007
 20
41.264258194860751
 30
0.0
 41
2.0
 42
2.0
 43
2.0
  0
INSERT
  5
363
  8
1
  2
_OBLIQUE
 10
-6.9999999999999991
 20
41.264258194860751
 30
0.0
 41
2.0
 42
2.0
 43
2.0
 50
180.0
  0
TEXT
  5
364
  8
0
 10
-4.8644270122783082
 20
42.264258194860759
 30
0.0
 40
3.5
  1
7
  7
BESCHLAG
  0
POINT
  5
365
  8
DEFPOINTS
 62
     0
 10
0.0
 20
30.0
 30
0.0
  0
POINT
  5
366
  8
DEFPOINTS
 62
     0
 10
-7.0
 20
30.0
 30
0.0
  0
POINT
  5
367
  8
DEFPOINTS
 62
     0
 10
-6.9999999999999991
 20
41.264258194860751
 30
0.0
  0
ENDBLK
  5
334
  8
0
  0
BLOCK
  8
0
  2
*D6
 70
     1
 10
0.0
 20
0.0
 30
0.0
  3
*D6
  1

  0
LINE
  5
371
  8
1
 10
0.0000000000000001
 20
31.99999999999886
 30
0.0
 11
0.0000000000000008
 21
42.264258194860531
 31
0.0
  0
LINE
  5
372
  8
1
 10
5.0
 20
31.99999999999886
 30
0.0
 11
5.0
 21
42.264258194860531
 31
0.0
  0
LINE
  5
373
  8
1
 10
-0.9999999999999992
 20
41.264258194860531
 30
0.0
 11
6.0
 21
41.264258194860531
 31
0.0
  0
INSERT
  5
374
  8
1
  2
_OBLIQUE
 10
0.0000000000000007
 20
41.264258194860531
 30
0.0
 41
2.0
 42
2.0
 43
2.0
 50
180.0
  0
INSERT
  5
375
  8
1
  2
_OBLIQUE
 10
5.0
 20
41.264258194860531
 30
0.0
 41
2.0
 42
2.0
 43
2.0
  0
TEXT
  5
376
  8
0
 10
1.136766712141883
 20
42.323944415870081
 30
0.0
 40
3.5
  1
5
  7
BESCHLAG
  0
POINT
  5
377
  8
DEFPOINTS
 62
     0
 10
0.0
 20
29.99999999999886
 30
0.0
  0
POINT
  5
378
  8
DEFPOINTS
 62
     0
 10
5.0
 20
29.99999999999886
 30
0.0
  0
POINT
  5
379
  8
DEFPOINTS
 62
     0
 10
5.0
 20
41.264258194860531
 30
0.0
  0
ENDBLK
  5
34C
  8
0
  0
ENDSEC
  0
SECTION
  2
ENTITIES
  0
INSERT
  5
25B
  8
5
  2
NULLPUNKT
 10
0.0
 20
0.0
 30
0.0
  0
TEXT
  5
2FB
  8
1
 10
-81.414057609129031
 20
-7.0925258189978422
 30
0.0
 40
2.4999999499999999
  1
Hebgo 906
  0
INSERT
  5
2FC
  8
2
  2
*X2
 10
-1083.9001270235619
 20
621.94440416219925
 30
0.0
1001
ACAD
1000
HATCH
1002
{
1070
    16
1000
_U,I
1040
1.1999999999999991
1040
0.7853981633974483
1070
     0
1002
}
  0
DIMENSION
  5
2FD
  8
1
  2
*D3
 10
11.92523463458064
 20
30.0
 30
0.0
 11
9.1370354531345281
 21
15.0
 31
0.0
 70
     0
 13
0.0
 23
0.0
 33
0.0
 14
0.0
 24
30.0
 34
0.0
 50
90.0
  0
TEXT
  5
2FE
  8
1
 10
-35.38985308968995
 20
9.4308009789166363
 30
0.0
 40
2.4999999499999999
  1
Hebgo 180/620 b
  0
POLYLINE
  5
2FF
  8
4
 66
     1
 10
0.0
 20
0.0
 30
0.0
 70
     1
  0
VERTEX
  5
47B
  8
4
 10
0.0
 20
30.0
 30
0.0
  0
VERTEX
  5
47C
  8
4
 10
-6.5
 20
30.0
 30
0.0
  0
VERTEX
  5
47D
  8
4
 10
-6.5
 20
15.0
 30
0.0
  0
VERTEX
  5
47E
  8
4
 10
-3.300000000000181
 20
11.799999999999949
 30
0.0
  0
VERTEX
  5
47F
  8
4
 10
-3.300000000000181
 20
6.5
 30
0.0
  0
VERTEX
  5
480
  8
4
 10
-6.5
 20
3.2999999999999541
 30
0.0
  0
VERTEX
  5
481
  8
4
 10
-21.800000000000178
 20
3.2999999999999541
 30
0.0
  0
VERTEX
  5
482
  8
4
 10
-25.0
 20
6.5
 30
0.0
  0
VERTEX
  5
483
  8
4
 10
-40.0
 20
6.5
 30
0.0
  0
VERTEX
  5
484
  8
4
 10
-40.0
 20
0.0
 30
0.0
  0
VERTEX
  5
485
  8
4
 10
0.0
 20
0.0
 30
0.0
  0
SEQEND
  5
486
  8
4
  0
POLYLINE
  5
300
  8
6
 66
     1
 10
0.0
 20
0.0
 30
0.0
 70
     1
  0
VERTEX
  5
487
  8
6
 10
-6.5
 20
3.2999999999999541
 30
0.0
  0
VERTEX
  5
488
  8
6
 10
-3.300000000000181
 20
6.5
 30
0.0
  0
VERTEX
  5
489
  8
6
 10
-3.300000000000181
 20
11.799999999999949
 30
0.0
  0
VERTEX
  5
48A
  8
6
 10
-6.5
 20
15.0
 30
0.0
  0
VERTEX
  5
48B
  8
6
 10
-6.5
 20
21.458578643836741
 30
0.0
 42
-0.1989123670509405
  0
VERTEX
  5
48C
  8
6
 10
-6.4707106782079791
 20
21.52928932186591
 30
0.0
  0
VERTEX
  5
48D
  8
6
 10
-6.0707106781187568
 20
21.929289322967399
 30
0.0
 42
0.4142135623730907
  0
VERTEX
  5
48E
  8
6
 10
-6.0707106781187568
 20
22.070710679204691
 30
0.0
  0
VERTEX
  5
48F
  8
6
 10
-6.4707106781188477
 20
22.470710678118621
 30
0.0
 42
-0.198912367379658
  0
VERTEX
  5
490
  8
6
 10
-6.5
 20
22.541421356237372
 30
0.0
  0
VERTEX
  5
491
  8
6
 10
-6.5
 20
29.799999999999951
 30
0.0
 42
-0.4142135623730951
  0
VERTEX
  5
492
  8
6
 10
-6.300000000000181
 20
30.0
 30
0.0
  0
VERTEX
  5
493
  8
6
 10
-0.1999999999998181
 20
30.0
 30
0.0
 42
-0.4142135623730951
  0
VERTEX
  5
494
  8
6
 10
0.0
 20
29.799999999999951
 30
0.0
  0
VERTEX
  5
495
  8
6
 10
0.0
 20
27.0
 30
0.0
 42
-0.4142135623730951
  0
VERTEX
  5
496
  8
6
 10
-1.0
 20
26.0
 30
0.0
  0
VERTEX
  5
497
  8
6
 10
-1.1999999999998181
 20
26.0
 30
0.0
 42
-0.4142135623730951
  0
VERTEX
  5
498
  8
6
 10
-1.4000000000000901
 20
26.200000000000038
 30
0.0
  0
VERTEX
  5
499
  8
6
 10
-1.4000000000000901
 20
27.799999999999951
 30
0.0
 42
0.4142135623730951
  0
VERTEX
  5
49A
  8
6
 10
-1.5999999999999091
 20
28.0
 30
0.0
  0
VERTEX
  5
49B
  8
6
 10
-3.800000000000181
 20
28.0
 30
0.0
 42
0.4142135623730988
  0
VERTEX
  5
49C
  8
6
 10
-4.0
 20
27.799999999999951
 30
0.0
  0
VERTEX
  5
49D
  8
6
 10
-4.0
 20
16.200000000000038
 30
0.0
 42
0.4142135623730951
  0
VERTEX
  5
49E
  8
6
 10
-3.800000000000181
 20
16.0
 30
0.0
  0
VERTEX
  5
49F
  8
6
 10
-1.5999999999999091
 20
16.0
 30
0.0
 42
0.4142135623730914
  0
VERTEX
  5
4A0
  8
6
 10
-1.4000000000000901
 20
16.200000000000038
 30
0.0
  0
VERTEX
  5
4A1
  8
6
 10
-1.4000000000000901
 20
17.799999999999951
 30
0.0
 42
-0.4142135623730951
  0
VERTEX
  5
4A2
  8
6
 10
-1.1999999999998181
 20
18.0
 30
0.0
  0
VERTEX
  5
4A3
  8
6
 10
-1.0
 20
18.0
 30
0.0
 42
-0.4142135623730948
  0
VERTEX
  5
4A4
  8
6
 10
0.0
 20
17.0
 30
0.0
  0
VERTEX
  5
4A5
  8
6
 10
0.0
 20
0.0
 30
0.0
  0
VERTEX
  5
4A6
  8
6
 10
-27.0
 20
0.0
 30
0.0
 42
-0.4142135623730948
  0
VERTEX
  5
4A7
  8
6
 10
-28.0
 20
1.0
 30
0.0
  0
VERTEX
  5
4A8
  8
6
 10
-28.0
 20
1.200000000000045
 30
0.0
 42
-0.4142135623730951
  0
VERTEX
  5
4A9
  8
6
 10
-27.800000000000178
 20
1.4000000000000901
 30
0.0
  0
VERTEX
  5
4AA
  8
6
 10
-26.199999999999811
 20
1.4000000000000901
 30
0.0
 42
0.4142135623730951
  0
VERTEX
  5
4AB
  8
6
 10
-26.0
 20
1.5999999999999091
 30
0.0
  0
VERTEX
  5
4AC
  8
6
 10
-26.0
 20
3.7999999999999541
 30
0.0
 42
0.4142135623730951
  0
VERTEX
  5
4AD
  8
6
 10
-26.199999999999811
 20
4.0
 30
0.0
  0
VERTEX
  5
4AE
  8
6
 10
-37.800000000000182
 20
4.0
 30
0.0
 42
0.4142135623730944
  0
VERTEX
  5
4AF
  8
6
 10
-38.0
 20
3.7999999999999541
 30
0.0
  0
VERTEX
  5
4B0
  8
6
 10
-38.0
 20
1.5999999999999091
 30
0.0
 42
0.4142135623730951
  0
VERTEX
  5
4B1
  8
6
 10
-37.800000000000182
 20
1.4000000000000901
 30
0.0
  0
VERTEX
  5
4B2
  8
6
 10
-36.199999999999811
 20
1.4000000000000901
 30
0.0
 42
-0.4142135623730951
  0
VERTEX
  5
4B3
  8
6
 10
-36.0
 20
1.200000000000045
 30
0.0
  0
VERTEX
  5
4B4
  8
6
 10
-36.0
 20
1.0
 30
0.0
 42
-0.4142135623730951
  0
VERTEX
  5
4B5
  8
6
 10
-37.0
 20
0.0
 30
0.0
  0
VERTEX
  5
4B6
  8
6
 10
-39.800000000000182
 20
0.0
 30
0.0
 42
-0.4142135623730951
  0
VERTEX
  5
4B7
  8
6
 10
-40.0
 20
0.2000000000000455
 30
0.0
  0
VERTEX
  5
4B8
  8
6
 10
-40.0
 20
6.2999999999999536
 30
0.0
 42
-0.4142135623730951
  0
VERTEX
  5
4B9
  8
6
 10
-39.800000000000182
 20
6.5
 30
0.0
  0
VERTEX
  5
4BA
  8
6
 10
-25.0
 20
6.5
 30
0.0
  0
VERTEX
  5
4BB
  8
6
 10
-21.800000000000178
 20
3.2999999999999541
 30
0.0
  0
SEQEND
  5
4BC
  8
6
  0
DIMENSION
  5
301
  8
1
  2
*D4
 10
-40.0
 20
19.108468320300972
 30
0.0
 11
-20.0
 21
21.895473777326892
 31
0.0
 70
     0
 13
0.0
 23
0.0
 33
0.0
 14
-40.0
 24
6.5
 34
0.0
  0
POINT
  5
302
  8
5
 10
-4.0
 20
22.0
 30
0.0
  0
DIMENSION
  5
303
  8
1
  2
*D5
 10
-6.9999999999999991
 20
41.264258194860751
 30
0.0
 11
-3.4999999999999991
 21
44.014258194860759
 31
0.0
 70
     0
 13
0.0
 23
30.0
 33
0.0
 14
-7.0
 24
30.0
 34
0.0
  0
POLYLINE
  5
305
  8
5
 66
     1
 10
0.0
 20
0.0
 30
0.0
  0
VERTEX
  5
4BD
  8
5
 10
5.0
 20
38.88387920552077
 30
0.0
  0
VERTEX
  5
4BE
  8
5
 10
5.0
 20
5.0
 30
0.0
  0
VERTEX
  5
4BF
  8
5
 10
19.932101346779739
 20
5.0
 30
0.0
  0
SEQEND
  5
4C0
  8
5
  0
DIMENSION
  5
306
  8
1
  2
*D6
 10
5.0
 20
41.264258194860531
 30
0.0
 11
2.5
 21
44.044101305365302
 31
0.0
 70
     0
 13
0.0
 23
29.99999999999886
 33
0.0
 14
5.0
 24
29.99999999999886
 34
0.0
  0
POINT
  5
307
  8
5
 10
-4.0
 20
22.0
 30
0.0
  0
POLYLINE
  5
308
  8
6
 66
     1
 10
0.0
 20
0.0
 30
0.0
 70
     1
  0
VERTEX
  5
4C1
  8
6
 10
-4.0
 20
19.31332508894365
 30
0.0
 42
0.6415838065530063
  0
VERTEX
  5
4C2
  8
6
 10
-3.6174236954407202
 20
24.688897230028712
 30
0.0
 42
-0.5157822426877657
  0
VERTEX
  5
4C3
  8
6
 10
-3.703928960500888
 20
25.999253970000829
 30
0.0
  0
VERTEX
  5
4C4
  8
6
 10
-2.3372723755505831
 20
26.796251492670301
 30
0.0
  0
VERTEX
  5
4C5
  8
6
 10
-1.6685687309527559
 20
26.796251492670301
 30
0.0
  0
VERTEX
  5
4C6
  8
6
 10
-1.6685687309527559
 20
25.962108501654249
 30
0.0
  0
VERTEX
  5
4C7
  8
6
 10
-0.2309356594782912
 20
25.962108501654249
 30
0.0
 42
-0.2542712822039416
  0
VERTEX
  5
4C8
  8
6
 10
1.3241743497765119
 20
26.909786540928049
 30
0.0
 42
-0.239805045364585
  0
VERTEX
  5
4C9
  8
6
 10
3.5443628129978602
 20
25.882543598282609
 30
0.0
 42
-0.0952903634792644
  0
VERTEX
  5
4CA
  8
6
 10
4.4750626397540136
 20
23.760318071709431
 30
0.0
 42
-0.0700993617324612
  0
VERTEX
  5
4CB
  8
6
 10
4.6300056314753411
 20
18.036364101447131
 30
0.0
 42
-0.9870930961173433
  0
VERTEX
  5
4CC
  8
6
 10
3.9747076925127649
 20
18.134196738844128
 30
0.0
 42
0.0371998225987245
  0
VERTEX
  5
4CD
  8
6
 10
3.8320511880192489
 20
22.598556315046832
 30
0.0
 42
0.0985543060514419
  0
VERTEX
  5
4CE
  8
6
 10
3.0455539515855881
 20
24.552019351940309
 30
0.0
 42
0.1211139390109317
  0
VERTEX
  5
4CF
  8
6
 10
2.107493069581778
 20
25.31870506498376
 30
0.0
 42
0.2870603126370058
  0
VERTEX
  5
4D0
  8
6
 10
1.138343559716759
 20
25.041182705576599
 30
0.0
 42
0.1002807908351088
  0
VERTEX
  5
4D1
  8
6
 10
0.6786569676924046
 20
23.788924591372052
 30
0.0
 42
0.0333497571445928
  0
VERTEX
  5
4D2
  8
6
 10
0.2170733406665022
 20
19.164673721853202
 30
0.0
 42
-0.4545352424188308
  0
VERTEX
  5
4D3
  8
6
 10
-0.2849645797496123
 20
18.46162663271161
 30
0.0
  0
VERTEX
  5
4D4
  8
6
 10
-1.7664845131016591
 20
17.889615062025989
 30
0.0
 42
0.3791917245757989
  0
VERTEX
  5
4D5
  8
6
 10
-1.9327541475304311
 20
17.214569714000611
 30
0.0
  0
VERTEX
  5
4D6
  8
6
 10
-1.672772918625469
 20
16.503595342986952
 30
0.0
  0
VERTEX
  5
4D7
  8
6
 10
-2.0849578429865678
 20
16.10778858778508
 30
0.0
  0
VERTEX
  5
4D8
  8
6
 10
-2.263021689441302
 20
16.097893428626321
 30
0.0
  0
VERTEX
  5
4D9
  8
6
 10
-4.0
 20
17.13517379532049
 30
0.0
  0
SEQEND
  5
4DA
  8
6
  0
POLYLINE
  5
309
  8
6
 66
     1
 10
0.0
 20
0.0
 30
0.0
 70
     1
  0
VERTEX
  5
4DB
  8
6
 10
-26.5
 20
3.700000000000045
 30
0.0
  0
VERTEX
  5
4DC
  8
6
 10
-33.178182981237789
 20
3.6999999999999309
 30
0.0
 42
0.2979024853978631
  0
VERTEX
  5
4DD
  8
6
 10
-35.010288806168319
 20
2.5021148585182109
 30
0.0
  0
VERTEX
  5
4DE
  8
6
 10
-36.250849823681499
 20
0.0023065905892281
 30
0.0
 42
-0.2979024853978892
  0
VERTEX
  5
4DF
  8
6
 10
-36.708876279914193
 20
-0.2971646947812587
 30
0.0
  0
VERTEX
  5
4E0
  8
6
 10
-39.75020276315945
 20
-0.2971646947812587
 30
0.0
 42
-0.4142135623730951
  0
VERTEX
  5
4E1
  8
6
 10
-40.250202763159443
 20
0.2028353052187413
 30
0.0
  0
VERTEX
  5
4E2
  8
6
 10
-40.250202763159443
 20
6.0249982568549276
 30
0.0
 42
-0.1564024178525488
  0
VERTEX
  5
4E3
  8
6
 10
-40.156972813598259
 20
6.315752665361515
 30
0.0
  0
VERTEX
  5
4E4
  8
6
 10
-38.187616562855958
 20
8.0721435225143523
 30
0.0
  0
VERTEX
  5
4E5
  8
6
 10
-39.51882007820268
 20
9.5647577394936434
 30
0.0
  0
VERTEX
  5
4E6
  8
6
 10
-41.590604399056929
 20
7.7170153425712442
 30
0.0
 42
0.1880239795834631
  0
VERTEX
  5
4E7
  8
6
 10
-42.25020276315945
 20
6.0249982568016094
 30
0.0
  0
VERTEX
  5
4E8
  8
6
 10
-42.25020276315945
 20
0.2028353052187413
 30
0.0
 42
0.4142135623730951
  0
VERTEX
  5
4E9
  8
6
 10
-39.75020276315945
 20
-2.2971646947812578
 30
0.0
  0
VERTEX
  5
4EA
  8
6
 10
-36.708876279933399
 20
-2.2971646947812578
 30
0.0
 42
0.2906967135076304
  0
VERTEX
  5
4EB
  8
6
 10
-34.446142200321212
 20
-0.860195496329652
 30
0.0
  0
VERTEX
  5
4EC
  8
6
 10
-33.175613267880749
 20
1.7000000000001589
 30
0.0
  0
VERTEX
  5
4ED
  8
6
 10
-26.5
 20
1.700000000000045
 30
0.0
  0
SEQEND
  5
4EE
  8
6
  0
POLYLINE
  5
30A
  8
6
 66
     1
 10
0.0
 20
0.0
 30
0.0
  0
VERTEX
  5
4EF
  8
6
 10
-26.5
 20
3.200000000000045
 30
0.0
  0
VERTEX
  5
4F0
  8
6
 10
-33.178182981237789
 20
3.1999999999999309
 30
0.0
 42
0.2999244947259431
  0
VERTEX
  5
4F1
  8
6
 10
-34.55669100147577
 20
2.2913675998344161
 30
0.0
  0
VERTEX
  5
4F2
  8
6
 10
-35.798550645519299
 20
-0.2110574820134161
 30
0.0
 42
-0.294080808329901
  0
VERTEX
  5
4F3
  8
6
 10
-36.708876279914193
 20
-0.7971646947812588
 30
0.0
  0
VERTEX
  5
4F4
  8
6
 10
-39.75020276315945
 20
-0.7971646947812588
 30
0.0
 42
-0.4142135623730951
  0
VERTEX
  5
4F5
  8
6
 10
-40.75020276315945
 20
0.2028353052187413
 30
0.0
  0
VERTEX
  5
4F6
  8
6
 10
-40.75020276315945
 20
6.0249982568549276
 30
0.0
 42
-0.1731346391236261
  0
VERTEX
  5
4F7
  8
6
 10
-40.524153006677352
 20
6.6582446705912162
 30
0.0
  0
VERTEX
  5
4F8
  8
6
 10
-38.520417441692643
 20
8.4452970767591751
 30
0.0
  0
SEQEND
  5
4F9
  8
6
  0
POLYLINE
  5
30B
  8
6
 66
     1
 10
0.0
 20
0.0
 30
0.0
  0
VERTEX
  5
4FA
  8
6
 10
-26.5
 20
2.700000000000045
 30
0.0
  0
VERTEX
  5
4FB
  8
6
 10
-33.17818298123575
 20
2.700000000000045
 30
0.0
 42
0.3033220033015464
  0
VERTEX
  5
4FC
  8
6
 10
-34.1020279142109
 20
2.0827669523565642
 30
0.0
  0
VERTEX
  5
4FD
  8
6
 10
-35.347279707970529
 20
-0.4264935239518764
 30
0.0
 42
-0.2923904282578467
  0
VERTEX
  5
4FE
  8
6
 10
-36.70887627993659
 20
-1.2971646947812581
 30
0.0
  0
VERTEX
  5
4FF
  8
6
 10
-39.75020276315945
 20
-1.2971646947812581
 30
0.0
 42
-0.4142135623730951
  0
VERTEX
  5
500
  8
6
 10
-41.25020276315945
 20
0.2028353052187413
 30
0.0
  0
VERTEX
  5
501
  8
6
 10
-41.25020276315945
 20
6.0249982568165024
 30
0.0
 42
-0.1805621658660177
  0
VERTEX
  5
502
  8
6
 10
-40.88328541323903
 20
7.0079141779382317
 30
0.0
  0
VERTEX
  5
503
  8
6
 10
-38.853218320529322
 20
8.8184506310039978
 30
0.0
  0
SEQEND
  5
504
  8
6
  0
POLYLINE
  5
30C
  8
6
 66
     1
 10
0.0
 20
0.0
 30
0.0
  0
VERTEX
  5
505
  8
6
 10
-26.5
 20
2.200000000000045
 30
0.0
  0
VERTEX
  5
506
  8
6
 10
-33.178182981235857
 20
2.200000000000045
 30
0.0
 42
0.3110176465481184
  0
VERTEX
  5
507
  8
6
 10
-33.645305334851059
 20
1.8783163106375009
 30
0.0
  0
VERTEX
  5
508
  8
6
 10
-34.896540928796412
 20
-0.6430018983962782
 30
0.0
 42
-0.2913835292343037
  0
VERTEX
  5
509
  8
6
 10
-36.708876279931133
 20
-1.7971646947812581
 30
0.0
  0
VERTEX
  5
50A
  8
6
 10
-39.75020276315945
 20
-1.7971646947812581
 30
0.0
 42
-0.4142135623730951
  0
VERTEX
  5
50B
  8
6
 10
-41.75020276315945
 20
0.2028353052187413
 30
0.0
  0
VERTEX
  5
50C
  8
6
 10
-41.75020276315945
 20
6.0249982567686402
 30
0.0
 42
-0.184995633674859
  0
VERTEX
  5
50D
  8
6
 10
-41.238268458549889
 20
7.3612843362778904
 30
0.0
  0
VERTEX
  5
50E
  8
6
 10
-39.186019199366001
 20
9.1916041852488206
 30
0.0
  0
SEQEND
  5
50F
  8
6
  0
POLYLINE
  5
30D
  8
6
 66
     1
 10
0.0
 20
0.0
 30
0.0
  0
VERTEX
  5
510
  8
6
 10
-39.700202763159723
 20
-0.2971646947812587
 30
0.0
  0
VERTEX
  5
511
  8
6
 10
-53.905022074132951
 20
-0.297164694781145
 30
0.0
  0
VERTEX
  5
512
  8
6
 10
-63.59124566468882
 20
4.853396223599133
 30
0.0
 42
0.2418206986979301
  0
VERTEX
  5
513
  8
6
 10
-67.246252815582238
 20
4.9052462844956599
 30
0.0
  0
VERTEX
  5
514
  8
6
 10
-76.552942958114045
 20
0.2902407400135871
 30
0.0
  0
VERTEX
  5
515
  8
6
 10
-85.891526297276528
 20
4.9210614966742687
 30
0.0
 42
0.2343261328240422
  0
VERTEX
  5
516
  8
6
 10
-89.445595000450339
 20
4.921061496674155
 30
0.0
  0
VERTEX
  5
517
  8
6
 10
-98.784178339613064
 20
0.2902407400135871
 30
0.0
  0
VERTEX
  5
518
  8
6
 10
-97.895661163819696
 20
-1.501556466234887
 30
0.0
  0
VERTEX
  5
519
  8
6
 10
-88.557077824656616
 20
3.1292642904257941
 30
0.0
 42
-0.2343261328239351
  0
VERTEX
  5
51A
  8
6
 10
-86.780043473070123
 20
3.12926429042568
 30
0.0
  0
VERTEX
  5
51B
  8
6
 10
-77.441460133907299
 20
-1.501556466234887
 30
0.0
 42
0.2343261328239322
  0
VERTEX
  5
51C
  8
6
 10
-75.664425782320905
 20
-1.501556466234887
 30
0.0
  0
VERTEX
  5
51D
  8
6
 10
-66.357735639788871
 20
3.1134490782471849
 30
0.0
 42
-0.2418206986978837
  0
VERTEX
  5
51E
  8
6
 10
-64.530232064342272
 20
3.087524047798865
 30
0.0
  0
VERTEX
  5
51F
  8
6
 10
-54.844008473786289
 20
-2.0630368705815272
 30
0.0
 42
0.1227907796755793
  0
VERTEX
  5
520
  8
6
 10
-53.905022074133278
 20
-2.2971646947812578
 30
0.0
  0
VERTEX
  5
521
  8
6
 10
-39.700202763159723
 20
-2.2971646947812578
 30
0.0
  0
SEQEND
  5
522
  8
6
  0
POLYLINE
  5
30E
  8
6
 66
     1
 10
0.0
 20
0.0
 30
0.0
  0
VERTEX
  5
523
  8
6
 10
-39.700202763159723
 20
-1.7971646947812581
 30
0.0
  0
VERTEX
  5
524
  8
6
 10
-53.90502207413283
 20
-1.797164694781145
 30
0.0
 42
-0.1227907796755781
  0
VERTEX
  5
525
  8
6
 10
-54.609261873872583
 20
-1.621568826631687
 30
0.0
  0
VERTEX
  5
526
  8
6
 10
-64.295485464428907
 20
3.5289920917489321
 30
0.0
 42
0.2418206986979325
  0
VERTEX
  5
527
  8
6
 10
-66.57986493373744
 20
3.5613983798091331
 30
0.0
  0
VERTEX
  5
528
  8
6
 10
-75.886555076268905
 20
-1.0536071646727121
 30
0.0
 42
-0.2343261328240303
  0
VERTEX
  5
529
  8
6
 10
-77.219330839959412
 20
-1.053607164672598
 30
0.0
  0
VERTEX
  5
52A
  8
6
 10
-86.557914179121553
 20
3.5772135919877419
 30
0.0
 42
0.2343261328240438
  0
VERTEX
  5
52B
  8
6
 10
-88.779207118605427
 20
3.5772135919877419
 30
0.0
  0
VERTEX
  5
52C
  8
6
 10
-98.117790457768024
 20
-1.053607164672826
 30
0.0
 42
-0.2343261328240571
  0
SEQEND
  5
52D
  8
6
  0
POLYLINE
  5
30F
  8
6
 66
     1
 10
0.0
 20
0.0
 30
0.0
  0
VERTEX
  5
52E
  8
6
 10
-39.700202763159723
 20
-1.2971646947812581
 30
0.0
  0
VERTEX
  5
52F
  8
6
 10
-53.905022074133171
 20
-1.297164694781145
 30
0.0
 42
-0.1227907796755804
  0
VERTEX
  5
530
  8
6
 10
-54.37451527395956
 20
-1.1801007826813921
 30
0.0
  0
VERTEX
  5
531
  8
6
 10
-64.060738864515429
 20
3.9704601356989988
 30
0.0
 42
0.2418206986979378
  0
VERTEX
  5
532
  8
6
 10
-66.801994227685654
 20
4.0093476813713087
 30
0.0
  0
VERTEX
  5
533
  8
6
 10
-76.108684370217134
 20
-0.6056578631105367
 30
0.0
 42
-0.2343261328240147
  0
VERTEX
  5
534
  8
6
 10
-76.997201546010956
 20
-0.6056578631105367
 30
0.0
  0
VERTEX
  5
535
  8
6
 10
-86.335784885173197
 20
4.0251628935499184
 30
0.0
 42
0.2343261328240469
  0
VERTEX
  5
536
  8
6
 10
-89.001336412553769
 20
4.0251628935499184
 30
0.0
  0
VERTEX
  5
537
  8
6
 10
-98.339919751716366
 20
-0.6056578631106504
 30
0.0
 42
-0.2343261328240553
  0
SEQEND
  5
538
  8
6
  0
POLYLINE
  5
310
  8
6
 66
     1
 10
0.0
 20
0.0
 30
0.0
  0
VERTEX
  5
539
  8
6
 10
-39.700202763159723
 20
-0.7971646947812588
 30
0.0
  0
VERTEX
  5
53A
  8
6
 10
-53.905022074133171
 20
-0.797164694781145
 30
0.0
 42
-0.1227907796755586
  0
VERTEX
  5
53B
  8
6
 10
-54.139768674046202
 20
-0.738632738731326
 30
0.0
  0
VERTEX
  5
53C
  8
6
 10
-63.825992264602057
 20
4.4119281796490659
 30
0.0
 42
0.2418206986979313
  0
VERTEX
  5
53D
  8
6
 10
-67.024123521633896
 20
4.4572969829334852
 30
0.0
  0
VERTEX
  5
53E
  8
6
 10
-76.330813664165362
 20
-0.1577085615483611
 30
0.0
 42
-0.2343261328240752
  0
VERTEX
  5
53F
  8
6
 10
-76.775072252062728
 20
-0.1577085615483611
 30
0.0
  0
VERTEX
  5
540
  8
6
 10
-86.113655591224884
 20
4.473112195112094
 30
0.0
 42
0.2343261328240394
  0
VERTEX
  5
541
  8
6
 10
-89.223465706501997
 20
4.473112195112094
 30
0.0
  0
VERTEX
  5
542
  8
6
 10
-98.562049045664708
 20
-0.1577085615484748
 30
0.0
 42
-0.2343261328240224
  0
SEQEND
  5
543
  8
6
  0
VIEWPORT
  5
22
 67
     1
  8
0
 10
210.0
 20
170.2366863905325
 30
0.0
 40
420.0
 41
340.47337278106511
 68
     1
 69
     1
1001
ACAD
1000
MVIEW
1002
{
1070
    16
1010
0.0
1020
0.0
1030
0.0
1010
0.0
1020
0.0
1030
1.0
1040
0.0
1040
340.47337278106511
1040
210.0
1040
170.2366863905325
1040
50.0
1040
0.0
1040
0.0
1070
     0
1070
   100
1070
     1
1070
     1
1070
     0
1070
     0
1070
     0
1070
     0
1040
0.0
1040
0.0
1040
0.0
1040
5.0
1040
5.0
1040
10.0
1040
10.0
1070
     0
1002
{
1002
}
1002
}
  0
ENDSEC
  0
EOF
