  0
SECTION
  2
HEADER
  9
$ACADVER
  1
AC1009
  9
$INSBASE
 10
0.0
 20
0.0
 30
0.0
  9
$EXTMIN
 10
-88.691710655917049
 20
-13.481139279297849
 30
-0.0000000000000058
  9
$EXTMAX
 10
17.005920953822731
 20
57.5408941455429
 30
0.0000000000000104
  9
$LIMMIN
 10
-150.0
 20
-150.0
  9
$LIMMAX
 10
150.0
 20
150.0
  9
$ORTHOMODE
 70
     0
  9
$REGENMODE
 70
     1
  9
$FILLMODE
 70
     1
  9
$QTEXTMODE
 70
     0
  9
$MIRRTEXT
 70
     0
  9
$DRAGMODE
 70
     2
  9
$LTSCALE
 40
1.0
  9
$OSMODE
 70
   111
  9
$ATTMODE
 70
     1
  9
$TEXTSIZE
 40
3.5
  9
$TRACEWID
 40
1.0
  9
$TEXTSTYLE
  7
BESCHLAG
  9
$CLAYER
  8
0
  9
$CELTYPE
  6
BYLAYER
  9
$CECOLOR
 62
   256
  9
$DIMSCALE
 40
1.0
  9
$DIMASZ
 40
2.0
  9
$DIMEXO
 40
2.0
  9
$DIMDLI
 40
0.0
  9
$DIMRND
 40
0.0
  9
$DIMDLE
 40
1.0
  9
$DIMEXE
 40
1.0
  9
$DIMTP
 40
0.0
  9
$DIMTM
 40
0.0
  9
$DIMTXT
 40
3.5
  9
$DIMCEN
 40
0.0
  9
$DIMTSZ
 40
0.0
  9
$DIMTOL
 70
     0
  9
$DIMLIM
 70
     0
  9
$DIMTIH
 70
     0
  9
$DIMTOH
 70
     0
  9
$DIMSE1
 70
     0
  9
$DIMSE2
 70
     0
  9
$DIMTAD
 70
     1
  9
$DIMZIN
 70
     8
  9
$DIMBLK
  1

  9
$DIMASO
 70
     1
  9
$DIMSHO
 70
     1
  9
$DIMPOST
  1

  9
$DIMAPOST
  1

  9
$DIMALT
 70
     0
  9
$DIMALTD
 70
     2
  9
$DIMALTF
 40
0.039370078740157
  9
$DIMLFAC
 40
1.0
  9
$DIMTOFL
 70
     1
  9
$DIMTVP
 40
0.0
  9
$DIMTIX
 70
     1
  9
$DIMSOXD
 70
     0
  9
$DIMSAH
 70
     1
  9
$DIMBLK1
  1
OBLIQUE
  9
$DIMBLK2
  1
OBLIQUE
  9
$DIMSTYLE
  2
OPO-SSTRICH
  9
$DIMCLRD
 70
   256
  9
$DIMCLRE
 70
   256
  9
$DIMCLRT
 70
   256
  9
$DIMTFAC
 40
0.7114285714285716
  9
$DIMGAP
 40
1.0
  9
$LUNITS
 70
     2
  9
$LUPREC
 70
     1
  9
$SKETCHINC
 40
1.0
  9
$FILLETRAD
 40
0.0
  9
$AUNITS
 70
     0
  9
$AUPREC
 70
     1
  9
$MENU
  1
D:\ACL_CGWG\CGTAB13
  9
$ELEVATION
 40
0.0
  9
$PELEVATION
 40
0.0
  9
$THICKNESS
 40
0.0
  9
$LIMCHECK
 70
     0
  9
$BLIPMODE
 70
     0
  9
$CHAMFERA
 40
1.0
  9
$CHAMFERB
 40
1.0
  9
$SKPOLY
 70
     0
  9
$TDCREATE
 40
2451739.8984286338
  9
$TDUPDATE
 40
2452087.632564479
  9
$TDINDWG
 40
0.0007754051
  9
$TDUSRTIMER
 40
0.0007752199
  9
$USRTIMER
 70
     1
  9
$ANGBASE
 50
0.0
  9
$ANGDIR
 70
     0
  9
$PDMODE
 70
    35
  9
$PDSIZE
 40
5.0
  9
$PLINEWID
 40
0.0
  9
$COORDS
 70
     1
  9
$SPLFRAME
 70
     0
  9
$SPLINETYPE
 70
     6
  9
$SPLINESEGS
 70
     8
  9
$ATTDIA
 70
     1
  9
$ATTREQ
 70
     1
  9
$HANDLING
 70
-16383
  9
$HANDSEED
  5
505
  9
$SURFTAB1
 70
    12
  9
$SURFTAB2
 70
    12
  9
$SURFTYPE
 70
     6
  9
$SURFU
 70
    12
  9
$SURFV
 70
    12
  9
$UCSNAME
  2

  9
$UCSORG
 10
0.0
 20
0.0
 30
0.0
  9
$UCSXDIR
 10
1.0
 20
0.0
 30
0.0
  9
$UCSYDIR
 10
0.0
 20
1.0
 30
0.0
  9
$PUCSNAME
  2

  9
$PUCSORG
 10
0.0
 20
0.0
 30
0.0
  9
$PUCSXDIR
 10
1.0
 20
0.0
 30
0.0
  9
$PUCSYDIR
 10
0.0
 20
1.0
 30
0.0
  9
$USERI1
 70
     0
  9
$USERI2
 70
     0
  9
$USERI3
 70
     0
  9
$USERI4
 70
     0
  9
$USERI5
 70
     0
  9
$USERR1
 40
0.0
  9
$USERR2
 40
0.0
  9
$USERR3
 40
0.0
  9
$USERR4
 40
0.0
  9
$USERR5
 40
0.0
  9
$WORLDVIEW
 70
     1
  9
$SHADEDGE
 70
     3
  9
$SHADEDIF
 70
    70
  9
$TILEMODE
 70
     1
  9
$MAXACTVP
 70
    48
  9
$PLIMCHECK
 70
     0
  9
$PEXTMIN
 10
1.0000000000000000E+020
 20
1.0000000000000000E+020
 30
1.0000000000000000E+020
  9
$PEXTMAX
 10
-1.0000000000000000E+020
 20
-1.0000000000000000E+020
 30
-1.0000000000000000E+020
  9
$PLIMMIN
 10
0.0
 20
0.0
  9
$PLIMMAX
 10
420.0
 20
297.0
  9
$UNITMODE
 70
     0
  9
$VISRETAIN
 70
     1
  9
$PLINEGEN
 70
     0
  9
$PSLTSCALE
 70
     1
  0
ENDSEC
  0
SECTION
  2
TABLES
  0
TABLE
  2
VPORT
 70
     2
  0
VPORT
  2
*ACTIVE
 70
     0
 10
0.0
 20
0.0
 11
1.0
 21
1.0
 12
-35.842894851047163
 22
22.029877433122518
 13
0.0
 23
0.0
 14
0.5
 24
0.5
 15
10.0
 25
10.0
 16
0.0
 26
0.0
 36
1.0
 17
0.0
 27
0.0
 37
0.0
 40
71.598666984447021
 41
1.6070460704607039
 42
50.0
 43
0.0
 44
0.0
 50
0.0
 51
0.0
 71
     0
 72
   800
 73
     1
 74
     1
 75
     0
 76
     0
 77
     0
 78
     0
  0
ENDTAB
  0
TABLE
  2
LTYPE
 70
     1
  0
LTYPE
  2
CONTINUOUS
 70
     0
  3
_______________________________________________
 72
    65
 73
     2
 40
1.0
 49
1.0
 49
0.0
  0
ENDTAB
  0
TABLE
  2
LAYER
 70
     7
  0
LAYER
  2
0
 70
     0
 62
    30
  6
CONTINUOUS
  0
LAYER
  2
1
 70
     0
 62
     2
  6
CONTINUOUS
  0
LAYER
  2
2
 70
     0
 62
     9
  6
CONTINUOUS
  0
LAYER
  2
4
 70
     1
 62
     4
  6
CONTINUOUS
  0
LAYER
  2
5
 70
     0
 62
     1
  6
CONTINUOUS
  0
LAYER
  2
6
 70
     0
 62
     3
  6
CONTINUOUS
  0
LAYER
  2
DEFPOINTS
 70
     0
 62
     7
  6
CONTINUOUS
  0
ENDTAB
  0
TABLE
  2
STYLE
 70
     2
  0
STYLE
  2
STANDARD
 70
     0
 40
0.0
 41
1.0
 50
0.0
 71
     0
 42
2.5
  3
txt
  4

  0
STYLE
  2
BESCHLAG
 70
     0
 40
0.0
 41
0.9
 50
0.0
 71
     0
 42
3.5
  3
txt
  4

  0
ENDTAB
  0
TABLE
  2
VIEW
 70
     0
  0
ENDTAB
  0
TABLE
  2
UCS
 70
     0
  0
ENDTAB
  0
TABLE
  2
APPID
 70
     1
  0
APPID
  2
ACAD
 70
     0
  0
ENDTAB
  0
TABLE
  2
DIMSTYLE
 70
     1
  0
DIMSTYLE
  2
OPO-SSTRICH
 70
     0
  3

  4

  5

  6
OBLIQUE
  7
OBLIQUE
 40
1.0
 41
2.0
 42
2.0
 43
0.0
 44
1.0
 45
0.0
 46
1.0
 47
0.0
 48
0.0
140
3.5
141
0.0
142
0.0
143
0.039370078740157
144
1.0
145
0.0
146
0.7114285714285716
147
1.0
 71
     0
 72
     0
 73
     0
 74
     0
 75
     0
 76
     0
 77
     1
 78
     8
170
     0
171
     2
172
     1
173
     1
174
     1
175
     0
176
   256
177
   256
178
   256
  0
ENDTAB
  0
ENDSEC
  0
SECTION
  2
BLOCKS
  0
BLOCK
  8
0
  2
$MODEL_SPACE
 70
     0
 10
0.0
 20
0.0
 30
0.0
  3
$MODEL_SPACE
  1

  0
ENDBLK
  5
1C
  8
0
  0
BLOCK
 67
     1
  8
0
  2
$PAPER_SPACE
 70
     0
 10
0.0
 20
0.0
 30
0.0
  3
$PAPER_SPACE
  1

  0
ENDBLK
  5
19
 67
     1
  8
0
  0
BLOCK
  8
0
  2
_OBLIQUE
 70
     0
 10
0.0
 20
0.0
 30
0.0
  3
_OBLIQUE
  1

  0
LINE
  5
204
  8
0
 62
     0
 10
-0.5
 20
-0.5
 30
0.0
 11
0.5
 21
0.5
 31
0.0
  0
ENDBLK
  5
206
  8
0
  0
BLOCK
  8
0
  2
NULLPUNKT
 70
     0
 10
0.0
 20
0.0
 30
0.0
  3
NULLPUNKT
  1

  0
SOLID
  5
254
  8
5
 10
0.0
 20
0.0
 30
0.0
 11
2.0
 21
0.0
 31
0.0
 12
0.0
 22
-2.0
 32
0.0
 13
0.0
 23
-2.0
 33
0.0
  0
SOLID
  5
255
  8
5
 10
0.0
 20
0.0
 30
0.0
 11
-2.0
 21
0.0
 31
0.0
 12
0.0
 22
2.0
 32
0.0
 13
0.0
 23
2.0
 33
0.0
  0
POLYLINE
  5
256
  8
5
 66
     1
 10
0.0
 20
0.0
 30
0.0
  0
VERTEX
  5
3F8
  8
5
 10
0.0
 20
2.0
 30
0.0
  0
VERTEX
  5
3F9
  8
5
 10
0.0
 20
-2.0
 30
0.0
  0
SEQEND
  5
3FA
  8
5
  0
POLYLINE
  5
257
  8
5
 66
     1
 10
0.0
 20
0.0
 30
0.0
  0
VERTEX
  5
3FB
  8
5
 10
-2.0
 20
0.0
 30
0.0
  0
VERTEX
  5
3FC
  8
5
 10
2.0
 20
0.0
 30
0.0
  0
SEQEND
  5
3FD
  8
5
  0
CIRCLE
  5
258
  8
5
 10
0.0
 20
0.0
 30
0.0
 40
2.0
  0
ENDBLK
  5
25A
  8
0
  0
BLOCK
  8
0
  2
*X2
 70
     1
 10
0.0
 20
0.0
 30
0.0
  3
*X2
  1

  0
LINE
  5
290
  8
0
 62
     0
 10
1274.034342383391
 20
-601.2128413233321
 30
0.0
 11
1276.4911824871399
 21
-598.75600121958405
 31
0.0
  0
LINE
  5
291
  8
0
 62
     0
 10
1279.59759389078
 20
-595.64958981594361
 30
0.0
 11
1283.991182487139
 21
-591.25600121958405
 31
0.0
  0
LINE
  5
292
  8
0
 62
     0
 10
1273.991182487139
 20
-599.55894494473614
 30
0.0
 11
1276.4911824871399
 21
-597.05894494473637
 31
0.0
  0
LINE
  5
293
  8
0
 62
     0
 10
1281.4911824871399
 20
-592.05894494473614
 30
0.0
 11
1283.991182487139
 21
-589.55894494473625
 31
0.0
  0
LINE
  5
294
  8
0
 62
     0
 10
1277.9005376159321
 20
-595.64958981594361
 30
0.0
 11
1280.4005376159321
 21
-593.14958981594361
 31
0.0
  0
LINE
  5
295
  8
0
 62
     0
 10
1273.991182487139
 20
-597.86188866988834
 30
0.0
 11
1278.7034813410839
 21
-593.14958981594361
 31
0.0
  0
LINE
  5
296
  8
0
 62
     0
 10
1287.069410331161
 20
-584.78366082586751
 30
0.0
 11
1287.8752534970631
 21
-583.97781765996444
 31
0.0
  0
LINE
  5
297
  8
0
 62
     0
 10
1281.4911824871399
 20
-590.36188866988834
 30
0.0
 11
1283.991182487139
 21
-587.86188866988834
 31
0.0
  0
LINE
  5
298
  8
0
 62
     0
 10
1273.991182487139
 20
-596.16483239504055
 30
0.0
 11
1277.0064250662369
 21
-593.14958981594361
 31
0.0
  0
LINE
  5
299
  8
0
 62
     0
 10
1285.2564250662369
 20
-584.89958981594361
 30
0.0
 11
1287.369004844742
 21
-582.78701003743834
 31
0.0
  0
LINE
  5
29A
  8
0
 62
     0
 10
1281.4911824871399
 20
-588.66483239504066
 30
0.0
 11
1283.5882680092541
 21
-586.56774687292568
 31
0.0
  0
LINE
  5
29B
  8
0
 62
     0
 10
1274.200866220951
 20
-594.25809238638112
 30
0.0
 11
1275.0996850575771
 21
-593.35927354975524
 31
0.0
  0
LINE
  5
29C
  8
0
 62
     0
 10
1281.4911824871399
 20
-586.96777612019275
 30
0.0
 11
1285.559368791389
 21
-582.89958981594361
 31
0.0
  0
LINE
  5
29D
  8
0
 62
     0
 10
1281.4911824871399
 20
-585.27071984534541
 30
0.0
 11
1283.8623125165409
 21
-582.89958981594361
 31
0.0
  0
LINE
  5
29E
  8
0
 62
     0
 10
1284.3025107090591
 20
-582.45939162342609
 30
0.0
 11
1284.837559437573
 21
-581.92434289491155
 31
0.0
  0
LINE
  5
29F
  8
0
 62
     0
 10
1281.4911824871399
 20
-583.57366357049762
 30
0.0
 11
1282.9696093351411
 21
-582.09523672249577
 31
0.0
  0
LINE
  5
2A0
  8
0
 62
     0
 10
1259.991182487139
 20
-616.9530574944315
 30
0.0
 11
1261.544650165627
 21
-615.39958981594361
 31
0.0
  0
LINE
  5
2A1
  8
0
 62
     0
 10
1281.294650165627
 20
-595.64958981594361
 30
0.0
 11
1283.991182487139
 21
-592.9530574944315
 31
0.0
  0
LINE
  5
2A2
  8
0
 62
     0
 10
1274.655786049846
 20
-602.28845393172469
 30
0.0
 11
1277.194650165628
 21
-599.74958981594364
 31
0.0
  0
LINE
  5
2A3
  8
0
 62
     0
 10
1259.991182487139
 20
-618.65011376927919
 30
0.0
 11
1263.2417064404749
 21
-615.39958981594361
 31
0.0
  0
LINE
  5
2A4
  8
0
 62
     0
 10
1282.9917064404749
 20
-595.64958981594361
 30
0.0
 11
1283.9911823498189
 21
-594.6501139065997
 31
0.0
  0
LINE
  5
2A5
  8
0
 62
     0
 10
1275.846916402216
 20
-602.79437985420248
 30
0.0
 11
1278.891706440475
 21
-599.74958981594364
 31
0.0
  0
LINE
  5
2A6
  8
0
 62
     0
 10
1259.991182487139
 20
-620.34717004412698
 30
0.0
 11
1261.9911824871399
 21
-618.34717004412698
 31
0.0
  0
LINE
  5
2A7
  8
0
 62
     0
 10
1277.5387627153229
 20
-602.7995898159437
 30
0.0
 11
1280.5887627153229
 21
-599.74958981594364
 31
0.0
  0
LINE
  5
2A8
  8
0
 62
     0
 10
1262.438762715323
 20
-617.89958981594361
 30
0.0
 11
1264.938762715323
 21
-615.39958981594361
 31
0.0
  0
LINE
  5
2A9
  8
0
 62
     0
 10
1260.1640763907319
 20
-621.87133241538243
 30
0.0
 11
1261.9911824871399
 21
-620.04422631897478
 31
0.0
  0
LINE
  5
2AA
  8
0
 62
     0
 10
1279.2358189901711
 20
-602.7995898159437
 30
0.0
 11
1282.285818990171
 21
-599.74958981594364
 31
0.0
  0
LINE
  5
2AB
  8
0
 62
     0
 10
1264.1358189901709
 20
-617.89958981594361
 30
0.0
 11
1266.6358189901709
 21
-615.39958981594361
 31
0.0
  0
LINE
  5
2AC
  8
0
 62
     0
 10
1261.8328752650179
 20
-621.89958981594361
 30
0.0
 11
1263.2328752650189
 21
-620.49958981594352
 31
0.0
  0
LINE
  5
2AD
  8
0
 62
     0
 10
1280.905205971816
 20
-602.82725910914644
 30
0.0
 11
1283.7291272905561
 21
-600.00333779040625
 31
0.0
  0
LINE
  5
2AE
  8
0
 62
     0
 10
1265.8328752650179
 20
-617.89958981594361
 30
0.0
 11
1268.3328752650179
 21
-615.39958981594361
 31
0.0
  0
LINE
  5
2AF
  8
0
 62
     0
 10
1267.5299315398661
 20
-617.89958981594361
 30
0.0
 11
1270.0299315398661
 21
-615.39958981594339
 31
0.0
  0
LINE
  5
2B0
  8
0
 62
     0
 10
1281.241182487139
 20
-604.18833886866992
 30
0.0
 11
1283.991182487139
 21
-601.43833886867014
 31
0.0
  0
LINE
  5
2B1
  8
0
 62
     0
 10
1269.226987814714
 20
-617.89958981594361
 30
0.0
 11
1271.726987814714
 21
-615.39958981594339
 31
0.0
  0
LINE
  5
2B2
  8
0
 62
     0
 10
1281.241182487139
 20
-605.8853951435176
 30
0.0
 11
1283.991182487139
 21
-603.13539514351794
 31
0.0
  0
LINE
  5
2B3
  8
0
 62
     0
 10
1270.924044089561
 20
-617.89958981594361
 30
0.0
 11
1273.424044089561
 21
-615.39958981594339
 31
0.0
  0
LINE
  5
2B4
  8
0
 62
     0
 10
1287.7069996266339
 20
-601.1166342788714
 30
0.0
 11
1288.6240440895619
 21
-600.19958981594334
 31
0.0
  0
LINE
  5
2B5
  8
0
 62
     0
 10
1281.2684087534849
 20
-607.55522515202051
 30
0.0
 11
1283.991182487139
 21
-604.83245141836562
 31
0.0
  0
LINE
  5
2B6
  8
0
 62
     0
 10
1272.6211003644089
 20
-617.89958981594361
 30
0.0
 11
1275.046622567548
 21
-615.47406761280479
 31
0.0
  0
LINE
  5
2B7
  8
0
 62
     0
 10
1288.09118248714
 20
-602.42950769321328
 30
0.0
 11
1289.968853031879
 21
-600.55183714847408
 31
0.0
  0
LINE
  5
2B8
  8
0
 62
     0
 10
1282.0811414257739
 20
-608.43954875457837
 30
0.0
 11
1283.991182487139
 21
-606.52950769321342
 31
0.0
  0
LINE
  5
2B9
  8
0
 62
     0
 10
1273.991182487139
 20
-618.22656396806099
 30
0.0
 11
1275.904669563198
 21
-616.3130768920023
 31
0.0
  0
LINE
  5
2BA
  8
0
 62
     0
 10
1288.09118248714
 20
-604.12656396806096
 30
0.0
 11
1289.991182487139
 21
-602.22656396806121
 31
0.0
  0
LINE
  5
2BB
  8
0
 62
     0
 10
1282.9296695631981
 20
-609.28807689200232
 30
0.0
 11
1284.5181566392571
 21
-607.69958981594357
 31
0.0
  0
LINE
  5
2BC
  8
0
 62
     0
 10
1272.325473048395
 20
-621.58932968165243
 30
0.0
 11
1273.415212914105
 21
-620.49958981594352
 31
0.0
  0
LINE
  5
2BD
  8
0
 62
     0
 10
1288.09118248714
 20
-605.82362024290853
 30
0.0
 11
1289.991182487139
 21
-603.92362024290856
 31
0.0
  0
LINE
  5
2BE
  8
0
 62
     0
 10
1273.991182487139
 20
-619.92362024290856
 30
0.0
 11
1276.753197700622
 21
-617.16160502942603
 31
0.0
  0
LINE
  5
2BF
  8
0
 62
     0
 10
1283.7781977006221
 20
-610.13660502942605
 30
0.0
 11
1286.2152129141041
 21
-607.69958981594357
 31
0.0
  0
LINE
  5
2C0
  8
0
 62
     0
 10
1273.712269188952
 20
-621.89958981594361
 30
0.0
 11
1277.6017258380459
 21
-618.01013316684998
 31
0.0
  0
LINE
  5
2C1
  8
0
 62
     0
 10
1284.626725838046
 20
-610.98513316684978
 30
0.0
 11
1289.991182487139
 21
-605.62067651775635
 31
0.0
  0
LINE
  5
2C2
  8
0
 62
     0
 10
1275.4093254638001
 20
-621.89958981594361
 30
0.0
 11
1278.4663671030669
 21
-618.84254817667613
 31
0.0
  0
LINE
  5
2C3
  8
0
 62
     0
 10
1285.47525397547
 20
-611.83366130427385
 30
0.0
 11
1289.991182487139
 21
-607.31773279260415
 31
0.0
  0
LINE
  5
2C4
  8
0
 62
     0
 10
1277.106381738648
 20
-621.89958981594361
 30
0.0
 11
1280.106381738648
 21
-618.8995898159435
 31
0.0
  0
LINE
  5
2C5
  8
0
 62
     0
 10
1286.3237821128939
 20
-612.68218944169769
 30
0.0
 11
1289.991182487139
 21
-609.01478906745194
 31
0.0
  0
LINE
  5
2C6
  8
0
 62
     0
 10
1278.8034380134959
 20
-621.89958981594361
 30
0.0
 11
1281.8034380134959
 21
-618.8995898159435
 31
0.0
  0
LINE
  5
2C7
  8
0
 62
     0
 10
1286.9911824871399
 20
-613.71184534229974
 30
0.0
 11
1289.991182487139
 21
-610.71184534229974
 31
0.0
  0
LINE
  5
2C8
  8
0
 62
     0
 10
1280.5004942883429
 20
-621.89958981594361
 30
0.0
 11
1283.5004942883429
 21
-618.8995898159435
 31
0.0
  0
LINE
  5
2C9
  8
0
 62
     0
 10
1286.9911824871399
 20
-615.40890161714719
 30
0.0
 11
1289.991182487139
 21
-612.40890161714708
 31
0.0
  0
LINE
  5
2CA
  8
0
 62
     0
 10
1282.197550563191
 20
-621.89958981594361
 30
0.0
 11
1285.197550563191
 21
-618.8995898159435
 31
0.0
  0
LINE
  5
2CB
  8
0
 62
     0
 10
1286.9911824871399
 20
-617.10595789199476
 30
0.0
 11
1289.991182487139
 21
-614.10595789199499
 31
0.0
  0
LINE
  5
2CC
  8
0
 62
     0
 10
1283.894606838039
 20
-621.89958981594361
 30
0.0
 11
1289.991182487139
 21
-615.80301416684279
 31
0.0
  0
LINE
  5
2CD
  8
0
 62
     0
 10
1285.591663112886
 20
-621.89958981594361
 30
0.0
 11
1289.991182487139
 21
-617.50007044169047
 31
0.0
  0
LINE
  5
2CE
  8
0
 62
     0
 10
1287.2887193877341
 20
-621.89958981594361
 30
0.0
 11
1289.991182487139
 21
-619.19712671653815
 31
0.0
  0
LINE
  5
2CF
  8
0
 62
     0
 10
1288.985775662582
 20
-621.89958981594361
 30
0.0
 11
1289.991182487139
 21
-620.89418299138572
 31
0.0
  0
ENDBLK
  5
2D1
  8
0
  0
BLOCK
  8
0
  2
*D3
 70
     1
 10
0.0
 20
0.0
 30
0.0
  3
*D3
  1

  0
LINE
  5
321
  8
1
 10
-30.0
 20
-2.0
 30
0.0
 11
-30.0
 21
-13.465011161312299
 31
0.0
  0
LINE
  5
322
  8
1
 10
-0.0000000000000001
 20
-2.0
 30
0.0
 11
-0.0000000000000008
 21
-13.465011161312299
 31
0.0
  0
LINE
  5
323
  8
1
 10
-31.0
 20
-12.465011161312299
 30
0.0
 11
0.9999999999999992
 21
-12.465011161312299
 31
0.0
  0
INSERT
  5
324
  8
1
  2
_OBLIQUE
 10
-30.0
 20
-12.465011161312299
 30
0.0
 41
2.0
 42
2.0
 43
2.0
 50
180.0
  0
INSERT
  5
325
  8
1
  2
_OBLIQUE
 10
-0.0000000000000008
 20
-12.465011161312299
 30
0.0
 41
2.0
 42
2.0
 43
2.0
  0
TEXT
  5
326
  8
0
 10
-17.434481582537519
 20
-11.39577514494122
 30
0.0
 40
3.5
  1
30
 41
0.9
  7
BESCHLAG
  0
POINT
  5
327
  8
DEFPOINTS
 62
     0
 10
-30.0
 20
0.0
 30
0.0
  0
POINT
  5
328
  8
DEFPOINTS
 62
     0
 10
0.0
 20
0.0
 30
0.0
  0
POINT
  5
329
  8
DEFPOINTS
 62
     0
 10
-0.0000000000000008
 20
-12.465011161312299
 30
0.0
  0
ENDBLK
  5
308
  8
0
  0
BLOCK
  8
0
  2
*D4
 70
     1
 10
0.0
 20
0.0
 30
0.0
  3
*D4
  1

  0
LINE
  5
32A
  8
1
 10
-2.0
 20
0.0000000000000006
 30
0.0
 11
-18.721789270574622
 21
0.0000000000000053
 31
0.0
  0
LINE
  5
32B
  8
1
 10
-10.5
 20
40.0
 30
0.0
 11
-18.721789270574611
 21
40.0
 31
0.0
  0
LINE
  5
32C
  8
1
 10
-17.721789270574629
 20
-0.999999999999995
 30
0.0
 11
-17.721789270574611
 21
41.0
 31
0.0
  0
INSERT
  5
32D
  8
1
  2
_OBLIQUE
 10
-17.721789270574629
 20
0.000000000000005
 30
0.0
 41
2.0
 42
2.0
 43
2.0
 50
270.0
  0
INSERT
  5
32E
  8
1
  2
_OBLIQUE
 10
-17.721789270574611
 20
40.0
 30
0.0
 41
2.0
 42
2.0
 43
2.0
 50
90.0
  0
TEXT
  5
32F
  8
0
 10
-18.78863783810532
 20
17.629979536152788
 30
0.0
 40
3.5
  1
40
 50
90.0
 41
0.9
  7
BESCHLAG
  0
POINT
  5
330
  8
DEFPOINTS
 62
     0
 10
0.0
 20
0.0
 30
0.0
  0
POINT
  5
331
  8
DEFPOINTS
 62
     0
 10
-8.5
 20
40.0
 30
0.0
  0
POINT
  5
332
  8
DEFPOINTS
 62
     0
 10
-17.721789270574611
 20
40.0
 30
0.0
  0
ENDBLK
  5
314
  8
0
  0
BLOCK
  8
0
  2
*D5
 70
     1
 10
0.0
 20
0.0
 30
0.0
  3
*D5
  1

  0
LINE
  5
333
  8
1
 10
-6.0
 20
39.0
 30
0.0
 11
-5.9999999999999991
 21
53.04099531929819
 31
0.0
  0
LINE
  5
334
  8
1
 10
0.0000000000000001
 20
39.0
 30
0.0
 11
0.000000000000001
 21
53.04099531929819
 31
0.0
  0
LINE
  5
335
  8
1
 10
-6.9999999999999991
 20
52.04099531929819
 30
0.0
 11
1.0
 21
52.04099531929819
 31
0.0
  0
INSERT
  5
336
  8
1
  2
_OBLIQUE
 10
-5.9999999999999991
 20
52.04099531929819
 30
0.0
 41
2.0
 42
2.0
 43
2.0
 50
180.0
  0
INSERT
  5
337
  8
1
  2
_OBLIQUE
 10
0.0000000000000009
 20
52.04099531929819
 30
0.0
 41
2.0
 42
2.0
 43
2.0
  0
TEXT
  5
338
  8
0
 10
-4.2054229195088668
 20
53.107843886828888
 30
0.0
 40
3.5
  1
6
 41
0.9
  7
BESCHLAG
  0
POINT
  5
339
  8
DEFPOINTS
 62
     0
 10
-6.0
 20
37.0
 30
0.0
  0
POINT
  5
33A
  8
DEFPOINTS
 62
     0
 10
0.0
 20
37.0
 30
0.0
  0
POINT
  5
33B
  8
DEFPOINTS
 62
     0
 10
0.0000000000000009
 20
52.04099531929819
 30
0.0
  0
ENDBLK
  5
320
  8
0
  0
ENDSEC
  0
SECTION
  2
ENTITIES
  0
INSERT
  5
25B
  8
5
  2
NULLPUNKT
 10
0.0
 20
0.0
 30
0.0
  0
POLYLINE
  5
2EA
  8
6
 66
     1
 10
0.0
 20
0.0
 30
0.0
 70
     1
  0
VERTEX
  5
3FE
  8
6
 10
-5.9617441346995292
 20
23.398476748966001
 30
0.0
 42
0.2222072927665293
  0
VERTEX
  5
3FF
  8
6
 10
-4.2977999234080917
 20
22.670865446021018
 30
0.0
 42
-0.0375421623826212
  0
VERTEX
  5
400
  8
6
 10
-1.0134801935073481
 20
21.998221155120969
 30
0.0
  0
VERTEX
  5
401
  8
6
 10
0.2993466730772525
 20
21.998221155120969
 30
0.0
 42
0.8928929749026098
  0
VERTEX
  5
402
  8
6
 10
0.5967862683551175
 20
22.789741148355908
 30
0.0
 42
0.1343867415540466
  0
VERTEX
  5
403
  8
6
 10
-1.4925833999961919
 20
23.859004696806551
 30
0.0
 42
-0.2853039435577967
  0
VERTEX
  5
404
  8
6
 10
-3.004953010935878
 20
24.86121219153824
 30
0.0
 42
-0.0225368453985839
  0
VERTEX
  5
405
  8
6
 10
-2.8800226953651409
 20
28.085305546483589
 30
0.0
 42
0.0820486087683995
  0
VERTEX
  5
406
  8
6
 10
-4.3828679899843328
 20
33.891409930567981
 30
0.0
 42
-0.5531953199133618
  0
VERTEX
  5
407
  8
6
 10
-3.07109910835652
 20
35.828365277609457
 30
0.0
 42
-0.3406158711548123
  0
VERTEX
  5
408
  8
6
 10
-1.2346226740778541
 20
34.203822088435111
 30
0.0
 42
-0.0568436315587013
  0
VERTEX
  5
409
  8
6
 10
-0.9472828465989096
 20
33.16407362629252
 30
0.0
  0
VERTEX
  5
40A
  8
6
 10
-0.9472828465989096
 20
27.678116334071539
 30
0.0
 42
-0.1420523750318728
  0
VERTEX
  5
40B
  8
6
 10
-1.5690963862350591
 20
26.394183475345919
 30
0.0
 42
0.3627856233788124
  0
VERTEX
  5
40C
  8
6
 10
-1.5969207746243219
 20
26.078566088965541
 30
0.0
  0
VERTEX
  5
40D
  8
6
 10
-0.6099708570093299
 20
25.041357759754192
 30
0.0
 42
0.5200628854945981
  0
VERTEX
  5
40E
  8
6
 10
-0.0008964944440777
 20
25.329579768219439
 30
0.0
  0
VERTEX
  5
40F
  8
6
 10
-0.0008964944440777
 20
34.266304567609488
 30
0.0
 42
0.8489971418078274
  0
VERTEX
  5
410
  8
6
 10
-6.0
 20
34.861360425670682
 30
0.0
  0
VERTEX
  5
411
  8
6
 10
-6.0000000000004539
 20
26.25
 30
0.0
  0
VERTEX
  5
412
  8
6
 10
-11.317777593600329
 20
26.25
 30
0.0
 42
0.2057883710538204
  0
VERTEX
  5
413
  8
6
 10
-12.85017421387124
 20
25.663219006547472
 30
0.0
 42
0.3549142717655278
  0
VERTEX
  5
414
  8
6
 10
-12.914907545491131
 20
24.4144456960762
 30
0.0
 42
0.1297593261325319
  0
VERTEX
  5
415
  8
6
 10
-10.806450276624441
 20
22.351657185820379
 30
0.0
 42
0.9351078027123772
  0
VERTEX
  5
416
  8
6
 10
-10.30707880532645
 20
22.943668234305271
 30
0.0
 42
-0.0191884285460261
  0
VERTEX
  5
417
  8
6
 10
-11.444536001991761
 20
23.877935669180712
 30
0.0
 42
-0.5601684513071198
  0
VERTEX
  5
418
  8
6
 10
-11.324316978534849
 20
24.238692374454331
 30
0.0
 42
-0.0746422886383072
  0
VERTEX
  5
419
  8
6
 10
-9.8262025646408802
 20
24.136940458246499
 30
0.0
 42
-0.1471616994481645
  0
VERTEX
  5
41A
  8
6
 10
-9.3453263729077207
 20
23.40617685578718
 30
0.0
 42
0.1875175819089431
  0
VERTEX
  5
41B
  8
6
 10
-7.9026976998034106
 20
22.36090731279182
 30
0.0
 42
0.9920182636924723
  0
VERTEX
  5
41C
  8
6
 10
-7.4588119692953114
 20
22.934418042393641
 30
0.0
 42
-0.1131030402240264
  0
VERTEX
  5
41D
  8
6
 10
-8.4483072721088774
 20
23.877935669180712
 30
0.0
 42
-0.5007469553256814
  0
VERTEX
  5
41E
  8
6
 10
-8.3188405599166781
 20
24.2386923744541
 30
0.0
  0
VERTEX
  5
41F
  8
6
 10
-7.6161057016538498
 20
24.2386923744541
 30
0.0
  0
VERTEX
  5
420
  8
6
 10
-7.4270451262755151
 20
24.160766318976581
 30
0.0
  0
VERTEX
  5
421
  8
6
 10
-6.7382268101787304
 20
23.876217958955738
 30
0.0
 42
-0.1108564047810918
  0
SEQEND
  5
422
  8
6
  0
TEXT
  5
2EB
  8
1
 10
-71.114057609128849
 20
-7.3925258189977958
 30
0.0
 40
2.4999999499999999
  1
Hebgo 906
  0
INSERT
  5
2EC
  8
2
  2
*X2
 10
-1289.991182487139
 20
621.89958981594361
 30
0.0
1001
ACAD
1000
HATCH
1002
{
1070
    16
1000
_U,I
1040
1.1999999999999991
1040
0.7853981633974483
1070
     0
1002
}
  0
TEXT
  5
2ED
  8
1
 10
-46.766575177171028
 20
14.151745267415659
 30
0.0
 40
2.4999999499999999
  1
Hebgo 183/643
  0
DIMENSION
  5
2EE
  8
1
  2
*D3
 10
-0.0000000000000008
 20
-12.465011161312299
 30
0.0
 11
-15.0
 21
-9.6768119798661925
 31
0.0
 70
     0
 13
-30.0
 23
0.0
 33
0.0
 14
0.0
 24
0.0
 34
0.0
  0
POINT
  5
2EF
  8
5
 10
-6.0
 20
21.699999999999811
 30
0.0
  0
POLYLINE
  5
2F0
  8
5
 66
     1
 10
0.0
 20
0.0
 30
0.0
  0
VERTEX
  5
423
  8
5
 10
0.0
 20
45.211362810109222
 30
0.0
  0
VERTEX
  5
424
  8
5
 10
0.0
 20
28.0
 30
0.0
  0
VERTEX
  5
425
  8
5
 10
16.988439487426369
 20
28.0
 30
0.0
  0
SEQEND
  5
426
  8
5
  0
DIMENSION
  5
2F1
  8
1
  2
*D4
 10
-17.721789270574611
 20
40.0
 30
0.0
 11
-20.508794727600542
 21
20.0
 31
0.0
 70
     0
 13
0.0
 23
0.0
 33
0.0
 14
-8.5
 24
40.0
 34
0.0
 50
90.0
  0
POLYLINE
  5
2F2
  8
6
 66
     1
 10
0.0
 20
0.0
 30
0.0
 70
     1
  0
VERTEX
  5
427
  8
6
 10
-8.5
 20
38.131795577144658
 30
0.0
  0
VERTEX
  5
428
  8
6
 10
-8.5
 20
29.25
 30
0.0
 42
-0.4142135623730951
  0
VERTEX
  5
429
  8
6
 10
-9.0
 20
28.75
 30
0.0
  0
VERTEX
  5
42A
  8
6
 10
-14.0
 20
28.75
 30
0.0
 42
0.4142135623730951
  0
VERTEX
  5
42B
  8
6
 10
-16.0
 20
26.75
 30
0.0
  0
VERTEX
  5
42C
  8
6
 10
-16.0
 20
21.099999999999898
 30
0.0
 42
0.4142135623730945
  0
VERTEX
  5
42D
  8
6
 10
-14.0
 20
19.099999999999909
 30
0.0
  0
VERTEX
  5
42E
  8
6
 10
-9.25
 20
19.099999999999909
 30
0.0
 42
-0.4142135623730941
  0
VERTEX
  5
42F
  8
6
 10
-8.75
 20
18.599999999999898
 30
0.0
  0
VERTEX
  5
430
  8
6
 10
-8.75
 20
14.507106781186391
 30
0.0
 42
0.198912367379658
  0
VERTEX
  5
431
  8
6
 10
-8.6035533905933335
 20
14.15355339059351
 30
0.0
  0
VERTEX
  5
432
  8
6
 10
-3.1464466094066661
 20
8.6964466094068484
 30
0.0
 42
-0.198912367379658
  0
VERTEX
  5
433
  8
6
 10
-3.0
 20
8.3428932188135132
 30
0.0
  0
VERTEX
  5
434
  8
6
 10
-3.0
 20
3.300000000000181
 30
0.0
 42
-0.4142135623730951
  0
VERTEX
  5
435
  8
6
 10
-3.2999999999999541
 20
3.0
 30
0.0
  0
VERTEX
  5
436
  8
6
 10
-11.29289321881333
 20
3.0
 30
0.0
 42
-0.1989123673796592
  0
VERTEX
  5
437
  8
6
 10
-11.646446609406659
 20
3.1464466094066661
 30
0.0
  0
VERTEX
  5
438
  8
6
 10
-14.85355339059333
 20
6.3535533905933326
 30
0.0
 42
0.1989123673796596
  0
VERTEX
  5
439
  8
6
 10
-15.20710678118644
 20
6.5
 30
0.0
  0
VERTEX
  5
43A
  8
6
 10
-21.499999999999989
 20
6.5
 30
0.0
  0
VERTEX
  5
43B
  8
6
 10
-22.5
 20
6.5
 30
0.0
  0
VERTEX
  5
43C
  8
6
 10
-29.700000000000038
 20
6.5
 30
0.0
 42
0.4142135623730951
  0
VERTEX
  5
43D
  8
6
 10
-30.0
 20
6.1999999999998181
 30
0.0
  0
VERTEX
  5
43E
  8
6
 10
-30.0
 20
0.3000000000001819
 30
0.0
 42
0.4142135623730951
  0
VERTEX
  5
43F
  8
6
 10
-29.700000000000038
 20
0.0
 30
0.0
  0
VERTEX
  5
440
  8
6
 10
-27.099999999999909
 20
0.0
 30
0.0
 42
0.4142135623730951
  0
VERTEX
  5
441
  8
6
 10
-26.0
 20
1.0999999999999091
 30
0.0
  0
VERTEX
  5
442
  8
6
 10
-26.0
 20
1.1999999999998181
 30
0.0
 42
0.4142135623730951
  0
VERTEX
  5
443
  8
6
 10
-26.200000000000038
 20
1.4000000000000901
 30
0.0
  0
VERTEX
  5
444
  8
6
 10
-27.700000000000038
 20
1.4000000000000901
 30
0.0
 42
-0.4142135623730914
  0
VERTEX
  5
445
  8
6
 10
-28.0
 20
1.6999999999998181
 30
0.0
  0
VERTEX
  5
446
  8
6
 10
-28.0
 20
3.6999999999998181
 30
0.0
 42
-0.4142135623730951
  0
VERTEX
  5
447
  8
6
 10
-27.700000000000038
 20
4.0
 30
0.0
  0
VERTEX
  5
448
  8
6
 10
-16.299999999999951
 20
4.0
 30
0.0
 42
-0.4142135623730988
  0
VERTEX
  5
449
  8
6
 10
-16.0
 20
3.6999999999998181
 30
0.0
  0
VERTEX
  5
44A
  8
6
 10
-16.0
 20
1.6999999999998181
 30
0.0
 42
-0.4142135623730951
  0
VERTEX
  5
44B
  8
6
 10
-16.299999999999951
 20
1.4000000000000901
 30
0.0
  0
VERTEX
  5
44C
  8
6
 10
-17.799999999999951
 20
1.4000000000000901
 30
0.0
 42
0.4142135623730951
  0
VERTEX
  5
44D
  8
6
 10
-18.0
 20
1.1999999999998181
 30
0.0
  0
VERTEX
  5
44E
  8
6
 10
-18.0
 20
1.0999999999999091
 30
0.0
 42
0.4142135623730942
  0
VERTEX
  5
44F
  8
6
 10
-16.89999999999986
 20
0.0
 30
0.0
  0
VERTEX
  5
450
  8
6
 10
-0.2999999999999545
 20
0.0
 30
0.0
 42
0.414213562373096
  0
VERTEX
  5
451
  8
6
 10
0.0
 20
0.2999999999997271
 30
0.0
  0
VERTEX
  5
452
  8
6
 10
0.0
 20
21.200000000000269
 30
0.0
 42
0.4142135623730951
  0
VERTEX
  5
453
  8
6
 10
-0.5
 20
21.700000000000269
 30
0.0
  0
VERTEX
  5
454
  8
6
 10
-1.5
 20
21.700000000000269
 30
0.0
 42
0.4142135623730951
  0
VERTEX
  5
455
  8
6
 10
-2.2999999999999541
 20
20.900000000000091
 30
0.0
  0
VERTEX
  5
456
  8
6
 10
-2.2999999999999541
 20
20.849999999999909
 30
0.0
 42
0.4142135623730951
  0
VERTEX
  5
457
  8
6
 10
-2.1499999999998631
 20
20.700000000000269
 30
0.0
  0
VERTEX
  5
458
  8
6
 10
-2.0
 20
20.700000000000269
 30
0.0
 42
-0.4142135623730951
  0
VERTEX
  5
459
  8
6
 10
-1.8999999999998629
 20
20.599999999999909
 30
0.0
  0
VERTEX
  5
45A
  8
6
 10
-1.8999999999998629
 20
14.699999999999809
 30
0.0
 42
-0.4142135623730939
  0
VERTEX
  5
45B
  8
6
 10
-2.3999999999998631
 20
14.199999999999809
 30
0.0
  0
VERTEX
  5
45C
  8
6
 10
-5.5
 20
14.199999999999809
 30
0.0
 42
-0.4142135623730951
  0
VERTEX
  5
45D
  8
6
 10
-6.0
 20
14.699999999999809
 30
0.0
  0
VERTEX
  5
45E
  8
6
 10
-6.0
 20
21.176261290272571
 30
0.0
  0
VERTEX
  5
45F
  8
6
 10
-6.4425235801816143
 20
22.39208483439824
 30
0.0
 42
0.3152987888789824
  0
VERTEX
  5
460
  8
6
 10
-6.6680498091702702
 20
22.550000000000178
 30
0.0
  0
VERTEX
  5
461
  8
6
 10
-6.75999999999999
 20
22.550000000000178
 30
0.0
 42
0.4142135623730951
  0
VERTEX
  5
462
  8
6
 10
-7.0
 20
22.309999999999938
 30
0.0
  0
VERTEX
  5
463
  8
6
 10
-7.0
 20
22.300000000000178
 30
0.0
 42
-0.4142135623730951
  0
VERTEX
  5
464
  8
6
 10
-7.1499999999998627
 20
22.150000000000091
 30
0.0
  0
VERTEX
  5
465
  8
6
 10
-13.0
 20
22.150000000000091
 30
0.0
 42
-0.4142135623730951
  0
VERTEX
  5
466
  8
6
 10
-13.5
 20
22.650000000000091
 30
0.0
  0
VERTEX
  5
467
  8
6
 10
-13.5
 20
25.75
 30
0.0
 42
-0.4142135623730951
  0
VERTEX
  5
468
  8
6
 10
-13.0
 20
26.25
 30
0.0
  0
VERTEX
  5
469
  8
6
 10
-7.0
 20
26.25
 30
0.0
 42
0.4142135623730951
  0
VERTEX
  5
46A
  8
6
 10
-6.0
 20
27.25
 30
0.0
  0
VERTEX
  5
46B
  8
6
 10
-6.0
 20
34.633974596215459
 30
0.0
  0
VERTEX
  5
46C
  8
6
 10
-6.5
 20
35.5
 30
0.0
  0
VERTEX
  5
46D
  8
6
 10
-6.5
 20
36.5
 30
0.0
 42
-0.4142135623730951
  0
VERTEX
  5
46E
  8
6
 10
-6.0
 20
37.0
 30
0.0
  0
VERTEX
  5
46F
  8
6
 10
-3.5
 20
37.0
 30
0.0
 42
0.4142135623730951
  0
VERTEX
  5
470
  8
6
 10
-2.0
 20
38.5
 30
0.0
  0
VERTEX
  5
471
  8
6
 10
-2.0
 20
38.800000000000182
 30
0.0
 42
0.4142135623730951
  0
VERTEX
  5
472
  8
6
 10
-2.200000000000045
 20
39.0
 30
0.0
  0
VERTEX
  5
473
  8
6
 10
-2.4994446500534191
 20
39.0
 30
0.0
 42
-0.2679491924311209
  0
VERTEX
  5
474
  8
6
 10
-2.586047190431827
 20
39.050000000000182
 30
0.0
  0
VERTEX
  5
475
  8
6
 10
-3.0767949192431838
 20
39.900000000000091
 30
0.0
 42
0.5773502691896273
  0
VERTEX
  5
476
  8
6
 10
-3.4232050807568148
 20
39.900000000000091
 30
0.0
  0
VERTEX
  5
477
  8
6
 10
-3.9139528095679448
 20
39.050000000000182
 30
0.0
 42
-0.2679491924311209
  0
VERTEX
  5
478
  8
6
 10
-4.0005553499465796
 20
39.0
 30
0.0
  0
VERTEX
  5
479
  8
6
 10
-4.4994446500534186
 20
39.0
 30
0.0
 42
-0.2679491924311209
  0
VERTEX
  5
47A
  8
6
 10
-4.5860471904318274
 20
39.050000000000182
 30
0.0
  0
VERTEX
  5
47B
  8
6
 10
-5.0767949192431843
 20
39.900000000000091
 30
0.0
 42
0.5773502691896273
  0
VERTEX
  5
47C
  8
6
 10
-5.4232050807568148
 20
39.900000000000091
 30
0.0
  0
VERTEX
  5
47D
  8
6
 10
-5.9139528095679452
 20
39.050000000000182
 30
0.0
 42
-0.2679491924311209
  0
VERTEX
  5
47E
  8
6
 10
-6.0005553499465796
 20
39.0
 30
0.0
  0
VERTEX
  5
47F
  8
6
 10
-6.4994446500534186
 20
39.0
 30
0.0
 42
-0.2679491924311209
  0
VERTEX
  5
480
  8
6
 10
-6.5860471904318274
 20
39.050000000000182
 30
0.0
  0
VERTEX
  5
481
  8
6
 10
-7.0767949192431843
 20
39.900000000000091
 30
0.0
 42
0.5773502691896273
  0
VERTEX
  5
482
  8
6
 10
-7.4232050807568148
 20
39.900000000000091
 30
0.0
  0
VERTEX
  5
483
  8
6
 10
-7.9139528095683991
 20
39.04999999999972
 30
0.0
 42
-0.2679491924311166
  0
VERTEX
  5
484
  8
6
 10
-8.0005553499468078
 20
38.999999999999538
 30
0.0
  0
VERTEX
  5
485
  8
6
 10
-8.2999999999999545
 20
38.999999999999538
 30
0.0
 42
0.4142135623730951
  0
VERTEX
  5
486
  8
6
 10
-8.5
 20
38.79999999999972
 30
0.0
  0
SEQEND
  5
487
  8
6
  0
POLYLINE
  5
2F3
  8
4
 66
     1
 10
0.0
 20
0.0
 30
0.0
  0
VERTEX
  5
488
  8
4
 10
-6.0
 20
27.25
 30
0.0
  0
VERTEX
  5
489
  8
4
 10
-6.0
 20
37.0
 30
0.0
  0
VERTEX
  5
48A
  8
4
 10
-2.0
 20
37.0
 30
0.0
  0
VERTEX
  5
48B
  8
4
 10
-2.0
 20
40.0
 30
0.0
  0
VERTEX
  5
48C
  8
4
 10
-8.5
 20
40.0
 30
0.0
  0
VERTEX
  5
48D
  8
4
 10
-8.5
 20
28.75
 30
0.0
  0
VERTEX
  5
48E
  8
4
 10
-16.0
 20
28.75
 30
0.0
  0
VERTEX
  5
48F
  8
4
 10
-16.0
 20
19.099999999999909
 30
0.0
  0
VERTEX
  5
490
  8
4
 10
-8.75
 20
19.099999999999451
 30
0.0
  0
VERTEX
  5
491
  8
4
 10
-8.75
 20
14.29999999999972
 30
0.0
  0
VERTEX
  5
492
  8
4
 10
-3.0
 20
8.5499999999997272
 30
0.0
  0
VERTEX
  5
493
  8
4
 10
-3.0
 20
3.0
 30
0.0
  0
VERTEX
  5
494
  8
4
 10
-11.5
 20
3.0
 30
0.0
  0
VERTEX
  5
495
  8
4
 10
-15.0
 20
6.5
 30
0.0
  0
VERTEX
  5
496
  8
4
 10
-30.0
 20
6.5
 30
0.0
  0
VERTEX
  5
497
  8
4
 10
-30.0
 20
0.0
 30
0.0
  0
VERTEX
  5
498
  8
4
 10
0.0
 20
0.0
 30
0.0
  0
VERTEX
  5
499
  8
4
 10
0.0
 20
21.699999999999811
 30
0.0
  0
VERTEX
  5
49A
  8
4
 10
-1.9000000000000901
 20
21.699999999999811
 30
0.0
  0
SEQEND
  5
49B
  8
4
  0
DIMENSION
  5
2F4
  8
1
  2
*D5
 10
0.0000000000000009
 20
52.04099531929819
 30
0.0
 11
-2.9999999999999991
 21
54.82800077632411
 31
0.0
 70
     0
 13
-6.0
 23
37.0
 33
0.0
 14
0.0
 24
37.0
 34
0.0
  0
POLYLINE
  5
2F5
  8
6
 66
     1
 10
0.0
 20
0.0
 30
0.0
 70
     1
  0
VERTEX
  5
49C
  8
6
 10
-16.39999999999986
 20
3.700000000000045
 30
0.0
  0
VERTEX
  5
49D
  8
6
 10
-23.07818298123766
 20
3.6999999999999309
 30
0.0
 42
0.2979024853978631
  0
VERTEX
  5
49E
  8
6
 10
-24.910288806168179
 20
2.5021148585182109
 30
0.0
  0
VERTEX
  5
49F
  8
6
 10
-26.150849823681369
 20
0.0023065905892281
 30
0.0
 42
-0.2979024853978892
  0
VERTEX
  5
4A0
  8
6
 10
-26.60887627991405
 20
-0.2971646947812587
 30
0.0
  0
VERTEX
  5
4A1
  8
6
 10
-29.65020276315931
 20
-0.2971646947812587
 30
0.0
 42
-0.4142135623730951
  0
VERTEX
  5
4A2
  8
6
 10
-30.15020276315931
 20
0.2028353052187413
 30
0.0
  0
VERTEX
  5
4A3
  8
6
 10
-30.15020276315931
 20
6.0249982568549276
 30
0.0
 42
-0.1564024178525488
  0
VERTEX
  5
4A4
  8
6
 10
-30.056972813598119
 20
6.315752665361515
 30
0.0
  0
VERTEX
  5
4A5
  8
6
 10
-28.087616562855821
 20
8.0721435225143523
 30
0.0
  0
VERTEX
  5
4A6
  8
6
 10
-29.41882007820254
 20
9.5647577394936434
 30
0.0
  0
VERTEX
  5
4A7
  8
6
 10
-31.490604399056789
 20
7.7170153425712442
 30
0.0
 42
0.1880239795834631
  0
VERTEX
  5
4A8
  8
6
 10
-32.150202763159307
 20
6.0249982568016094
 30
0.0
  0
VERTEX
  5
4A9
  8
6
 10
-32.150202763159307
 20
0.2028353052187413
 30
0.0
 42
0.4142135623730951
  0
VERTEX
  5
4AA
  8
6
 10
-29.65020276315931
 20
-2.2971646947812578
 30
0.0
  0
VERTEX
  5
4AB
  8
6
 10
-26.60887627993327
 20
-2.2971646947812578
 30
0.0
 42
0.2906967135076304
  0
VERTEX
  5
4AC
  8
6
 10
-24.346142200321079
 20
-0.860195496329652
 30
0.0
  0
VERTEX
  5
4AD
  8
6
 10
-23.075613267880609
 20
1.7000000000001589
 30
0.0
  0
VERTEX
  5
4AE
  8
6
 10
-16.39999999999986
 20
1.700000000000045
 30
0.0
  0
SEQEND
  5
4AF
  8
6
  0
POLYLINE
  5
2F6
  8
6
 66
     1
 10
0.0
 20
0.0
 30
0.0
  0
VERTEX
  5
4B0
  8
6
 10
-16.39999999999986
 20
3.200000000000045
 30
0.0
  0
VERTEX
  5
4B1
  8
6
 10
-23.07818298123766
 20
3.1999999999999309
 30
0.0
 42
0.2999244947259431
  0
VERTEX
  5
4B2
  8
6
 10
-24.45669100147563
 20
2.2913675998344161
 30
0.0
  0
VERTEX
  5
4B3
  8
6
 10
-25.698550645519159
 20
-0.2110574820134161
 30
0.0
 42
-0.294080808329901
  0
VERTEX
  5
4B4
  8
6
 10
-26.60887627991405
 20
-0.7971646947812588
 30
0.0
  0
VERTEX
  5
4B5
  8
6
 10
-29.65020276315931
 20
-0.7971646947812588
 30
0.0
 42
-0.4142135623730951
  0
VERTEX
  5
4B6
  8
6
 10
-30.65020276315931
 20
0.2028353052187413
 30
0.0
  0
VERTEX
  5
4B7
  8
6
 10
-30.65020276315931
 20
6.0249982568549276
 30
0.0
 42
-0.1731346391236261
  0
VERTEX
  5
4B8
  8
6
 10
-30.424153006677209
 20
6.6582446705912162
 30
0.0
  0
VERTEX
  5
4B9
  8
6
 10
-28.4204174416925
 20
8.4452970767591751
 30
0.0
  0
SEQEND
  5
4BA
  8
6
  0
POLYLINE
  5
2F7
  8
6
 66
     1
 10
0.0
 20
0.0
 30
0.0
  0
VERTEX
  5
4BB
  8
6
 10
-16.39999999999986
 20
2.700000000000045
 30
0.0
  0
VERTEX
  5
4BC
  8
6
 10
-23.07818298123561
 20
2.700000000000045
 30
0.0
 42
0.3033220033015464
  0
VERTEX
  5
4BD
  8
6
 10
-24.002027914210771
 20
2.0827669523565642
 30
0.0
  0
VERTEX
  5
4BE
  8
6
 10
-25.247279707970389
 20
-0.4264935239518764
 30
0.0
 42
-0.2923904282578467
  0
VERTEX
  5
4BF
  8
6
 10
-26.60887627993645
 20
-1.2971646947812581
 30
0.0
  0
VERTEX
  5
4C0
  8
6
 10
-29.65020276315931
 20
-1.2971646947812581
 30
0.0
 42
-0.4142135623730951
  0
VERTEX
  5
4C1
  8
6
 10
-31.15020276315931
 20
0.2028353052187413
 30
0.0
  0
VERTEX
  5
4C2
  8
6
 10
-31.15020276315931
 20
6.0249982568165024
 30
0.0
 42
-0.1805621658660177
  0
VERTEX
  5
4C3
  8
6
 10
-30.7832854132389
 20
7.0079141779382317
 30
0.0
  0
VERTEX
  5
4C4
  8
6
 10
-28.753218320529179
 20
8.8184506310039978
 30
0.0
  0
SEQEND
  5
4C5
  8
6
  0
POLYLINE
  5
2F8
  8
6
 66
     1
 10
0.0
 20
0.0
 30
0.0
  0
VERTEX
  5
4C6
  8
6
 10
-16.39999999999986
 20
2.200000000000045
 30
0.0
  0
VERTEX
  5
4C7
  8
6
 10
-23.07818298123572
 20
2.200000000000045
 30
0.0
 42
0.3110176465481184
  0
VERTEX
  5
4C8
  8
6
 10
-23.545305334850919
 20
1.8783163106375009
 30
0.0
  0
VERTEX
  5
4C9
  8
6
 10
-24.796540928796269
 20
-0.6430018983962782
 30
0.0
 42
-0.2913835292343037
  0
VERTEX
  5
4CA
  8
6
 10
-26.608876279930989
 20
-1.7971646947812581
 30
0.0
  0
VERTEX
  5
4CB
  8
6
 10
-29.65020276315931
 20
-1.7971646947812581
 30
0.0
 42
-0.4142135623730951
  0
VERTEX
  5
4CC
  8
6
 10
-31.65020276315931
 20
0.2028353052187413
 30
0.0
  0
VERTEX
  5
4CD
  8
6
 10
-31.65020276315931
 20
6.0249982567686402
 30
0.0
 42
-0.184995633674859
  0
VERTEX
  5
4CE
  8
6
 10
-31.13826845854976
 20
7.3612843362778904
 30
0.0
  0
VERTEX
  5
4CF
  8
6
 10
-29.086019199365861
 20
9.1916041852488206
 30
0.0
  0
SEQEND
  5
4D0
  8
6
  0
POLYLINE
  5
2F9
  8
6
 66
     1
 10
0.0
 20
0.0
 30
0.0
  0
VERTEX
  5
4D1
  8
6
 10
-29.600202763159579
 20
-0.2971646947812587
 30
0.0
  0
VERTEX
  5
4D2
  8
6
 10
-43.805022074132808
 20
-0.297164694781145
 30
0.0
  0
VERTEX
  5
4D3
  8
6
 10
-53.491245664688677
 20
4.853396223599133
 30
0.0
 42
0.2418206986979301
  0
VERTEX
  5
4D4
  8
6
 10
-57.146252815582102
 20
4.9052462844956599
 30
0.0
  0
VERTEX
  5
4D5
  8
6
 10
-66.452942958113908
 20
0.2902407400135871
 30
0.0
  0
VERTEX
  5
4D6
  8
6
 10
-75.791526297276391
 20
4.9210614966742687
 30
0.0
 42
0.2343261328240422
  0
VERTEX
  5
4D7
  8
6
 10
-79.345595000450203
 20
4.921061496674155
 30
0.0
  0
VERTEX
  5
4D8
  8
6
 10
-88.684178339612913
 20
0.2902407400135871
 30
0.0
  0
VERTEX
  5
4D9
  8
6
 10
-87.795661163819545
 20
-1.501556466234887
 30
0.0
  0
VERTEX
  5
4DA
  8
6
 10
-78.457077824656494
 20
3.1292642904257941
 30
0.0
 42
-0.2343261328239351
  0
VERTEX
  5
4DB
  8
6
 10
-76.680043473069986
 20
3.12926429042568
 30
0.0
  0
VERTEX
  5
4DC
  8
6
 10
-67.341460133907162
 20
-1.501556466234887
 30
0.0
 42
0.2343261328239322
  0
VERTEX
  5
4DD
  8
6
 10
-65.564425782320754
 20
-1.501556466234887
 30
0.0
  0
VERTEX
  5
4DE
  8
6
 10
-56.257735639788727
 20
3.1134490782471849
 30
0.0
 42
-0.2418206986978837
  0
VERTEX
  5
4DF
  8
6
 10
-54.430232064342128
 20
3.087524047798865
 30
0.0
  0
VERTEX
  5
4E0
  8
6
 10
-44.744008473786153
 20
-2.0630368705815272
 30
0.0
 42
0.1227907796755793
  0
VERTEX
  5
4E1
  8
6
 10
-43.805022074133142
 20
-2.2971646947812578
 30
0.0
  0
VERTEX
  5
4E2
  8
6
 10
-29.600202763159579
 20
-2.2971646947812578
 30
0.0
  0
SEQEND
  5
4E3
  8
6
  0
POLYLINE
  5
2FA
  8
6
 66
     1
 10
0.0
 20
0.0
 30
0.0
  0
VERTEX
  5
4E4
  8
6
 10
-29.600202763159579
 20
-1.7971646947812581
 30
0.0
  0
VERTEX
  5
4E5
  8
6
 10
-43.805022074132687
 20
-1.797164694781145
 30
0.0
 42
-0.1227907796755781
  0
VERTEX
  5
4E6
  8
6
 10
-44.509261873872447
 20
-1.621568826631687
 30
0.0
  0
VERTEX
  5
4E7
  8
6
 10
-54.195485464428771
 20
3.5289920917489321
 30
0.0
 42
0.2418206986979325
  0
VERTEX
  5
4E8
  8
6
 10
-56.479864933737304
 20
3.5613983798091331
 30
0.0
  0
VERTEX
  5
4E9
  8
6
 10
-65.786555076268755
 20
-1.0536071646727121
 30
0.0
 42
-0.2343261328240303
  0
VERTEX
  5
4EA
  8
6
 10
-67.119330839959275
 20
-1.053607164672598
 30
0.0
  0
VERTEX
  5
4EB
  8
6
 10
-76.457914179121417
 20
3.5772135919877419
 30
0.0
 42
0.2343261328240438
  0
VERTEX
  5
4EC
  8
6
 10
-78.679207118605291
 20
3.5772135919877419
 30
0.0
  0
VERTEX
  5
4ED
  8
6
 10
-88.017790457767873
 20
-1.053607164672826
 30
0.0
 42
-0.2343261328240571
  0
SEQEND
  5
4EE
  8
6
  0
POLYLINE
  5
2FB
  8
6
 66
     1
 10
0.0
 20
0.0
 30
0.0
  0
VERTEX
  5
4EF
  8
6
 10
-29.600202763159579
 20
-1.2971646947812581
 30
0.0
  0
VERTEX
  5
4F0
  8
6
 10
-43.805022074133028
 20
-1.297164694781145
 30
0.0
 42
-0.1227907796755804
  0
VERTEX
  5
4F1
  8
6
 10
-44.274515273959423
 20
-1.1801007826813921
 30
0.0
  0
VERTEX
  5
4F2
  8
6
 10
-53.960738864515292
 20
3.9704601356989988
 30
0.0
 42
0.2418206986979378
  0
VERTEX
  5
4F3
  8
6
 10
-56.701994227685532
 20
4.0093476813713087
 30
0.0
  0
VERTEX
  5
4F4
  8
6
 10
-66.008684370216983
 20
-0.6056578631105367
 30
0.0
 42
-0.2343261328240147
  0
VERTEX
  5
4F5
  8
6
 10
-66.89720154601082
 20
-0.6056578631105367
 30
0.0
  0
VERTEX
  5
4F6
  8
6
 10
-76.235784885173075
 20
4.0251628935499184
 30
0.0
 42
0.2343261328240469
  0
VERTEX
  5
4F7
  8
6
 10
-78.901336412553633
 20
4.0251628935499184
 30
0.0
  0
VERTEX
  5
4F8
  8
6
 10
-88.239919751716215
 20
-0.6056578631106504
 30
0.0
 42
-0.2343261328240553
  0
SEQEND
  5
4F9
  8
6
  0
POLYLINE
  5
2FC
  8
6
 66
     1
 10
0.0
 20
0.0
 30
0.0
  0
VERTEX
  5
4FA
  8
6
 10
-29.600202763159579
 20
-0.7971646947812588
 30
0.0
  0
VERTEX
  5
4FB
  8
6
 10
-43.805022074133028
 20
-0.797164694781145
 30
0.0
 42
-0.1227907796755586
  0
VERTEX
  5
4FC
  8
6
 10
-44.039768674046059
 20
-0.738632738731326
 30
0.0
  0
VERTEX
  5
4FD
  8
6
 10
-53.725992264601921
 20
4.4119281796490659
 30
0.0
 42
0.2418206986979313
  0
VERTEX
  5
4FE
  8
6
 10
-56.92412352163376
 20
4.4572969829334852
 30
0.0
  0
VERTEX
  5
4FF
  8
6
 10
-66.230813664165225
 20
-0.1577085615483611
 30
0.0
 42
-0.2343261328240752
  0
VERTEX
  5
500
  8
6
 10
-66.675072252062591
 20
-0.1577085615483611
 30
0.0
  0
VERTEX
  5
501
  8
6
 10
-76.013655591224733
 20
4.473112195112094
 30
0.0
 42
0.2343261328240394
  0
VERTEX
  5
502
  8
6
 10
-79.123465706501861
 20
4.473112195112094
 30
0.0
  0
VERTEX
  5
503
  8
6
 10
-88.462049045664571
 20
-0.1577085615484748
 30
0.0
 42
-0.2343261328240224
  0
SEQEND
  5
504
  8
6
  0
VIEWPORT
  5
22
 67
     1
  8
0
 10
210.0
 20
170.2366863905325
 30
0.0
 40
420.0
 41
340.47337278106511
 68
     1
 69
     1
1001
ACAD
1000
MVIEW
1002
{
1070
    16
1010
0.0
1020
0.0
1030
0.0
1010
0.0
1020
0.0
1030
1.0
1040
0.0
1040
340.47337278106511
1040
210.0
1040
170.2366863905325
1040
50.0
1040
0.0
1040
0.0
1070
     0
1070
   100
1070
     1
1070
     1
1070
     0
1070
     0
1070
     0
1070
     0
1040
0.0
1040
0.0
1040
0.0
1040
5.0
1040
5.0
1040
10.0
1040
10.0
1070
     0
1002
{
1002
}
1002
}
  0
ENDSEC
  0
EOF
