  0
SECTION
  2
HEADER
  9
$ACADVER
  1
AC1015
  9
$ACADMAINTVER
 70
    13
  9
$DWGCODEPAGE
  3
ANSI_1252
  9
$INSBASE
 10
0.0
 20
0.0
 30
0.0
  9
$EXTMIN
 10
-114.0747062909355
 20
-20.16448889645335
 30
-0.0000000000112498
  9
$EXTMAX
 10
19.02008111241753
 20
39.66522273801411
 30
0.0000000000002956
  9
$LIMMIN
 10
-150.0
 20
-150.0
  9
$LIMMAX
 10
150.0
 20
150.0
  9
$ORTHOMODE
 70
     0
  9
$REGENMODE
 70
     1
  9
$FILLMODE
 70
     1
  9
$QTEXTMODE
 70
     0
  9
$MIRRTEXT
 70
     0
  9
$LTSCALE
 40
4.0
  9
$ATTMODE
 70
     1
  9
$TEXTSIZE
 40
2.5
  9
$TRACEWID
 40
1.0
  9
$TEXTSTYLE
  7
STANDARD
  9
$CLAYER
  8
2
  9
$CELTYPE
  6
BYLAYER
  9
$CECOLOR
 62
   256
  9
$CELTSCALE
 40
1.0
  9
$DISPSILH
 70
     1
  9
$DIMSCALE
 40
1.0
  9
$DIMASZ
 40
2.0
  9
$DIMEXO
 40
2.0
  9
$DIMDLI
 40
0.0
  9
$DIMRND
 40
0.0
  9
$DIMDLE
 40
1.0
  9
$DIMEXE
 40
1.0
  9
$DIMTP
 40
0.0
  9
$DIMTM
 40
0.0
  9
$DIMTXT
 40
3.5
  9
$DIMCEN
 40
0.0
  9
$DIMTSZ
 40
0.0
  9
$DIMTOL
 70
     0
  9
$DIMLIM
 70
     0
  9
$DIMTIH
 70
     0
  9
$DIMTOH
 70
     0
  9
$DIMSE1
 70
     0
  9
$DIMSE2
 70
     0
  9
$DIMTAD
 70
     1
  9
$DIMZIN
 70
     8
  9
$DIMBLK
  1

  9
$DIMASO
 70
     1
  9
$DIMSHO
 70
     1
  9
$DIMPOST
  1

  9
$DIMAPOST
  1

  9
$DIMALT
 70
     0
  9
$DIMALTD
 70
     2
  9
$DIMALTF
 40
0.039370078740157
  9
$DIMLFAC
 40
1.0
  9
$DIMTOFL
 70
     1
  9
$DIMTVP
 40
0.0
  9
$DIMTIX
 70
     1
  9
$DIMSOXD
 70
     0
  9
$DIMSAH
 70
     1
  9
$DIMBLK1
  1
Oblique
  9
$DIMBLK2
  1
Oblique
  9
$DIMSTYLE
  2
OPO-SSTRICH
  9
$DIMCLRD
 70
   256
  9
$DIMCLRE
 70
   256
  9
$DIMCLRT
 70
   256
  9
$DIMTFAC
 40
0.7114285714285716
  9
$DIMGAP
 40
1.0
  9
$DIMJUST
 70
     0
  9
$DIMSD1
 70
     0
  9
$DIMSD2
 70
     0
  9
$DIMTOLJ
 70
     1
  9
$DIMTZIN
 70
     8
  9
$DIMALTZ
 70
     8
  9
$DIMALTTZ
 70
     8
  9
$DIMUPT
 70
     0
  9
$DIMDEC
 70
     1
  9
$DIMTDEC
 70
     1
  9
$DIMALTU
 70
     2
  9
$DIMALTTD
 70
     2
  9
$DIMTXSTY
  7
Beschlag
  9
$DIMAUNIT
 70
     0
  9
$DIMADEC
 70
     1
  9
$DIMALTRND
 40
0.0
  9
$DIMAZIN
 70
     2
  9
$DIMDSEP
 70
    46
  9
$DIMATFIT
 70
     3
  9
$DIMFRAC
 70
     0
  9
$DIMLDRBLK
  1
Oblique
  9
$DIMLUNIT
 70
     2
  9
$DIMLWD
 70
    -2
  9
$DIMLWE
 70
    -2
  9
$DIMTMOVE
 70
     2
  9
$LUNITS
 70
     2
  9
$LUPREC
 70
     1
  9
$SKETCHINC
 40
1.0
  9
$FILLETRAD
 40
0.2
  9
$AUNITS
 70
     0
  9
$AUPREC
 70
     1
  9
$MENU
  1
D:\ACL_CGWG\CGTAB13
  9
$ELEVATION
 40
0.0
  9
$PELEVATION
 40
0.0
  9
$THICKNESS
 40
0.0
  9
$LIMCHECK
 70
     0
  9
$CHAMFERA
 40
1.0
  9
$CHAMFERB
 40
1.0
  9
$CHAMFERC
 40
1.0
  9
$CHAMFERD
 40
0.7853981633974483
  9
$SKPOLY
 70
     0
  9
$TDCREATE
 40
2451739.873469861
  9
$TDUCREATE
 40
2451739.831803194
  9
$TDUPDATE
 40
2452682.688157361
  9
$TDUUPDATE
 40
2452682.646490694
  9
$TDINDWG
 40
0.0963924537
  9
$TDUSRTIMER
 40
0.0963924537
  9
$USRTIMER
 70
     1
  9
$ANGBASE
 50
0.0
  9
$ANGDIR
 70
     0
  9
$PDMODE
 70
    34
  9
$PDSIZE
 40
1.0
  9
$PLINEWID
 40
0.0
  9
$SPLFRAME
 70
     0
  9
$SPLINETYPE
 70
     6
  9
$SPLINESEGS
 70
     8
  9
$HANDSEED
  5
626
  9
$SURFTAB1
 70
    12
  9
$SURFTAB2
 70
    12
  9
$SURFTYPE
 70
     6
  9
$SURFU
 70
    12
  9
$SURFV
 70
    12
  9
$UCSBASE
  2

  9
$UCSNAME
  2

  9
$UCSORG
 10
0.0
 20
0.0
 30
0.0
  9
$UCSXDIR
 10
1.0
 20
0.0
 30
0.0
  9
$UCSYDIR
 10
0.0
 20
1.0
 30
0.0
  9
$UCSORTHOREF
  2

  9
$UCSORTHOVIEW
 70
     0
  9
$UCSORGTOP
 10
0.0
 20
0.0
 30
0.0
  9
$UCSORGBOTTOM
 10
0.0
 20
0.0
 30
0.0
  9
$UCSORGLEFT
 10
0.0
 20
0.0
 30
0.0
  9
$UCSORGRIGHT
 10
0.0
 20
0.0
 30
0.0
  9
$UCSORGFRONT
 10
0.0
 20
0.0
 30
0.0
  9
$UCSORGBACK
 10
0.0
 20
0.0
 30
0.0
  9
$PUCSBASE
  2

  9
$PUCSNAME
  2

  9
$PUCSORG
 10
0.0
 20
0.0
 30
0.0
  9
$PUCSXDIR
 10
1.0
 20
0.0
 30
0.0
  9
$PUCSYDIR
 10
0.0
 20
1.0
 30
0.0
  9
$PUCSORTHOREF
  2

  9
$PUCSORTHOVIEW
 70
     0
  9
$PUCSORGTOP
 10
0.0
 20
0.0
 30
0.0
  9
$PUCSORGBOTTOM
 10
0.0
 20
0.0
 30
0.0
  9
$PUCSORGLEFT
 10
0.0
 20
0.0
 30
0.0
  9
$PUCSORGRIGHT
 10
0.0
 20
0.0
 30
0.0
  9
$PUCSORGFRONT
 10
0.0
 20
0.0
 30
0.0
  9
$PUCSORGBACK
 10
0.0
 20
0.0
 30
0.0
  9
$USERI1
 70
     0
  9
$USERI2
 70
     0
  9
$USERI3
 70
     0
  9
$USERI4
 70
     0
  9
$USERI5
 70
     0
  9
$USERR1
 40
0.0
  9
$USERR2
 40
0.0
  9
$USERR3
 40
0.0
  9
$USERR4
 40
0.0
  9
$USERR5
 40
0.0
  9
$WORLDVIEW
 70
     1
  9
$SHADEDGE
 70
     3
  9
$SHADEDIF
 70
    70
  9
$TILEMODE
 70
     1
  9
$MAXACTVP
 70
    64
  9
$PINSBASE
 10
0.0
 20
0.0
 30
0.0
  9
$PLIMCHECK
 70
     0
  9
$PEXTMIN
 10
1.000000000000000E+20
 20
1.000000000000000E+20
 30
1.000000000000000E+20
  9
$PEXTMAX
 10
-1.000000000000000E+20
 20
-1.000000000000000E+20
 30
-1.000000000000000E+20
  9
$PLIMMIN
 10
-6.350006103515625
 20
-6.349999904632568
  9
$PLIMMAX
 10
273.0499877929687
 20
209.5499939918517
  9
$UNITMODE
 70
     0
  9
$VISRETAIN
 70
     1
  9
$PLINEGEN
 70
     0
  9
$PSLTSCALE
 70
     1
  9
$TREEDEPTH
 70
  3020
  9
$CMLSTYLE
  2
STANDARD
  9
$CMLJUST
 70
     0
  9
$CMLSCALE
 40
1.0
  9
$PROXYGRAPHICS
 70
     1
  9
$MEASUREMENT
 70
     1
  9
$CELWEIGHT
370
    -1
  9
$ENDCAPS
280
     0
  9
$JOINSTYLE
280
     0
  9
$LWDISPLAY
290
     0
  9
$INSUNITS
 70
     0
  9
$HYPERLINKBASE
  1

  9
$STYLESHEET
  1
Hebgo JPG.ctb
  9
$XEDIT
290
     1
  9
$CEPSNTYPE
380
     0
  9
$PSTYLEMODE
290
     1
  9
$FINGERPRINTGUID
  2
{DEF6964E-5F8B-11D3-8AEE-0008C71A8CF4}
  9
$VERSIONGUID
  2
{ACE63C88-8167-4B24-9B94-0623616F317E}
  9
$EXTNAMES
290
     1
  9
$PSVPSCALE
 40
0.0
  9
$OLESTARTUP
290
     0
  0
ENDSEC
  0
SECTION
  2
CLASSES
  0
CLASS
  1
ACDBDICTIONARYWDFLT
  2
AcDbDictionaryWithDefault
  3
AutoCAD 2000
 90
        0
280
     0
281
     0
  0
CLASS
  1
ACDBPLACEHOLDER
  2
AcDbPlaceHolder
  3
AutoCAD 2000
 90
        0
280
     0
281
     0
  0
CLASS
  1
LAYOUT
  2
AcDbLayout
  3
AutoCAD 2000
 90
        0
280
     0
281
     0
  0
CLASS
  1
DICTIONARYVAR
  2
AcDbDictionaryVar
  3
AutoCAD 2000
 90
        0
280
     0
281
     0
  0
CLASS
  1
LONG_TRANSACTION
  2
AcDbLongTransaction
  3
AutoCAD 2000
 90
    32768
280
     0
281
     0
  0
CLASS
  1
LWPOLYLINE
  2
AcDbPolyline
  3
AutoCAD 2000
 90
    32768
280
     0
281
     1
  0
CLASS
  1
HATCH
  2
AcDbHatch
  3
AutoCAD 2000
 90
    32768
280
     0
281
     1
  0
CLASS
  1
XRECORD
  2
AcDbXrecord
  3
AutoCAD 2000
 90
    32768
280
     0
281
     0
  0
CLASS
  1
PLOTSETTINGS
  2
AcDbPlotSettings
  3
AutoCAD 2000
 90
        0
280
     0
281
     0
  0
CLASS
  1
LONG_TRANSACTION
  2
AcDbLongTransaction
  3
AutoCAD 2000
 90
    32768
280
     0
281
     0
  0
CLASS
  1
LWPOLYLINE
  2
AcDbPolyline
  3
AutoCAD 2000
 90
    32768
280
     0
281
     1
  0
CLASS
  1
HATCH
  2
AcDbHatch
  3
AutoCAD 2000
 90
    32768
280
     0
281
     1
  0
CLASS
  1
XRECORD
  2
AcDbXrecord
  3
AutoCAD 2000
 90
    32768
280
     0
281
     0
  0
CLASS
  1
LONG_TRANSACTION
  2
AcDbLongTransaction
  3
AutoCAD 2000
 90
    32768
280
     0
281
     0
  0
CLASS
  1
LWPOLYLINE
  2
AcDbPolyline
  3
AutoCAD 2000
 90
    32768
280
     0
281
     1
  0
CLASS
  1
HATCH
  2
AcDbHatch
  3
AutoCAD 2000
 90
    32768
280
     0
281
     1
  0
CLASS
  1
XRECORD
  2
AcDbXrecord
  3
AutoCAD 2000
 90
    32768
280
     0
281
     0
  0
CLASS
  1
LONG_TRANSACTION
  2
AcDbLongTransaction
  3
AutoCAD 2000
 90
    32768
280
     0
281
     0
  0
CLASS
  1
LWPOLYLINE
  2
AcDbPolyline
  3
AutoCAD 2000
 90
    32768
280
     0
281
     1
  0
CLASS
  1
HATCH
  2
AcDbHatch
  3
AutoCAD 2000
 90
    32768
280
     0
281
     1
  0
CLASS
  1
XRECORD
  2
AcDbXrecord
  3
AutoCAD 2000
 90
    32768
280
     0
281
     0
  0
CLASS
  1
LONG_TRANSACTION
  2
AcDbLongTransaction
  3
AutoCAD 2000
 90
    32768
280
     0
281
     0
  0
CLASS
  1
LWPOLYLINE
  2
AcDbPolyline
  3
AutoCAD 2000
 90
    32768
280
     0
281
     1
  0
CLASS
  1
HATCH
  2
AcDbHatch
  3
AutoCAD 2000
 90
    32768
280
     0
281
     1
  0
CLASS
  1
XRECORD
  2
AcDbXrecord
  3
AutoCAD 2000
 90
    32768
280
     0
281
     0
  0
CLASS
  1
DIMASSOC
  2
AcDbDimAssoc
  3
"AcDbDimAssoc|Product Desc:     AcDim ARX App For Dimension|Company:          Autodesk, Inc.|WEB Address:      www.autodesk.com"
 90
        0
280
     0
281
     0
  0
ENDSEC
  0
SECTION
  2
TABLES
  0
TABLE
  2
VPORT
  5
8
330
0
100
AcDbSymbolTable
 70
     2
  0
VPORT
  5
625
330
8
100
AcDbSymbolTableRecord
100
AcDbViewportTableRecord
  2
*Active
 70
     0
 10
0.0
 20
0.0
 11
1.0
 21
1.0
 12
-47.52731258925897
 22
10.08116377560386
 13
0.0
 23
0.0
 14
1.0
 24
1.0
 15
100.0
 25
100.0
 16
0.0
 26
0.0
 36
1.0
 17
0.0
 27
0.0
 37
0.0
 40
83.47111119045205
 41
1.602377807133421
 42
50.0
 43
0.0
 44
0.0
 50
0.0
 51
0.0
 71
     0
 72
   800
 73
     1
 74
     1
 75
     0
 76
     0
 77
     0
 78
     0
281
     0
 65
     1
110
0.0
120
0.0
130
0.0
111
1.0
121
0.0
131
0.0
112
0.0
122
1.0
132
0.0
 79
     0
146
0.0
  0
ENDTAB
  0
TABLE
  2
LTYPE
  5
5
330
0
100
AcDbSymbolTable
 70
     2
  0
LTYPE
  5
14
330
5
100
AcDbSymbolTableRecord
100
AcDbLinetypeTableRecord
  2
BYBLOCK
 70
     0
  3

 72
    65
 73
     0
 40
0.0
  0
LTYPE
  5
15
330
5
100
AcDbSymbolTableRecord
100
AcDbLinetypeTableRecord
  2
BYLAYER
 70
     0
  3

 72
    65
 73
     0
 40
0.0
  0
LTYPE
  5
16
330
5
100
AcDbSymbolTableRecord
100
AcDbLinetypeTableRecord
  2
CONTINUOUS
 70
     0
  3
_______________________________________________
 72
    65
 73
     2
 40
1.0
 49
1.0
 74
     0
 49
0.0
 74
     0
  0
LTYPE
  5
2EC
330
5
100
AcDbSymbolTableRecord
100
AcDbLinetypeTableRecord
  2
STRICHPUNKT
 70
     0
  3
__ . __ . __ . __ . __ . __ . __ . __ . __ . __
 72
    65
 73
     4
 40
1.0
 49
0.5
 74
     0
 49
-0.25
 74
     0
 49
0.0
 74
     0
 49
-0.25
 74
     0
  0
ENDTAB
  0
TABLE
  2
LAYER
  5
2
330
0
100
AcDbSymbolTable
 70
     7
  0
LAYER
  5
F
330
2
100
AcDbSymbolTableRecord
100
AcDbLayerTableRecord
  2
0
 70
     0
 62
    30
  6
CONTINUOUS
370
    -3
390
F3
  0
LAYER
  5
120
330
2
100
AcDbSymbolTableRecord
100
AcDbLayerTableRecord
  2
1
 70
     0
 62
     2
  6
CONTINUOUS
370
    -3
390
F3
  0
LAYER
  5
121
330
2
100
AcDbSymbolTableRecord
100
AcDbLayerTableRecord
  2
2
 70
     0
 62
     9
  6
CONTINUOUS
370
    -3
390
F3
  0
LAYER
  5
123
330
2
100
AcDbSymbolTableRecord
100
AcDbLayerTableRecord
  2
4
 70
     1
 62
     4
  6
CONTINUOUS
370
    -3
390
F3
  0
LAYER
  5
124
330
2
100
AcDbSymbolTableRecord
100
AcDbLayerTableRecord
  2
5
 70
     0
 62
     1
  6
CONTINUOUS
370
    -3
390
F3
  0
LAYER
  5
125
330
2
100
AcDbSymbolTableRecord
100
AcDbLayerTableRecord
  2
6
 70
     0
 62
     3
  6
CONTINUOUS
370
    35
390
F3
  0
LAYER
  5
207
330
2
100
AcDbSymbolTableRecord
100
AcDbLayerTableRecord
  2
Defpoints
 70
     0
 62
     7
  6
CONTINUOUS
290
     0
370
    -3
390
F3
  0
ENDTAB
  0
TABLE
  2
STYLE
  5
3
330
0
100
AcDbSymbolTable
 70
     2
  0
STYLE
  5
10
330
3
100
AcDbSymbolTableRecord
100
AcDbTextStyleTableRecord
  2
STANDARD
 70
     0
 40
0.0
 41
1.0
 50
0.0
 71
     0
 42
2.5
  3
ARIAL.TTF
  4

1001
ACAD
1000
Arial
1071
       34
  0
STYLE
  5
12B
330
3
100
AcDbSymbolTableRecord
100
AcDbTextStyleTableRecord
  2
Beschlag
 70
     0
 40
0.0
 41
1.0
 50
0.0
 71
     0
 42
3.5
  3
ARIAL.TTF
  4

1001
ACAD
1000
Arial
1071
       34
  0
ENDTAB
  0
TABLE
  2
VIEW
  5
6
330
0
100
AcDbSymbolTable
 70
     0
  0
ENDTAB
  0
TABLE
  2
UCS
  5
7
330
0
100
AcDbSymbolTable
 70
     0
  0
ENDTAB
  0
TABLE
  2
APPID
  5
9
330
0
100
AcDbSymbolTable
 70
     1
  0
APPID
  5
11
330
9
100
AcDbSymbolTableRecord
100
AcDbRegAppTableRecord
  2
ACAD
 70
     0
  0
ENDTAB
  0
TABLE
  2
DIMSTYLE
  5
A
330
0
100
AcDbSymbolTable
 70
     1
100
AcDbDimStyleTable
 71
     1
340
209
  0
DIMSTYLE
105
209
102
{ACAD_REACTORS
330
5A7
330
5CA
330
5E2
102
}
330
A
100
AcDbSymbolTableRecord
100
AcDbDimStyleTableRecord
  2
OPO-SSTRICH
 70
     0
 41
2.0
 42
2.0
 43
0.0
 44
1.0
 46
1.0
 73
     0
 74
     0
 77
     1
 78
     8
 79
     2
140
3.5
141
0.0
143
0.039370078740157
146
0.7114285714285716
147
1.0
172
     1
173
     1
174
     1
176
   256
177
   256
178
   256
179
     1
271
     1
272
     1
279
     2
284
     8
285
     8
286
     8
340
12B
341
203
343
203
344
203
  0
ENDTAB
  0
TABLE
  2
BLOCK_RECORD
  5
1
330
0
100
AcDbSymbolTable
 70
     5
  0
BLOCK_RECORD
  5
1A
102
{ACAD_XDICTIONARY
360
1F6
102
}
330
1
100
AcDbSymbolTableRecord
100
AcDbBlockTableRecord
  2
*MODEL_SPACE
340
F6
  0
BLOCK_RECORD
  5
17
102
{ACAD_XDICTIONARY
360
1F4
102
}
330
1
100
AcDbSymbolTableRecord
100
AcDbBlockTableRecord
  2
*PAPER_SPACE
340
F7
  0
BLOCK_RECORD
  5
203
330
1
100
AcDbSymbolTableRecord
100
AcDbBlockTableRecord
  2
_Oblique
340
0
102
{BLKREFS
331
5E9
331
5EA
331
5F9
331
5FA
331
608
331
609
102
}
  0
BLOCK_RECORD
  5
253
330
1
100
AcDbSymbolTableRecord
100
AcDbBlockTableRecord
  2
NullPunkt
340
0
102
{BLKREFS
331
25B
102
}
  0
BLOCK_RECORD
  5
5A8
330
1
100
AcDbSymbolTableRecord
100
AcDbBlockTableRecord
  2
*D2
340
0
  0
BLOCK_RECORD
  5
5CB
330
1
100
AcDbSymbolTableRecord
100
AcDbBlockTableRecord
  2
*D3
340
0
  0
BLOCK_RECORD
  5
5E3
330
1
100
AcDbSymbolTableRecord
100
AcDbBlockTableRecord
  2
*D4
340
0
  0
ENDTAB
  0
ENDSEC
  0
SECTION
  2
BLOCKS
  0
BLOCK
  5
1B
330
1A
100
AcDbEntity
  8
0
100
AcDbBlockBegin
  2
*MODEL_SPACE
 70
     0
 10
0.0
 20
0.0
 30
0.0
  3
*MODEL_SPACE
  1

  0
ENDBLK
  5
1C
330
1A
100
AcDbEntity
  8
0
100
AcDbBlockEnd
  0
BLOCK
  5
18
330
17
100
AcDbEntity
 67
     1
  8
0
100
AcDbBlockBegin
  2
*PAPER_SPACE
 70
     0
 10
0.0
 20
0.0
 30
0.0
  3
*PAPER_SPACE
  1

  0
ENDBLK
  5
19
330
17
100
AcDbEntity
 67
     1
  8
0
100
AcDbBlockEnd
  0
BLOCK
  5
205
330
203
100
AcDbEntity
  8
0
100
AcDbBlockBegin
  2
_Oblique
 70
     0
 10
0.0
 20
0.0
 30
0.0
  3
_Oblique
  1

  0
LINE
  5
204
330
203
100
AcDbEntity
  8
0
 62
     0
370
    -2
100
AcDbLine
 10
-0.5
 20
-0.5
 30
0.0
 11
0.5
 21
0.5
 31
0.0
  0
ENDBLK
  5
206
330
203
100
AcDbEntity
  8
0
100
AcDbBlockEnd
  0
BLOCK
  5
259
330
253
100
AcDbEntity
  8
0
100
AcDbBlockBegin
  2
NullPunkt
 70
     0
 10
0.0
 20
0.0
 30
0.0
  3
NullPunkt
  1

  0
SOLID
  5
254
330
253
100
AcDbEntity
  8
5
100
AcDbTrace
 10
0.0
 20
0.0
 30
0.0
 11
2.0
 21
0.0
 31
0.0
 12
0.0
 22
-2.0
 32
0.0
 13
0.0
 23
-2.0
 33
0.0
  0
SOLID
  5
255
330
253
100
AcDbEntity
  8
5
100
AcDbTrace
 10
0.0
 20
0.0
 30
0.0
 11
-2.0
 21
0.0
 31
0.0
 12
0.0
 22
2.0
 32
0.0
 13
0.0
 23
2.0
 33
0.0
  0
LWPOLYLINE
  5
256
330
253
100
AcDbEntity
  8
5
100
AcDbPolyline
 90
        2
 70
     0
 43
0.0
 10
0.0
 20
2.0
 10
0.0
 20
-2.0
  0
LWPOLYLINE
  5
257
330
253
100
AcDbEntity
  8
5
100
AcDbPolyline
 90
        2
 70
     0
 43
0.0
 10
-2.0
 20
0.0
 10
2.0
 20
0.0
  0
CIRCLE
  5
258
330
253
100
AcDbEntity
  8
5
100
AcDbCircle
 10
0.0
 20
0.0
 30
0.0
 40
2.0
  0
ENDBLK
  5
25A
330
253
100
AcDbEntity
  8
0
100
AcDbBlockEnd
  0
BLOCK
  5
5B2
330
5A8
100
AcDbEntity
  8
0
100
AcDbBlockBegin
  2
*D2
 70
     1
 10
0.0
 20
0.0
 30
0.0
  3
*D2
  1

  0
LINE
  5
5F6
330
5A8
100
AcDbEntity
  8
1
370
    -2
100
AcDbLine
 10
-0.0000000000000293
 20
-2.0
 30
0.0
 11
-0.0000000000000304
 21
-20.14507082122168
 31
0.0
  0
LINE
  5
5F7
330
5A8
100
AcDbEntity
  8
1
370
    -2
100
AcDbLine
 10
-102.2888187799843
 20
-6.889525760441756
 30
0.0
 11
-102.2888187799843
 21
-20.14507082122168
 31
0.0
  0
LINE
  5
5F8
330
5A8
100
AcDbEntity
  8
1
370
    -2
100
AcDbLine
 10
0.9999999999999696
 20
-19.14507082122168
 30
0.0
 11
-103.2888187799843
 21
-19.14507082122168
 31
0.0
  0
INSERT
  5
5F9
330
5A8
100
AcDbEntity
  8
1
370
    -2
100
AcDbBlockReference
  2
_Oblique
 10
-0.0000000000000304
 20
-19.14507082122168
 30
0.0
 41
2.0
 42
2.0
 43
2.0
  0
INSERT
  5
5FA
330
5A8
100
AcDbEntity
  8
1
370
    -2
100
AcDbBlockReference
  2
_Oblique
 10
-102.2888187799843
 20
-19.14507082122168
 30
0.0
 41
2.0
 42
2.0
 43
2.0
 50
180.0
  0
MTEXT
  5
5FB
330
5A8
100
AcDbEntity
  8
1
100
AcDbMText
 10
-51.14440938999219
 20
-16.35806536419575
 30
0.0
 40
3.5
 41
0.0
 71
     5
 72
     1
  1
\A1;102
  7
Beschlag
 73
     1
 44
1.0
  0
POINT
  5
5FC
330
5A8
100
AcDbEntity
  8
Defpoints
 62
     0
100
AcDbPoint
 10
-0.0000000000000292
 20
0.0
 30
0.0
  0
POINT
  5
5FD
330
5A8
100
AcDbEntity
  8
Defpoints
 62
     0
100
AcDbPoint
 10
-102.2888187799843
 20
-4.889525760441756
 30
0.0
  0
POINT
  5
5FE
330
5A8
100
AcDbEntity
  8
Defpoints
 62
     0
100
AcDbPoint
 10
-102.2888187799843
 20
-19.14507082122168
 30
0.0
  0
ENDBLK
  5
5B3
330
5A8
100
AcDbEntity
  8
0
100
AcDbBlockEnd
  0
BLOCK
  5
5D5
330
5CB
100
AcDbEntity
  8
0
100
AcDbBlockBegin
  2
*D3
 70
     1
 10
0.0
 20
0.0
 30
0.0
  3
*D3
  1

  0
LINE
  5
605
330
5CB
100
AcDbEntity
  8
1
370
    -2
100
AcDbLine
 10
-2.0
 20
0.0000000000000006
 30
0.0
 11
-32.75649387778617
 21
0.0000000000000093
 31
0.0
  0
LINE
  5
606
330
5CB
100
AcDbEntity
  8
1
370
    -2
100
AcDbLine
 10
-2.000000000000024
 20
25.0
 30
0.0
 11
-32.75649387778616
 21
25.00000000000001
 31
0.0
  0
LINE
  5
607
330
5CB
100
AcDbEntity
  8
1
370
    -2
100
AcDbLine
 10
-31.75649387778617
 20
-0.9999999999999909
 30
0.0
 11
-31.75649387778616
 21
26.00000000000001
 31
0.0
  0
INSERT
  5
608
330
5CB
100
AcDbEntity
  8
1
370
    -2
100
AcDbBlockReference
  2
_Oblique
 10
-31.75649387778617
 20
0.000000000000009
 30
0.0
 41
2.0
 42
2.0
 43
2.0
 50
270.0
  0
INSERT
  5
609
330
5CB
100
AcDbEntity
  8
1
370
    -2
100
AcDbBlockReference
  2
_Oblique
 10
-31.75649387778616
 20
25.00000000000001
 30
0.0
 41
2.0
 42
2.0
 43
2.0
 50
90.0
  0
MTEXT
  5
60A
330
5CB
100
AcDbEntity
  8
1
100
AcDbMText
 10
-34.54349933481209
 20
12.5
 30
0.0
 40
3.5
 41
0.0
 71
     5
 72
     1
  1
\A1;25
  7
Beschlag
 11
0.0000000000000001
 21
1.0
 31
0.0
 73
     1
 44
1.0
  0
POINT
  5
60B
330
5CB
100
AcDbEntity
  8
Defpoints
 62
     0
100
AcDbPoint
 10
0.0
 20
0.0
 30
0.0
  0
POINT
  5
60C
330
5CB
100
AcDbEntity
  8
Defpoints
 62
     0
100
AcDbPoint
 10
-0.0000000000000246
 20
25.0
 30
0.0
  0
POINT
  5
60D
330
5CB
100
AcDbEntity
  8
Defpoints
 62
     0
100
AcDbPoint
 10
-31.75649387778616
 20
25.00000000000001
 30
0.0
  0
ENDBLK
  5
5D6
330
5CB
100
AcDbEntity
  8
0
100
AcDbBlockEnd
  0
BLOCK
  5
5EF
330
5E3
100
AcDbEntity
  8
0
100
AcDbBlockBegin
  2
*D4
 70
     1
 10
0.0
 20
0.0
 30
0.0
  3
*D4
  1

  0
LINE
  5
5E4
330
5E3
100
AcDbEntity
  8
1
370
    -2
100
AcDbLine
 10
-0.0000000000000245
 20
27.0
 30
0.0
 11
-0.000000000000024
 21
35.22880634238873
 31
0.0
  0
LINE
  5
5E5
330
5E3
100
AcDbEntity
  8
1
370
    -2
100
AcDbLine
 10
3.999999999999973
 20
31.0
 30
0.0
 11
3.999999999999974
 21
35.22880634238873
 31
0.0
  0
LINE
  5
5E6
330
5E3
100
AcDbEntity
  8
1
370
    -2
100
AcDbLine
 10
-0.0000000000000241
 20
34.22880634238874
 30
0.0
 11
-2.000000000000023
 21
34.22880634238874
 31
0.0
  0
LINE
  5
5E7
330
5E3
100
AcDbEntity
  8
1
370
    -2
100
AcDbLine
 10
3.999999999999974
 20
34.22880634238874
 30
0.0
 11
5.999999999999974
 21
34.22880634238874
 31
0.0
  0
LINE
  5
5E8
330
5E3
100
AcDbEntity
  8
1
370
    -2
100
AcDbLine
 10
-0.0000000000000241
 20
34.22880634238874
 30
0.0
 11
3.999999999999974
 21
34.22880634238874
 31
0.0
  0
INSERT
  5
5E9
330
5E3
100
AcDbEntity
  8
1
370
    -2
100
AcDbBlockReference
  2
_Oblique
 10
-0.0000000000000241
 20
34.22880634238874
 30
0.0
 41
2.0
 42
2.0
 43
2.0
  0
INSERT
  5
5EA
330
5E3
100
AcDbEntity
  8
1
370
    -2
100
AcDbBlockReference
  2
_Oblique
 10
3.999999999999974
 20
34.22880634238874
 30
0.0
 41
2.0
 42
2.0
 43
2.0
 50
180.0
  0
MTEXT
  5
5EB
330
5E3
100
AcDbEntity
  8
1
100
AcDbMText
 10
1.999999999999975
 20
36.97880634238873
 30
0.0
 40
3.5
 41
0.0
 71
     5
 72
     1
  1
\A1;4
  7
Beschlag
 73
     1
 44
1.0
  0
POINT
  5
5EC
330
5E3
100
AcDbEntity
  8
Defpoints
 62
     0
100
AcDbPoint
 10
-0.0000000000000246
 20
25.0
 30
0.0
  0
POINT
  5
5ED
330
5E3
100
AcDbEntity
  8
Defpoints
 62
     0
100
AcDbPoint
 10
3.999999999999973
 20
29.0
 30
0.0
  0
POINT
  5
5EE
330
5E3
100
AcDbEntity
  8
Defpoints
 62
     0
100
AcDbPoint
 10
3.999999999999974
 20
34.22880634238874
 30
0.0
  0
ENDBLK
  5
5F0
330
5E3
100
AcDbEntity
  8
0
100
AcDbBlockEnd
  0
ENDSEC
  0
SECTION
  2
ENTITIES
  0
INSERT
  5
25B
330
1A
100
AcDbEntity
  8
5
100
AcDbBlockReference
  2
NullPunkt
 10
0.0
 20
0.0
 30
0.0
  0
TEXT
  5
305
330
1A
100
AcDbEntity
  8
1
100
AcDbText
 10
-77.38381253156401
 20
8.614084963824609
 30
0.0
 40
2.49999995
  1
Hebgo 176/620
100
AcDbText
  0
LWPOLYLINE
  5
54C
102
{ACAD_REACTORS
330
5BE
330
600
102
}
330
1A
100
AcDbEntity
  8
6
100
AcDbPolyline
 90
      117
 70
     1
 43
0.0
 10
-92.38419135751923
 20
0.1381218253043244
 42
0.198912367379706
 10
-92.23860992870777
 20
0.0908195516776687
 10
-51.82804832784825
 20
3.271199723405061
 42
-0.4374089726785652
 10
-51.28881877998435
 20
2.77274105653862
 10
-51.28881877998418
 20
2.000000000000113
 42
-0.4142135623731617
 10
-51.78881877998418
 20
1.5
 10
-52.28881877998424
 20
1.5
 42
0.4142135623730951
 10
-53.2888187799843
 20
0.5000000000002274
 42
0.1989123673795796
 10
-53.23024013622159
 20
0.3585786437629395
 10
-52.93024013622164
 20
0.0585786437628713
 42
0.1989123673796625
 10
-52.78881877998429
 20
0.0000000000001137
 42
0.1989123673797058
 10
-52.64739742374684
 20
0.0585786437628713
 10
-52.43024013346945
 20
0.2757359312882954
 42
-0.4142135623731244
 10
-52.14739742099488
 20
0.2757359312882954
 10
-51.93024013622147
 20
0.0585786437627576
 42
0.1989123673796102
 10
-51.78881877998424
 20
0.0000000000001137
 42
0.1989123673796841
 10
-51.64739742374684
 20
0.0585786437628713
 10
-51.43024013346951
 20
0.2757359312881817
 42
-0.4142135623731244
 10
-51.14739742099482
 20
0.2757359312882954
 10
-50.93024013622147
 20
0.0585786437627576
 42
0.1989123673796102
 10
-50.78881877998424
 20
0.0
 42
0.1989123673797102
 10
-50.64739742374683
 20
0.0585786437628713
 10
-50.43024013346951
 20
0.2757359312881817
 42
-0.4142135623731244
 10
-50.14739742099482
 20
0.2757359312882954
 10
-49.93024013622147
 20
0.0585786437627576
 42
0.1989123673796102
 10
-49.78881877998424
 20
0.0
 42
0.1989123673796841
 10
-49.64739742374684
 20
0.0585786437627576
 10
-49.43024013346946
 20
0.2757359312881817
 42
-0.4142135623731244
 10
-49.14739742099488
 20
0.2757359312881817
 10
-48.93024013622147
 20
0.0585786437626439
 42
0.1989123673795796
 10
-48.78881877998423
 20
0.0
 42
0.1989123673797275
 10
-48.64739742374678
 20
0.0585786437627576
 10
-48.43024013346951
 20
0.2757359312881817
 42
-0.4142135623731244
 10
-48.14739742099482
 20
0.2757359312881817
 10
-47.93024013622141
 20
0.0585786437626439
 42
0.1989123673796102
 10
-47.78881877998424
 20
0.0
 42
0.1989123673797102
 10
-47.64739742374684
 20
0.0585786437627576
 10
-47.43024013346945
 20
0.2757359312881817
 42
-0.4142135623730951
 10
-47.14739742099488
 20
0.2757359312881817
 10
-46.93024013622147
 20
0.0585786437626439
 42
0.1989123673795841
 10
-46.78881877998423
 20
0.0
 42
0.1989123673796797
 10
-46.64739742374678
 20
0.0585786437627576
 10
-46.43024013346951
 20
0.2757359312881817
 42
-0.4142135623731538
 10
-46.14739742099482
 20
0.2757359312881817
 10
-45.93024013622147
 20
0.0585786437626439
 42
0.1989123673796102
 10
-45.78881877998424
 20
0.0
 42
0.1989123673796975
 10
-45.64739742374683
 20
0.0585786437628713
 10
-45.34739742464296
 20
0.3585786390648309
 42
0.1989123690265039
 10
-45.28881877998424
 20
0.4999999961981985
 10
-45.28881877998429
 20
1.000000000000113
 42
0.4142135623730784
 10
-45.78881877998429
 20
1.500000000000113
 10
-49.28881877998418
 20
1.500000000000113
 42
-0.4142135623730785
 10
-49.78881877998418
 20
2.0
 10
-49.78881877998429
 20
2.969495323597698
 42
-0.3913924554630568
 10
-49.32804832784825
 20
3.467953990464366
 10
-30.55148322058289
 20
4.945701712711979
 42
-0.363390503760695
 10
-28.98234534434147
 20
3.828869137681067
 42
0.3832766946186776
 10
-28.75925689775698
 20
3.68153842175252
 10
-26.20693731486165
 20
4.062985139195575
 42
0.31360527874067
 10
-26.04076377889117
 20
4.219707342270908
 42
-0.6956239723285017
 10
-23.25895965575506
 20
4.635450754029079
 42
0.3136052787423695
 10
-23.05422597530542
 20
4.534161005856844
 10
-20.71491407441953
 20
4.883773511912067
 42
0.3714000667187162
 10
-20.28881877998435
 20
5.378281443593095
 10
-20.28881877998441
 20
6.81744148567418
 42
0.4374089726786174
 10
-20.8280483278483
 20
7.315900152540734
 10
-31.11921139598933
 20
6.505968053867491
 42
-0.1622776601683916
 10
-32.65381694445295
 20
6.886738077141444
 42
0.333333333333335
 10
-35.64456894565234
 20
6.651360789957948
 42
-0.333333333333336
 10
-38.63532094685178
 20
6.415983502774452
 42
0.333333333333334
 10
-41.62607294805122
 20
6.180606215591069
 42
-0.3333333333333348
 10
-44.61682494925059
 20
5.945228928407573
 42
0.3333333333333414
 10
-47.60757695045003
 20
5.709851641224076
 42
-0.3333333333333414
 10
-50.59832895164948
 20
5.47447435404058
 42
0.3333333333333414
 10
-53.58908095284892
 20
5.239097066857084
 42
-0.333333333333336
 10
-56.57983295404836
 20
5.003719779673588
 42
0.333333333333335
 10
-59.57058495524774
 20
4.768342492490091
 42
-0.333333333333336
 10
-62.56133695644717
 20
4.532965205306595
 42
0.3333333333333414
 10
-65.55208895764661
 20
4.297587918123099
 42
-0.3333333333333375
 10
-68.54284095884605
 20
4.062210630939603
 42
0.3333333333333361
 10
-71.53359296004544
 20
3.826833343756106
 42
-0.3333333333333399
 10
-74.52434496124488
 20
3.591456056572724
 42
0.3333333333333377
 10
-77.51509696244432
 20
3.356078769389228
 42
-0.3333333333333414
 10
-80.50584896364375
 20
3.120701482205731
 42
0.3333333333333414
 10
-83.49660096484319
 20
2.885324195022235
 42
-0.333333333333336
 10
-86.48735296604263
 20
2.649946907838739
 42
0.333333333333335
 10
-89.47810496724201
 20
2.414569620655242
 42
-0.333333333333336
 10
-92.46885696844145
 20
2.179192333471746
 42
0.3333333333333414
 10
-95.45960896964089
 20
1.943815046288364
 42
-0.3333333333333375
 10
-98.45036097084033
 20
1.708437759104754
 42
0.5912210802386079
 10
-102.2888187799844
 20
-0.4030855519531542
 10
-102.2888187799843
 20
-4.889525760441756
 42
0.6681786379192857
 10
-101.7766867456284
 20
-5.101657794797688
 10
-101.3888154580521
 20
-4.713786507221584
 42
-0.1785773420108542
 10
-101.2002211524146
 20
-4.626843341457515
 10
-98.82804832784813
 20
-4.440149291281386
 42
-0.4374089726786404
 10
-98.28881877998425
 20
-4.93860795814794
 10
-98.28881877998435
 20
-7.869182846771764
 42
0.437408972678637
 10
-97.74958923212047
 20
-8.367641513638318
 10
-97.24958923212028
 20
-8.328290660226002
 42
0.3913924554631115
 10
-96.78881877998419
 20
-7.829831993359448
 10
-96.7888187799843
 20
-4.397711005494102
 42
0.4374089726786083
 10
-98.40650742357599
 20
-2.902335004894553
 10
-100.2495892321205
 20
-3.047388689044282
 42
-0.4374089726786726
 10
-100.7888187799844
 20
-2.548930022177728
 10
-100.7888187799841
 20
-1.044291724453501
 42
-0.3913924554630895
 10
-100.328048327848
 20
-0.5458330575869468
 10
-95.36032780731829
 20
-0.1548649735937033
 42
0.1989123673796561
 10
-95.22393843334373
 20
-0.0853711165131017
 10
-95.05600503781215
 20
0.1112536267808082
 42
-0.4142135623730635
 10
-94.77403423502613
 20
0.1334452102346404
 10
-94.57740949173217
 20
-0.0344881852968229
 42
0.1989123673797083
 10
-94.43182806292055
 20
-0.0817904589234786
 10
-93.1671096731053
 20
0.0177450370074439
 42
0.1989123673796432
 10
-93.0307202991309
 20
0.0872388940880455
 10
-92.86278690359933
 20
0.2838636373820691
 42
-0.4142135623730727
 10
-92.58081610081331
 20
0.306055220836015
  0
LWPOLYLINE
  5
56E
102
{ACAD_REACTORS
330
604
102
}
330
1A
100
AcDbEntity
  8
6
100
AcDbPolyline
 90
       20
 70
     1
 43
0.0
 10
-0.0000000000000262
 20
8.600000000000024
 10
-0.0000000000000262
 20
0.0000000000000155
 10
-3.950000000000022
 20
0.0000000000000155
 10
-3.950000000000022
 20
4.500000000000015
 10
-5.650000000000024
 20
4.500000000000015
 10
-5.650000000000024
 20
2.000000000000015
 10
-10.50000000000002
 20
2.000000000000015
 10
-10.50000000000002
 20
23.00000000000001
 10
-8.900000000000025
 20
23.00000000000001
 10
-8.900000000000025
 20
20.50000000000001
 10
-7.200000000000021
 20
20.50000000000001
 10
-7.200000000000021
 20
23.00000000000001
 10
-5.500000000000018
 20
23.00000000000001
 10
-5.500000000000018
 20
11.00000000000001
 10
-2.900000000000017
 20
11.00000000000001
 10
-2.900000000000017
 20
12.80000000000001
 42
-0.4142135623730951
 10
-2.700000000000017
 20
13.00000000000001
 10
-2.60000000000002
 20
13.00000000000001
 42
-0.4142135623730951
 10
-1.400000000000017
 20
11.80000000000001
 10
-1.400000000000017
 20
10.00000000000001
  0
LWPOLYLINE
  5
56F
102
{ACAD_REACTORS
330
604
102
}
330
1A
100
AcDbEntity
  8
6
100
AcDbPolyline
 90
        8
 70
     1
 43
0.0
 10
-7.500000000000018
 20
6.750000000000015
 10
-3.500000000000019
 20
6.750000000000015
 42
0.4142135623730951
 10
-3.000000000000019
 20
7.250000000000015
 10
-3.000000000000019
 20
8.250000000000015
 42
0.4142135623730951
 10
-3.500000000000019
 20
8.750000000000015
 10
-7.500000000000018
 20
8.750000000000015
 42
0.4142135623730951
 10
-8.000000000000019
 20
8.250000000000015
 10
-8.000000000000019
 20
7.250000000000015
 42
0.4142135623730951
  0
LWPOLYLINE
  5
570
102
{ACAD_REACTORS
330
5E1
102
}
330
1A
100
AcDbEntity
  8
5
100
AcDbPolyline
 90
        3
 70
     0
 43
0.0
 10
-0.000000000000028
 20
-10.0
 10
0.0
 20
0.0
 10
-55.0
 20
0.0000000000000067
  0
LWPOLYLINE
  5
573
330
1A
100
AcDbEntity
  8
5
100
AcDbPolyline
 90
        2
 70
     0
 43
0.0
 10
3.999999999999975
 20
29.0
 10
-38.84693194593899
 20
29.0
  0
LWPOLYLINE
  5
57B
330
1A
100
AcDbEntity
  8
6
100
AcDbPolyline
 90
       25
 70
     1
 43
0.0
 10
-5.13143126904729
 20
14.35121658728924
 42
0.6415838065530063
 10
-4.748854964488465
 20
19.72678872837463
 42
-0.5157822426877657
 10
-4.835360229548633
 20
21.03714546834653
 10
-3.4687036445981
 20
21.834142991016
 10
-2.800000000000046
 20
21.834142991016
 10
-2.800000000000046
 20
20.99999999999995
 10
-1.362366928525581
 20
20.99999999999995
 42
-0.2542712822039416
 10
0.192743080729223
 20
21.94767803927375
 42
-0.239805045364585
 10
2.412931543950115
 20
20.9204350966283
 42
-0.0952903634792644
 10
3.343631370706497
 20
18.79820957005513
 42
-0.0700993617324612
 10
3.498574362427597
 20
13.07425559979272
 42
-0.9870930961173433
 10
2.843276423465021
 20
13.17208823718972
 42
0.0371998225987245
 10
2.700619918971959
 20
17.63644781339253
 42
0.0985543060514419
 10
1.914122682538299
 20
19.58991085028601
 42
0.1211139390109317
 10
0.9760618005344884
 20
20.35659656332968
 42
0.2870603126370058
 10
0.0069122906692418
 20
20.07907420392252
 42
0.1002807908351088
 10
-0.4527743013553401
 20
18.82681608971775
 42
0.0333497571445928
 10
-0.9143579283810151
 20
14.20256522019879
 42
-0.4545352424188308
 10
-1.416395848797356
 20
13.49951813105719
 10
-2.897915782149403
 20
12.92750656037158
 42
0.3791917245757989
 10
-3.064185416578176
 20
12.2524612123462
 10
-2.804204187673213
 20
11.54148684133253
 10
-3.216389112034313
 20
11.14568008613066
 10
-3.394452958489047
 20
11.1357849269719
 10
-5.13143126904729
 20
12.17306529366608
  0
LWPOLYLINE
  5
582
102
{ACAD_REACTORS
330
602
102
}
330
1A
100
AcDbEntity
  8
6
100
AcDbPolyline
 90
      149
 70
     0
 43
0.0
 10
-16.06420394560499
 20
24.49886934419346
 42
-0.1744667102241544
 10
-16.97533229417194
 20
24.72419405609298
 42
0.5799545682853805
 10
-19.98881877998883
 20
23.00000000000011
 10
-19.98881877998883
 20
22.58595078160078
 42
0.2399316479534394
 10
-19.16528936822413
 20
20.96857112455722
 42
-0.677484471858814
 10
-22.14039853055868
 20
9.26769564023715
 10
-28.11934497220892
 20
8.480552408252663
 42
0.3763733489129998
 10
-28.98881877998894
 20
7.48910754687904
 10
-28.98881877998894
 20
7.214531469454129
 42
0.4374089002164621
 10
-28.44958935339963
 20
6.71607279304311
 10
-18.70451055062466
 20
7.483024742305644
 42
-0.4374089002164233
 10
-18.488818779989
 20
7.283641271741146
 10
-18.48881877998906
 20
5.408630055625678
 42
-0.3714005395757201
 10
-18.65925722654236
 20
5.210826833817236
 10
-21.55275530178454
 20
4.778395565928178
 42
0.1989127977123138
 10
-21.6839651197074
 20
4.699556902488836
 10
-21.86662932431056
 20
4.452700401050094
 42
-0.1989123673798173
 10
-21.99783881420813
 20
4.373861785727967
 42
-0.1989123673795034
 10
-22.14636525378421
 20
4.41089358627687
 10
-22.39323514406135
 20
4.59356769809932
 42
0.4142135623730617
 10
-22.67297107353493
 20
4.551760883326096
 10
-22.8556451876725
 20
4.304890989920352
 42
-0.1989123673795936
 10
-22.98685467756996
 20
4.226052374598225
 42
-0.1989123673796628
 10
-23.13538111714615
 20
4.263084175147128
 10
-23.38225100742323
 20
4.445758286969692
 42
0.4142135623731534
 10
-23.66198693689688
 20
4.403951472196524
 10
-23.84466105103445
 20
4.157081578790837
 42
-0.1989123673796541
 10
-23.9758705409319
 20
4.078242963468596
 42
-0.1989123673796121
 10
-24.12439698050803
 20
4.115274764017669
 10
-24.37126687078506
 20
4.297948875840063
 42
0.4142135623731285
 10
-24.65100280025871
 20
4.256142061066839
 10
-24.83367691439633
 20
4.009272167661208
 42
-0.1989123673797026
 10
-24.96488640429385
 20
3.930433552338968
 42
-0.1989123673796312
 10
-25.11341284386998
 20
3.967465352888041
 10
-25.36028273414706
 20
4.150139464710434
 42
0.4142135623730951
 10
-25.64001866362071
 20
4.108332649937381
 10
-25.82269277775833
 20
3.861462756531579
 42
-0.1989123673796894
 10
-25.95390226765579
 20
3.78262414120951
 42
-0.1989123673796001
 10
-26.10242870723197
 20
3.819655941758526
 10
-26.34929859750894
 20
4.002330053580806
 42
0.4142135623731532
 10
-26.62903452698259
 20
3.960523238807752
 10
-26.81170864112016
 20
3.713653345401951
 42
-0.1989123673797381
 10
-26.94291813101767
 20
3.634814730079881
 42
-0.198912367379562
 10
-27.09144457059386
 20
3.671846530628954
 10
-27.33831446087083
 20
3.854520642451291
 42
0.2000172874593799
 10
-27.48768140630608
 20
3.891425001763821
 10
-28.56272266360559
 20
3.730760836162801
 42
0.3714005395756468
 10
-28.98881877998888
 20
3.236252781641667
 10
-28.98881877998917
 20
3.061008049719418
 42
0.4426170886653113
 10
-27.89297302746894
 20
2.065611851351434
 10
-19.42625510362722
 20
2.880864061595275
 42
-0.3606204515308025
 10
-18.37001170832746
 20
2.164100897421008
 42
0.3337288323908342
 10
-15.488818779989
 20
0.0
 10
-11.48881877998951
 20
0.0
 42
0.1989123673797626
 10
-11.34739742375217
 20
0.0585786437627576
 10
-11.13024013347461
 20
0.2757359312881817
 42
-0.4142135623730951
 10
-10.84739742100004
 20
0.2757359312881817
 10
-10.63024013622674
 20
0.0585786437626439
 42
0.1989123673795796
 10
-10.48881877998945
 20
0.0
 42
0.1989123673797408
 10
-10.34739742375217
 20
0.0585786437627576
 10
-10.13024013347461
 20
0.2757359312881817
 42
-0.4142135623731538
 10
-9.847397421000039
 20
0.2757359312881817
 10
-9.630240136226746
 20
0.0585786437626439
 42
0.1989123673796058
 10
-9.488818779989458
 20
0.0
 42
0.1989123673797192
 10
-9.34739742375217
 20
0.0585786437627576
 10
-9.130240133474615
 20
0.2757359312881817
 42
-0.4142135623731538
 10
-8.847397421000039
 20
0.2757359312881817
 10
-8.630240136226746
 20
0.0585786437626439
 42
0.1989123673796274
 10
-8.488818779989458
 20
0.0
 42
0.1989123673796887
 10
-8.34739742375217
 20
0.0585786437627576
 10
-8.130240133474615
 20
0.2757359312881817
 42
-0.4142135623730951
 10
-7.847397421000039
 20
0.2757359312881817
 10
-7.630240136226746
 20
0.0585786437626439
 42
0.1989123673795796
 10
-7.488818779989458
 20
0.0
 42
0.1989123673797319
 10
-7.34739742375217
 20
0.0585786437626439
 10
-7.130240133474615
 20
0.2757359312880681
 42
-0.4142135623731538
 10
-6.847397421000039
 20
0.2757359312880681
 10
-6.630240136226746
 20
0.0585786437625302
 42
0.1989123673796183
 10
-6.488818779989458
 20
0.0
 42
0.1989123673797319
 10
-6.34739742375217
 20
0.0585786437626439
 10
-6.130240133474615
 20
0.2757359312880681
 42
-0.4142135623731538
 10
-5.847397421000039
 20
0.2757359312880681
 10
-5.630240136226746
 20
0.0585786437625302
 42
0.1989123673796183
 10
-5.488818779989458
 20
0.0
 42
0.1989123673797058
 10
-5.34739742375217
 20
0.0585786437626439
 10
-5.130240133474615
 20
0.2757359312880681
 42
-0.4142135623730951
 10
-4.847397421000039
 20
0.2757359312880681
 10
-4.630240136226746
 20
0.0585786437625302
 42
0.1989123673795536
 10
-4.488818779989458
 20
-0.0000000000001137
 42
0.1989123673797499
 10
-4.34739742375217
 20
0.0585786437627576
 10
-4.147397424648204
 20
0.2585786403319616
 42
0.1989123690264669
 10
-4.08881877998948
 20
0.3999999974653292
 10
-4.088818779989253
 20
3.799999999999954
 42
0.4142135623730534
 10
-4.288818779989242
 20
4.0
 10
-5.288818779989242
 20
4.0
 42
0.4142135623729286
 10
-5.488818779989173
 20
3.800000000000068
 10
-5.488818779989344
 20
2.199999999999931
 42
-0.4142135623730118
 10
-5.688818779989333
 20
1.999999999999886
 10
-12.22207798004831
 20
2.000000000000113
 42
0.3316792665675258
 10
-12.41374094954818
 20
1.857142857143458
 42
-0.7453559924977017
 10
-13.3720557970409
 20
1.857142857141639
 42
0.3316792665675389
 10
-13.56371876653435
 20
2.000000000000113
 10
-14.99289837337374
 20
2.000000000000113
 42
-0.4142135623730951
 10
-15.99289837337374
 20
3.000000000000113
 10
-15.99289837337386
 20
3.457098595817228
 42
0.1270166537926416
 10
-16.01789837337384
 20
3.553923179472519
 42
-0.2581988897472512
 10
-16.01789837337384
 20
4.522169016024633
 42
0.1270166537926416
 10
-15.99289837337386
 20
4.618993599679924
 10
-15.99289837337386
 20
5.657098595816876
 42
0.1270166537926732
 10
-16.01789837337372
 20
5.75392317947228
 42
-0.2581988897473586
 10
-16.01789837337372
 20
6.722169016024793
 42
0.12701665379268
 10
-15.99289837337386
 20
6.81899359968014
 10
-15.99289837337392
 20
7.283641271741544
 42
0.2012995037503582
 10
-16.80009688618719
 20
9.207365900339993
 42
-0.3917771400038272
 10
-16.86499026649158
 20
10.56439607348136
 42
0.322321723875247
 10
-16.16118514789673
 20
19.88142999143894
 42
0.1032931106771185
 10
-16.72094068321763
 20
20.47739839194889
 10
-18.56239521633983
 20
21.76679873731166
 42
-1.025784755919579
 10
-17.37430017743941
 20
23.3748531121339
 42
0.1972689705507812
 10
-16.20846469774457
 20
23.00024733001822
 10
-14.40407959330203
 20
23.0000000000001
 42
-0.1622776601683966
 10
-14.10407959330204
 20
22.89999999999996
 42
0.3333333333333505
 10
-11.70407959330202
 20
22.9
 42
-0.1622776601683855
 10
-11.40407959330212
 20
23.00000000000004
 10
-8.899999999999828
 20
23.00000000000002
 42
-0.4142135623729286
 10
-8.699999999999786
 20
22.80000000000002
 10
-8.699999999999953
 20
21.2000000000002
 42
0.4142135623730951
 10
-8.499999999999907
 20
21.00000000000008
 10
-7.499999999999918
 20
21.00000000000002
 42
0.4142135623733468
 10
-7.299999999999919
 20
21.19999999999995
 10
-7.300000000000043
 20
22.8
 42
-0.4142135623730097
 10
-7.09999999999999
 20
23.00000000000004
 10
-3.000000000000059
 20
22.99999999999996
 42
-0.4142135623730118
 10
-2.800000000000019
 20
22.80000000000008
 10
-2.80000000000012
 20
21.19999999999991
 42
0.4142135623733448
 10
-2.600000000000077
 20
20.99999999999992
 10
-2.400000000000002
 20
21.0
 42
0.4142135623731117
 10
-1.400000000000014
 20
21.99999999999998
 10
-1.399999999999962
 20
23.30000000000003
 42
-0.4142135623730951
 10
-1.199999999999962
 20
23.49999999999996
 10
-0.2000000000002018
 20
23.4999999999999
 42
0.4142135623731784
 10
-0.0000000000000916
 20
23.69999999999994
 10
-0.0000000000000453
 20
24.29999999999994
 42
0.4142135623729265
 10
-0.2000000000000309
 20
24.49999999999994
 10
-12.23325920005903
 20
24.49999999999994
 42
0.3316792665675257
 10
-12.42492216955267
 20
24.35714285714142
 42
-0.7453559924976826
 10
-13.38323701704517
 20
24.35714285714349
 42
0.3316792665674824
 10
-13.57489998654505
 20
24.50000000000011
 10
-16.06420394560499
 20
24.50026641385939
  0
LWPOLYLINE
  5
59D
330
1A
100
AcDbEntity
  8
5
100
AcDbPolyline
 90
        3
 70
     0
 43
0.0
 10
3.999999999999975
 20
29.0
 10
3.999999999999973
 20
13.99999999999999
 10
18.99999999999997
 20
13.99999999999999
  0
LWPOLYLINE
  5
59F
330
1A
100
AcDbEntity
  8
6
  6
STRICHPUNKT
100
AcDbPolyline
 90
        2
 70
     0
 43
0.0
 10
-12.90407959329861
 20
24.5
 10
-12.90407959329862
 20
-11.86954526785183
  0
DIMENSION
  5
5A7
102
{ACAD_XDICTIONARY
360
5B4
102
}
102
{ACAD_REACTORS
330
5BE
102
}
330
1A
100
AcDbEntity
  8
1
100
AcDbDimension
  2
*D2
 10
-102.2888187799843
 20
-19.14507082122168
 30
0.0
 11
-51.14440938999219
 21
-16.35806536419575
 31
0.0
 70
    32
 71
     5
 42
102.2888187799843
  3
OPO-SSTRICH
100
AcDbAlignedDimension
 13
-0.0000000000000292
 23
0.0
 33
0.0
 14
-102.2888187799843
 24
-4.889525760441756
 34
0.0
100
AcDbRotatedDimension
1001
ACAD
1000
DSTYLE
1002
{
1070
   271
1070
     0
1002
}
  0
HATCH
  5
5C7
330
1A
100
AcDbEntity
  8
5
100
AcDbHatch
 10
0.0
 20
0.0
 30
0.0
210
0.0
220
0.0
230
1.0
  2
SOLID
 70
     1
 71
     1
 91
        2
 92
        7
 72
     0
 73
     1
 93
        4
 10
-108.3197888129365
 20
16.49320501498259
 10
-110.0197888129365
 20
16.49320501498259
 10
-109.7697888129365
 20
0.2981548025445093
 10
-108.5697888129365
 20
0.2981548025445093
 97
        2
330
5C8
330
5C9
 92
        7
 72
     1
 73
     1
 93
        7
 10
-105.4814108715164
 20
0.2981548025445084
 42
0.0
 10
-114.0581667543566
 20
0.2981548025445093
 42
0.0
 10
-114.0581667543566
 20
-0.2713619103796745
 42
0.0
 10
-113.6811704860623
 20
-0.2713619103796745
 42
0.0
 10
-112.6938536705023
 20
-0.5016279805152158
 42
-0.2953866124693408
 10
-110.6636910476422
 20
-2.174644829686393
 42
0.0
 10
-105.4814108715164
 20
-2.174644829686393
 42
0.0
 97
        1
330
5C9
 75
     0
 76
     1
 47
0.1027379004985955
 98
        2
 10
-109.0972507404463
 20
6.908940360612014
 10
-108.7888795275
 20
-1.00187795744403
  0
LWPOLYLINE
  5
5C8
102
{ACAD_REACTORS
330
5C7
102
}
330
1A
100
AcDbEntity
  8
5
100
AcDbPolyline
 90
        4
 70
     0
 43
0.0
 10
-109.7697888129365
 20
0.2981548025445093
 10
-110.0197888129365
 20
16.49320501498259
 10
-108.3197888129365
 20
16.49320501498259
 10
-108.5697888129365
 20
0.2981548025445093
  0
LWPOLYLINE
  5
5C9
102
{ACAD_REACTORS
330
5C7
102
}
330
1A
100
AcDbEntity
  8
5
100
AcDbPolyline
 90
        7
 70
     1
 43
0.0
 10
-105.4814108715164
 20
-2.174644829686393
 10
-105.4814108715164
 20
0.2981548025445093
 10
-114.0581667543566
 20
0.2981548025445102
 10
-114.0581667543566
 20
-0.2713619103796745
 10
-113.6811704860623
 20
-0.2713619103796745
 10
-112.6938536705023
 20
-0.5016279805152167
 42
-0.2953866124693408
 10
-110.6636910476422
 20
-2.174644829686393
  0
DIMENSION
  5
5CA
102
{ACAD_XDICTIONARY
360
5D7
102
}
102
{ACAD_REACTORS
330
5E1
102
}
330
1A
100
AcDbEntity
  8
1
100
AcDbDimension
  2
*D3
 10
-31.75649387778616
 20
25.00000000000001
 30
0.0
 11
-34.54349933481209
 21
12.5
 31
0.0
 70
    32
 71
     5
 42
25.0
  3
OPO-SSTRICH
100
AcDbAlignedDimension
 13
0.0
 23
0.0
 33
0.0
 14
-0.0000000000000246
 24
25.0
 34
0.0
 50
90.0
100
AcDbRotatedDimension
  0
DIMENSION
  5
5E2
330
1A
100
AcDbEntity
  8
1
100
AcDbDimension
  2
*D4
 10
3.999999999999974
 20
34.22880634238874
 30
0.0
 11
1.999999999999975
 21
36.97880634238873
 31
0.0
 70
    32
 71
     5
 42
3.999999999999998
  3
OPO-SSTRICH
100
AcDbAlignedDimension
 13
-0.0000000000000246
 23
25.0
 33
0.0
 14
3.999999999999973
 24
29.0
 34
0.0
100
AcDbRotatedDimension
  0
LWPOLYLINE
  5
5F3
330
1A
100
AcDbEntity
  8
4
100
AcDbPolyline
 90
      117
 70
     1
 43
0.0
 10
-92.38419135751923
 20
0.1381218253043244
 42
0.198912367379706
 10
-92.23860992870777
 20
0.0908195516776687
 10
-51.82804832784825
 20
3.271199723405061
 42
-0.4374089726785652
 10
-51.28881877998435
 20
2.77274105653862
 10
-51.28881877998418
 20
2.000000000000113
 42
-0.4142135623731617
 10
-51.78881877998418
 20
1.5
 10
-52.28881877998424
 20
1.5
 42
0.4142135623730951
 10
-53.2888187799843
 20
0.5000000000002274
 42
0.1989123673795796
 10
-53.23024013622159
 20
0.3585786437629395
 10
-52.93024013622164
 20
0.0585786437628713
 42
0.1989123673796625
 10
-52.78881877998429
 20
0.0000000000001137
 42
0.1989123673797058
 10
-52.64739742374684
 20
0.0585786437628713
 10
-52.43024013346945
 20
0.2757359312882954
 42
-0.4142135623731244
 10
-52.14739742099488
 20
0.2757359312882954
 10
-51.93024013622147
 20
0.0585786437627576
 42
0.1989123673796102
 10
-51.78881877998424
 20
0.0000000000001137
 42
0.1989123673796841
 10
-51.64739742374684
 20
0.0585786437628713
 10
-51.43024013346951
 20
0.2757359312881817
 42
-0.4142135623731244
 10
-51.14739742099482
 20
0.2757359312882954
 10
-50.93024013622147
 20
0.0585786437627576
 42
0.1989123673796102
 10
-50.78881877998424
 20
0.0
 42
0.1989123673797102
 10
-50.64739742374683
 20
0.0585786437628713
 10
-50.43024013346951
 20
0.2757359312881817
 42
-0.4142135623731244
 10
-50.14739742099482
 20
0.2757359312882954
 10
-49.93024013622147
 20
0.0585786437627576
 42
0.1989123673796102
 10
-49.78881877998424
 20
0.0
 42
0.1989123673796841
 10
-49.64739742374684
 20
0.0585786437627576
 10
-49.43024013346946
 20
0.2757359312881817
 42
-0.4142135623731244
 10
-49.14739742099488
 20
0.2757359312881817
 10
-48.93024013622147
 20
0.0585786437626439
 42
0.1989123673795796
 10
-48.78881877998423
 20
0.0
 42
0.1989123673797275
 10
-48.64739742374678
 20
0.0585786437627576
 10
-48.43024013346951
 20
0.2757359312881817
 42
-0.4142135623731244
 10
-48.14739742099482
 20
0.2757359312881817
 10
-47.93024013622141
 20
0.0585786437626439
 42
0.1989123673796102
 10
-47.78881877998424
 20
0.0
 42
0.1989123673797102
 10
-47.64739742374684
 20
0.0585786437627576
 10
-47.43024013346945
 20
0.2757359312881817
 42
-0.4142135623730951
 10
-47.14739742099488
 20
0.2757359312881817
 10
-46.93024013622147
 20
0.0585786437626439
 42
0.1989123673795841
 10
-46.78881877998423
 20
0.0
 42
0.1989123673796797
 10
-46.64739742374678
 20
0.0585786437627576
 10
-46.43024013346951
 20
0.2757359312881817
 42
-0.4142135623731538
 10
-46.14739742099482
 20
0.2757359312881817
 10
-45.93024013622147
 20
0.0585786437626439
 42
0.1989123673796102
 10
-45.78881877998424
 20
0.0
 42
0.1989123673796975
 10
-45.64739742374683
 20
0.0585786437628713
 10
-45.34739742464296
 20
0.3585786390648309
 42
0.1989123690265039
 10
-45.28881877998424
 20
0.4999999961981985
 10
-45.28881877998429
 20
1.000000000000113
 42
0.4142135623730784
 10
-45.78881877998429
 20
1.500000000000113
 10
-49.28881877998418
 20
1.500000000000113
 42
-0.4142135623730785
 10
-49.78881877998418
 20
2.0
 10
-49.78881877998429
 20
2.969495323597698
 42
-0.3913924554630568
 10
-49.32804832784825
 20
3.467953990464366
 10
-30.55148322058289
 20
4.945701712711979
 42
-0.363390503760695
 10
-28.98234534434147
 20
3.828869137681067
 42
0.3832766946186776
 10
-28.75925689775698
 20
3.68153842175252
 10
-26.20693731486165
 20
4.062985139195575
 42
0.31360527874067
 10
-26.04076377889117
 20
4.219707342270908
 42
-0.6956239723285017
 10
-23.25895965575506
 20
4.635450754029079
 42
0.3136052787423695
 10
-23.05422597530542
 20
4.534161005856844
 10
-20.71491407441953
 20
4.883773511912067
 42
0.3714000667187162
 10
-20.28881877998435
 20
5.378281443593095
 10
-20.28881877998441
 20
6.81744148567418
 42
0.4374089726786174
 10
-20.8280483278483
 20
7.315900152540734
 10
-31.11921139598933
 20
6.505968053867491
 42
-0.1622776601683916
 10
-32.65381694445295
 20
6.886738077141444
 42
0.333333333333335
 10
-35.64456894565234
 20
6.651360789957948
 42
-0.333333333333336
 10
-38.63532094685178
 20
6.415983502774452
 42
0.333333333333334
 10
-41.62607294805122
 20
6.180606215591069
 42
-0.3333333333333348
 10
-44.61682494925059
 20
5.945228928407573
 42
0.3333333333333414
 10
-47.60757695045003
 20
5.709851641224076
 42
-0.3333333333333414
 10
-50.59832895164948
 20
5.47447435404058
 42
0.3333333333333414
 10
-53.58908095284892
 20
5.239097066857084
 42
-0.333333333333336
 10
-56.57983295404836
 20
5.003719779673588
 42
0.333333333333335
 10
-59.57058495524774
 20
4.768342492490091
 42
-0.333333333333336
 10
-62.56133695644717
 20
4.532965205306595
 42
0.3333333333333414
 10
-65.55208895764661
 20
4.297587918123099
 42
-0.3333333333333375
 10
-68.54284095884605
 20
4.062210630939603
 42
0.3333333333333361
 10
-71.53359296004544
 20
3.826833343756106
 42
-0.3333333333333399
 10
-74.52434496124488
 20
3.591456056572724
 42
0.3333333333333377
 10
-77.51509696244432
 20
3.356078769389228
 42
-0.3333333333333414
 10
-80.50584896364375
 20
3.120701482205731
 42
0.3333333333333414
 10
-83.49660096484319
 20
2.885324195022235
 42
-0.333333333333336
 10
-86.48735296604263
 20
2.649946907838739
 42
0.333333333333335
 10
-89.47810496724201
 20
2.414569620655242
 42
-0.333333333333336
 10
-92.46885696844145
 20
2.179192333471746
 42
0.3333333333333414
 10
-95.45960896964089
 20
1.943815046288364
 42
-0.3333333333333375
 10
-98.45036097084033
 20
1.708437759104754
 42
0.5912210802386079
 10
-102.2888187799844
 20
-0.4030855519531542
 10
-102.2888187799843
 20
-4.889525760441756
 42
0.6681786379192857
 10
-101.7766867456284
 20
-5.101657794797688
 10
-101.3888154580521
 20
-4.713786507221584
 42
-0.1785773420108542
 10
-101.2002211524146
 20
-4.626843341457515
 10
-98.82804832784813
 20
-4.440149291281386
 42
-0.4374089726786404
 10
-98.28881877998425
 20
-4.93860795814794
 10
-98.28881877998435
 20
-7.869182846771764
 42
0.437408972678637
 10
-97.74958923212047
 20
-8.367641513638318
 10
-97.24958923212028
 20
-8.328290660226002
 42
0.3913924554631115
 10
-96.78881877998419
 20
-7.829831993359448
 10
-96.7888187799843
 20
-4.397711005494102
 42
0.4374089726786083
 10
-98.40650742357599
 20
-2.902335004894553
 10
-100.2495892321205
 20
-3.047388689044282
 42
-0.4374089726786726
 10
-100.7888187799844
 20
-2.548930022177728
 10
-100.7888187799841
 20
-1.044291724453501
 42
-0.3913924554630895
 10
-100.328048327848
 20
-0.5458330575869468
 10
-95.36032780731829
 20
-0.1548649735937033
 42
0.1989123673796561
 10
-95.22393843334373
 20
-0.0853711165131017
 10
-95.05600503781215
 20
0.1112536267808082
 42
-0.4142135623730635
 10
-94.77403423502613
 20
0.1334452102346404
 10
-94.57740949173217
 20
-0.0344881852968229
 42
0.1989123673797083
 10
-94.43182806292055
 20
-0.0817904589234786
 10
-93.1671096731053
 20
0.0177450370074439
 42
0.1989123673796432
 10
-93.0307202991309
 20
0.0872388940880455
 10
-92.86278690359933
 20
0.2838636373820691
 42
-0.4142135623730727
 10
-92.58081610081331
 20
0.306055220836015
  0
LWPOLYLINE
  5
5F4
330
1A
100
AcDbEntity
  8
4
100
AcDbPolyline
 90
       14
 70
     0
 43
0.0
 10
-28.98234534434147
 20
3.828869137681067
 10
-28.98881877998917
 20
3.061008049719418
 42
0.4476674673224366
 10
-27.89297302746894
 20
2.065611851351434
 10
-19.42625510362722
 20
2.880864061595275
 10
-15.488818779989
 20
0.0
 10
-0.0000000000000284
 20
0.0000000000000155
 10
-0.0000000000000284
 20
25.0
 10
-17.98881877998883
 20
24.99999999999995
 42
0.433360226823927
 10
-19.98881877998883
 20
22.79297539080045
 42
0.2596291635897602
 10
-19.16528936822413
 20
20.96857112455722
 42
-0.6703115468511092
 10
-22.14039853055868
 20
9.26769564023715
 10
-28.11934497220892
 20
8.480552408252663
 42
0.3763733489129822
 10
-28.98881877998894
 20
7.48910754687904
 10
-28.98881877998894
 20
6.6736335889533
  0
HATCH
  5
600
330
1A
100
AcDbEntity
  8
2
100
AcDbHatch
 10
0.0
 20
0.0
 30
0.0
210
0.0
220
0.0
230
1.0
  2
_USER
 70
     0
 71
     1
 91
        1
 92
        1
 93
      117
 72
     2
 10
-92.25430174785323
 20
0.2902030184240832
 40
0.1999999999997845
 50
229.4999999999631
 51
274.4999999999734
 73
     1
 72
     1
 10
-92.23860992870777
 20
0.0908195516776687
 11
-51.82804832784825
 21
3.271199723405061
 72
     2
 10
-51.78881877998433
 20
2.772741056538514
 40
0.4999999999999825
 50
265.5000000000002
 51
359.9999999999878
 73
     0
 72
     1
 10
-51.28881877998435
 20
2.77274105653862
 11
-51.28881877998418
 21
2.000000000000113
 72
     2
 10
-51.78881877998418
 20
2.0
 40
0.5
 50
359.9999999999869
 51
450.0
 73
     0
 72
     1
 10
-51.78881877998418
 20
1.5
 11
-52.28881877998424
 21
1.5
 72
     2
 10
-52.28881877998438
 20
0.5000000000000853
 40
0.9999999999999147
 50
89.99999999999186
 51
179.9999999999918
 73
     1
 72
     2
 10
-53.08881877998424
 20
0.5000000000002807
 40
0.2000000000000526
 50
180.0000000000152
 51
224.9999999999978
 73
     1
 72
     1
 10
-53.23024013622159
 20
0.3585786437629395
 11
-52.93024013622164
 21
0.0585786437628713
 72
     2
 10
-52.78881877998423
 20
0.2000000000001856
 40
0.2000000000000735
 50
224.9999999999809
 51
269.9999999999817
 73
     1
 72
     2
 10
-52.78881877998428
 20
0.2000000000002826
 40
0.2000000000001689
 50
269.9999999999959
 51
315.0000000000066
 73
     1
 72
     1
 10
-52.64739742374684
 20
0.0585786437628713
 11
-52.43024013346945
 21
0.2757359312882954
 72
     2
 10
-52.28881877723217
 20
0.1343145750510217
 40
0.1999999999999594
 50
224.9999999999971
 51
315.0000000000028
 73
     0
 72
     1
 10
-52.14739742099488
 20
0.2757359312882954
 11
-51.93024013622147
 21
0.0585786437627576
 72
     2
 10
-51.78881877998424
 20
0.2000000000000401
 40
0.1999999999999254
 50
225.0000000000104
 51
270.0
 73
     1
 72
     2
 10
-51.78881877998427
 20
0.2000000000002342
 40
0.2000000000001205
 50
270.0000000000081
 51
315.0000000000135
 73
     1
 72
     1
 10
-51.64739742374684
 20
0.0585786437628713
 11
-51.43024013346951
 21
0.2757359312881817
 72
     2
 10
-51.28881877723211
 20
0.134314575050908
 40
0.2000000000000398
 50
224.9999999999741
 51
314.9999999999798
 73
     0
 72
     1
 10
-51.14739742099482
 20
0.2757359312882954
 11
-50.93024013622147
 21
0.0585786437627576
 72
     2
 10
-50.78881877998409
 20
0.1999999999999833
 40
0.1999999999999857
 50
224.9999999999701
 51
269.9999999999592
 73
     1
 72
     2
 10
-50.78881877998439
 20
0.2000000000001531
 40
0.2000000000001531
 50
270.0000000000427
 51
315.0000000000545
 73
     1
 72
     1
 10
-50.64739742374683
 20
0.0585786437628713
 11
-50.43024013346951
 21
0.2757359312881817
 72
     2
 10
-50.28881877723211
 20
0.134314575050908
 40
0.2000000000000398
 50
224.9999999999741
 51
314.9999999999798
 73
     0
 72
     1
 10
-50.14739742099482
 20
0.2757359312882954
 11
-49.93024013622147
 21
0.0585786437627576
 72
     2
 10
-49.7888187799841
 20
0.1999999999999833
 40
0.1999999999999857
 50
224.9999999999701
 51
269.9999999999592
 73
     1
 72
     2
 10
-49.78881877998427
 20
0.2000000000001205
 40
0.2000000000001205
 50
270.0000000000081
 51
315.0000000000135
 73
     1
 72
     1
 10
-49.64739742374684
 20
0.0585786437627576
 11
-49.43024013346946
 21
0.2757359312881817
 72
     2
 10
-49.28881877723217
 20
0.134314575050908
 40
0.1999999999999594
 50
224.9999999999971
 51
315.0000000000028
 73
     0
 72
     1
 10
-49.14739742099488
 20
0.2757359312881817
 11
-48.93024013622147
 21
0.0585786437626439
 72
     2
 10
-48.78881877998423
 20
0.1999999999999548
 40
0.1999999999999556
 50
225.0000000000133
 51
269.9999999999959
 73
     1
 72
     2
 10
-48.78881877998422
 20
0.2000000000001488
 40
0.2000000000001488
 50
269.9999999999939
 51
315.0000000000093
 73
     1
 72
     1
 10
-48.64739742374678
 20
0.0585786437627576
 11
-48.43024013346951
 21
0.2757359312881817
 72
     2
 10
-48.28881877723216
 20
0.1343145750508512
 40
0.2000000000000398
 50
224.9999999999971
 51
315.0000000000028
 73
     0
 72
     1
 10
-48.14739742099482
 20
0.2757359312881817
 11
-47.93024013622141
 21
0.0585786437626439
 72
     2
 10
-47.78881877998421
 20
0.1999999999998578
 40
0.1999999999998568
 50
225.0000000000023
 51
269.9999999999918
 73
     1
 72
     2
 10
-47.78881877998425
 20
0.2000000000000963
 40
0.2000000000000963
 50
270.0000000000041
 51
315.0000000000156
 73
     1
 72
     1
 10
-47.64739742374684
 20
0.0585786437627576
 11
-47.43024013346945
 21
0.2757359312881817
 72
     2
 10
-47.28881877723217
 20
0.1343145750508938
 40
0.1999999999999694
 50
225.0
 51
315.0
 73
     0
 72
     1
 10
-47.14739742099488
 20
0.2757359312881817
 11
-46.93024013622147
 21
0.0585786437626439
 72
     2
 10
-46.78881877998422
 20
0.1999999999999506
 40
0.1999999999999526
 50
225.0000000000124
 51
269.9999999999959
 73
     1
 72
     2
 10
-46.78881877998423
 20
0.2000000000001932
 40
0.2000000000001932
 50
270.0
 51
315.0000000000046
 73
     1
 72
     1
 10
-46.64739742374678
 20
0.0585786437627576
 11
-46.43024013346951
 21
0.2757359312881817
 72
     2
 10
-46.28881877723216
 20
0.1343145750508654
 40
0.2000000000000298
 50
224.9999999999942
 51
315.0000000000057
 73
     0
 72
     1
 10
-46.14739742099482
 20
0.2757359312881817
 11
-45.93024013622147
 21
0.0585786437626439
 72
     2
 10
-45.78881877998424
 20
0.1999999999999264
 40
0.1999999999999254
 50
225.0000000000104
 51
270.0
 73
     1
 72
     2
 10
-45.7888187799844
 20
0.2000000000001649
 40
0.2000000000001649
 50
270.0000000000447
 51
315.0000000000535
 73
     1
 72
     1
 10
-45.64739742374683
 20
0.0585786437628713
 11
-45.34739742464296
 21
0.3585786390648309
 72
     2
 10
-45.48881877998408
 20
0.4999999961981104
 40
0.1999999999998469
 50
314.9999996369607
 51
360.0000000000252
 73
     1
 72
     1
 10
-45.28881877998424
 20
0.4999999961981985
 11
-45.28881877998429
 21
1.000000000000113
 72
     2
 10
-45.78881877998431
 20
1.000000000000099
 40
0.5000000000000142
 50
0.0000000000016284
 51
89.99999999999836
 73
     1
 72
     1
 10
-45.78881877998429
 20
1.500000000000113
 11
-49.28881877998418
 21
1.500000000000113
 72
     2
 10
-49.28881877998422
 20
2.000000000000071
 40
0.4999999999999574
 50
89.99999999999511
 51
179.9999999999918
 73
     0
 72
     1
 10
-49.78881877998418
 20
2.0
 11
-49.78881877998429
 21
2.969495323597698
 72
     2
 10
-49.28881877998422
 20
2.969495323597738
 40
0.5000000000000711
 50
179.9999999999954
 51
265.4999999999888
 73
     0
 72
     1
 10
-49.32804832784825
 20
3.467953990464366
 11
-30.55148322058289
 21
4.945701712711979
 72
     2
 10
-30.43379457699093
 20
3.450325712112274
 40
1.500000000000028
 50
265.4999999999926
 51
345.3826558891935
 73
     0
 72
     2
 10
-28.78881877998681
 20
3.879341594426419
 40
0.2000000000020738
 50
194.6173441114943
 51
278.5000000010414
 73
     1
 72
     1
 10
-28.75925689775698
 20
3.68153842175252
 11
-26.20693731486165
 21
4.062985139195575
 72
     2
 10
-26.23649919708878
 20
4.260788311867811
 40
0.2000000000000335
 50
278.5000000003498
 51
348.146800514408
 73
     1
 72
     2
 10
-24.57274814240757
 20
3.911600070292849
 40
1.500000000002036
 50
191.8531994856278
 51
331.1468005144387
 73
     0
 72
     2
 10
-23.08378785753464
 20
4.73196417853084
 40
0.2000000000020801
 50
208.8531994864521
 51
278.5000000008652
 73
     1
 72
     1
 10
-23.05422597530542
 20
4.534161005856844
 11
-20.71491407441953
 21
4.883773511912067
 72
     2
 10
-20.78881877998439
 20
5.378281443593059
 40
0.5000000000000399
 50
278.5000000000048
 51
360.0000000000041
 73
     1
 72
     1
 10
-20.28881877998435
 20
5.378281443593095
 11
-20.28881877998441
 21
6.81744148567418
 72
     2
 10
-20.7888187799844
 20
6.817441485674175
 40
0.4999999999999929
 50
0.0000000000006107
 51
94.49999999999795
 73
     1
 72
     1
 10
-20.8280483278483
 20
7.315900152540734
 11
-31.11921139598933
 21
6.505968053867491
 72
     2
 10
-31.31535913531026
 20
8.998261388199709
 40
2.499999999999503
 50
85.49999999996893
 51
122.3698976458156
 73
     0
 72
     2
 10
-33.99227475359698
 20
4.775214766083453
 40
2.499999999999984
 50
57.63010235415514
 51
131.3698976458435
 73
     1
 72
     2
 10
-37.29686313770772
 20
8.527506813832474
 40
2.500000000000026
 50
48.63010235415657
 51
122.3698976458451
 73
     0
 72
     2
 10
-39.97377875599591
 20
4.304460191716472
 40
2.500000000000031
 50
57.63010235415294
 51
131.3698976458411
 73
     1
 72
     2
 10
-43.27836714010657
 20
8.056752239465565
 40
2.499999999999989
 50
48.63010235415652
 51
122.3698976458448
 73
     0
 72
     2
 10
-45.95528275839465
 20
3.833705617349592
 40
2.499999999999995
 50
57.63010235415433
 51
131.369897645844
 73
     1
 72
     2
 10
-49.25987114250542
 20
7.58599766509856
 40
2.499999999999994
 50
48.63010235415596
 51
122.3698976458456
 73
     0
 72
     2
 10
-51.93678676079354
 20
3.3629510429826
 40
2.499999999999994
 50
57.63010235415433
 51
131.369897645844
 73
     1
 72
     2
 10
-55.2413751449043
 20
7.115243090731609
 40
2.500000000000025
 50
48.63010235415657
 51
122.3698976458451
 73
     0
 72
     2
 10
-57.91829076319238
 20
2.892196468615597
 40
2.499999999999984
 50
57.63010235415514
 51
131.3698976458435
 73
     1
 72
     2
 10
-61.22287914730311
 20
6.644488516364616
 40
2.500000000000025
 50
48.63010235415657
 51
122.3698976458451
 73
     0
 72
     2
 10
-63.89979476559124
 20
2.421441894248615
 40
2.499999999999994
 50
57.63010235415433
 51
131.369897645844
 73
     1
 72
     2
 10
-67.20438314970199
 20
6.173733941997612
 40
2.500000000000016
 50
48.63010235415641
 51
122.3698976458453
 73
     0
 72
     2
 10
-69.88129876799009
 20
1.95068731988162
 40
2.499999999999981
 50
57.6301023541549
 51
131.3698976458435
 73
     1
 72
     2
 10
-73.18588715210075
 20
5.702979367630659
 40
2.499999999999999
 50
48.6301023541582
 51
122.3698976458476
 73
     0
 72
     2
 10
-75.86280277038894
 20
1.479932745514716
 40
2.500000000000017
 50
57.63010235415466
 51
131.3698976458436
 73
     1
 72
     2
 10
-79.1673911544997
 20
5.232224793263712
 40
2.499999999999994
 50
48.63010235415596
 51
122.3698976458456
 73
     0
 72
     2
 10
-81.84430677278781
 20
1.009178171147751
 40
2.499999999999994
 50
57.63010235415433
 51
131.369897645844
 73
     1
 72
     2
 10
-85.14889515689857
 20
4.76147021889676
 40
2.500000000000025
 50
48.63010235415657
 51
122.3698976458451
 73
     0
 72
     2
 10
-87.82581077518667
 20
0.5384235967807485
 40
2.499999999999988
 50
57.630102354155
 51
131.3698976458433
 73
     1
 72
     2
 10
-91.13039915929739
 20
4.290715644529767
 40
2.500000000000025
 50
48.63010235415657
 51
122.3698976458451
 73
     0
 72
     2
 10
-93.80731477758558
 20
0.067669022413823
 40
2.499999999999984
 50
57.63010235415226
 51
131.3698976458419
 73
     1
 72
     2
 10
-97.11190316169634
 20
3.81996107016282
 40
2.500000000000021
 50
48.63010235415433
 51
122.3698976458432
 73
     0
 72
     2
 10
-99.78881877998448
 20
-0.4030855519530958
 40
2.499999999999929
 50
57.63010235415107
 51
180.0000000000013
 73
     1
 72
     1
 10
-102.2888187799844
 20
-0.4030855519531542
 11
-102.2888187799843
 21
-4.889525760441756
 72
     2
 10
-101.9888187799843
 20
-4.889525760441738
 40
0.2999999999999829
 50
180.0000000000033
 51
315.0000000000014
 73
     1
 72
     1
 10
-101.7766867456284
 20
-5.101657794797688
 11
-101.3888154580521
 21
-4.713786507221584
 72
     2
 10
-101.1766834236961
 20
-4.92591854157747
 40
0.300000000000022
 50
224.9999999999745
 51
265.499999999976
 73
     0
 72
     1
 10
-101.2002211524146
 20
-4.626843341457515
 11
-98.82804832784813
 21
-4.440149291281386
 72
     2
 10
-98.78881877998422
 20
-4.938607958147926
 40
0.4999999999999764
 50
265.4999999999994
 51
360.0000000000016
 73
     0
 72
     1
 10
-98.28881877998425
 20
-4.93860795814794
 11
-98.28881877998435
 21
-7.869182846771764
 72
     2
 10
-97.78881877998436
 20
-7.869182846771774
 40
0.4999999999999858
 50
179.9999999999987
 51
274.4999999999989
 73
     1
 72
     1
 10
-97.74958923212047
 20
-8.367641513638318
 11
-97.24958923212028
 21
-8.328290660226002
 72
     2
 10
-97.28881877998418
 20
-7.829831993359448
 40
0.4999999999999872
 50
274.4999999999955
 51
360.0
 73
     1
 72
     1
 10
-96.78881877998419
 20
-7.829831993359448
 11
-96.7888187799843
 21
-4.397711005494102
 72
     2
 10
-98.28881877998426
 20
-4.397711005494198
 40
1.499999999999957
 50
0.000000000003664
 51
94.49999999999887
 73
     1
 72
     1
 10
-98.40650742357599
 20
-2.902335004894553
 11
-100.2495892321205
 21
-3.047388689044282
 72
     2
 10
-100.2888187799845
 20
-2.548930022177769
 40
0.499999999999951
 50
85.49999999999759
 51
180.0000000000046
 73
     0
 72
     1
 10
-100.7888187799844
 20
-2.548930022177728
 11
-100.7888187799841
 21
-1.044291724453501
 72
     2
 10
-100.2888187799841
 20
-1.04429172445352
 40
0.5000000000000142
 50
180.0000000000022
 51
265.5000000000013
 73
     0
 72
     1
 10
-100.328048327848
 20
-0.5458330575869468
 11
-95.36032780731829
 21
-0.1548649735937033
 72
     2
 10
-95.37601962646382
 20
0.0445184931530862
 40
0.2000000000001592
 50
274.4999999999812
 51
319.4999999999812
 73
     1
 72
     1
 10
-95.22393843334373
 20
-0.0853711165131017
 11
-95.05600503781215
 21
0.1112536267808082
 72
     2
 10
-94.90392384469222
 20
-0.018635982885301
 40
0.1999999999999862
 50
220.5000000000306
 51
310.5000000000245
 73
     0
 72
     1
 10
-94.77403423502613
 20
0.1334452102346404
 11
-94.57740949173217
 21
-0.0344881852968229
 72
     2
 10
-94.44751988206609
 20
0.1175930078231396
 40
0.1999999999999947
 50
229.4999999999824
 51
274.4999999999931
 73
     1
 72
     1
 10
-94.43182806292055
 20
-0.0817904589234786
 11
-93.1671096731053
 21
0.0177450370074439
 72
     2
 10
-93.18280149225092
 20
0.2171285037540391
 40
0.1999999999999733
 50
274.500000000014
 51
319.5000000000103
 73
     1
 72
     1
 10
-93.0307202991309
 20
0.0872388940880455
 11
-92.86278690359933
 21
0.2838636373820691
 72
     2
 10
-92.71070571047934
 20
0.1539740277160212
 40
0.1999999999999896
 50
220.5000000000067
 51
310.5000000000023
 73
     0
 72
     1
 10
-92.58081610081331
 20
0.306055220836015
 11
-92.38419135751923
 21
0.1381218253043244
 97
        1
330
54C
 75
     0
 76
     0
 52
45.0
 41
1.199999999999999
 77
     0
 78
     1
 53
45.0
 43
0.0
 44
0.0
 45
-0.8485281374238569
 46
0.8485281374238569
 79
     0
 98
        1
 10
0.0
 20
0.0
  0
HATCH
  5
602
330
1A
100
AcDbEntity
  8
2
100
AcDbHatch
 10
0.0
 20
0.0
 30
0.0
210
0.0
220
0.0
230
1.0
  2
_USER
 70
     0
 71
     1
 91
        1
 92
       33
 93
      148
 72
     2
 10
-16.20671966581262
 20
25.87738185292525
 40
1.385859829577398
 50
84.09751980062779
 51
123.6839018794668
 73
     0
 72
     2
 10
-17.98881877998884
 20
22.99999999999997
 40
1.999999999999989
 50
59.55285876640194
 51
179.9999999999959
 73
     1
 72
     1
 10
-19.98881877998883
 20
23.00000000000011
 11
-19.98881877998883
 21
22.58595078160078
 72
     2
 10
-17.98881877998861
 20
22.58595078160057
 40
2.00000000000022
 50
179.9999999999938
 51
233.9681209275259
 73
     1
 72
     2
 10
-22.98881877998881
 20
15.71208723916683
 40
6.499999999999885
 50
306.031879072471
 51
442.5000000000017
 73
     0
 72
     1
 10
-22.14039853055868
 20
9.26769564023715
 11
-28.11934497220892
 21
8.480552408252663
 72
     2
 10
-27.9888187799889
 20
7.489107546878801
 40
1.000000000000046
 50
97.49999999999788
 51
179.9999999999863
 73
     1
 72
     1
 10
-28.98881877998894
 20
7.48910754687904
 11
-28.98881877998894
 21
7.214531469454129
 72
     2
 10
-28.48881877998899
 20
7.214531469454122
 40
0.4999999999999503
 50
179.9999999999991
 51
274.4999860599876
 73
     1
 72
     1
 10
-28.44958935339963
 20
6.71607279304311
 11
-18.70451055062466
 21
7.483024742305644
 72
     2
 10
-18.688818779989
 20
7.283641271741212
 40
0.1999999999999995
 50
265.5000139400379
 51
360.0000000000191
 73
     0
 72
     1
 10
-18.488818779989
 20
7.283641271741146
 11
-18.48881877998906
 21
5.408630055625678
 72
     2
 10
-18.688818779989
 20
5.408630055625671
 40
0.1999999999999389
 50
359.9999999999979
 51
441.5000952343812
 73
     0
 72
     1
 10
-18.65925722654236
 20
5.210826833817236
 11
-21.55275530178454
 21
4.778395565928178
 72
     2
 10
-21.52319374833793
 20
4.580592344119728
 40
0.1999999999999497
 50
98.49990476561204
 51
143.4999996368944
 73
     1
 72
     1
 10
-21.6839651197074
 20
4.699556902488836
 11
-21.86662932431056
 21
4.452700401050094
 72
     2
 10
-22.02740069643396
 20
4.57166495840028
 40
0.1999999999999153
 50
36.49999999998851
 51
81.50000000002373
 73
     0
 72
     2
 10
-22.027400696434
 20
4.571664958400342
 40
0.1999999999999836
 50
81.50000000001432
 51
126.4999999999802
 73
     0
 72
     1
 10
-22.14636525378421
 20
4.41089358627687
 11
-22.39323514406135
 21
4.59356769809932
 72
     2
 10
-22.51219970141153
 20
4.432796325975898
 40
0.1999999999999296
 50
53.50000000001705
 51
143.5000000000104
 73
     1
 72
     1
 10
-22.67297107353493
 20
4.551760883326096
 11
-22.8556451876725
 21
4.304890989920352
 72
     2
 10
-23.01641655979596
 20
4.423855547270592
 40
0.1999999999999966
 50
36.49999999999091
 51
81.49999999997676
 73
     0
 72
     2
 10
-23.01641655979593
 20
4.423855547270582
 40
0.1999999999999802
 50
81.49999999998639
 51
126.4999999999872
 73
     0
 72
     1
 10
-23.13538111714615
 20
4.263084175147128
 11
-23.38225100742323
 21
4.445758286969692
 72
     2
 10
-23.50121556477347
 20
4.284986914846314
 40
0.199999999999932
 50
53.49999999999476
 51
143.5000000000063
 73
     1
 72
     1
 10
-23.66198693689688
 20
4.403951472196524
 11
-23.84466105103445
 21
4.157081578790837
 72
     2
 10
-24.00543242315801
 20
4.276046136140969
 40
0.2000000000000178
 50
36.49999999994781
 51
81.4999999999468
 73
     0
 72
     2
 10
-24.00543242315762
 20
4.276046136141019
 40
0.200000000000009
 50
81.50000000005865
 51
126.5000000000485
 73
     0
 72
     1
 10
-24.12439698050803
 20
4.115274764017669
 11
-24.37126687078506
 21
4.297948875840063
 72
     2
 10
-24.49023142813528
 20
4.137177503716644
 40
0.1999999999999479
 50
53.50000000000828
 51
143.5000000000149
 73
     1
 72
     1
 10
-24.65100280025871
 20
4.256142061066839
 11
-24.83367691439633
 21
4.009272167661208
 72
     2
 10
-24.9944482865199
 20
4.128236725011367
 40
0.2000000000000365
 50
36.4999999999533
 51
81.49999999996301
 73
     0
 72
     2
 10
-24.99444828651957
 20
4.128236725011372
 40
0.1999999999999911
 50
81.50000000005681
 51
126.5000000000508
 73
     0
 72
     1
 10
-25.11341284386998
 20
3.967465352888041
 11
-25.36028273414706
 21
4.150139464710434
 72
     2
 10
-25.47924729149736
 20
3.989368092587085
 40
0.1999999999999408
 50
53.49999999997764
 51
143.4999999999776
 73
     1
 72
     1
 10
-25.64001866362071
 20
4.108332649937381
 11
-25.82269277775833
 21
3.861462756531579
 72
     2
 10
-25.98346414988167
 20
3.980427313881767
 40
0.1999999999998704
 50
36.49999999999849
 51
81.50000000000531
 73
     0
 72
     2
 10
-25.9834641498816
 20
3.980427313881984
 40
0.2000000000000741
 50
81.50000000003462
 51
126.5000000000217
 73
     0
 72
     1
 10
-26.10242870723197
 20
3.819655941758526
 11
-26.34929859750894
 21
4.002330053580806
 72
     2
 10
-26.46826315485924
 20
3.841558681457484
 40
0.1999999999999208
 50
53.49999999997215
 51
143.4999999999833
 73
     1
 72
     1
 10
-26.62903452698259
 20
3.960523238807752
 11
-26.81170864112016
 21
3.713653345401951
 72
     2
 10
-26.9724800132435
 20
3.832617902752165
 40
0.1999999999998865
 50
36.50000000000475
 51
81.50000000002256
 73
     0
 72
     2
 10
-26.97248001324341
 20
3.832617902752421
 40
0.2000000000001275
 50
81.50000000005956
 51
126.5000000000382
 73
     0
 72
     1
 10
-27.09144457059386
 20
3.671846530628954
 11
-27.33831446087083
 21
3.854520642451291
 72
     2
 10
-27.45727901822114
 20
3.693749270327916
 40
0.1999999999999678
 50
53.49999999997958
 51
98.74353949286032
 73
     1
 72
     1
 10
-27.48768140630608
 20
3.891425001763821
 11
-28.56272266360559
 21
3.730760836162801
 72
     2
 10
-28.48881877998893
 20
3.236252781641618
 40
0.4999999999999498
 50
98.4999047656256
 51
179.9999999999944
 73
     1
 72
     1
 10
-28.98881877998888
 20
3.236252781641667
 11
-28.98881877998917
 21
3.061008049719418
 72
     2
 10
-27.98881877998916
 20
3.061008049718618
 40
1.000000000000007
 50
179.9999999999541
 51
275.5000000000001
 73
     1
 72
     1
 10
-27.89297302746894
 20
2.065611851351434
 11
-19.42625510362722
 21
2.880864061595275
 72
     2
 10
-19.33040935110704
 20
1.885467863228004
 40
1.000000000000087
 50
264.500000000003
 51
343.8213631467076
 73
     0
 72
     2
 10
-15.48881877998901
 20
2.999999999999976
 40
2.999999999999976
 50
196.1786368532931
 51
270.0000000000001
 73
     1
 72
     1
 10
-15.488818779989
 20
0.0
 11
-11.48881877998951
 21
0.0
 72
     2
 10
-11.48881877998953
 20
0.199999999999979
 40
0.199999999999979
 50
270.0000000000065
 51
315.0000000000297
 73
     1
 72
     1
 10
-11.34739742375217
 20
0.0585786437627576
 11
-11.13024013347461
 21
0.2757359312881817
 72
     2
 10
-10.98881877723732
 20
0.1343145750508938
 40
0.1999999999999694
 50
225.0
 51
315.0
 73
     0
 72
     1
 10
-10.84739742100004
 20
0.2757359312881817
 11
-10.63024013622674
 21
0.0585786437626439
 72
     2
 10
-10.48881877998947
 20
0.2000000000000234
 40
0.200000000000023
 50
225.0000000000218
 51
270.0000000000045
 73
     1
 72
     2
 10
-10.48881877998951
 20
0.1999999999999305
 40
0.1999999999999305
 50
270.0000000000172
 51
315.0000000000355
 73
     1
 72
     1
 10
-10.34739742375217
 20
0.0585786437627576
 11
-10.13024013347461
 21
0.2757359312881817
 72
     2
 10
-9.988818777237327
 20
0.1343145750509222
 40
0.1999999999999494
 50
224.9999999999942
 51
315.0000000000057
 73
     0
 72
     1
 10
-9.847397421000039
 20
0.2757359312881817
 11
-9.630240136226746
 21
0.0585786437626439
 72
     2
 10
-9.488818779989482
 20
0.1999999999999991
 40
0.1999999999999995
 50
225.0000000000186
 51
270.0000000000071
 73
     1
 72
     2
 10
-9.488818779989525
 20
0.1999999999999506
 40
0.1999999999999506
 50
270.0000000000193
 51
315.0000000000328
 73
     1
 72
     1
 10
-9.34739742375217
 20
0.0585786437627576
 11
-9.130240133474615
 21
0.2757359312881817
 72
     2
 10
-8.988818777237327
 20
0.1343145750509222
 40
0.1999999999999494
 50
224.9999999999942
 51
315.0000000000057
 73
     0
 72
     1
 10
-8.847397421000039
 20
0.2757359312881817
 11
-8.630240136226746
 21
0.0585786437626439
 72
     2
 10
-8.488818779989491
 20
0.199999999999979
 40
0.199999999999979
 50
225.0000000000163
 51
270.0000000000096
 73
     1
 72
     2
 10
-8.488818779989538
 20
0.199999999999979
 40
0.199999999999979
 50
270.0000000000229
 51
315.0000000000297
 73
     1
 72
     1
 10
-8.34739742375217
 20
0.0585786437627576
 11
-8.130240133474615
 21
0.2757359312881817
 72
     2
 10
-7.988818777237327
 20
0.1343145750508938
 40
0.1999999999999694
 50
225.0
 51
315.0
 73
     0
 72
     1
 10
-7.847397421000039
 20
0.2757359312881817
 11
-7.630240136226746
 21
0.0585786437626439
 72
     2
 10
-7.488818779989473
 20
0.2000000000000234
 40
0.2000000000000236
 50
225.0000000000216
 51
270.0000000000043
 73
     1
 72
     2
 10
-7.488818779989384
 20
0.199999999999882
 40
0.199999999999882
 50
269.9999999999788
 51
314.9999999999951
 73
     1
 72
     1
 10
-7.34739742375217
 20
0.0585786437626439
 11
-7.130240133474615
 21
0.2757359312880681
 72
     2
 10
-6.988818777237327
 20
0.1343145750508085
 40
0.1999999999999494
 50
224.9999999999942
 51
315.0000000000057
 73
     0
 72
     1
 10
-6.847397421000039
 20
0.2757359312880681
 11
-6.630240136226746
 21
0.0585786437625302
 72
     2
 10
-6.488818779989625
 20
0.1999999999999307
 40
0.199999999999931
 50
225.0000000000566
 51
270.0000000000478
 73
     1
 72
     2
 10
-6.488818779989384
 20
0.199999999999882
 40
0.199999999999882
 50
269.9999999999788
 51
314.9999999999951
 73
     1
 72
     1
 10
-6.34739742375217
 20
0.0585786437626439
 11
-6.130240133474615
 21
0.2757359312880681
 72
     2
 10
-5.988818777237327
 20
0.1343145750508085
 40
0.1999999999999494
 50
224.9999999999942
 51
315.0000000000057
 73
     0
 72
     1
 10
-5.847397421000039
 20
0.2757359312880681
 11
-5.630240136226746
 21
0.0585786437625302
 72
     2
 10
-5.488818779989625
 20
0.1999999999999307
 40
0.199999999999931
 50
225.0000000000566
 51
270.0000000000478
 73
     1
 72
     2
 10
-5.488818779989394
 20
0.1999999999999062
 40
0.1999999999999062
 50
269.9999999999817
 51
314.9999999999922
 73
     1
 72
     1
 10
-5.34739742375217
 20
0.0585786437626439
 11
-5.130240133474615
 21
0.2757359312880681
 72
     2
 10
-4.988818777237327
 20
0.1343145750507801
 40
0.1999999999999694
 50
225.0
 51
315.0
 73
     0
 72
     1
 10
-4.847397421000039
 20
0.2757359312880681
 11
-4.630240136226746
 21
0.0585786437625302
 72
     2
 10
-4.488818779989463
 20
0.199999999999934
 40
0.2000000000000476
 50
225.0000000000245
 51
270.0000000000015
 73
     1
 72
     2
 10
-4.488818779989651
 20
0.1999999999998653
 40
0.199999999999979
 50
270.0000000000554
 51
315.0000000000757
 73
     1
 72
     1
 10
-4.34739742375217
 20
0.0585786437627576
 11
-4.147397424648204
 21
0.2585786403319616
 72
     2
 10
-4.288818779989362
 20
0.3999999974652553
 40
0.199999999999882
 50
314.9999996369651
 51
360.0000000000211
 73
     1
 72
     1
 10
-4.08881877998948
 20
0.3999999974653292
 11
-4.088818779989253
 21
3.799999999999954
 72
     2
 10
-4.288818779989284
 20
3.799999999999968
 40
0.2000000000000313
 50
359.9999999999959
 51
449.9999999999878
 73
     1
 72
     1
 10
-4.288818779989242
 20
4.0
 11
-5.288818779989242
 21
4.0
 72
     2
 10
-5.288818779989185
 20
3.800000000000011
 40
0.1999999999999886
 50
90.00000000001628
 51
179.9999999999837
 73
     1
 72
     1
 10
-5.488818779989173
 20
3.800000000000068
 11
-5.488818779989344
 21
2.199999999999931
 72
     2
 10
-5.688818779989389
 20
2.199999999999931
 40
0.2000000000000455
 50
360.0
 51
449.9999999999836
 73
     0
 72
     1
 10
-5.688818779989333
 20
1.999999999999886
 11
-12.22207798004831
 21
2.000000000000113
 72
     2
 10
-12.22207798004831
 20
1.800000000000066
 40
0.2000000000000468
 50
89.99999999999948
 51
163.3984504008241
 73
     1
 72
     2
 10
-12.89289837329481
 20
2.000000000000113
 40
0.4999999999966742
 50
16.60154959907561
 51
163.3984504007068
 73
     0
 72
     2
 10
-13.56371876653877
 20
1.800000000003472
 40
0.1999999999966405
 50
16.60154959790493
 51
89.99999999873237
 73
     1
 72
     1
 10
-13.56371876653435
 20
2.000000000000113
 11
-14.99289837337374
 21
2.000000000000113
 72
     2
 10
-14.99289837337374
 20
3.000000000000113
 40
1.0
 50
90.0
 51
180.0
 73
     0
 72
     1
 10
-15.99289837337374
 20
3.000000000000113
 11
-15.99289837337386
 21
3.457098595817228
 72
     2
 10
-16.19289837337396
 20
3.457098595817348
 40
0.2000000000001023
 50
359.9999999999656
 51
388.9550243718388
 73
     1
 72
     2
 10
-15.14289837337395
 20
4.038046097748576
 40
0.9999999999999634
 50
151.0449756281304
 51
208.9550243718695
 73
     0
 72
     2
 10
-16.19289837337396
 20
4.618993599679805
 40
0.2000000000001025
 50
331.0449756281611
 51
360.0000000000343
 73
     1
 72
     1
 10
-15.99289837337386
 20
4.618993599679924
 11
-15.99289837337386
 21
5.657098595816876
 72
     2
 10
-16.19289837337408
 20
5.657098595817285
 40
0.2000000000002196
 50
359.9999999998826
 51
388.9550243717628
 73
     1
 72
     2
 10
-15.14289837337389
 20
6.238046097748537
 40
1.000000000000009
 50
151.0449756281189
 51
208.955024371881
 73
     0
 72
     2
 10
-16.19289837337396
 20
6.818993599679757
 40
0.2000000000000987
 50
331.0449756282281
 51
360.0000000001099
 73
     1
 72
     1
 10
-15.99289837337386
 20
6.81899359968014
 11
-15.99289837337392
 21
7.283641271741544
 72
     2
 10
-18.68881877998906
 20
7.283641271741235
 40
2.695920406615144
 50
0.0000000000065689
 51
45.52602773982069
 73
     1
 72
     2
 10
-16.09951170230442
 20
9.920934677770681
 40
0.9999999999999868
 50
134.4739722601769
 51
220.0504139902616
 73
     0
 72
     2
 10
-22.98881877998883
 20
15.71208723916689
 40
7.99999999999992
 50
319.9495860097376
 51
391.4106208135519
 73
     1
 72
     2
 10
-17.86809355591988
 20
18.83909430337088
 40
2.000000000000114
 50
31.41062081355137
 51
54.99999999999688
 73
     1
 72
     1
 10
-16.72094068321763
 20
20.47739839194889
 11
-18.56239521633983
 21
21.76679873731166
 72
     2
 10
-17.98881877998883
 20
22.5859507816007
 40
1.000000000000013
 50
124.9999999999962
 51
307.9169494174507
 73
     0
 72
     2
 10
-16.33511709136248
 20
24.60752384183919
 40
1.612258854607578
 50
229.8679793125725
 51
274.5055618039366
 73
     1
 72
     1
 10
-16.20846469774457
 20
23.00024733001822
 11
-14.40407959330203
 21
23.0000000000001
 72
     2
 10
-14.40407959330224
 20
22.5000000000001
 40
0.5000000000000036
 50
270.0000000000248
 51
306.8698976458727
 73
     0
 72
     2
 10
-12.90407959330206
 20
24.49999999999988
 40
1.999999999999928
 50
233.1301023541552
 51
306.8698976458469
 73
     1
 72
     2
 10
-11.40407959330202
 20
22.50000000000018
 40
0.4999999999998576
 50
233.1301023541428
 51
269.9999999999881
 73
     0
 72
     1
 10
-11.40407959330212
 20
23.00000000000004
 11
-8.899999999999828
 21
23.00000000000002
 72
     2
 10
-8.899999999999861
 20
22.79999999999994
 40
0.2000000000000774
 50
270.0000000000096
 51
359.9999999999766
 73
     0
 72
     1
 10
-8.699999999999786
 20
22.80000000000002
 11
-8.699999999999953
 21
21.2000000000002
 72
     2
 10
-8.499999999999875
 20
21.20000000000016
 40
0.2000000000000774
 50
179.9999999999908
 51
269.9999999999908
 73
     1
 72
     1
 10
-8.499999999999907
 20
21.00000000000008
 11
-7.499999999999918
 21
21.00000000000002
 72
     2
 10
-7.499999999999796
 20
21.1999999999999
 40
0.1999999999998749
 50
269.9999999999651
 51
360.0000000000152
 73
     1
 72
     1
 10
-7.299999999999919
 20
21.19999999999995
 11
-7.300000000000043
 21
22.8
 72
     2
 10
-7.099999999999966
 20
22.79999999999997
 40
0.2000000000000766
 50
180.0000000000101
 51
269.9999999999931
 73
     0
 72
     1
 10
-7.09999999999999
 20
23.00000000000004
 11
-3.000000000000058
 21
22.99999999999996
 72
     2
 10
-3.000000000000008
 20
22.79999999999997
 40
0.1999999999999886
 50
269.9999999999856
 51
359.9999999999694
 73
     0
 72
     1
 10
-2.800000000000019
 20
22.80000000000008
 11
-2.80000000000012
 21
21.19999999999991
 72
     2
 10
-2.600000000000184
 20
21.19999999999985
 40
0.1999999999999358
 50
179.9999999999816
 51
270.0000000000306
 73
     1
 72
     1
 10
-2.600000000000077
 20
20.99999999999992
 11
-2.400000000000002
 21
21.0
 72
     2
 10
-2.399999999999971
 20
21.99999999999996
 40
0.9999999999999573
 50
269.9999999999982
 51
360.0000000000014
 73
     1
 72
     1
 10
-1.400000000000014
 20
21.99999999999998
 11
-1.399999999999962
 21
23.30000000000003
 72
     2
 10
-1.2
 20
23.29999999999999
 40
0.199999999999962
 50
180.0000000000111
 51
270.0000000000106
 73
     0
 72
     1
 10
-1.199999999999962
 20
23.49999999999996
 11
-0.2000000000002018
 21
23.4999999999999
 72
     2
 10
-0.2000000000001392
 20
23.69999999999994
 40
0.2000000000000455
 50
269.9999999999821
 51
359.9999999999989
 73
     1
 72
     1
 10
-0.0000000000000916
 20
23.69999999999994
 11
-0.0000000000000453
 21
24.29999999999994
 72
     2
 10
-0.2000000000000953
 20
24.29999999999989
 40
0.20000000000005
 50
0.0000000000142489
 51
89.99999999998156
 73
     1
 72
     1
 10
-0.2000000000000309
 20
24.49999999999994
 11
-12.23325920005903
 21
24.49999999999994
 72
     2
 10
-12.23325920005466
 20
24.30000000000315
 40
0.1999999999967947
 50
90.00000000125083
 51
163.3984504020761
 73
     1
 72
     2
 10
-12.90407959329861
 20
24.50000000000001
 40
0.4999999999965706
 50
16.6015495993094
 51
163.3984504009373
 73
     0
 72
     2
 10
-13.57489998654504
 20
24.30000000000005
 40
0.2000000000000561
 50
16.60154959918849
 51
90.00000000000406
 73
     1
 72
     1
 10
-13.57489998654505
 20
24.50000000000011
 11
-16.06420394560499
 21
24.50026641385939
 97
        1
330
582
 75
     0
 76
     0
 52
45.0
 41
1.199999999999999
 77
     0
 78
     1
 53
45.0
 43
0.0
 44
0.0
 45
-0.8485281374238569
 46
0.8485281374238569
 79
     0
 98
        1
 10
0.0
 20
0.0
  0
HATCH
  5
604
330
1A
100
AcDbEntity
  8
2
100
AcDbHatch
 10
0.0
 20
0.0
 30
0.0
210
0.0
220
0.0
230
1.0
  2
_USER
 70
     0
 71
     1
 91
        2
 92
        1
 93
       20
 72
     1
 10
-0.0000000000000262
 20
8.600000000000024
 11
-0.0000000000000262
 21
0.000000000000016
 72
     1
 10
-0.0000000000000262
 20
0.0000000000000155
 11
-3.950000000000022
 21
0.0000000000000155
 72
     1
 10
-3.950000000000022
 20
0.0000000000000155
 11
-3.950000000000022
 21
4.500000000000015
 72
     1
 10
-3.950000000000022
 20
4.500000000000015
 11
-5.650000000000024
 21
4.500000000000015
 72
     1
 10
-5.650000000000024
 20
4.500000000000015
 11
-5.650000000000024
 21
2.000000000000015
 72
     1
 10
-5.650000000000024
 20
2.000000000000015
 11
-10.50000000000002
 21
2.000000000000015
 72
     1
 10
-10.50000000000002
 20
2.000000000000015
 11
-10.50000000000002
 21
23.00000000000001
 72
     1
 10
-10.50000000000002
 20
23.00000000000001
 11
-8.900000000000025
 21
23.00000000000001
 72
     1
 10
-8.900000000000025
 20
23.00000000000001
 11
-8.900000000000025
 21
20.50000000000001
 72
     1
 10
-8.900000000000025
 20
20.50000000000001
 11
-7.200000000000021
 21
20.50000000000001
 72
     1
 10
-7.200000000000021
 20
20.50000000000001
 11
-7.200000000000021
 21
23.00000000000001
 72
     1
 10
-7.200000000000021
 20
23.00000000000001
 11
-5.500000000000018
 21
23.00000000000001
 72
     1
 10
-5.500000000000018
 20
23.00000000000001
 11
-5.500000000000018
 21
11.00000000000001
 72
     1
 10
-5.500000000000018
 20
11.00000000000001
 11
-2.900000000000017
 21
11.00000000000001
 72
     1
 10
-2.900000000000017
 20
11.00000000000001
 11
-2.900000000000017
 21
12.80000000000001
 72
     2
 10
-2.700000000000017
 20
12.80000000000001
 40
0.1999999999999997
 50
180.0000000000005
 51
270.0000000000001
 73
     0
 72
     1
 10
-2.700000000000017
 20
13.00000000000001
 11
-2.60000000000002
 21
13.00000000000001
 72
     2
 10
-2.600000000000018
 20
11.80000000000001
 40
1.200000000000001
 50
269.9999999999998
 51
359.9999999999998
 73
     0
 72
     1
 10
-1.400000000000017
 20
11.80000000000001
 11
-1.400000000000017
 21
10.00000000000001
 72
     1
 10
-1.400000000000017
 20
10.00000000000001
 11
-0.0000000000000262
 21
8.600000000000024
 97
        1
330
56E
 92
       16
 93
        8
 72
     1
 10
-7.500000000000018
 20
6.750000000000015
 11
-3.500000000000019
 21
6.750000000000015
 72
     2
 10
-3.500000000000019
 20
7.250000000000015
 40
0.5
 50
270.0
 51
360.0
 73
     1
 72
     1
 10
-3.000000000000019
 20
7.250000000000015
 11
-3.000000000000019
 21
8.250000000000015
 72
     2
 10
-3.500000000000019
 20
8.250000000000015
 40
0.5
 50
0.0
 51
90.0
 73
     1
 72
     1
 10
-3.500000000000019
 20
8.750000000000015
 11
-7.500000000000018
 21
8.750000000000015
 72
     2
 10
-7.500000000000019
 20
8.250000000000015
 40
0.5
 50
89.99999999999991
 51
180.0
 73
     1
 72
     1
 10
-8.000000000000019
 20
8.250000000000015
 11
-8.000000000000019
 21
7.250000000000015
 72
     2
 10
-7.500000000000019
 20
7.250000000000015
 40
0.5
 50
180.0000000000001
 51
270.0000000000001
 73
     1
 97
        1
330
56F
 75
     0
 76
     0
 52
45.0
 41
1.0
 77
     1
 78
     2
 53
45.0
 43
0.0
 44
0.0
 45
-0.7071067811865475
 46
0.7071067811865476
 79
     0
 53
135.0
 43
0.0
 44
0.0
 45
-0.7071067811865476
 46
-0.7071067811865475
 79
     0
 98
        1
 10
0.0
 20
0.0
  0
VIEWPORT
  5
22
330
17
100
AcDbEntity
 67
     1
  8
0
100
AcDbViewport
 10
133.3499908447265
 20
101.5999970436096
 30
0.0
 40
367.9629757862268
 41
228.4221935424804
 68
     1
 69
     1
 12
133.3499908447265
 22
101.5999970436096
 13
0.0
 23
0.0
 14
10.0
 24
10.0
 15
10.0
 25
10.0
 16
0.0
 26
0.0
 36
1.0
 17
0.0
 27
0.0
 37
0.0
 42
50.0
 43
0.0
 44
0.0
 45
228.4221935424804
 50
0.0
 51
0.0
 72
   100
 90
    32800
  1

281
     0
 71
     1
 74
     0
110
0.0
120
0.0
130
0.0
111
1.0
121
0.0
131
0.0
112
0.0
122
1.0
132
0.0
 79
     0
146
0.0
  0
ENDSEC
  0
SECTION
  2
OBJECTS
  0
DICTIONARY
  5
C
330
0
100
AcDbDictionary
281
     1
  3
ACAD_GROUP
350
D
  3
ACAD_LAYOUT
350
F4
  3
ACAD_MLINESTYLE
350
E
  3
ACAD_PLOTSETTINGS
350
F5
  3
ACAD_PLOTSTYLENAME
350
F2
  3
AcDbVariableDictionary
350
136
  3
AEC_PROPERTY_SET_DEFS
350
5C5
  3
DWGPROPS
350
4C8
  0
DICTIONARY
  5
1F6
330
1A
100
AcDbDictionary
280
     1
281
     1
  3
ACAD_LAYOUTSELFREF
360
4F8
  0
DICTIONARY
  5
1F4
330
17
100
AcDbDictionary
280
     1
281
     1
  3
ACAD_LAYOUTSELFREF
360
4F7
  0
DICTIONARY
  5
5B4
330
5A7
100
AcDbDictionary
280
     1
281
     1
  3
ACAD_DIMASSOC
360
5BE
  0
DICTIONARY
  5
5D7
330
5CA
100
AcDbDictionary
280
     1
281
     1
  3
ACAD_DIMASSOC
360
5E1
  0
DICTIONARY
  5
D
102
{ACAD_REACTORS
330
C
102
}
330
C
100
AcDbDictionary
281
     1
  0
DICTIONARY
  5
F4
102
{ACAD_REACTORS
330
C
102
}
330
C
100
AcDbDictionary
281
     1
  3
Layout1
350
F7
  3
Model
350
F6
  0
DICTIONARY
  5
E
102
{ACAD_REACTORS
330
C
102
}
330
C
100
AcDbDictionary
281
     1
  3
STANDARD
350
13
  0
DICTIONARY
  5
F5
102
{ACAD_REACTORS
330
C
102
}
330
C
100
AcDbDictionary
281
     1
  3
e Plot 1zu1
350
25C
  3
e Plot angepasst
350
25D
  3
Laser A4
350
25E
  0
ACDBDICTIONARYWDFLT
  5
F2
102
{ACAD_REACTORS
330
C
102
}
330
C
100
AcDbDictionary
281
     1
  3
Normal
350
F3
100
AcDbDictionaryWithDefault
340
F3
  0
DICTIONARY
  5
136
102
{ACAD_REACTORS
330
C
102
}
330
C
100
AcDbDictionary
281
     1
  3
DIMASSOC
350
50E
  3
SORTENTS
350
137
  0
DICTIONARY
  5
5C5
102
{ACAD_REACTORS
330
C
102
}
330
C
100
AcDbDictionary
281
     1
  0
XRECORD
  5
4C8
102
{ACAD_REACTORS
330
C
102
}
330
C
100
AcDbXrecord
280
     1
  1
DWGPROPS COOKIE
  2
Datenaufbau HEBGO
  3
Format 14/2000 mit DWF-Format
  4
robert koch cad-support, ch-2540 grenchen
  6
Anpassung für DWF Format und ^M^JZeichnungsvorschau, ^M^Jrobert koch cad-support, ch-2540 grenchen
  7

  8
robert koch
  9

300
=
301
=
302
=
303
=
304
=
305
=
306
=
307
=
308
=
309
=
 40
0.0111293171296296
 41
2451739.873469861
 42
2452087.623583507
  1

 90
        0
  0
XRECORD
  5
4F8
102
{ACAD_REACTORS
330
1F6
102
}
330
1F6
100
AcDbXrecord
280
     1
340
1A
  0
XRECORD
  5
4F7
102
{ACAD_REACTORS
330
1F4
102
}
330
1F4
100
AcDbXrecord
280
     1
340
17
  0
DIMASSOC
  5
5BE
102
{ACAD_REACTORS
330
5B4
102
}
330
5B4
100
AcDbDimAssoc
330
5A7
 90
        2
 70
     0
 71
     0
  1
AcDbOsnapPointRef
 72
     1
331
54C
 73
     2
 91
       91
 40
1.0
 10
-102.2888187799843
 20
-4.889525760441756
 30
0.0
 75
     0
  0
DIMASSOC
  5
5E1
102
{ACAD_REACTORS
330
5D7
102
}
330
5D7
100
AcDbDimAssoc
330
5CA
 90
        1
 70
     0
 71
     0
  1
AcDbOsnapPointRef
 72
     1
331
570
 73
     2
 91
        1
 40
1.0
 10
0.0
 20
0.0
 30
0.0
 75
     0
  0
LAYOUT
  5
F7
102
{ACAD_REACTORS
330
F4
102
}
330
F4
100
AcDbPlotSettings
  1

  2
none_device
  4
Letter_(8.50_x_11.00_Inches)
  6

 40
6.349999904632568
 41
6.349999904632568
 42
6.350006103515625
 43
6.350006103515625
 44
215.8999938964843
 45
279.3999938964843
 46
0.0
 47
0.0
 48
0.0
 49
0.0
140
0.0
141
0.0
142
1.0
143
1.0
 70
   688
 72
     1
 73
     1
 74
     5
  7
Hebgo JPG.ctb
 75
    16
147
1.0
148
0.0
149
0.0
100
AcDbLayout
  1
Layout1
 70
     1
 71
     1
 10
-6.350006103515625
 20
-6.349999904632568
 11
273.0499877929687
 21
209.5499939918517
 12
0.0
 22
0.0
 32
0.0
 14
1.000000000000000E+20
 24
1.000000000000000E+20
 34
1.000000000000000E+20
 15
-1.000000000000000E+20
 25
-1.000000000000000E+20
 35
-1.000000000000000E+20
146
0.0
 13
0.0
 23
0.0
 33
0.0
 16
1.0
 26
0.0
 36
0.0
 17
0.0
 27
1.0
 37
0.0
 76
     0
330
17
331
22
  0
LAYOUT
  5
F6
102
{ACAD_REACTORS
330
F4
102
}
330
F4
100
AcDbPlotSettings
  1

  2
PublishToWeb JPG.pc3
  4
VGA_(640.00_x_480.00_Pixels)
  6

 40
0.0
 41
0.0
 42
1.0
 43
1.0
 44
640.0
 45
480.0
 46
0.0
 47
95.87999999999999
 48
0.0
 49
0.0
140
0.0
141
0.0
142
1.0
143
0.2082860522744179
 70
 28340
 72
     2
 73
     0
 74
     1
  7
Hebgo JPG.ctb
 75
     0
147
4.801089602881785
148
114.0747062909355
149
20.16448889645335
100
AcDbLayout
  1
Model
 70
     1
 71
     0
 10
0.0
 20
0.0
 11
12.0
 21
9.0
 12
0.0
 22
0.0
 32
0.0
 14
0.0
 24
0.0
 34
0.0
 15
0.0
 25
0.0
 35
0.0
146
0.0
 13
0.0
 23
0.0
 33
0.0
 16
1.0
 26
0.0
 36
0.0
 17
0.0
 27
1.0
 37
0.0
 76
     0
330
1A
  0
MLINESTYLE
  5
13
102
{ACAD_REACTORS
330
E
102
}
330
E
100
AcDbMlineStyle
  2
STANDARD
 70
     0
  3

 62
     0
 51
90.0
 52
90.0
 71
     2
 49
0.5
 62
   256
  6
BYLAYER
 49
-0.5
 62
   256
  6
BYLAYER
  0
PLOTSETTINGS
  5
25C
102
{ACAD_REACTORS
330
F5
102
}
330
F5
100
AcDbPlotSettings
  1
e Plot 1zu1
  2
DWF ePlot.pc3
  4
UserDefinedMetric (210.00 x 297.00MM)
  6

 40
13.0
 41
13.0
 42
13.0
 43
13.0
 44
210.0
 45
297.0
 46
58.27
 47
107.6999999999999
 48
0.0
 49
0.0
140
0.0
141
0.0
142
1.0
143
1.0
 70
  1716
 72
     1
 73
     0
 74
     1
  7
OPO_DWF.ctb
 75
    16
147
1.0
148
17.16613684218157
149
24.55902015156925
  0
PLOTSETTINGS
  5
25D
102
{ACAD_REACTORS
330
F5
102
}
330
F5
100
AcDbPlotSettings
  1
e Plot angepasst
  2
DWF ePlot.pc3
  4
UserDefinedMetric (210.00 x 297.00MM)
  6

 40
13.0
 41
13.0
 42
13.0
 43
13.0
 44
210.0
 45
297.0
 46
0.0
 47
59.67
 48
0.0
 49
0.0
140
0.0
141
0.0
142
1.0
143
0.3665841129351039
 70
  1716
 72
     1
 73
     0
 74
     1
  7
OPO_DWF.ctb
 75
     0
147
2.727886901571834
148
17.16613684218157
149
24.55902015156925
  0
PLOTSETTINGS
  5
25E
102
{ACAD_REACTORS
330
F5
102
}
330
F5
100
AcDbPlotSettings
  1
Laser A4
  2
4 Xerox XL.pc3
  4
A4
  6

 40
5.111750125885009
 41
5.11176061630249
 42
5.111740112304687
 43
5.11175537109375
 44
209.9733276367187
 45
296.9259948730469
 46
0.0
 47
43.47999999999999
 48
0.0
 49
0.0
140
0.0
141
0.0
142
1.0
143
0.020166824766453
 70
  1716
 72
     1
 73
     0
 74
     1
  7
OPO.ctb
 75
     0
147
49.58638811913882
148
2.014159285479877
149
2.014159285479877
  0
ACDBPLACEHOLDER
  5
F3
102
{ACAD_REACTORS
330
F2
102
}
330
F2
  0
DICTIONARYVAR
  5
50E
102
{ACAD_REACTORS
330
136
102
}
330
136
100
DictionaryVariables
280
     0
  1
2
  0
DICTIONARYVAR
  5
137
102
{ACAD_REACTORS
330
136
102
}
330
136
100
DictionaryVariables
280
     0
  1
96
  0
ENDSEC
  0
EOF
