  0
SECTION
  2
HEADER
  9
$ACADVER
  1
AC1009
  9
$INSBASE
 10
0.0
 20
0.0
 30
0.0
  9
$EXTMIN
 10
-34.446715475580049
 20
-16.662596802532899
 30
-0.0000000000112498
  9
$EXTMAX
 10
14.35089165385693
 20
20.324707578780021
 30
0.0000000000002956
  9
$LIMMIN
 10
-150.0
 20
-150.0
  9
$LIMMAX
 10
150.0
 20
150.0
  9
$ORTHOMODE
 70
     0
  9
$REGENMODE
 70
     1
  9
$FILLMODE
 70
     1
  9
$QTEXTMODE
 70
     0
  9
$MIRRTEXT
 70
     0
  9
$DRAGMODE
 70
     2
  9
$LTSCALE
 40
2.0
  9
$OSMODE
 70
   111
  9
$ATTMODE
 70
     1
  9
$TEXTSIZE
 40
3.5
  9
$TRACEWID
 40
1.0
  9
$TEXTSTYLE
  7
BESCHLAG
  9
$CLAYER
  8
0
  9
$CELTYPE
  6
BYLAYER
  9
$CECOLOR
 62
   256
  9
$DIMSCALE
 40
1.0
  9
$DIMASZ
 40
2.0
  9
$DIMEXO
 40
2.0
  9
$DIMDLI
 40
0.0
  9
$DIMRND
 40
0.0
  9
$DIMDLE
 40
1.0
  9
$DIMEXE
 40
1.0
  9
$DIMTP
 40
0.0
  9
$DIMTM
 40
0.0
  9
$DIMTXT
 40
3.5
  9
$DIMCEN
 40
0.0
  9
$DIMTSZ
 40
0.0
  9
$DIMTOL
 70
     0
  9
$DIMLIM
 70
     0
  9
$DIMTIH
 70
     0
  9
$DIMTOH
 70
     0
  9
$DIMSE1
 70
     0
  9
$DIMSE2
 70
     0
  9
$DIMTAD
 70
     1
  9
$DIMZIN
 70
     8
  9
$DIMBLK
  1

  9
$DIMASO
 70
     1
  9
$DIMSHO
 70
     1
  9
$DIMPOST
  1

  9
$DIMAPOST
  1

  9
$DIMALT
 70
     0
  9
$DIMALTD
 70
     2
  9
$DIMALTF
 40
0.039370078740157
  9
$DIMLFAC
 40
1.0
  9
$DIMTOFL
 70
     1
  9
$DIMTVP
 40
0.0
  9
$DIMTIX
 70
     1
  9
$DIMSOXD
 70
     0
  9
$DIMSAH
 70
     1
  9
$DIMBLK1
  1
OBLIQUE
  9
$DIMBLK2
  1
OBLIQUE
  9
$DIMSTYLE
  2
OPO-SSTRICH
  9
$DIMCLRD
 70
   256
  9
$DIMCLRE
 70
   256
  9
$DIMCLRT
 70
   256
  9
$DIMTFAC
 40
0.7114285714285716
  9
$DIMGAP
 40
1.0
  9
$LUNITS
 70
     2
  9
$LUPREC
 70
     1
  9
$SKETCHINC
 40
1.0
  9
$FILLETRAD
 40
0.0
  9
$AUNITS
 70
     0
  9
$AUPREC
 70
     1
  9
$MENU
  1
D:\ACL_CGWG\CGTAB13
  9
$ELEVATION
 40
0.0
  9
$PELEVATION
 40
0.0
  9
$THICKNESS
 40
0.0
  9
$LIMCHECK
 70
     0
  9
$BLIPMODE
 70
     0
  9
$CHAMFERA
 40
1.0
  9
$CHAMFERB
 40
1.0
  9
$SKPOLY
 70
     0
  9
$TDCREATE
 40
2451739.8631333099
  9
$TDUPDATE
 40
2452086.7309986688
  9
$TDINDWG
 40
0.0010215278
  9
$TDUSRTIMER
 40
0.0010215278
  9
$USRTIMER
 70
     1
  9
$ANGBASE
 50
0.0
  9
$ANGDIR
 70
     0
  9
$PDMODE
 70
    35
  9
$PDSIZE
 40
5.0
  9
$PLINEWID
 40
0.0
  9
$COORDS
 70
     1
  9
$SPLFRAME
 70
     0
  9
$SPLINETYPE
 70
     6
  9
$SPLINESEGS
 70
     8
  9
$ATTDIA
 70
     1
  9
$ATTREQ
 70
     1
  9
$HANDLING
 70
-16383
  9
$HANDSEED
  5
48F
  9
$SURFTAB1
 70
    12
  9
$SURFTAB2
 70
    12
  9
$SURFTYPE
 70
     6
  9
$SURFU
 70
    12
  9
$SURFV
 70
    12
  9
$UCSNAME
  2

  9
$UCSORG
 10
0.0
 20
0.0
 30
0.0
  9
$UCSXDIR
 10
1.0
 20
0.0
 30
0.0
  9
$UCSYDIR
 10
0.0
 20
1.0
 30
0.0
  9
$PUCSNAME
  2

  9
$PUCSORG
 10
0.0
 20
0.0
 30
0.0
  9
$PUCSXDIR
 10
1.0
 20
0.0
 30
0.0
  9
$PUCSYDIR
 10
0.0
 20
1.0
 30
0.0
  9
$USERI1
 70
     0
  9
$USERI2
 70
     0
  9
$USERI3
 70
     0
  9
$USERI4
 70
     0
  9
$USERI5
 70
     0
  9
$USERR1
 40
0.0
  9
$USERR2
 40
0.0
  9
$USERR3
 40
0.0
  9
$USERR4
 40
0.0
  9
$USERR5
 40
0.0
  9
$WORLDVIEW
 70
     1
  9
$SHADEDGE
 70
     3
  9
$SHADEDIF
 70
    70
  9
$TILEMODE
 70
     1
  9
$MAXACTVP
 70
    48
  9
$PLIMCHECK
 70
     0
  9
$PEXTMIN
 10
1.0000000000000000E+020
 20
1.0000000000000000E+020
 30
1.0000000000000000E+020
  9
$PEXTMAX
 10
-1.0000000000000000E+020
 20
-1.0000000000000000E+020
 30
-1.0000000000000000E+020
  9
$PLIMMIN
 10
0.0
 20
0.0
  9
$PLIMMAX
 10
420.0
 20
297.0
  9
$UNITMODE
 70
     0
  9
$VISRETAIN
 70
     1
  9
$PLINEGEN
 70
     0
  9
$PSLTSCALE
 70
     1
  0
ENDSEC
  0
SECTION
  2
TABLES
  0
TABLE
  2
VPORT
 70
     3
  0
VPORT
  2
*ACTIVE
 70
     0
 10
0.0
 20
0.0
 11
1.0
 21
1.0
 12
-10.047911910861551
 22
1.8310553881235589
 13
0.0
 23
0.0
 14
0.5
 24
0.5
 15
10.0
 25
10.0
 16
0.0
 26
0.0
 36
1.0
 17
0.0
 27
0.0
 37
0.0
 40
37.287607258563099
 41
1.6070460704607039
 42
50.0
 43
0.0
 44
0.0
 50
0.0
 51
0.0
 71
     0
 72
   800
 73
     1
 74
     1
 75
     0
 76
     0
 77
     0
 78
     0
  0
ENDTAB
  0
TABLE
  2
LTYPE
 70
     2
  0
LTYPE
  2
CONTINUOUS
 70
     0
  3
_______________________________________________
 72
    65
 73
     2
 40
1.0
 49
1.0
 49
0.0
  0
LTYPE
  2
STRICHPUNKT
 70
     0
  3
__ . __ . __ . __ . __ . __ . __ . __ . __ . __
 72
    65
 73
     4
 40
1.0
 49
0.5
 49
-0.25
 49
0.0
 49
-0.25
  0
ENDTAB
  0
TABLE
  2
LAYER
 70
     7
  0
LAYER
  2
0
 70
     0
 62
    30
  6
CONTINUOUS
  0
LAYER
  2
1
 70
     0
 62
     2
  6
CONTINUOUS
  0
LAYER
  2
2
 70
     0
 62
     9
  6
CONTINUOUS
  0
LAYER
  2
4
 70
     1
 62
     4
  6
CONTINUOUS
  0
LAYER
  2
5
 70
     0
 62
     1
  6
CONTINUOUS
  0
LAYER
  2
6
 70
     0
 62
     3
  6
CONTINUOUS
  0
LAYER
  2
DEFPOINTS
 70
     0
 62
     7
  6
CONTINUOUS
  0
ENDTAB
  0
TABLE
  2
STYLE
 70
     2
  0
STYLE
  2
STANDARD
 70
     0
 40
0.0
 41
1.0
 50
0.0
 71
     0
 42
2.5
  3
txt
  4

  0
STYLE
  2
BESCHLAG
 70
     0
 40
0.0
 41
1.0
 50
0.0
 71
     0
 42
3.5
  3
txt
  4

  0
ENDTAB
  0
TABLE
  2
VIEW
 70
     0
  0
ENDTAB
  0
TABLE
  2
UCS
 70
     0
  0
ENDTAB
  0
TABLE
  2
APPID
 70
     1
  0
APPID
  2
ACAD
 70
     0
  0
ENDTAB
  0
TABLE
  2
DIMSTYLE
 70
     1
  0
DIMSTYLE
  2
OPO-SSTRICH
 70
     0
  3

  4

  5

  6
OBLIQUE
  7
OBLIQUE
 40
1.0
 41
2.0
 42
2.0
 43
0.0
 44
1.0
 45
0.0
 46
1.0
 47
0.0
 48
0.0
140
3.5
141
0.0
142
0.0
143
0.039370078740157
144
1.0
145
0.0
146
0.7114285714285716
147
1.0
 71
     0
 72
     0
 73
     0
 74
     0
 75
     0
 76
     0
 77
     1
 78
     8
170
     0
171
     2
172
     1
173
     1
174
     1
175
     0
176
   256
177
   256
178
   256
  0
ENDTAB
  0
ENDSEC
  0
SECTION
  2
BLOCKS
  0
BLOCK
  8
0
  2
$MODEL_SPACE
 70
     0
 10
0.0
 20
0.0
 30
0.0
  3
$MODEL_SPACE
  1

  0
ENDBLK
  5
1C
  8
0
  0
BLOCK
 67
     1
  8
0
  2
$PAPER_SPACE
 70
     0
 10
0.0
 20
0.0
 30
0.0
  3
$PAPER_SPACE
  1

  0
ENDBLK
  5
19
 67
     1
  8
0
  0
BLOCK
  8
0
  2
_OBLIQUE
 70
     0
 10
0.0
 20
0.0
 30
0.0
  3
_OBLIQUE
  1

  0
LINE
  5
204
  8
0
 62
     0
 10
-0.5
 20
-0.5
 30
0.0
 11
0.5
 21
0.5
 31
0.0
  0
ENDBLK
  5
206
  8
0
  0
BLOCK
  8
0
  2
NULLPUNKT
 70
     0
 10
0.0
 20
0.0
 30
0.0
  3
NULLPUNKT
  1

  0
SOLID
  5
254
  8
5
 10
0.0
 20
0.0
 30
0.0
 11
2.0
 21
0.0
 31
0.0
 12
0.0
 22
-2.0
 32
0.0
 13
0.0
 23
-2.0
 33
0.0
  0
SOLID
  5
255
  8
5
 10
0.0
 20
0.0
 30
0.0
 11
-2.0
 21
0.0
 31
0.0
 12
0.0
 22
2.0
 32
0.0
 13
0.0
 23
2.0
 33
0.0
  0
POLYLINE
  5
256
  8
5
 66
     1
 10
0.0
 20
0.0
 30
0.0
  0
VERTEX
  5
432
  8
5
 10
0.0
 20
2.0
 30
0.0
  0
VERTEX
  5
433
  8
5
 10
0.0
 20
-2.0
 30
0.0
  0
SEQEND
  5
434
  8
5
  0
POLYLINE
  5
257
  8
5
 66
     1
 10
0.0
 20
0.0
 30
0.0
  0
VERTEX
  5
435
  8
5
 10
-2.0
 20
0.0
 30
0.0
  0
VERTEX
  5
436
  8
5
 10
2.0
 20
0.0
 30
0.0
  0
SEQEND
  5
437
  8
5
  0
CIRCLE
  5
258
  8
5
 10
0.0
 20
0.0
 30
0.0
 40
2.0
  0
ENDBLK
  5
25A
  8
0
  0
BLOCK
  8
0
  2
*X2
 70
     1
 10
0.0
 20
0.0
 30
0.0
  3
*X2
  1

  0
LINE
  5
29E
  8
0
 62
     0
 10
558.47967669200852
 20
-422.98453559491929
 30
0.0
 11
560.47967669200909
 21
-420.98453559491873
 31
0.0
  0
LINE
  5
29F
  8
0
 62
     0
 10
566.47967669200818
 20
-414.98453559491952
 30
0.0
 11
567.79180838517823
 21
-413.67240390174959
 31
0.0
  0
LINE
  5
2A0
  8
0
 62
     0
 10
557.06546312963542
 20
-422.98453559491929
 30
0.0
 11
559.06546312963621
 21
-420.9845355949185
 31
0.0
  0
LINE
  5
2A1
  8
0
 62
     0
 10
565.06546312963519
 20
-414.98453559491952
 30
0.0
 11
566.9505547995567
 21
-413.09944392499801
 31
0.0
  0
LINE
  5
2A2
  8
0
 62
     0
 10
555.65124956726231
 20
-422.98453559491929
 30
0.0
 11
557.65124956726311
 21
-420.9845355949185
 31
0.0
  0
LINE
  5
2A3
  8
0
 62
     0
 10
563.79152639863503
 20
-414.84425876354658
 30
0.0
 11
565.65124956726163
 21
-412.98453559491998
 31
0.0
  0
LINE
  5
2A4
  8
0
 62
     0
 10
554.23703600488921
 20
-422.98453559491929
 30
0.0
 11
556.23703600489011
 21
-420.9845355949185
 31
0.0
  0
LINE
  5
2A5
  8
0
 62
     0
 10
552.85362240690756
 20
-422.95373563052777
 30
0.0
 11
554.82282244251689
 21
-420.9845355949185
 31
0.0
  0
LINE
  5
2A6
  8
0
 62
     0
 10
551.80028763194059
 20
-422.59285684312181
 30
0.0
 11
553.4086088801439
 21
-420.9845355949185
 31
0.0
  0
LINE
  5
2A7
  8
0
 62
     0
 10
551.02197121564859
 20
-421.95695969704059
 30
0.0
 11
552.33304772964175
 21
-420.64588318304737
 31
0.0
  0
LINE
  5
2A8
  8
0
 62
     0
 10
550.48819791786627
 20
-421.0765194324498
 30
0.0
 11
551.80741088969376
 21
-419.75730646062237
 31
0.0
  0
LINE
  5
2A9
  8
0
 62
     0
 10
550.28240107772785
 20
-419.86810271021523
 30
0.0
 11
551.78240107772876
 21
-418.36810271021432
 31
0.0
  0
LINE
  5
2AA
  8
0
 62
     0
 10
550.28240107772797
 20
-418.45388914784178
 30
0.0
 11
551.78240107772876
 21
-416.95388914784121
 31
0.0
  0
LINE
  5
2AB
  8
0
 62
     0
 10
553.75175463065113
 20
-414.9845355949189
 30
0.0
 11
554.78194523745321
 21
-413.9543449881167
 31
0.0
  0
LINE
  5
2AC
  8
0
 62
     0
 10
550.28240107772831
 20
-417.03967558546861
 30
0.0
 11
551.78240107772876
 21
-415.53967558546799
 31
0.0
  0
LINE
  5
2AD
  8
0
 62
     0
 10
552.33754106827735
 20
-414.98453559491941
 30
0.0
 11
554.23118258436602
 21
-413.0908940788309
 31
0.0
  0
LINE
  5
2AE
  8
0
 62
     0
 10
550.28240107772854
 20
-415.62546202309522
 30
0.0
 11
552.92332750590333
 21
-412.98453559492037
 31
0.0
  0
LINE
  5
2AF
  8
0
 62
     0
 10
550.28240107772865
 20
-414.211248460722
 30
0.0
 11
551.50911394353022
 21
-412.98453559492037
 31
0.0
  0
LINE
  5
2B0
  8
0
 62
     0
 10
559.89389025438163
 20
-422.98453559491929
 30
0.0
 11
561.89389025438197
 21
-420.9845355949189
 31
0.0
  0
LINE
  5
2B1
  8
0
 62
     0
 10
566.78240107772808
 20
-416.09602477157279
 30
0.0
 11
568.25037441220854
 21
-414.62805143709238
 31
0.0
  0
LINE
  5
2B2
  8
0
 62
     0
 10
561.30810381675474
 20
-422.98453559491929
 30
0.0
 11
563.30810381675485
 21
-420.98453559491912
 31
0.0
  0
LINE
  5
2B3
  8
0
 62
     0
 10
566.78240107772842
 20
-417.51023833394549
 30
0.0
 11
568.28240107772979
 21
-416.0102383339443
 31
0.0
  0
LINE
  5
2B4
  8
0
 62
     0
 10
562.72231737912784
 20
-422.98453559491929
 30
0.0
 11
564.72231737912784
 21
-420.98453559491929
 31
0.0
  0
LINE
  5
2B5
  8
0
 62
     0
 10
566.78240107772865
 20
-418.92445189631832
 30
0.0
 11
568.28240107772956
 21
-417.42445189631758
 31
0.0
  0
LINE
  5
2B6
  8
0
 62
     0
 10
564.13653094150095
 20
-422.98453559491929
 30
0.0
 11
568.28240107772945
 21
-418.83866545869068
 31
0.0
  0
LINE
  5
2B7
  8
0
 62
     0
 10
565.55074450387406
 20
-422.98453559491929
 30
0.0
 11
568.28240107772945
 21
-420.2528790210639
 31
0.0
  0
LINE
  5
2B8
  8
0
 62
     0
 10
566.78169918356446
 20
-423.16779447760189
 30
0.0
 11
568.28240107772945
 21
-421.66709258343701
 31
0.0
  0
LINE
  5
2B9
  8
0
 62
     0
 10
566.78240107772808
 20
-424.58130614581131
 30
0.0
 11
568.28240107772933
 21
-423.08130614581017
 31
0.0
  0
LINE
  5
2BA
  8
0
 62
     0
 10
566.78240107772854
 20
-425.99551970818419
 30
0.0
 11
568.28240107772933
 21
-424.49551970818339
 31
0.0
  0
LINE
  5
2BB
  8
0
 62
     0
 10
566.78240107772865
 20
-427.40973327055701
 30
0.0
 11
568.28240107772922
 21
-425.9097332705565
 31
0.0
  0
LINE
  5
2BC
  8
0
 62
     0
 10
566.78240107772888
 20
-428.82394683292978
 30
0.0
 11
568.28240107772911
 21
-427.32394683292978
 31
0.0
  0
LINE
  5
2BD
  8
0
 62
     0
 10
566.78240107772933
 20
-430.2381603953026
 30
0.0
 11
568.28240107772899
 21
-428.73816039530288
 31
0.0
  0
LINE
  5
2BE
  8
0
 62
     0
 10
566.78240107772945
 20
-431.65237395767542
 30
0.0
 11
568.28240107772899
 21
-430.1523739576761
 31
0.0
  0
LINE
  5
2BF
  8
0
 62
     0
 10
566.88808720726604
 20
-432.96090139051211
 30
0.0
 11
568.28240107772876
 21
-431.56658752004921
 31
0.0
  0
ENDBLK
  5
2C1
  8
0
  0
BLOCK
  8
0
  2
*D3
 70
     1
 10
0.0
 20
0.0
 30
0.0
  3
*D3
  1

  0
LINE
  5
314
  8
1
 10
3.5
 20
9.9999999999998863
 30
0.0
 11
14.32919484586909
 21
9.9999999999998828
 31
0.0
  0
LINE
  5
315
  8
1
 10
3.5
 20
13.0
 30
0.0
 11
14.32919484586909
 21
12.999999999999989
 31
0.0
  0
LINE
  5
316
  8
1
 10
13.32919484586909
 20
9.9999999999998828
 30
0.0
 11
13.32919484586909
 21
7.9999999999998828
 31
0.0
  0
LINE
  5
317
  8
1
 10
13.32919484586909
 20
12.999999999999989
 30
0.0
 11
13.32919484586909
 21
14.999999999999989
 31
0.0
  0
LINE
  5
318
  8
1
 10
13.32919484586909
 20
9.9999999999998828
 30
0.0
 11
13.32919484586909
 21
12.999999999999989
 31
0.0
  0
INSERT
  5
319
  8
1
  2
_OBLIQUE
 10
13.32919484586909
 20
9.9999999999998828
 30
0.0
 41
2.0
 42
2.0
 43
2.0
 50
90.0
  0
INSERT
  5
31A
  8
1
  2
_OBLIQUE
 10
13.32919484586909
 20
12.999999999999989
 30
0.0
 41
2.0
 42
2.0
 43
2.0
 50
270.0
  0
TEXT
  5
31B
  8
0
 10
12.259958829498011
 20
10.148703956343731
 30
0.0
 40
3.5
  1
3
 50
90.0
  7
BESCHLAG
  0
POINT
  5
31C
  8
DEFPOINTS
 62
     0
 10
1.5
 20
9.9999999999998863
 30
0.0
  0
POINT
  5
31D
  8
DEFPOINTS
 62
     0
 10
1.5
 20
13.0
 30
0.0
  0
POINT
  5
31E
  8
DEFPOINTS
 62
     0
 10
13.32919484586909
 20
12.999999999999989
 30
0.0
  0
ENDBLK
  5
2EF
  8
0
  0
BLOCK
  8
0
  2
*D4
 70
     1
 10
0.0
 20
0.0
 30
0.0
  3
*D4
  1

  0
LINE
  5
31F
  8
1
 10
3.5
 20
-10.0
 30
0.0
 11
14.32919484586909
 21
-10.0
 31
0.0
  0
LINE
  5
320
  8
1
 10
3.5
 20
9.9999999999998863
 30
0.0
 11
14.32919484586909
 21
9.9999999999998828
 31
0.0
  0
LINE
  5
321
  8
1
 10
13.32919484586909
 20
-11.0
 30
0.0
 11
13.32919484586909
 21
10.999999999999879
 31
0.0
  0
INSERT
  5
322
  8
1
  2
_OBLIQUE
 10
13.32919484586909
 20
-10.0
 30
0.0
 41
2.0
 42
2.0
 43
2.0
 50
270.0
  0
INSERT
  5
323
  8
1
  2
_OBLIQUE
 10
13.32919484586909
 20
9.9999999999998828
 30
0.0
 41
2.0
 42
2.0
 43
2.0
 50
90.0
  0
TEXT
  5
324
  8
0
 10
12.26234627833839
 20
-2.673942701227888
 30
0.0
 40
3.5
  1
20
 50
90.0
  7
BESCHLAG
  0
POINT
  5
325
  8
DEFPOINTS
 62
     0
 10
1.5
 20
-10.0
 30
0.0
  0
POINT
  5
326
  8
DEFPOINTS
 62
     0
 10
1.5
 20
9.9999999999998863
 30
0.0
  0
POINT
  5
327
  8
DEFPOINTS
 62
     0
 10
13.32919484586909
 20
9.9999999999998828
 30
0.0
  0
ENDBLK
  5
2FB
  8
0
  0
BLOCK
  8
0
  2
*D5
 70
     1
 10
0.0
 20
0.0
 30
0.0
  3
*D5
  1

  0
LINE
  5
328
  8
1
 10
-17.0
 20
-2.0
 30
0.0
 11
-17.0
 21
-16.656558640690829
 31
0.0
  0
LINE
  5
329
  8
1
 10
-0.0000000000000001
 20
-2.0
 30
0.0
 11
-0.000000000000001
 21
-16.656558640690829
 31
0.0
  0
LINE
  5
32A
  8
1
 10
-18.0
 20
-15.656558640690831
 30
0.0
 11
0.9999999999999989
 21
-15.656558640690831
 31
0.0
  0
INSERT
  5
32B
  8
1
  2
_OBLIQUE
 10
-17.0
 20
-15.656558640690831
 30
0.0
 41
2.0
 42
2.0
 43
2.0
 50
180.0
  0
INSERT
  5
32C
  8
1
  2
_OBLIQUE
 10
-0.000000000000001
 20
-15.656558640690831
 30
0.0
 41
2.0
 42
2.0
 43
2.0
  0
TEXT
  5
32D
  8
0
 10
-11.37448840381991
 20
-14.64939629416968
 30
0.0
 40
3.5
  1
17
  7
BESCHLAG
  0
POINT
  5
32E
  8
DEFPOINTS
 62
     0
 10
-17.0
 20
0.0
 30
0.0
  0
POINT
  5
32F
  8
DEFPOINTS
 62
     0
 10
0.0
 20
0.0
 30
0.0
  0
POINT
  5
330
  8
DEFPOINTS
 62
     0
 10
-0.000000000000001
 20
-15.656558640690831
 30
0.0
  0
ENDBLK
  5
307
  8
0
  0
BLOCK
  8
0
  2
*D6
 70
     1
 10
0.0
 20
0.0
 30
0.0
  3
*D6
  1

  0
LINE
  5
331
  8
1
 10
-19.0
 20
0.0000000000000006
 30
0.0
 11
-29.93317561472259
 21
0.0000000000000037
 31
0.0
  0
LINE
  5
332
  8
1
 10
-19.0
 20
13.0
 30
0.0
 11
-29.933175614722579
 21
13.0
 31
0.0
  0
LINE
  5
333
  8
1
 10
-28.933175614722579
 20
-0.9999999999999966
 30
0.0
 11
-28.933175614722579
 21
14.0
 31
0.0
  0
INSERT
  5
334
  8
1
  2
_OBLIQUE
 10
-28.933175614722579
 20
0.0000000000000034
 30
0.0
 41
2.0
 42
2.0
 43
2.0
 50
270.0
  0
INSERT
  5
335
  8
1
  2
_OBLIQUE
 10
-28.933175614722579
 20
13.0
 30
0.0
 41
2.0
 42
2.0
 43
2.0
 50
90.0
  0
TEXT
  5
336
  8
0
 10
-30.002411631093661
 20
3.625511596180079
 30
0.0
 40
3.5
  1
13
 50
90.0
  7
BESCHLAG
  0
POINT
  5
337
  8
DEFPOINTS
 62
     0
 10
-17.0
 20
0.0
 30
0.0
  0
POINT
  5
338
  8
DEFPOINTS
 62
     0
 10
-17.0
 20
13.0
 30
0.0
  0
POINT
  5
339
  8
DEFPOINTS
 62
     0
 10
-28.933175614722579
 20
13.0
 30
0.0
  0
ENDBLK
  5
313
  8
0
  0
ENDSEC
  0
SECTION
  2
ENTITIES
  0
INSERT
  5
25B
  8
5
  2
NULLPUNKT
 10
0.0
 20
0.0
 30
0.0
  0
INSERT
  5
2D5
  8
2
  2
*X2
 10
-566.78240107772922
 20
422.98453559491833
 30
0.0
1001
ACAD
1000
HATCH
1002
{
1070
    16
1000
_U,I
1040
1.0
1040
0.7853981633974483
1070
     0
1002
}
  0
DIMENSION
  5
2D6
  8
1
  2
*D3
 10
13.32919484586909
 20
12.999999999999989
 30
0.0
 11
10.540995664422979
 21
11.49999999999994
 31
0.0
 70
     0
 13
1.5
 23
9.9999999999998863
 33
0.0
 14
1.5
 24
13.0
 34
0.0
 50
90.0
  0
TEXT
  5
2D7
  8
1
 10
-11.24758833051237
 20
17.15653799954827
 30
0.0
 40
2.5
  1
Hebgo 110/510
  0
POLYLINE
  5
2D8
  8
5
 66
     1
 10
0.0
 20
0.0
 30
0.0
  0
VERTEX
  5
438
  8
5
 10
-13.0
 20
20.0
 30
0.0
  0
VERTEX
  5
439
  8
5
 10
-13.0
 20
13.0
 30
0.0
  0
VERTEX
  5
43A
  8
5
 10
12.0
 20
13.0
 30
0.0
  0
SEQEND
  5
43B
  8
5
  0
POLYLINE
  5
2D9
  8
6
 66
     1
 10
0.0
 20
0.0
 30
0.0
 70
     1
  0
VERTEX
  5
43C
  8
6
 10
-7.525748094813479
 20
12.6354846746259
 30
0.0
 42
-0.3396459278126291
  0
VERTEX
  5
43D
  8
6
 10
-6.5500680315508362
 20
11.619264636694419
 30
0.0
 42
0.2290384838080409
  0
VERTEX
  5
43E
  8
6
 10
-6.0817217593576061
 20
11.360795584144959
 30
0.0
 42
-0.0495274142367796
  0
VERTEX
  5
43F
  8
6
 10
-4.6782167192241104
 20
11.4567983750918
 30
0.0
 42
-0.3865683931477528
  0
VERTEX
  5
440
  8
6
 10
-3.2312407296558372
 20
9.9464627448043075
 30
0.0
  0
VERTEX
  5
441
  8
6
 10
-3.2312407296558372
 20
7.9999999999987486
 30
0.0
  0
VERTEX
  5
442
  8
6
 10
-0.3789680948134446
 20
8.0006980014336477
 30
0.0
  0
VERTEX
  5
443
  8
6
 10
-0.3789680948134446
 20
5.896021505997509
 30
0.0
 42
-0.1456668646717068
  0
VERTEX
  5
444
  8
6
 10
-0.5415702483323912
 20
5.5637041527196507
 30
0.0
  0
VERTEX
  5
445
  8
6
 10
-3.171295483177345
 20
2.6245418841604069
 30
0.0
 42
-0.2175161131445625
  0
VERTEX
  5
446
  8
6
 10
-4.5230924586626307
 20
2.6245418841604069
 30
0.0
  0
VERTEX
  5
447
  8
6
 10
-7.0050803278741114
 20
4.7366032096693971
 30
0.0
 42
0.1597389130517352
  0
VERTEX
  5
448
  8
6
 10
-7.525748094813479
 20
4.9290744941032472
 30
0.0
 42
0.1597389130517352
  0
VERTEX
  5
449
  8
6
 10
-8.0464158617523935
 20
4.7366032096693971
 30
0.0
  0
VERTEX
  5
44A
  8
6
 10
-10.528403730964319
 20
2.6245418841604069
 30
0.0
 42
-0.2175161131445625
  0
VERTEX
  5
44B
  8
6
 10
-11.88020070644915
 20
2.6245418841604069
 30
0.0
  0
VERTEX
  5
44C
  8
6
 10
-14.50992594129411
 20
5.5637041527196507
 30
0.0
 42
-0.1456668646717068
  0
VERTEX
  5
44D
  8
6
 10
-14.67252809481351
 20
5.896021505997509
 30
0.0
  0
VERTEX
  5
44E
  8
6
 10
-14.67252809481351
 20
8.0006980014336477
 30
0.0
  0
VERTEX
  5
44F
  8
6
 10
-11.82025545997066
 20
7.9999999999987486
 30
0.0
  0
VERTEX
  5
450
  8
6
 10
-11.82025545997066
 20
9.9464627448043075
 30
0.0
 42
-0.3865683931477528
  0
VERTEX
  5
451
  8
6
 10
-10.373279470402389
 20
11.4567983750918
 30
0.0
 42
-0.0495274142367796
  0
VERTEX
  5
452
  8
6
 10
-8.9697744302693536
 20
11.360795584144959
 30
0.0
 42
0.2290384838080409
  0
VERTEX
  5
453
  8
6
 10
-8.5014281580756688
 20
11.619264636694419
 30
0.0
 42
-0.3396459278126291
  0
SEQEND
  5
454
  8
6
  0
POLYLINE
  5
2DA
  8
6
 66
     1
 10
0.0
 20
0.0
 30
0.0
 70
     1
  0
VERTEX
  5
455
  8
6
 10
-7.525748094813479
 20
10.30352112107618
 30
0.0
 42
0.0378881483117028
  0
VERTEX
  5
456
  8
6
 10
-4.799928448636364
 20
10.516956290499021
 30
0.0
 42
-0.6807651047950749
  0
VERTEX
  5
457
  8
6
 10
-4.2832843728583612
 20
9.9591346846665374
 30
0.0
  0
VERTEX
  5
458
  8
6
 10
-5.2683524288831904
 20
6.7430520973547337
 30
0.0
 42
-0.3537105754507803
  0
VERTEX
  5
459
  8
6
 10
-5.5438959270823034
 20
6.5571115704466356
 30
0.0
 42
0.0918688552654281
  0
VERTEX
  5
45A
  8
6
 10
-7.525748094813479
 20
6.8484573610240878
 30
0.0
 42
0.0918688552654281
  0
VERTEX
  5
45B
  8
6
 10
-9.5076002625442015
 20
6.5571115704466356
 30
0.0
 42
-0.3537105754507803
  0
VERTEX
  5
45C
  8
6
 10
-9.7831437607437692
 20
6.7430520973547337
 30
0.0
  0
VERTEX
  5
45D
  8
6
 10
-10.76821181676814
 20
9.9591346846665374
 30
0.0
 42
-0.6807651047950749
  0
VERTEX
  5
45E
  8
6
 10
-10.251567740990589
 20
10.516956290499021
 30
0.0
 42
0.0378881483117028
  0
SEQEND
  5
45F
  8
6
  0
POLYLINE
  5
2DB
  8
5
 66
     1
 10
0.0
 20
0.0
 30
0.0
  0
VERTEX
  5
460
  8
5
 10
-17.0
 20
20.0
 30
0.0
  0
VERTEX
  5
461
  8
5
 10
-17.0
 20
0.0
 30
0.0
  0
VERTEX
  5
462
  8
5
 10
0.0
 20
0.0
 30
0.0
  0
VERTEX
  5
463
  8
5
 10
0.0
 20
-15.0
 30
0.0
  0
SEQEND
  5
464
  8
5
  0
POLYLINE
  5
2DC
  8
6
 66
     1
 10
0.0
 20
0.0
 30
0.0
 70
     1
  0
VERTEX
  5
465
  8
6
 10
-16.500000000000451
 20
9.7999999999980218
 30
0.0
  0
VERTEX
  5
466
  8
6
 10
-16.500000000001361
 20
2.999999999998749
 30
0.0
 42
0.4142135623730951
  0
VERTEX
  5
467
  8
6
 10
-13.500000000001361
 20
-0.0000000000011369
 30
0.0
  0
VERTEX
  5
468
  8
6
 10
-0.2000000000011823
 20
-0.0000000000011369
 30
0.0
 42
-0.4142135623730951
  0
VERTEX
  5
469
  8
6
 10
-0.0000000000013642
 20
-0.200000000000955
 30
0.0
  0
VERTEX
  5
46A
  8
6
 10
0.0000000000004547
 20
-9.8000000000013188
 30
0.0
 42
0.414213562373068
  0
VERTEX
  5
46B
  8
6
 10
0.2000000000002728
 20
-10.00000000000113
 30
0.0
  0
VERTEX
  5
46C
  8
6
 10
0.2099999999995816
 20
-10.00000000000022
 30
0.0
 42
0.4142135623730802
  0
VERTEX
  5
46D
  8
6
 10
1.499999999999545
 20
-8.7100000000002638
 30
0.0
  0
VERTEX
  5
46E
  8
6
 10
1.5000000000004541
 20
7.9999999999978391
 30
0.0
 42
0.4142135623731094
  0
VERTEX
  5
46F
  8
6
 10
-0.4999999999995453
 20
9.9999999999978382
 30
0.0
  0
VERTEX
  5
470
  8
6
 10
-2.0000000000004539
 20
9.9999999999987494
 30
0.0
 42
0.4142135623732017
  0
VERTEX
  5
471
  8
6
 10
-3.0000000000004539
 20
8.9999999999987494
 30
0.0
  0
VERTEX
  5
472
  8
6
 10
-3.0000000000004539
 20
8.1999999999985675
 30
0.0
 42
0.4142135623730951
  0
VERTEX
  5
473
  8
6
 10
-2.8000000000006362
 20
7.9999999999987486
 30
0.0
  0
VERTEX
  5
474
  8
6
 10
-0.2000000000011823
 20
7.9999999999987486
 30
0.0
 42
-0.4142135623730951
  0
VERTEX
  5
475
  8
6
 10
-0.0000000000013642
 20
7.7999999999989313
 30
0.0
  0
VERTEX
  5
476
  8
6
 10
-0.0000000000004547
 20
3.499999999998749
 30
0.0
 42
-0.4142135623731149
  0
VERTEX
  5
477
  8
6
 10
-1.5000000000004541
 20
1.9999999999988629
 30
0.0
  0
VERTEX
  5
478
  8
6
 10
-8.0171572872109191
 20
1.999999999999772
 30
0.0
 42
0.1989123680792255
  0
VERTEX
  5
479
  8
6
 10
-8.1585786438286032
 20
1.9414213558563911
 30
0.0
  0
VERTEX
  5
47A
  8
6
 10
-8.3585786423705031
 20
1.741421356238561
 30
0.0
 42
-0.4142135623727621
  0
VERTEX
  5
47B
  8
6
 10
-8.6414213548455336
 20
1.741421356238561
 30
0.0
  0
VERTEX
  5
47C
  8
6
 10
-8.8414213563023623
 20
1.9414213566185481
 30
0.0
 42
0.1989123666794477
  0
VERTEX
  5
47D
  8
6
 10
-8.9828427121578898
 20
1.999999999999772
 30
0.0
  0
VERTEX
  5
47E
  8
6
 10
-13.500000000000449
 20
1.999999999999772
 30
0.0
 42
-0.4142135623730951
  0
VERTEX
  5
47F
  8
6
 10
-15.000000000000449
 20
3.4999999999996581
 30
0.0
  0
VERTEX
  5
480
  8
6
 10
-15.000000000000449
 20
7.7999999999989313
 30
0.0
 42
-0.4142135623730951
  0
VERTEX
  5
481
  8
6
 10
-14.80000000000063
 20
7.9999999999987486
 30
0.0
  0
VERTEX
  5
482
  8
6
 10
-12.200000000000269
 20
7.9999999999996581
 30
0.0
 42
0.4142135623730951
  0
VERTEX
  5
483
  8
6
 10
-12.000000000000449
 20
8.199999999999477
 30
0.0
  0
VERTEX
  5
484
  8
6
 10
-12.000000000000449
 20
8.9999999999978382
 30
0.0
 42
0.4142135623730951
  0
VERTEX
  5
485
  8
6
 10
-13.000000000000449
 20
9.9999999999978382
 30
0.0
  0
VERTEX
  5
486
  8
6
 10
-16.30000000000063
 20
9.9999999999978382
 30
0.0
 42
0.4142135623731331
  0
SEQEND
  5
487
  8
6
  0
POLYLINE
  5
2DD
  8
4
 66
     1
 10
0.0
 20
0.0
 30
0.0
 70
     1
  0
VERTEX
  5
488
  8
4
 10
0.0
 20
-10.0
 30
0.0
  0
VERTEX
  5
489
  8
4
 10
0.0
 20
0.0
 30
0.0
  0
VERTEX
  5
48A
  8
4
 10
-16.5
 20
0.0
 30
0.0
  0
VERTEX
  5
48B
  8
4
 10
-16.5
 20
9.9999999999998863
 30
0.0
  0
VERTEX
  5
48C
  8
4
 10
1.5
 20
9.9999999999998863
 30
0.0
  0
VERTEX
  5
48D
  8
4
 10
1.5
 20
-10.0
 30
0.0
  0
SEQEND
  5
48E
  8
4
  0
LINE
  5
2DE
  8
6
  6
STRICHPUNKT
 10
-8.4999999986080184
 20
2.1936398702541728
 30
0.0
 11
-8.4999999986080184
 21
-9.8063601297458263
 31
0.0
  0
DIMENSION
  5
2DF
  8
1
  2
*D4
 10
13.32919484586909
 20
9.9999999999998828
 30
0.0
 11
10.54218938884317
 21
-0.0000000000000573
 31
0.0
 70
     0
 13
1.5
 23
-10.0
 33
0.0
 14
1.5
 24
9.9999999999998863
 34
0.0
 50
90.0
  0
DIMENSION
  5
2E0
  8
1
  2
*D5
 10
-0.000000000000001
 20
-15.656558640690831
 30
0.0
 11
-8.5
 21
-12.89939629416968
 31
0.0
 70
     0
 13
-17.0
 23
0.0
 33
0.0
 14
0.0
 24
0.0
 34
0.0
  0
DIMENSION
  5
2E1
  8
1
  2
*D6
 10
-28.933175614722579
 20
13.0
 30
0.0
 11
-31.7213747961687
 21
6.4999999999999982
 31
0.0
 70
     0
 13
-17.0
 23
0.0
 33
0.0
 14
-17.0
 24
13.0
 34
0.0
 50
90.0
  0
VIEWPORT
  5
22
 67
     1
  8
0
 10
210.0
 20
170.2366863905325
 30
0.0
 40
420.0
 41
340.47337278106511
 68
     1
 69
     1
1001
ACAD
1000
MVIEW
1002
{
1070
    16
1010
0.0
1020
0.0
1030
0.0
1010
0.0
1020
0.0
1030
1.0
1040
0.0
1040
340.47337278106511
1040
210.0
1040
170.2366863905325
1040
50.0
1040
0.0
1040
0.0
1070
     0
1070
   100
1070
     1
1070
     1
1070
     0
1070
     0
1070
     0
1070
     0
1040
0.0
1040
0.0
1040
0.0
1040
5.0
1040
5.0
1040
10.0
1040
10.0
1070
     0
1002
{
1002
}
1002
}
  0
ENDSEC
  0
EOF
