  0
SECTION
  2
HEADER
  9
$ACADVER
  1
AC1009
  9
$INSBASE
 10
0.0
 20
0.0
 30
0.0
  9
$EXTMIN
 10
-19.02007971543355
 20
-12.382506465518871
 30
-0.0000000000112498
  9
$EXTMAX
 10
12.794495167669989
 20
20.484924864122831
 30
0.0000000000002956
  9
$LIMMIN
 10
-150.0
 20
-150.0
  9
$LIMMAX
 10
150.0
 20
150.0
  9
$ORTHOMODE
 70
     0
  9
$REGENMODE
 70
     1
  9
$FILLMODE
 70
     1
  9
$QTEXTMODE
 70
     0
  9
$MIRRTEXT
 70
     0
  9
$DRAGMODE
 70
     2
  9
$LTSCALE
 40
2.0
  9
$OSMODE
 70
   111
  9
$ATTMODE
 70
     1
  9
$TEXTSIZE
 40
3.5
  9
$TRACEWID
 40
1.0
  9
$TEXTSTYLE
  7
BESCHLAG
  9
$CLAYER
  8
0
  9
$CELTYPE
  6
BYLAYER
  9
$CECOLOR
 62
   256
  9
$DIMSCALE
 40
1.0
  9
$DIMASZ
 40
2.0
  9
$DIMEXO
 40
2.0
  9
$DIMDLI
 40
0.0
  9
$DIMRND
 40
0.0
  9
$DIMDLE
 40
1.0
  9
$DIMEXE
 40
1.0
  9
$DIMTP
 40
0.0
  9
$DIMTM
 40
0.0
  9
$DIMTXT
 40
3.5
  9
$DIMCEN
 40
0.0
  9
$DIMTSZ
 40
0.0
  9
$DIMTOL
 70
     0
  9
$DIMLIM
 70
     0
  9
$DIMTIH
 70
     0
  9
$DIMTOH
 70
     0
  9
$DIMSE1
 70
     0
  9
$DIMSE2
 70
     0
  9
$DIMTAD
 70
     1
  9
$DIMZIN
 70
     8
  9
$DIMBLK
  1

  9
$DIMASO
 70
     1
  9
$DIMSHO
 70
     1
  9
$DIMPOST
  1

  9
$DIMAPOST
  1

  9
$DIMALT
 70
     0
  9
$DIMALTD
 70
     2
  9
$DIMALTF
 40
0.039370078740157
  9
$DIMLFAC
 40
1.0
  9
$DIMTOFL
 70
     1
  9
$DIMTVP
 40
0.0
  9
$DIMTIX
 70
     1
  9
$DIMSOXD
 70
     0
  9
$DIMSAH
 70
     1
  9
$DIMBLK1
  1
OBLIQUE
  9
$DIMBLK2
  1
OBLIQUE
  9
$DIMSTYLE
  2
OPO-SSTRICH
  9
$DIMCLRD
 70
   256
  9
$DIMCLRE
 70
   256
  9
$DIMCLRT
 70
   256
  9
$DIMTFAC
 40
0.7114285714285716
  9
$DIMGAP
 40
1.0
  9
$LUNITS
 70
     2
  9
$LUPREC
 70
     1
  9
$SKETCHINC
 40
1.0
  9
$FILLETRAD
 40
0.0
  9
$AUNITS
 70
     0
  9
$AUPREC
 70
     1
  9
$MENU
  1
D:\ACL_CGWG\CGTAB13
  9
$ELEVATION
 40
0.0
  9
$PELEVATION
 40
0.0
  9
$THICKNESS
 40
0.0
  9
$LIMCHECK
 70
     0
  9
$BLIPMODE
 70
     0
  9
$CHAMFERA
 40
1.0
  9
$CHAMFERB
 40
1.0
  9
$SKPOLY
 70
     0
  9
$TDCREATE
 40
2451739.859867801
  9
$TDUPDATE
 40
2452086.7326193978
  9
$TDINDWG
 40
0.0008311343
  9
$TDUSRTIMER
 40
0.0008309491
  9
$USRTIMER
 70
     1
  9
$ANGBASE
 50
0.0
  9
$ANGDIR
 70
     0
  9
$PDMODE
 70
    35
  9
$PDSIZE
 40
5.0
  9
$PLINEWID
 40
0.0
  9
$COORDS
 70
     1
  9
$SPLFRAME
 70
     0
  9
$SPLINETYPE
 70
     6
  9
$SPLINESEGS
 70
     8
  9
$ATTDIA
 70
     1
  9
$ATTREQ
 70
     1
  9
$HANDLING
 70
-16383
  9
$HANDSEED
  5
426
  9
$SURFTAB1
 70
    12
  9
$SURFTAB2
 70
    12
  9
$SURFTYPE
 70
     6
  9
$SURFU
 70
    12
  9
$SURFV
 70
    12
  9
$UCSNAME
  2

  9
$UCSORG
 10
0.0
 20
0.0
 30
0.0
  9
$UCSXDIR
 10
1.0
 20
0.0
 30
0.0
  9
$UCSYDIR
 10
0.0
 20
1.0
 30
0.0
  9
$PUCSNAME
  2

  9
$PUCSORG
 10
0.0
 20
0.0
 30
0.0
  9
$PUCSXDIR
 10
1.0
 20
0.0
 30
0.0
  9
$PUCSYDIR
 10
0.0
 20
1.0
 30
0.0
  9
$USERI1
 70
     0
  9
$USERI2
 70
     0
  9
$USERI3
 70
     0
  9
$USERI4
 70
     0
  9
$USERI5
 70
     0
  9
$USERR1
 40
0.0
  9
$USERR2
 40
0.0
  9
$USERR3
 40
0.0
  9
$USERR4
 40
0.0
  9
$USERR5
 40
0.0
  9
$WORLDVIEW
 70
     1
  9
$SHADEDGE
 70
     3
  9
$SHADEDIF
 70
    70
  9
$TILEMODE
 70
     1
  9
$MAXACTVP
 70
    48
  9
$PLIMCHECK
 70
     0
  9
$PEXTMIN
 10
1.0000000000000000E+020
 20
1.0000000000000000E+020
 30
1.0000000000000000E+020
  9
$PEXTMAX
 10
-1.0000000000000000E+020
 20
-1.0000000000000000E+020
 30
-1.0000000000000000E+020
  9
$PLIMMIN
 10
0.0
 20
0.0
  9
$PLIMMAX
 10
420.0
 20
297.0
  9
$UNITMODE
 70
     0
  9
$VISRETAIN
 70
     1
  9
$PLINEGEN
 70
     0
  9
$PSLTSCALE
 70
     1
  0
ENDSEC
  0
SECTION
  2
TABLES
  0
TABLE
  2
VPORT
 70
     2
  0
VPORT
  2
*ACTIVE
 70
     0
 10
0.0
 20
0.0
 11
1.0
 21
1.0
 12
-3.1127922738817801
 22
4.0512091993019768
 13
0.0
 23
0.0
 14
0.5
 24
0.5
 15
10.0
 25
10.0
 16
0.0
 26
0.0
 36
1.0
 17
0.0
 27
0.0
 37
0.0
 40
33.134284628664503
 41
1.6070460704607039
 42
50.0
 43
0.0
 44
0.0
 50
0.0
 51
0.0
 71
     0
 72
   800
 73
     1
 74
     1
 75
     0
 76
     0
 77
     0
 78
     0
  0
ENDTAB
  0
TABLE
  2
LTYPE
 70
     2
  0
LTYPE
  2
CONTINUOUS
 70
     0
  3
_______________________________________________
 72
    65
 73
     2
 40
1.0
 49
1.0
 49
0.0
  0
LTYPE
  2
STRICHPUNKT
 70
     0
  3
__ . __ . __ . __ . __ . __ . __ . __ . __ . __
 72
    65
 73
     4
 40
1.0
 49
0.5
 49
-0.25
 49
0.0
 49
-0.25
  0
ENDTAB
  0
TABLE
  2
LAYER
 70
     7
  0
LAYER
  2
0
 70
     0
 62
    30
  6
CONTINUOUS
  0
LAYER
  2
1
 70
     0
 62
     2
  6
CONTINUOUS
  0
LAYER
  2
2
 70
     0
 62
     9
  6
CONTINUOUS
  0
LAYER
  2
4
 70
     1
 62
     4
  6
CONTINUOUS
  0
LAYER
  2
5
 70
     0
 62
     1
  6
CONTINUOUS
  0
LAYER
  2
6
 70
     0
 62
     3
  6
CONTINUOUS
  0
LAYER
  2
DEFPOINTS
 70
     0
 62
     7
  6
CONTINUOUS
  0
ENDTAB
  0
TABLE
  2
STYLE
 70
     2
  0
STYLE
  2
STANDARD
 70
     0
 40
0.0
 41
1.0
 50
0.0
 71
     0
 42
2.5
  3
txt
  4

  0
STYLE
  2
BESCHLAG
 70
     0
 40
0.0
 41
1.0
 50
0.0
 71
     0
 42
3.5
  3
txt
  4

  0
ENDTAB
  0
TABLE
  2
VIEW
 70
     0
  0
ENDTAB
  0
TABLE
  2
UCS
 70
     0
  0
ENDTAB
  0
TABLE
  2
APPID
 70
     1
  0
APPID
  2
ACAD
 70
     0
  0
ENDTAB
  0
TABLE
  2
DIMSTYLE
 70
     1
  0
DIMSTYLE
  2
OPO-SSTRICH
 70
     0
  3

  4

  5

  6
OBLIQUE
  7
OBLIQUE
 40
1.0
 41
2.0
 42
2.0
 43
0.0
 44
1.0
 45
0.0
 46
1.0
 47
0.0
 48
0.0
140
3.5
141
0.0
142
0.0
143
0.039370078740157
144
1.0
145
0.0
146
0.7114285714285716
147
1.0
 71
     0
 72
     0
 73
     0
 74
     0
 75
     0
 76
     0
 77
     1
 78
     8
170
     0
171
     2
172
     1
173
     1
174
     1
175
     0
176
   256
177
   256
178
   256
  0
ENDTAB
  0
ENDSEC
  0
SECTION
  2
BLOCKS
  0
BLOCK
  8
0
  2
$MODEL_SPACE
 70
     0
 10
0.0
 20
0.0
 30
0.0
  3
$MODEL_SPACE
  1

  0
ENDBLK
  5
1C
  8
0
  0
BLOCK
 67
     1
  8
0
  2
$PAPER_SPACE
 70
     0
 10
0.0
 20
0.0
 30
0.0
  3
$PAPER_SPACE
  1

  0
ENDBLK
  5
19
 67
     1
  8
0
  0
BLOCK
  8
0
  2
_OBLIQUE
 70
     0
 10
0.0
 20
0.0
 30
0.0
  3
_OBLIQUE
  1

  0
LINE
  5
204
  8
0
 62
     0
 10
-0.5
 20
-0.5
 30
0.0
 11
0.5
 21
0.5
 31
0.0
  0
ENDBLK
  5
206
  8
0
  0
BLOCK
  8
0
  2
NULLPUNKT
 70
     0
 10
0.0
 20
0.0
 30
0.0
  3
NULLPUNKT
  1

  0
SOLID
  5
254
  8
5
 10
0.0
 20
0.0
 30
0.0
 11
2.0
 21
0.0
 31
0.0
 12
0.0
 22
-2.0
 32
0.0
 13
0.0
 23
-2.0
 33
0.0
  0
SOLID
  5
255
  8
5
 10
0.0
 20
0.0
 30
0.0
 11
-2.0
 21
0.0
 31
0.0
 12
0.0
 22
2.0
 32
0.0
 13
0.0
 23
2.0
 33
0.0
  0
POLYLINE
  5
256
  8
5
 66
     1
 10
0.0
 20
0.0
 30
0.0
  0
VERTEX
  5
3CF
  8
5
 10
0.0
 20
2.0
 30
0.0
  0
VERTEX
  5
3D0
  8
5
 10
0.0
 20
-2.0
 30
0.0
  0
SEQEND
  5
3D1
  8
5
  0
POLYLINE
  5
257
  8
5
 66
     1
 10
0.0
 20
0.0
 30
0.0
  0
VERTEX
  5
3D2
  8
5
 10
-2.0
 20
0.0
 30
0.0
  0
VERTEX
  5
3D3
  8
5
 10
2.0
 20
0.0
 30
0.0
  0
SEQEND
  5
3D4
  8
5
  0
CIRCLE
  5
258
  8
5
 10
0.0
 20
0.0
 30
0.0
 40
2.0
  0
ENDBLK
  5
25A
  8
0
  0
BLOCK
  8
0
  2
*X2
 70
     1
 10
0.0
 20
0.0
 30
0.0
  3
*X2
  1

  0
LINE
  5
292
  8
0
 62
     0
 10
353.15699357461921
 20
-544.86861853229595
 30
0.0
 11
355.15699357461932
 21
-542.86861853229595
 31
0.0
  0
LINE
  5
293
  8
0
 62
     0
 10
351.84160418963819
 20
-544.76979435490387
 30
0.0
 11
353.74278001224621
 21
-542.86861853229595
 31
0.0
  0
LINE
  5
294
  8
0
 62
     0
 10
350.87665076407768
 20
-544.32053421809132
 30
0.0
 11
352.35038054295279
 21
-542.84680443921604
 31
0.0
  0
LINE
  5
295
  8
0
 62
     0
 10
350.16680667528249
 20
-543.61616474451341
 30
0.0
 11
351.45345323787518
 21
-542.32951818192078
 31
0.0
  0
LINE
  5
296
  8
0
 62
     0
 10
349.71093411161843
 20
-542.65782374580442
 30
0.0
 11
351.10526566328878
 21
-541.26349219413396
 31
0.0
  0
LINE
  5
297
  8
0
 62
     0
 10
349.60526566328878
 20
-541.34927863176085
 30
0.0
 11
351.10526566328878
 21
-539.84927863176097
 31
0.0
  0
LINE
  5
298
  8
0
 62
     0
 10
349.60526566328878
 20
-539.93506506938775
 30
0.0
 11
351.10526566328878
 21
-538.43506506938775
 31
0.0
  0
LINE
  5
299
  8
0
 62
     0
 10
352.67171220038068
 20
-536.86861853229595
 30
0.0
 11
354.03639678032982
 21
-535.50393395234676
 31
0.0
  0
LINE
  5
29A
  8
0
 62
     0
 10
349.60526566328878
 20
-538.52085150701475
 30
0.0
 11
351.11317016263018
 21
-537.01294700767335
 31
0.0
  0
LINE
  5
29B
  8
0
 62
     0
 10
351.24959413866623
 20
-536.87652303163725
 30
0.0
 11
353.24735279273028
 21
-534.87876437757325
 31
0.0
  0
LINE
  5
29C
  8
0
 62
     0
 10
349.60526566328878
 20
-537.10663794464165
 30
0.0
 11
351.84328507563441
 21
-534.86861853229595
 31
0.0
  0
LINE
  5
29D
  8
0
 62
     0
 10
349.60526566328878
 20
-535.69242438226854
 30
0.0
 11
350.42907151326142
 21
-534.86861853229595
 31
0.0
  0
LINE
  5
29E
  8
0
 62
     0
 10
354.57120713699231
 20
-544.86861853229595
 30
0.0
 11
356.57120713699243
 21
-542.86861853229595
 31
0.0
  0
LINE
  5
29F
  8
0
 62
     0
 10
363.10526566328878
 20
-536.33456000599961
 30
0.0
 11
364.57120713699243
 21
-534.86861853229595
 31
0.0
  0
LINE
  5
2A0
  8
0
 62
     0
 10
355.98542069936542
 20
-544.86861853229595
 30
0.0
 11
357.98542069936548
 21
-542.86861853229595
 31
0.0
  0
LINE
  5
2A1
  8
0
 62
     0
 10
363.98542069936548
 20
-536.86861853229595
 30
0.0
 11
365.98542069936548
 21
-534.86861853229595
 31
0.0
  0
LINE
  5
2A2
  8
0
 62
     0
 10
357.39963426173853
 20
-544.86861853229595
 30
0.0
 11
359.39963426173858
 21
-542.86861853229595
 31
0.0
  0
LINE
  5
2A3
  8
0
 62
     0
 10
365.39963426173858
 20
-536.86861853229595
 30
0.0
 11
367.05811512328597
 21
-535.2101376707484
 31
0.0
  0
LINE
  5
2A4
  8
0
 62
     0
 10
358.81384782411158
 20
-544.86861853229595
 30
0.0
 11
360.81384782411169
 21
-542.86861853229595
 31
0.0
  0
LINE
  5
2A5
  8
0
 62
     0
 10
366.10526566328889
 20
-537.57720069311881
 30
0.0
 11
367.58124033889368
 21
-536.10122601751368
 31
0.0
  0
LINE
  5
2A6
  8
0
 62
     0
 10
360.22806138648468
 20
-544.86861853229595
 30
0.0
 11
362.2280613864848
 21
-542.86861853229595
 31
0.0
  0
LINE
  5
2A7
  8
0
 62
     0
 10
366.10526566328889
 20
-538.99141425549192
 30
0.0
 11
367.60526566328878
 21
-537.49141425549192
 31
0.0
  0
LINE
  5
2A8
  8
0
 62
     0
 10
361.64227494885779
 20
-544.86861853229595
 30
0.0
 11
363.6422749488579
 21
-542.86861853229595
 31
0.0
  0
LINE
  5
2A9
  8
0
 62
     0
 10
366.10526566328889
 20
-540.40562781786502
 30
0.0
 11
367.60526566328878
 21
-538.90562781786491
 31
0.0
  0
LINE
  5
2AA
  8
0
 62
     0
 10
363.0564885112309
 20
-544.86861853229595
 30
0.0
 11
365.1647252527016
 21
-542.76038179082525
 31
0.0
  0
LINE
  5
2AB
  8
0
 62
     0
 10
365.99702892181813
 20
-541.92807812170872
 30
0.0
 11
367.60526566328878
 21
-540.31984138023813
 31
0.0
  0
LINE
  5
2AC
  8
0
 62
     0
 10
364.470702073604
 20
-544.86861853229595
 30
0.0
 11
367.60526566328878
 21
-541.73405494261124
 31
0.0
  0
LINE
  5
2AD
  8
0
 62
     0
 10
365.88491563597711
 20
-544.86861853229595
 30
0.0
 11
367.60526566328878
 21
-543.14826850498434
 31
0.0
  0
LINE
  5
2AE
  8
0
 62
     0
 10
367.29912919835022
 20
-544.86861853229595
 30
0.0
 11
367.60526566328878
 21
-544.56248206735745
 31
0.0
  0
ENDBLK
  5
2B0
  8
0
  0
BLOCK
  8
0
  2
*D3
 70
     1
 10
0.0
 20
0.0
 30
0.0
  3
*D3
  1

  0
LINE
  5
2F5
  8
1
 10
-17.999999999999769
 20
-2.0
 30
0.0
 11
-17.999999999999769
 21
-12.37454139046735
 31
0.0
  0
LINE
  5
2F6
  8
1
 10
-0.0000000000000001
 20
-2.0
 30
0.0
 11
-0.0000000000000008
 21
-12.37454139046735
 31
0.0
  0
LINE
  5
2F7
  8
1
 10
-18.999999999999769
 20
-11.37454139046735
 30
0.0
 11
0.9999999999999992
 21
-11.37454139046735
 31
0.0
  0
INSERT
  5
2F8
  8
1
  2
_OBLIQUE
 10
-17.999999999999769
 20
-11.37454139046735
 30
0.0
 41
2.0
 42
2.0
 43
2.0
 50
180.0
  0
INSERT
  5
2F9
  8
1
  2
_OBLIQUE
 10
-0.0000000000000007
 20
-11.37454139046735
 30
0.0
 41
2.0
 42
2.0
 43
2.0
  0
TEXT
  5
2FA
  8
0
 10
-11.878069577080369
 20
-10.30769282293666
 30
0.0
 40
3.5
  1
18
  7
BESCHLAG
  0
POINT
  5
2FB
  8
DEFPOINTS
 62
     0
 10
-17.999999999999769
 20
0.0
 30
0.0
  0
POINT
  5
2FC
  8
DEFPOINTS
 62
     0
 10
0.0
 20
0.0
 30
0.0
  0
POINT
  5
2FD
  8
DEFPOINTS
 62
     0
 10
-0.0000000000000007
 20
-11.37454139046735
 30
0.0
  0
ENDBLK
  5
2DA
  8
0
  0
BLOCK
  8
0
  2
*D4
 70
     1
 10
0.0
 20
0.0
 30
0.0
  3
*D4
  1

  0
LINE
  5
2FE
  8
1
 10
2.0
 20
-0.0000000000000006
 30
0.0
 11
12.78294472954485
 21
-0.0000000000000036
 31
0.0
  0
LINE
  5
2FF
  8
1
 10
2.0
 20
10.0
 30
0.0
 11
12.78294472954485
 21
9.9999999999999964
 31
0.0
  0
LINE
  5
300
  8
1
 10
11.78294472954485
 20
-1.0000000000000031
 30
0.0
 11
11.78294472954485
 21
10.999999999999989
 31
0.0
  0
INSERT
  5
301
  8
1
  2
_OBLIQUE
 10
11.78294472954485
 20
-0.0000000000000033
 30
0.0
 41
2.0
 42
2.0
 43
2.0
 50
270.0
  0
INSERT
  5
302
  8
1
  2
_OBLIQUE
 10
11.78294472954485
 20
9.9999999999999982
 30
0.0
 41
2.0
 42
2.0
 43
2.0
 50
90.0
  0
TEXT
  5
303
  8
0
 10
10.71609616201415
 20
2.1314802182810348
 30
0.0
 40
3.5
  1
10
 50
90.0
  7
BESCHLAG
  0
POINT
  5
304
  8
DEFPOINTS
 62
     0
 10
0.0
 20
0.0
 30
0.0
  0
POINT
  5
305
  8
DEFPOINTS
 62
     0
 10
0.0
 20
10.0
 30
0.0
  0
POINT
  5
306
  8
DEFPOINTS
 62
     0
 10
11.78294472954485
 20
9.9999999999999982
 30
0.0
  0
ENDBLK
  5
2E6
  8
0
  0
BLOCK
  8
0
  2
*D5
 70
     1
 10
0.0
 20
0.0
 30
0.0
  3
*D5
  1

  0
LINE
  5
307
  8
1
 10
2.0
 20
10.0
 30
0.0
 11
12.78294472954485
 21
9.9999999999999964
 31
0.0
  0
LINE
  5
308
  8
1
 10
-11.999999999999771
 20
12.999999999999989
 30
0.0
 11
12.78294472954485
 21
12.999999999999989
 31
0.0
  0
LINE
  5
309
  8
1
 10
11.78294472954485
 20
9.9999999999999982
 30
0.0
 11
11.78294472954485
 21
7.9999999999999973
 31
0.0
  0
LINE
  5
30A
  8
1
 10
11.78294472954485
 20
12.999999999999989
 30
0.0
 11
11.78294472954485
 21
14.999999999999989
 31
0.0
  0
LINE
  5
30B
  8
1
 10
11.78294472954485
 20
9.9999999999999982
 30
0.0
 11
11.78294472954485
 21
12.999999999999989
 31
0.0
  0
INSERT
  5
30C
  8
1
  2
_OBLIQUE
 10
11.78294472954485
 20
9.9999999999999982
 30
0.0
 41
2.0
 42
2.0
 43
2.0
 50
90.0
  0
INSERT
  5
30D
  8
1
  2
_OBLIQUE
 10
11.78294472954485
 20
12.999999999999989
 30
0.0
 41
2.0
 42
2.0
 43
2.0
 50
270.0
  0
TEXT
  5
30E
  8
0
 10
10.713708713173769
 20
10.14870395634378
 30
0.0
 40
3.5
  1
3
 50
90.0
  7
BESCHLAG
  0
POINT
  5
30F
  8
DEFPOINTS
 62
     0
 10
0.0
 20
10.0
 30
0.0
  0
POINT
  5
310
  8
DEFPOINTS
 62
     0
 10
-13.999999999999771
 20
13.0
 30
0.0
  0
POINT
  5
311
  8
DEFPOINTS
 62
     0
 10
11.78294472954485
 20
12.999999999999989
 30
0.0
  0
ENDBLK
  5
2F4
  8
0
  0
ENDSEC
  0
SECTION
  2
ENTITIES
  0
INSERT
  5
25B
  8
5
  2
NULLPUNKT
 10
0.0
 20
0.0
 30
0.0
  0
INSERT
  5
2C3
  8
2
  2
*X2
 10
-367.60526566328872
 20
544.86861853229595
 30
0.0
1001
ACAD
1000
HATCH
1002
{
1070
    16
1000
_U,I
1040
1.0
1040
0.7853981633974483
1070
     0
1002
}
  0
POLYLINE
  5
2C4
  8
6
 66
     1
 10
0.0
 20
0.0
 30
0.0
 70
     1
  0
VERTEX
  5
3D5
  8
6
 10
-8.9999999999995453
 20
10.30347083340439
 30
0.0
 42
0.0378881483117028
  0
VERTEX
  5
3D6
  8
6
 10
-6.2741803538224303
 20
10.51690600282722
 30
0.0
 42
-0.6807651047950749
  0
VERTEX
  5
3D7
  8
6
 10
-5.7575362780448813
 20
9.95908439699474
 30
0.0
  0
VERTEX
  5
3D8
  8
6
 10
-6.742604334069255
 20
6.7430018096829372
 30
0.0
 42
-0.3537105754507803
  0
VERTEX
  5
3D9
  8
6
 10
-7.0181478322688227
 20
6.5570612827748391
 30
0.0
 42
0.0918688552654281
  0
VERTEX
  5
3DA
  8
6
 10
-8.9999999999995453
 20
6.8484070733522913
 30
0.0
 42
0.0918688552654281
  0
VERTEX
  5
3DB
  8
6
 10
-10.98185216773072
 20
6.5570612827748391
 30
0.0
 42
-0.3537105754507803
  0
VERTEX
  5
3DC
  8
6
 10
-11.257395665929829
 20
6.7430018096829372
 30
0.0
  0
VERTEX
  5
3DD
  8
6
 10
-12.242463721954429
 20
9.95908439699474
 30
0.0
 42
-0.6807651047950749
  0
VERTEX
  5
3DE
  8
6
 10
-11.725819646176429
 20
10.51690600282722
 30
0.0
 42
0.0378881483117028
  0
SEQEND
  5
3DF
  8
6
  0
LINE
  5
2C5
  8
6
  6
STRICHPUNKT
 10
-9.0
 20
2.3143245672001731
 30
0.0
 11
-9.0
 21
-4.1775985030021721
 31
0.0
  0
DIMENSION
  5
2C6
  8
1
  2
*D3
 10
-0.0000000000000007
 20
-11.37454139046735
 30
0.0
 11
-8.9999999999998863
 21
-8.5875359334414352
 31
0.0
 70
     0
 13
-17.999999999999769
 23
0.0
 33
0.0
 14
0.0
 24
0.0
 34
0.0
  0
POLYLINE
  5
2C7
  8
5
 66
     1
 10
0.0
 20
0.0
 30
0.0
  0
VERTEX
  5
3E0
  8
5
 10
-17.999999999999769
 20
20.0
 30
0.0
  0
VERTEX
  5
3E1
  8
5
 10
-17.999999999999769
 20
0.0
 30
0.0
  0
VERTEX
  5
3E2
  8
5
 10
0.0
 20
0.0
 30
0.0
  0
VERTEX
  5
3E3
  8
5
 10
0.0
 20
-6.0
 30
0.0
  0
SEQEND
  5
3E4
  8
5
  0
POLYLINE
  5
2C8
  8
6
 66
     1
 10
0.0
 20
0.0
 30
0.0
 70
     1
  0
VERTEX
  5
3E5
  8
6
 10
-13.499999999999771
 20
8.1999999999998181
 30
0.0
  0
VERTEX
  5
3E6
  8
6
 10
-13.499999999999771
 20
9.0
 30
0.0
 42
0.4142135623730951
  0
VERTEX
  5
3E7
  8
6
 10
-14.499999999999771
 20
10.0
 30
0.0
  0
VERTEX
  5
3E8
  8
6
 10
-17.799999999999951
 20
10.0
 30
0.0
 42
0.4142135623730951
  0
VERTEX
  5
3E9
  8
6
 10
-17.999999999999769
 20
9.7999999999992724
 30
0.0
  0
VERTEX
  5
3EA
  8
6
 10
-17.999999999999769
 20
3.0
 30
0.0
 42
0.4142135623730951
  0
VERTEX
  5
3EB
  8
6
 10
-14.999999999999771
 20
0.0
 30
0.0
  0
VERTEX
  5
3EC
  8
6
 10
-0.1999999999998181
 20
0.0
 30
0.0
 42
0.4142135623730951
  0
VERTEX
  5
3ED
  8
6
 10
0.0
 20
0.1999999999998181
 30
0.0
  0
VERTEX
  5
3EE
  8
6
 10
0.0
 20
8.5
 30
0.0
 42
0.4142135623730951
  0
VERTEX
  5
3EF
  8
6
 10
-1.5
 20
10.0
 30
0.0
  0
VERTEX
  5
3F0
  8
6
 10
-3.5
 20
10.0
 30
0.0
 42
0.4142135623730951
  0
VERTEX
  5
3F1
  8
6
 10
-4.5
 20
9.0
 30
0.0
  0
VERTEX
  5
3F2
  8
6
 10
-4.5
 20
8.1999999999998181
 30
0.0
 42
0.4142135623730951
  0
VERTEX
  5
3F3
  8
6
 10
-4.300000000000181
 20
8.0
 30
0.0
  0
VERTEX
  5
3F4
  8
6
 10
-1.6999999999998181
 20
8.0
 30
0.0
 42
-0.4142135623730951
  0
VERTEX
  5
3F5
  8
6
 10
-1.5
 20
7.7999999999992724
 30
0.0
  0
VERTEX
  5
3F6
  8
6
 10
-1.5
 20
3.5
 30
0.0
 42
-0.4142135623730951
  0
VERTEX
  5
3F7
  8
6
 10
-3.0
 20
2.0
 30
0.0
  0
VERTEX
  5
3F8
  8
6
 10
-8.5171572886029026
 20
2.0
 30
0.0
 42
0.1989123680792255
  0
VERTEX
  5
3F9
  8
6
 10
-8.6585786452205866
 20
1.941421355856618
 30
0.0
  0
VERTEX
  5
3FA
  8
6
 10
-8.8585786437624847
 20
1.7414213562387879
 30
0.0
 42
-0.4142135623727621
  0
VERTEX
  5
3FB
  8
6
 10
-9.1414213562375153
 20
1.7414213562387879
 30
0.0
  0
VERTEX
  5
3FC
  8
6
 10
-9.3414213576943421
 20
1.941421356618775
 30
0.0
 42
0.1989123666794477
  0
VERTEX
  5
3FD
  8
6
 10
-9.4828427135507791
 20
2.0
 30
0.0
  0
VERTEX
  5
3FE
  8
6
 10
-14.999999999999771
 20
2.0
 30
0.0
 42
-0.4142135623730951
  0
VERTEX
  5
3FF
  8
6
 10
-16.499999999999769
 20
3.5
 30
0.0
  0
VERTEX
  5
400
  8
6
 10
-16.499999999999769
 20
7.7999999999992724
 30
0.0
 42
-0.4142135623730951
  0
VERTEX
  5
401
  8
6
 10
-16.299999999999951
 20
8.0
 30
0.0
  0
VERTEX
  5
402
  8
6
 10
-13.699999999999591
 20
8.0
 30
0.0
 42
0.4142135623730951
  0
SEQEND
  5
403
  8
6
  0
POLYLINE
  5
2C9
  8
4
 66
     1
 10
0.0
 20
0.0
 30
0.0
 70
     1
  0
VERTEX
  5
404
  8
4
 10
-17.999999999999769
 20
0.0
 30
0.0
  0
VERTEX
  5
405
  8
4
 10
-17.999999999999769
 20
10.0
 30
0.0
  0
VERTEX
  5
406
  8
4
 10
0.0
 20
10.0
 30
0.0
  0
VERTEX
  5
407
  8
4
 10
0.0
 20
0.0
 30
0.0
  0
SEQEND
  5
408
  8
4
  0
POLYLINE
  5
2CA
  8
6
 66
     1
 10
0.0
 20
0.0
 30
0.0
 70
     1
  0
VERTEX
  5
409
  8
6
 10
-8.9999999999995453
 20
12.635434386954101
 30
0.0
 42
-0.3396459278126291
  0
VERTEX
  5
40A
  8
6
 10
-8.0243199367373563
 20
11.61921434902251
 30
0.0
 42
0.2290384838080409
  0
VERTEX
  5
40B
  8
6
 10
-7.5559736645436706
 20
11.36074529647316
 30
0.0
 42
-0.0495274142367796
  0
VERTEX
  5
40C
  8
6
 10
-6.1524686244106297
 20
11.45674808742001
 30
0.0
 42
-0.3865683931477528
  0
VERTEX
  5
40D
  8
6
 10
-4.7054926348423569
 20
9.9464124571325101
 30
0.0
  0
VERTEX
  5
40E
  8
6
 10
-4.7054926348423569
 20
7.9999497123269521
 30
0.0
  0
VERTEX
  5
40F
  8
6
 10
-1.8532199999999639
 20
8.0006477137617367
 30
0.0
  0
VERTEX
  5
410
  8
6
 10
-1.8532199999999639
 20
5.8959712183257116
 30
0.0
 42
-0.1456668646717068
  0
VERTEX
  5
411
  8
6
 10
-2.0158221535189109
 20
5.5636538650478542
 30
0.0
  0
VERTEX
  5
412
  8
6
 10
-4.645547388363866
 20
2.6244915964884958
 30
0.0
 42
-0.2175161131445625
  0
VERTEX
  5
413
  8
6
 10
-5.9973443638486961
 20
2.6244915964884958
 30
0.0
  0
VERTEX
  5
414
  8
6
 10
-8.4793322330606316
 20
4.7365529219975988
 30
0.0
 42
0.1597389130517352
  0
VERTEX
  5
415
  8
6
 10
-8.9999999999995453
 20
4.9290242064314489
 30
0.0
 42
0.1597389130517352
  0
VERTEX
  5
416
  8
6
 10
-9.5206677669389137
 20
4.7365529219975988
 30
0.0
  0
VERTEX
  5
417
  8
6
 10
-12.002655636150161
 20
2.6244915964884958
 30
0.0
 42
-0.2175161131445625
  0
VERTEX
  5
418
  8
6
 10
-13.35445261163545
 20
2.6244915964884958
 30
0.0
  0
VERTEX
  5
419
  8
6
 10
-15.984177846480399
 20
5.5636538650478542
 30
0.0
 42
-0.1456668646717068
  0
VERTEX
  5
41A
  8
6
 10
-16.14677999999935
 20
5.8959712183257116
 30
0.0
  0
VERTEX
  5
41B
  8
6
 10
-16.14677999999935
 20
8.0006477137617367
 30
0.0
  0
VERTEX
  5
41C
  8
6
 10
-13.29450736515696
 20
7.9999497123269521
 30
0.0
  0
VERTEX
  5
41D
  8
6
 10
-13.29450736515696
 20
9.9464124571325101
 30
0.0
 42
-0.3865683931477528
  0
VERTEX
  5
41E
  8
6
 10
-11.84753137558868
 20
11.45674808742001
 30
0.0
 42
-0.0495274142367796
  0
VERTEX
  5
41F
  8
6
 10
-10.44402633545541
 20
11.36074529647316
 30
0.0
 42
0.2290384838080409
  0
VERTEX
  5
420
  8
6
 10
-9.9756800632621871
 20
11.61921434902251
 30
0.0
 42
-0.3396459278126291
  0
SEQEND
  5
421
  8
6
  0
POLYLINE
  5
2CB
  8
5
 66
     1
 10
0.0
 20
0.0
 30
0.0
  0
VERTEX
  5
422
  8
5
 10
-13.999999999999771
 20
20.0
 30
0.0
  0
VERTEX
  5
423
  8
5
 10
-13.999999999999771
 20
13.0
 30
0.0
  0
VERTEX
  5
424
  8
5
 10
11.0
 20
13.0
 30
0.0
  0
SEQEND
  5
425
  8
5
  0
TEXT
  5
2CC
  8
1
 10
-11.151034897867239
 20
17.3094956234454
 30
0.0
 40
2.5
  1
Hebgo 117/510
  0
DIMENSION
  5
2CD
  8
1
  2
*D4
 10
11.78294472954485
 20
9.9999999999999982
 30
0.0
 11
8.9959392725189282
 21
4.9999999999999991
 31
0.0
 70
     0
 13
0.0
 23
0.0
 33
0.0
 14
0.0
 24
10.0
 34
0.0
 50
90.0
  0
DIMENSION
  5
2CE
  8
1
  2
*D5
 10
11.78294472954485
 20
12.999999999999989
 30
0.0
 11
8.9947455480987362
 21
11.499999999999989
 31
0.0
 70
     0
 13
0.0
 23
10.0
 33
0.0
 14
-13.999999999999771
 24
13.0
 34
0.0
 50
90.0
  0
VIEWPORT
  5
22
 67
     1
  8
0
 10
210.0
 20
170.2366863905325
 30
0.0
 40
420.0
 41
340.47337278106511
 68
     1
 69
     1
1001
ACAD
1000
MVIEW
1002
{
1070
    16
1010
0.0
1020
0.0
1030
0.0
1010
0.0
1020
0.0
1030
1.0
1040
0.0
1040
340.47337278106511
1040
210.0
1040
170.2366863905325
1040
50.0
1040
0.0
1040
0.0
1070
     0
1070
   100
1070
     1
1070
     1
1070
     0
1070
     0
1070
     0
1070
     0
1040
0.0
1040
0.0
1040
0.0
1040
5.0
1040
5.0
1040
10.0
1040
10.0
1070
     0
1002
{
1002
}
1002
}
  0
ENDSEC
  0
EOF
