  0
SECTION
  2
HEADER
  9
$ACADVER
  1
AC1009
  9
$INSBASE
 10
0.0
 20
0.0
 30
0.0
  9
$EXTMIN
 10
-31.24236976872464
 20
-31.013487932520771
 30
-0.0000000000112498
  9
$EXTMAX
 10
21.606445861522161
 20
18.585205623630031
 30
0.0000000000002956
  9
$LIMMIN
 10
-150.0
 20
-150.0
  9
$LIMMAX
 10
150.0
 20
150.0
  9
$ORTHOMODE
 70
     0
  9
$REGENMODE
 70
     1
  9
$FILLMODE
 70
     1
  9
$QTEXTMODE
 70
     0
  9
$MIRRTEXT
 70
     0
  9
$DRAGMODE
 70
     2
  9
$LTSCALE
 40
3.0
  9
$OSMODE
 70
   111
  9
$ATTMODE
 70
     1
  9
$TEXTSIZE
 40
3.5
  9
$TRACEWID
 40
1.0
  9
$TEXTSTYLE
  7
BESCHLAG
  9
$CLAYER
  8
0
  9
$CELTYPE
  6
BYLAYER
  9
$CECOLOR
 62
   256
  9
$DIMSCALE
 40
1.0
  9
$DIMASZ
 40
2.0
  9
$DIMEXO
 40
2.0
  9
$DIMDLI
 40
0.0
  9
$DIMRND
 40
0.0
  9
$DIMDLE
 40
1.0
  9
$DIMEXE
 40
1.0
  9
$DIMTP
 40
0.0
  9
$DIMTM
 40
0.0
  9
$DIMTXT
 40
3.5
  9
$DIMCEN
 40
0.0
  9
$DIMTSZ
 40
0.0
  9
$DIMTOL
 70
     0
  9
$DIMLIM
 70
     0
  9
$DIMTIH
 70
     0
  9
$DIMTOH
 70
     0
  9
$DIMSE1
 70
     0
  9
$DIMSE2
 70
     0
  9
$DIMTAD
 70
     1
  9
$DIMZIN
 70
     8
  9
$DIMBLK
  1

  9
$DIMASO
 70
     1
  9
$DIMSHO
 70
     1
  9
$DIMPOST
  1

  9
$DIMAPOST
  1

  9
$DIMALT
 70
     0
  9
$DIMALTD
 70
     2
  9
$DIMALTF
 40
0.039370078740157
  9
$DIMLFAC
 40
1.0
  9
$DIMTOFL
 70
     1
  9
$DIMTVP
 40
0.0
  9
$DIMTIX
 70
     1
  9
$DIMSOXD
 70
     0
  9
$DIMSAH
 70
     1
  9
$DIMBLK1
  1
OBLIQUE
  9
$DIMBLK2
  1
OBLIQUE
  9
$DIMSTYLE
  2
OPO-SSTRICH
  9
$DIMCLRD
 70
   256
  9
$DIMCLRE
 70
   256
  9
$DIMCLRT
 70
   256
  9
$DIMTFAC
 40
0.7114285714285716
  9
$DIMGAP
 40
1.0
  9
$LUNITS
 70
     2
  9
$LUPREC
 70
     1
  9
$SKETCHINC
 40
1.0
  9
$FILLETRAD
 40
0.0
  9
$AUNITS
 70
     0
  9
$AUPREC
 70
     1
  9
$MENU
  1
D:\ACL_CGWG\CGTAB13
  9
$ELEVATION
 40
0.0
  9
$PELEVATION
 40
0.0
  9
$THICKNESS
 40
0.0
  9
$LIMCHECK
 70
     0
  9
$BLIPMODE
 70
     0
  9
$CHAMFERA
 40
1.0
  9
$CHAMFERB
 40
1.0
  9
$SKPOLY
 70
     0
  9
$TDCREATE
 40
2451739.8708405672
  9
$TDUPDATE
 40
2452087.6054417938
  9
$TDINDWG
 40
0.0011510301
  9
$TDUSRTIMER
 40
0.0011508449
  9
$USRTIMER
 70
     1
  9
$ANGBASE
 50
0.0
  9
$ANGDIR
 70
     0
  9
$PDMODE
 70
    35
  9
$PDSIZE
 40
5.0
  9
$PLINEWID
 40
0.0
  9
$COORDS
 70
     1
  9
$SPLFRAME
 70
     0
  9
$SPLINETYPE
 70
     6
  9
$SPLINESEGS
 70
     8
  9
$ATTDIA
 70
     1
  9
$ATTREQ
 70
     1
  9
$HANDLING
 70
-16383
  9
$HANDSEED
  5
463
  9
$SURFTAB1
 70
    12
  9
$SURFTAB2
 70
    12
  9
$SURFTYPE
 70
     6
  9
$SURFU
 70
    12
  9
$SURFV
 70
    12
  9
$UCSNAME
  2

  9
$UCSORG
 10
0.0
 20
0.0
 30
0.0
  9
$UCSXDIR
 10
1.0
 20
0.0
 30
0.0
  9
$UCSYDIR
 10
0.0
 20
1.0
 30
0.0
  9
$PUCSNAME
  2

  9
$PUCSORG
 10
0.0
 20
0.0
 30
0.0
  9
$PUCSXDIR
 10
1.0
 20
0.0
 30
0.0
  9
$PUCSYDIR
 10
0.0
 20
1.0
 30
0.0
  9
$USERI1
 70
     0
  9
$USERI2
 70
     0
  9
$USERI3
 70
     0
  9
$USERI4
 70
     0
  9
$USERI5
 70
     0
  9
$USERR1
 40
0.0
  9
$USERR2
 40
0.0
  9
$USERR3
 40
0.0
  9
$USERR4
 40
0.0
  9
$USERR5
 40
0.0
  9
$WORLDVIEW
 70
     1
  9
$SHADEDGE
 70
     3
  9
$SHADEDIF
 70
    70
  9
$TILEMODE
 70
     1
  9
$MAXACTVP
 70
    48
  9
$PLIMCHECK
 70
     0
  9
$PEXTMIN
 10
1.0000000000000000E+020
 20
1.0000000000000000E+020
 30
1.0000000000000000E+020
  9
$PEXTMAX
 10
-1.0000000000000000E+020
 20
-1.0000000000000000E+020
 30
-1.0000000000000000E+020
  9
$PLIMMIN
 10
0.0
 20
0.0
  9
$PLIMMAX
 10
420.0
 20
297.0
  9
$UNITMODE
 70
     0
  9
$VISRETAIN
 70
     1
  9
$PLINEGEN
 70
     0
  9
$PSLTSCALE
 70
     1
  0
ENDSEC
  0
SECTION
  2
TABLES
  0
TABLE
  2
VPORT
 70
     2
  0
VPORT
  2
*ACTIVE
 70
     0
 10
0.0
 20
0.0
 11
1.0
 21
1.0
 12
-4.8179619536012419
 22
-6.2141411544453709
 13
0.0
 23
0.0
 14
0.5
 24
0.5
 15
10.0
 25
10.0
 16
0.0
 26
0.0
 36
1.0
 17
0.0
 27
0.0
 37
0.0
 40
50.001389308974773
 41
1.6070460704607039
 42
50.0
 43
0.0
 44
0.0
 50
0.0
 51
0.0
 71
     0
 72
   800
 73
     1
 74
     1
 75
     0
 76
     0
 77
     0
 78
     0
  0
ENDTAB
  0
TABLE
  2
LTYPE
 70
     2
  0
LTYPE
  2
CONTINUOUS
 70
     0
  3
_______________________________________________
 72
    65
 73
     2
 40
1.0
 49
1.0
 49
0.0
  0
LTYPE
  2
STRICHPUNKT
 70
     0
  3
__ . __ . __ . __ . __ . __ . __ . __ . __ . __
 72
    65
 73
     4
 40
1.0
 49
0.5
 49
-0.25
 49
0.0
 49
-0.25
  0
ENDTAB
  0
TABLE
  2
LAYER
 70
     7
  0
LAYER
  2
0
 70
     0
 62
    30
  6
CONTINUOUS
  0
LAYER
  2
1
 70
     0
 62
     2
  6
CONTINUOUS
  0
LAYER
  2
2
 70
     0
 62
     9
  6
CONTINUOUS
  0
LAYER
  2
4
 70
     1
 62
     4
  6
CONTINUOUS
  0
LAYER
  2
5
 70
     0
 62
     1
  6
CONTINUOUS
  0
LAYER
  2
6
 70
     0
 62
     3
  6
CONTINUOUS
  0
LAYER
  2
DEFPOINTS
 70
     0
 62
     7
  6
CONTINUOUS
  0
ENDTAB
  0
TABLE
  2
STYLE
 70
     2
  0
STYLE
  2
STANDARD
 70
     0
 40
0.0
 41
1.0
 50
0.0
 71
     0
 42
2.5
  3
txt
  4

  0
STYLE
  2
BESCHLAG
 70
     0
 40
0.0
 41
1.0
 50
0.0
 71
     0
 42
3.5
  3
txt
  4

  0
ENDTAB
  0
TABLE
  2
VIEW
 70
     0
  0
ENDTAB
  0
TABLE
  2
UCS
 70
     0
  0
ENDTAB
  0
TABLE
  2
APPID
 70
     1
  0
APPID
  2
ACAD
 70
     0
  0
ENDTAB
  0
TABLE
  2
DIMSTYLE
 70
     1
  0
DIMSTYLE
  2
OPO-SSTRICH
 70
     0
  3

  4

  5

  6
OBLIQUE
  7
OBLIQUE
 40
1.0
 41
2.0
 42
2.0
 43
0.0
 44
1.0
 45
0.0
 46
1.0
 47
0.0
 48
0.0
140
3.5
141
0.0
142
0.0
143
0.039370078740157
144
1.0
145
0.0
146
0.7114285714285716
147
1.0
 71
     0
 72
     0
 73
     0
 74
     0
 75
     0
 76
     0
 77
     1
 78
     8
170
     0
171
     2
172
     1
173
     1
174
     1
175
     0
176
   256
177
   256
178
   256
  0
ENDTAB
  0
ENDSEC
  0
SECTION
  2
BLOCKS
  0
BLOCK
  8
0
  2
$MODEL_SPACE
 70
     0
 10
0.0
 20
0.0
 30
0.0
  3
$MODEL_SPACE
  1

  0
ENDBLK
  5
1C
  8
0
  0
BLOCK
 67
     1
  8
0
  2
$PAPER_SPACE
 70
     0
 10
0.0
 20
0.0
 30
0.0
  3
$PAPER_SPACE
  1

  0
ENDBLK
  5
19
 67
     1
  8
0
  0
BLOCK
  8
0
  2
_OBLIQUE
 70
     0
 10
0.0
 20
0.0
 30
0.0
  3
_OBLIQUE
  1

  0
LINE
  5
204
  8
0
 62
     0
 10
-0.5
 20
-0.5
 30
0.0
 11
0.5
 21
0.5
 31
0.0
  0
ENDBLK
  5
206
  8
0
  0
BLOCK
  8
0
  2
NULLPUNKT
 70
     0
 10
0.0
 20
0.0
 30
0.0
  3
NULLPUNKT
  1

  0
SOLID
  5
254
  8
5
 10
0.0
 20
0.0
 30
0.0
 11
2.0
 21
0.0
 31
0.0
 12
0.0
 22
-2.0
 32
0.0
 13
0.0
 23
-2.0
 33
0.0
  0
SOLID
  5
255
  8
5
 10
0.0
 20
0.0
 30
0.0
 11
-2.0
 21
0.0
 31
0.0
 12
0.0
 22
2.0
 32
0.0
 13
0.0
 23
2.0
 33
0.0
  0
POLYLINE
  5
256
  8
5
 66
     1
 10
0.0
 20
0.0
 30
0.0
  0
VERTEX
  5
405
  8
5
 10
0.0
 20
2.0
 30
0.0
  0
VERTEX
  5
406
  8
5
 10
0.0
 20
-2.0
 30
0.0
  0
SEQEND
  5
407
  8
5
  0
POLYLINE
  5
257
  8
5
 66
     1
 10
0.0
 20
0.0
 30
0.0
  0
VERTEX
  5
408
  8
5
 10
-2.0
 20
0.0
 30
0.0
  0
VERTEX
  5
409
  8
5
 10
2.0
 20
0.0
 30
0.0
  0
SEQEND
  5
40A
  8
5
  0
CIRCLE
  5
258
  8
5
 10
0.0
 20
0.0
 30
0.0
 40
2.0
  0
ENDBLK
  5
25A
  8
0
  0
BLOCK
  8
0
  2
*X2
 70
     1
 10
0.0
 20
0.0
 30
0.0
  3
*X2
  1

  0
LINE
  5
29E
  8
0
 62
     0
 10
1071.0164429817551
 20
161.3942796633805
 30
0.0
 11
1074.0164429817551
 21
164.39427966338039
 31
0.0
  0
LINE
  5
29F
  8
0
 62
     0
 10
1071.0164429817551
 20
163.0913359382281
 30
0.0
 11
1074.0164429817551
 21
166.09133593822801
 31
0.0
  0
LINE
  5
2A0
  8
0
 62
     0
 10
1080.9043324704401
 20
172.97922542691381
 30
0.0
 11
1082.0164429817551
 21
174.0913359382281
 31
0.0
  0
LINE
  5
2A1
  8
0
 62
     0
 10
1071.0164429817551
 20
164.78839221307589
 30
0.0
 11
1074.0164429817551
 21
167.78839221307581
 31
0.0
  0
LINE
  5
2A2
  8
0
 62
     0
 10
1080.0164429817551
 20
173.78839221307581
 30
0.0
 11
1082.0164429817551
 21
175.78839221307581
 31
0.0
  0
LINE
  5
2A3
  8
0
 62
     0
 10
1071.0164429817551
 20
166.48544848792349
 30
0.0
 11
1074.0164429817551
 21
169.48544848792349
 31
0.0
  0
LINE
  5
2A4
  8
0
 62
     0
 10
1080.0164429817551
 20
175.48544848792349
 30
0.0
 11
1081.83737897643
 21
177.3063844825989
 31
0.0
  0
LINE
  5
2A5
  8
0
 62
     0
 10
1071.0164429817551
 20
168.18250476277129
 30
0.0
 11
1074.0164429817551
 21
171.18250476277129
 31
0.0
  0
LINE
  5
2A6
  8
0
 62
     0
 10
1078.813163645897
 20
175.97922542691381
 30
0.0
 11
1081.034602402741
 21
178.20066418375751
 31
0.0
  0
LINE
  5
2A7
  8
0
 62
     0
 10
1071.0164429817551
 20
169.879561037619
 30
0.0
 11
1074.0164429817551
 21
172.87956103761911
 31
0.0
  0
LINE
  5
2A8
  8
0
 62
     0
 10
1077.1161073710491
 20
175.97922542691381
 30
0.0
 11
1079.6161073710491
 21
178.47922542691381
 31
0.0
  0
LINE
  5
2A9
  8
0
 62
     0
 10
1071.0164429817551
 20
171.57661731246671
 30
0.0
 11
1074.0198324374369
 21
174.58000676814871
 31
0.0
  0
LINE
  5
2AA
  8
0
 62
     0
 10
1075.4156616405201
 20
175.97583597123179
 30
0.0
 11
1077.9190510962021
 21
178.47922542691381
 31
0.0
  0
LINE
  5
2AB
  8
0
 62
     0
 10
1071.0164429817551
 20
173.27367358731439
 30
0.0
 11
1076.221994821354
 21
178.47922542691381
 31
0.0
  0
LINE
  5
2AC
  8
0
 62
     0
 10
1071.0164429817551
 20
174.9707298621621
 30
0.0
 11
1074.5249385465061
 21
178.47922542691381
 31
0.0
  0
LINE
  5
2AD
  8
0
 62
     0
 10
1070.3278822716591
 20
175.97922542691381
 30
0.0
 11
1072.8278822716591
 21
178.47922542691381
 31
0.0
  0
LINE
  5
2AE
  8
0
 62
     0
 10
1068.6308259968109
 20
175.97922542691381
 30
0.0
 11
1071.1308259968109
 21
178.47922542691381
 31
0.0
  0
LINE
  5
2AF
  8
0
 62
     0
 10
1066.933769721963
 20
175.97922542691381
 30
0.0
 11
1069.433769721963
 21
178.47922542691381
 31
0.0
  0
LINE
  5
2B0
  8
0
 62
     0
 10
1065.2367134471151
 20
175.97922542691381
 30
0.0
 11
1067.7367134471151
 21
178.47922542691381
 31
0.0
  0
LINE
  5
2B1
  8
0
 62
     0
 10
1071.0164429817551
 20
159.69722338853271
 30
0.0
 11
1074.0164429817551
 21
162.69722338853259
 31
0.0
  0
LINE
  5
2B2
  8
0
 62
     0
 10
1071.0164429817551
 20
158.00016711368511
 30
0.0
 11
1074.4453636519461
 21
161.42908778387641
 31
0.0
  0
LINE
  5
2B3
  8
0
 62
     0
 10
1071.0164429817551
 20
156.30311083883731
 30
0.0
 11
1075.692557569831
 21
160.97922542691381
 31
0.0
  0
LINE
  5
2B4
  8
0
 62
     0
 10
1071.0164429817551
 20
154.60605456398949
 30
0.0
 11
1074.0164429817551
 21
157.60605456398949
 31
0.0
  0
LINE
  5
2B5
  8
0
 62
     0
 10
1080.0164429817551
 20
163.60605456398949
 30
0.0
 11
1080.3896138446789
 21
163.97922542691381
 31
0.0
  0
LINE
  5
2B6
  8
0
 62
     0
 10
1074.8896138446789
 20
158.47922542691381
 30
0.0
 11
1077.3896138446789
 21
160.97922542691381
 31
0.0
  0
LINE
  5
2B7
  8
0
 62
     0
 10
1071.5866701195271
 20
153.47922542691381
 30
0.0
 11
1074.0164429817551
 21
155.90899828914189
 31
0.0
  0
LINE
  5
2B8
  8
0
 62
     0
 10
1080.0164429817551
 20
161.90899828914189
 30
0.0
 11
1081.7577909573961
 21
163.65034626478379
 31
0.0
  0
LINE
  5
2B9
  8
0
 62
     0
 10
1076.5866701195259
 20
158.47922542691381
 30
0.0
 11
1079.0866701195259
 21
160.97922542691381
 31
0.0
  0
LINE
  5
2BA
  8
0
 62
     0
 10
1073.2837263943741
 20
153.47922542691381
 30
0.0
 11
1074.0164429817551
 21
154.2119420142941
 31
0.0
  0
LINE
  5
2BB
  8
0
 62
     0
 10
1078.2837263943741
 20
158.47922542691381
 30
0.0
 11
1082.0164429817551
 21
162.21194201429421
 31
0.0
  0
LINE
  5
2BC
  8
0
 62
     0
 10
1079.9099942001601
 20
158.40843695785171
 30
0.0
 11
1082.0164429817551
 21
160.5148857394465
 31
0.0
  0
LINE
  5
2BD
  8
0
 62
     0
 10
1080.0164429817551
 20
156.8178294645987
 30
0.0
 11
1082.0164429817551
 21
158.81782946459879
 31
0.0
  0
LINE
  5
2BE
  8
0
 62
     0
 10
1080.0164429817551
 20
155.12077318975091
 30
0.0
 11
1082.0164429817551
 21
157.12077318975099
 31
0.0
  0
LINE
  5
2BF
  8
0
 62
     0
 10
1080.0164429817551
 20
153.42371691490331
 30
0.0
 11
1082.0164429817551
 21
155.42371691490339
 31
0.0
  0
LINE
  5
2C0
  8
0
 62
     0
 10
1080.0164429817551
 20
151.72666064005551
 30
0.0
 11
1082.0164429817551
 21
153.7266606400556
 31
0.0
  0
LINE
  5
2C1
  8
0
 62
     0
 10
1080.0164429817551
 20
150.02960436520789
 30
0.0
 11
1082.0164429817551
 21
152.029604365208
 31
0.0
  0
LINE
  5
2C2
  8
0
 62
     0
 10
1080.0164429817551
 20
148.33254809036009
 30
0.0
 11
1082.0164429817551
 21
150.33254809036021
 31
0.0
  0
LINE
  5
2C3
  8
0
 62
     0
 10
1080.0164429817551
 20
146.63549181551241
 30
0.0
 11
1082.0164429817551
 21
148.63549181551241
 31
0.0
  0
LINE
  5
2C4
  8
0
 62
     0
 10
1081.0572328680039
 20
145.97922542691381
 30
0.0
 11
1082.0164429817551
 21
146.93843554066481
 31
0.0
  0
ENDBLK
  5
2C6
  8
0
  0
BLOCK
  8
0
  2
*D3
 70
     1
 10
0.0
 20
0.0
 30
0.0
  3
*D3
  1

  0
LINE
  5
319
  8
1
 10
0.0000000000000001
 20
2.0
 30
0.0
 11
0.0000000000000009
 21
14.06803747083233
 31
0.0
  0
LINE
  5
31A
  8
1
 10
11.0
 20
4.5
 30
0.0
 11
11.0
 21
14.06803747083233
 31
0.0
  0
LINE
  5
31B
  8
1
 10
-0.9999999999999992
 20
13.06803747083233
 30
0.0
 11
12.0
 21
13.06803747083233
 31
0.0
  0
INSERT
  5
31C
  8
1
  2
_OBLIQUE
 10
0.0000000000000008
 20
13.06803747083233
 30
0.0
 41
2.0
 42
2.0
 43
2.0
 50
180.0
  0
INSERT
  5
31D
  8
1
  2
_OBLIQUE
 10
11.0
 20
13.06803747083233
 30
0.0
 41
2.0
 42
2.0
 43
2.0
  0
TEXT
  5
31E
  8
0
 10
2.963335607094133
 20
14.07519981735348
 30
0.0
 40
3.5
  1
11
  7
BESCHLAG
  0
POINT
  5
31F
  8
DEFPOINTS
 62
     0
 10
0.0
 20
0.0
 30
0.0
  0
POINT
  5
320
  8
DEFPOINTS
 62
     0
 10
11.0
 20
2.5
 30
0.0
  0
POINT
  5
321
  8
DEFPOINTS
 62
     0
 10
11.0
 20
13.06803747083233
 30
0.0
  0
ENDBLK
  5
2F2
  8
0
  0
BLOCK
  8
0
  2
*D4
 70
     1
 10
0.0
 20
0.0
 30
0.0
  3
*D4
  1

  0
LINE
  5
322
  8
1
 10
-6.0
 20
2.0
 30
0.0
 11
-5.9999999999999991
 21
14.06803747083233
 31
0.0
  0
LINE
  5
323
  8
1
 10
0.0000000000000001
 20
2.0
 30
0.0
 11
0.0000000000000009
 21
14.06803747083233
 31
0.0
  0
LINE
  5
324
  8
1
 10
-6.9999999999999991
 20
13.06803747083233
 30
0.0
 11
1.0
 21
13.06803747083233
 31
0.0
  0
INSERT
  5
325
  8
1
  2
_OBLIQUE
 10
-5.9999999999999991
 20
13.06803747083233
 30
0.0
 41
2.0
 42
2.0
 43
2.0
 50
180.0
  0
INSERT
  5
326
  8
1
  2
_OBLIQUE
 10
0.0000000000000008
 20
13.06803747083233
 30
0.0
 41
2.0
 42
2.0
 43
2.0
  0
TEXT
  5
327
  8
0
 10
-4.3393587994542964
 20
14.13488603836303
 30
0.0
 40
3.5
  1
6
  7
BESCHLAG
  0
POINT
  5
328
  8
DEFPOINTS
 62
     0
 10
-6.0
 20
0.0
 30
0.0
  0
POINT
  5
329
  8
DEFPOINTS
 62
     0
 10
0.0
 20
0.0
 30
0.0
  0
POINT
  5
32A
  8
DEFPOINTS
 62
     0
 10
0.0000000000000008
 20
13.06803747083233
 30
0.0
  0
ENDBLK
  5
2FE
  8
0
  0
BLOCK
  8
0
  2
*D5
 70
     1
 10
0.0
 20
0.0
 30
0.0
  3
*D5
  1

  0
LINE
  5
32B
  8
1
 10
11.0
 20
4.5
 30
0.0
 11
11.0
 21
14.06803747083233
 31
0.0
  0
LINE
  5
32C
  8
1
 10
14.0
 20
-18.0
 30
0.0
 11
14.0
 21
14.06803747083233
 31
0.0
  0
LINE
  5
32D
  8
1
 10
11.0
 20
13.06803747083233
 30
0.0
 11
9.0
 21
13.06803747083233
 31
0.0
  0
LINE
  5
32E
  8
1
 10
14.0
 20
13.06803747083233
 30
0.0
 11
16.0
 21
13.06803747083233
 31
0.0
  0
LINE
  5
32F
  8
1
 10
11.0
 20
13.06803747083233
 30
0.0
 11
14.0
 21
13.06803747083233
 31
0.0
  0
INSERT
  5
330
  8
1
  2
_OBLIQUE
 10
11.0
 20
13.06803747083233
 30
0.0
 41
2.0
 42
2.0
 43
2.0
  0
INSERT
  5
331
  8
1
  2
_OBLIQUE
 10
14.0
 20
13.06803747083233
 30
0.0
 41
2.0
 42
2.0
 43
2.0
 50
180.0
  0
TEXT
  5
332
  8
0
 10
11.148703956343789
 20
14.13727348720341
 30
0.0
 40
3.5
  1
3
  7
BESCHLAG
  0
POINT
  5
333
  8
DEFPOINTS
 62
     0
 10
11.0
 20
2.5
 30
0.0
  0
POINT
  5
334
  8
DEFPOINTS
 62
     0
 10
14.0
 20
-20.0
 30
0.0
  0
POINT
  5
335
  8
DEFPOINTS
 62
     0
 10
14.0
 20
13.06803747083233
 30
0.0
  0
ENDBLK
  5
30C
  8
0
  0
BLOCK
  8
0
  2
*D6
 70
     1
 10
0.0
 20
0.0
 30
0.0
  3
*D6
  1

  0
LINE
  5
3F7
  8
1
 10
-2.0
 20
-30.0
 30
0.0
 11
-15.10041220095855
 21
-30.0
 31
0.0
  0
LINE
  5
3F8
  8
1
 10
-8.0
 20
0.0000000000000006
 30
0.0
 11
-15.100412200958541
 21
0.0000000000000026
 31
0.0
  0
LINE
  5
3F9
  8
1
 10
-14.10041220095855
 20
-30.999999999999989
 30
0.0
 11
-14.100412200958541
 21
1.000000000000002
 31
0.0
  0
INSERT
  5
3FA
  8
1
  2
_OBLIQUE
 10
-14.10041220095855
 20
-30.0
 30
0.0
 41
2.0
 42
2.0
 43
2.0
 50
270.0
  0
INSERT
  5
3FB
  8
1
  2
_OBLIQUE
 10
-14.100412200958541
 20
0.0000000000000023
 30
0.0
 41
2.0
 42
2.0
 43
2.0
 50
90.0
  0
TEXT
  5
3FC
  8
0
 10
-15.16964821732962
 20
-17.704979536152791
 30
0.0
 40
3.5
  1
30
 50
90.0
  7
BESCHLAG
  0
POINT
  5
3FD
  8
DEFPOINTS
 62
     0
 10
0.0
 20
-30.0
 30
0.0
  0
POINT
  5
3FE
  8
DEFPOINTS
 62
     0
 10
-6.0
 20
0.0
 30
0.0
  0
POINT
  5
3FF
  8
DEFPOINTS
 62
     0
 10
-14.100412200958541
 20
0.0000000000000023
 30
0.0
  0
ENDBLK
  5
318
  8
0
  0
ENDSEC
  0
SECTION
  2
ENTITIES
  0
INSERT
  5
25B
  8
5
  2
NULLPUNKT
 10
0.0
 20
0.0
 30
0.0
  0
INSERT
  5
2DA
  8
2
  2
*X2
 10
-1071.0164429817551
 20
-175.97922542691381
 30
0.0
1001
ACAD
1000
HATCH
1002
{
1070
    16
1000
_U,I
1040
1.1999999999999991
1040
0.7853981633974483
1070
     0
1002
}
  0
POLYLINE
  5
2DB
  8
6
 66
     1
 10
0.0
 20
0.0
 30
0.0
 70
     1
  0
VERTEX
  5
40B
  8
6
 10
13.63478667319213
 20
-7.5
 30
0.0
 42
-0.3396459278126291
  0
VERTEX
  5
40C
  8
6
 10
12.61856663526077
 20
-8.4756800632625282
 30
0.0
 42
0.2290384838080409
  0
VERTEX
  5
40D
  8
6
 10
12.3600975827112
 20
-8.9440263354558738
 30
0.0
 42
-0.0495274142367796
  0
VERTEX
  5
40E
  8
6
 10
12.456100373658041
 20
-10.34753137558925
 30
0.0
 42
-0.3865683931477528
  0
VERTEX
  5
40F
  8
6
 10
10.945764743370541
 20
-11.794507365157299
 30
0.0
  0
VERTEX
  5
410
  8
6
 10
8.999301998564988
 20
-11.794507365157299
 30
0.0
  0
VERTEX
  5
411
  8
6
 10
9.0
 20
-14.64677999999992
 30
0.0
  0
VERTEX
  5
412
  8
6
 10
6.8953235045637484
 20
-14.64677999999992
 30
0.0
 42
-0.1456668646717068
  0
VERTEX
  5
413
  8
6
 10
6.5630061512856619
 20
-14.484177846480859
 30
0.0
  0
VERTEX
  5
414
  8
6
 10
3.6238438827267601
 20
-11.854452611635789
 30
0.0
 42
-0.2175161131445625
  0
VERTEX
  5
415
  8
6
 10
3.6238438827267601
 20
-10.502655636150839
 30
0.0
  0
VERTEX
  5
416
  8
6
 10
5.7359052082356348
 20
-8.0206677669391411
 30
0.0
 42
0.1597389130517352
  0
VERTEX
  5
417
  8
6
 10
5.9283764926694849
 20
-7.5
 30
0.0
 42
0.1597389130517352
  0
VERTEX
  5
418
  8
6
 10
5.7359052082356348
 20
-6.979332233060858
 30
0.0
  0
VERTEX
  5
419
  8
6
 10
3.6238438827267601
 20
-4.4973443638491508
 30
0.0
 42
-0.2175161131445625
  0
VERTEX
  5
41A
  8
6
 10
3.6238438827267601
 20
-3.1455473883642071
 30
0.0
  0
VERTEX
  5
41B
  8
6
 10
6.5630061512856619
 20
-0.5158221535191389
 30
0.0
 42
-0.1456668646717068
  0
VERTEX
  5
41C
  8
6
 10
6.8953235045637484
 20
-0.3532199999999648
 30
0.0
  0
VERTEX
  5
41D
  8
6
 10
9.0
 20
-0.3532199999999648
 30
0.0
  0
VERTEX
  5
41E
  8
6
 10
8.999301998564988
 20
-3.205492634842698
 30
0.0
  0
VERTEX
  5
41F
  8
6
 10
10.945764743370541
 20
-3.205492634842698
 30
0.0
 42
-0.3865683931477528
  0
VERTEX
  5
420
  8
6
 10
12.456100373658041
 20
-4.6524686244107443
 30
0.0
 42
-0.0495274142367796
  0
VERTEX
  5
421
  8
6
 10
12.3600975827112
 20
-6.0559736645441262
 30
0.0
 42
0.2290384838080409
  0
VERTEX
  5
422
  8
6
 10
12.61856663526077
 20
-6.52431993673747
 30
0.0
 42
-0.3396459278126291
  0
SEQEND
  5
423
  8
6
  0
POLYLINE
  5
2DC
  8
6
 66
     1
 10
0.0
 20
0.0
 30
0.0
 70
     1
  0
VERTEX
  5
424
  8
6
 10
11.30282311964219
 20
-7.5
 30
0.0
 42
0.0378881483117028
  0
VERTEX
  5
425
  8
6
 10
11.516258289065259
 20
-10.22581964617711
 30
0.0
 42
-0.6807651047950749
  0
VERTEX
  5
426
  8
6
 10
10.958436683232771
 20
-10.742463721954771
 30
0.0
  0
VERTEX
  5
427
  8
6
 10
7.7423540959207449
 20
-9.7573956659302894
 30
0.0
 42
-0.3537105754507803
  0
VERTEX
  5
428
  8
6
 10
7.5564135690128751
 20
-9.4818521677310628
 30
0.0
 42
0.0918688552654281
  0
VERTEX
  5
429
  8
6
 10
7.8477593595903272
 20
-7.5
 30
0.0
 42
0.0918688552654281
  0
VERTEX
  5
42A
  8
6
 10
7.5564135690128751
 20
-5.5181478322689372
 30
0.0
 42
-0.3537105754507803
  0
VERTEX
  5
42B
  8
6
 10
7.7423540959207449
 20
-5.2426043340697097
 30
0.0
  0
VERTEX
  5
42C
  8
6
 10
10.958436683232771
 20
-4.2575362780452224
 30
0.0
 42
-0.6807651047950749
  0
VERTEX
  5
42D
  8
6
 10
11.516258289065259
 20
-4.7741803538228851
 30
0.0
 42
0.0378881483117028
  0
SEQEND
  5
42E
  8
6
  0
LINE
  5
2DD
  8
6
  6
STRICHPUNKT
 10
3.4204912853060701
 20
-7.5
 30
0.0
 11
-10.38887349426204
 21
-7.5
 31
0.0
  0
DIMENSION
  5
2DE
  8
1
  2
*D3
 10
11.0
 20
13.06803747083233
 30
0.0
 11
5.5
 21
15.82519981735348
 31
0.0
 70
     0
 13
0.0
 23
0.0
 33
0.0
 14
11.0
 24
2.5
 34
0.0
  0
DIMENSION
  5
2DF
  8
1
  2
*D4
 10
0.0000000000000008
 20
13.06803747083233
 30
0.0
 11
-2.9999999999999991
 21
15.85504292785825
 31
0.0
 70
     0
 13
-6.0
 23
0.0
 33
0.0
 14
0.0
 24
0.0
 34
0.0
  0
DIMENSION
  5
2E0
  8
1
  2
*D5
 10
14.0
 20
13.06803747083233
 30
0.0
 11
12.5
 21
15.856236652278451
 31
0.0
 70
     0
 13
11.0
 23
2.5
 33
0.0
 14
14.0
 24
-20.0
 34
0.0
  0
POLYLINE
  5
2E1
  8
5
 66
     1
 10
0.0
 20
0.0
 30
0.0
  0
VERTEX
  5
42F
  8
5
 10
14.0
 20
12.643470985631209
 30
0.0
  0
VERTEX
  5
430
  8
5
 10
14.0
 20
-20.0
 30
0.0
  0
VERTEX
  5
431
  8
5
 10
21.59016643546828
 20
-20.0
 30
0.0
  0
SEQEND
  5
432
  8
5
  0
TEXT
  5
2E2
  8
1
 10
-31.234847869767059
 20
-6.5047043498075254
 30
0.0
 40
2.4999999499999999
  1
Hebgo 130/510
  0
POLYLINE
  5
2E3
  8
5
 66
     1
 10
0.0
 20
0.0
 30
0.0
  0
VERTEX
  5
433
  8
5
 10
-10.235732212045599
 20
0.0
 30
0.0
  0
VERTEX
  5
434
  8
5
 10
0.0
 20
0.0
 30
0.0
  0
VERTEX
  5
435
  8
5
 10
0.0
 20
-30.0
 30
0.0
  0
VERTEX
  5
436
  8
5
 10
20.392567364901421
 20
-30.0
 30
0.0
  0
SEQEND
  5
437
  8
5
  0
POLYLINE
  5
2E4
  8
4
 66
     1
 10
0.0
 20
0.0
 30
0.0
 70
     1
  0
VERTEX
  5
438
  8
4
 10
11.0
 20
2.5
 30
0.0
  0
VERTEX
  5
439
  8
4
 10
-6.0
 20
2.5
 30
0.0
  0
VERTEX
  5
43A
  8
4
 10
-6.0
 20
0.0
 30
0.0
  0
VERTEX
  5
43B
  8
4
 10
0.0
 20
0.0
 30
0.0
  0
VERTEX
  5
43C
  8
4
 10
0.0
 20
-22.5
 30
0.0
  0
VERTEX
  5
43D
  8
4
 10
9.0
 20
-22.5
 30
0.0
  0
VERTEX
  5
43E
  8
4
 10
9.0
 20
-30.0
 30
0.0
  0
VERTEX
  5
43F
  8
4
 10
11.0
 20
-30.0
 30
0.0
  0
SEQEND
  5
440
  8
4
  0
POLYLINE
  5
2E5
  8
6
 66
     1
 10
0.0
 20
0.0
 30
0.0
 70
     1
  0
VERTEX
  5
441
  8
6
 10
4.5
 20
0.0
 30
0.0
  0
VERTEX
  5
442
  8
6
 10
8.6999999999998181
 20
0.0
 30
0.0
 42
-0.4142135623730951
  0
VERTEX
  5
443
  8
6
 10
9.0
 20
-0.3000000000000682
 30
0.0
  0
VERTEX
  5
444
  8
6
 10
9.0
 20
-2.700000000000045
 30
0.0
 42
0.4142135623730951
  0
VERTEX
  5
445
  8
6
 10
9.2999999999997272
 20
-3.0
 30
0.0
  0
VERTEX
  5
446
  8
6
 10
10.0
 20
-3.0
 30
0.0
 42
0.4142135623730951
  0
VERTEX
  5
447
  8
6
 10
11.0
 20
-2.0
 30
0.0
  0
VERTEX
  5
448
  8
6
 10
11.0
 20
0.5
 30
0.0
 42
0.4142135623730951
  0
VERTEX
  5
449
  8
6
 10
9.0
 20
2.5
 30
0.0
  0
VERTEX
  5
44A
  8
6
 10
-4.0
 20
2.5
 30
0.0
 42
0.4142135623730951
  0
VERTEX
  5
44B
  8
6
 10
-6.0
 20
0.5
 30
0.0
  0
VERTEX
  5
44C
  8
6
 10
-6.0
 20
0.0
 30
0.0
  0
VERTEX
  5
44D
  8
6
 10
-0.3000000000001819
 20
0.0
 30
0.0
 42
-0.4142135623730951
  0
VERTEX
  5
44E
  8
6
 10
0.0
 20
-0.3000000000000682
 30
0.0
  0
VERTEX
  5
44F
  8
6
 10
0.0
 20
-22.5
 30
0.0
  0
VERTEX
  5
450
  8
6
 10
3.0
 20
-22.5
 30
0.0
  0
VERTEX
  5
451
  8
6
 10
3.0
 20
-17.5
 30
0.0
  0
VERTEX
  5
452
  8
6
 10
8.6999999999998181
 20
-17.5
 30
0.0
 42
-0.4142135623730951
  0
VERTEX
  5
453
  8
6
 10
9.0
 20
-17.800000000000061
 30
0.0
  0
VERTEX
  5
454
  8
6
 10
9.0
 20
-30.0
 30
0.0
  0
VERTEX
  5
455
  8
6
 10
11.0
 20
-30.0
 30
0.0
  0
VERTEX
  5
456
  8
6
 10
11.0
 20
-13.0
 30
0.0
 42
0.4142135623730951
  0
VERTEX
  5
457
  8
6
 10
10.0
 20
-12.0
 30
0.0
  0
VERTEX
  5
458
  8
6
 10
9.2999999999997272
 20
-12.0
 30
0.0
 42
0.4142135623730951
  0
VERTEX
  5
459
  8
6
 10
9.0
 20
-12.300000000000059
 30
0.0
  0
VERTEX
  5
45A
  8
6
 10
9.0
 20
-14.70000000000004
 30
0.0
 42
-0.4142135623730951
  0
VERTEX
  5
45B
  8
6
 10
8.6999999999998181
 20
-15.0
 30
0.0
  0
VERTEX
  5
45C
  8
6
 10
4.5
 20
-15.0
 30
0.0
 42
-0.4142135623730951
  0
VERTEX
  5
45D
  8
6
 10
3.0
 20
-13.5
 30
0.0
  0
VERTEX
  5
45E
  8
6
 10
3.0
 20
-7.7000000000000446
 30
0.0
  0
VERTEX
  5
45F
  8
6
 10
2.7339121519153191
 20
-7.5
 30
0.0
  0
VERTEX
  5
460
  8
6
 10
3.0
 20
-7.3000000000000682
 30
0.0
  0
VERTEX
  5
461
  8
6
 10
3.0
 20
-1.5
 30
0.0
 42
-0.4142135623730951
  0
SEQEND
  5
462
  8
6
  0
DIMENSION
  5
2E6
  8
1
  2
*D6
 10
-14.100412200958541
 20
0.0000000000000023
 30
0.0
 11
-16.888611382404651
 21
-15.0
 31
0.0
 70
     0
 13
0.0
 23
-30.0
 33
0.0
 14
-6.0
 24
0.0
 34
0.0
 50
90.0
  0
VIEWPORT
  5
22
 67
     1
  8
0
 10
210.0
 20
170.2366863905325
 30
0.0
 40
420.0
 41
340.47337278106511
 68
     1
 69
     1
1001
ACAD
1000
MVIEW
1002
{
1070
    16
1010
0.0
1020
0.0
1030
0.0
1010
0.0
1020
0.0
1030
1.0
1040
0.0
1040
340.47337278106511
1040
210.0
1040
170.2366863905325
1040
50.0
1040
0.0
1040
0.0
1070
     0
1070
   100
1070
     1
1070
     1
1070
     0
1070
     0
1070
     0
1070
     0
1040
0.0
1040
0.0
1040
0.0
1040
5.0
1040
5.0
1040
10.0
1040
10.0
1070
     0
1002
{
1002
}
1002
}
  0
ENDSEC
  0
EOF
