  0
SECTION
  2
HEADER
  9
$ACADVER
  1
AC1009
  9
$INSBASE
 10
0.0
 20
0.0
 30
0.0
  9
$EXTMIN
 10
-32.203673480781269
 20
-11.65008458966622
 30
-0.0000000000000058
  9
$EXTMAX
 10
7.2555547315342892
 20
46.89788876205909
 30
0.0000000000000104
  9
$LIMMIN
 10
-150.0
 20
-150.0
  9
$LIMMAX
 10
150.0
 20
150.0
  9
$ORTHOMODE
 70
     0
  9
$REGENMODE
 70
     1
  9
$FILLMODE
 70
     1
  9
$QTEXTMODE
 70
     0
  9
$MIRRTEXT
 70
     0
  9
$DRAGMODE
 70
     2
  9
$LTSCALE
 40
1.0
  9
$OSMODE
 70
   111
  9
$ATTMODE
 70
     1
  9
$TEXTSIZE
 40
3.5
  9
$TRACEWID
 40
1.0
  9
$TEXTSTYLE
  7
BESCHLAG
  9
$CLAYER
  8
0
  9
$CELTYPE
  6
BYLAYER
  9
$CECOLOR
 62
   256
  9
$DIMSCALE
 40
1.0
  9
$DIMASZ
 40
2.0
  9
$DIMEXO
 40
2.0
  9
$DIMDLI
 40
0.0
  9
$DIMRND
 40
0.0
  9
$DIMDLE
 40
1.0
  9
$DIMEXE
 40
1.0
  9
$DIMTP
 40
0.0
  9
$DIMTM
 40
0.0
  9
$DIMTXT
 40
3.5
  9
$DIMCEN
 40
0.0
  9
$DIMTSZ
 40
0.0
  9
$DIMTOL
 70
     0
  9
$DIMLIM
 70
     0
  9
$DIMTIH
 70
     0
  9
$DIMTOH
 70
     0
  9
$DIMSE1
 70
     0
  9
$DIMSE2
 70
     0
  9
$DIMTAD
 70
     1
  9
$DIMZIN
 70
     8
  9
$DIMBLK
  1

  9
$DIMASO
 70
     1
  9
$DIMSHO
 70
     1
  9
$DIMPOST
  1

  9
$DIMAPOST
  1

  9
$DIMALT
 70
     0
  9
$DIMALTD
 70
     2
  9
$DIMALTF
 40
0.039370078740157
  9
$DIMLFAC
 40
1.0
  9
$DIMTOFL
 70
     1
  9
$DIMTVP
 40
0.0
  9
$DIMTIX
 70
     1
  9
$DIMSOXD
 70
     0
  9
$DIMSAH
 70
     1
  9
$DIMBLK1
  1
OBLIQUE
  9
$DIMBLK2
  1
OBLIQUE
  9
$DIMSTYLE
  2
OPO-SSTRICH
  9
$DIMCLRD
 70
   256
  9
$DIMCLRE
 70
   256
  9
$DIMCLRT
 70
   256
  9
$DIMTFAC
 40
0.7114285714285716
  9
$DIMGAP
 40
1.0
  9
$LUNITS
 70
     2
  9
$LUPREC
 70
     1
  9
$SKETCHINC
 40
1.0
  9
$FILLETRAD
 40
0.0
  9
$AUNITS
 70
     0
  9
$AUPREC
 70
     1
  9
$MENU
  1
D:\ACL_CGWG\CGTAB13
  9
$ELEVATION
 40
0.0
  9
$PELEVATION
 40
0.0
  9
$THICKNESS
 40
0.0
  9
$LIMCHECK
 70
     0
  9
$BLIPMODE
 70
     0
  9
$CHAMFERA
 40
1.0
  9
$CHAMFERB
 40
1.0
  9
$SKPOLY
 70
     0
  9
$TDCREATE
 40
2451739.8932765392
  9
$TDUPDATE
 40
2452087.6275149649
  9
$TDINDWG
 40
0.0010408912
  9
$TDUSRTIMER
 40
0.0010408912
  9
$USRTIMER
 70
     1
  9
$ANGBASE
 50
0.0
  9
$ANGDIR
 70
     0
  9
$PDMODE
 70
    35
  9
$PDSIZE
 40
5.0
  9
$PLINEWID
 40
0.0
  9
$COORDS
 70
     1
  9
$SPLFRAME
 70
     0
  9
$SPLINETYPE
 70
     6
  9
$SPLINESEGS
 70
     8
  9
$ATTDIA
 70
     1
  9
$ATTREQ
 70
     1
  9
$HANDLING
 70
-16383
  9
$HANDSEED
  5
441
  9
$SURFTAB1
 70
    12
  9
$SURFTAB2
 70
    12
  9
$SURFTYPE
 70
     6
  9
$SURFU
 70
    12
  9
$SURFV
 70
    12
  9
$UCSNAME
  2

  9
$UCSORG
 10
0.0
 20
0.0
 30
0.0
  9
$UCSXDIR
 10
1.0
 20
0.0
 30
0.0
  9
$UCSYDIR
 10
0.0
 20
1.0
 30
0.0
  9
$PUCSNAME
  2

  9
$PUCSORG
 10
0.0
 20
0.0
 30
0.0
  9
$PUCSXDIR
 10
1.0
 20
0.0
 30
0.0
  9
$PUCSYDIR
 10
0.0
 20
1.0
 30
0.0
  9
$USERI1
 70
     0
  9
$USERI2
 70
     0
  9
$USERI3
 70
     0
  9
$USERI4
 70
     0
  9
$USERI5
 70
     0
  9
$USERR1
 40
0.0
  9
$USERR2
 40
0.0
  9
$USERR3
 40
0.0
  9
$USERR4
 40
0.0
  9
$USERR5
 40
0.0
  9
$WORLDVIEW
 70
     1
  9
$SHADEDGE
 70
     3
  9
$SHADEDIF
 70
    70
  9
$TILEMODE
 70
     1
  9
$MAXACTVP
 70
    48
  9
$PLIMCHECK
 70
     0
  9
$PEXTMIN
 10
1.0000000000000000E+020
 20
1.0000000000000000E+020
 30
1.0000000000000000E+020
  9
$PEXTMAX
 10
-1.0000000000000000E+020
 20
-1.0000000000000000E+020
 30
-1.0000000000000000E+020
  9
$PLIMMIN
 10
0.0
 20
0.0
  9
$PLIMMAX
 10
420.0
 20
297.0
  9
$UNITMODE
 70
     0
  9
$VISRETAIN
 70
     1
  9
$PLINEGEN
 70
     0
  9
$PSLTSCALE
 70
     1
  0
ENDSEC
  0
SECTION
  2
TABLES
  0
TABLE
  2
VPORT
 70
     2
  0
VPORT
  2
*ACTIVE
 70
     0
 10
0.0
 20
0.0
 11
1.0
 21
1.0
 12
-12.47405937462349
 22
17.623902086196431
 13
0.0
 23
0.0
 14
0.5
 24
0.5
 15
10.0
 25
10.0
 16
0.0
 26
0.0
 36
1.0
 17
0.0
 27
0.0
 37
0.0
 40
59.023329021698729
 41
1.6070460704607039
 42
50.0
 43
0.0
 44
0.0
 50
0.0
 51
0.0
 71
     0
 72
   800
 73
     1
 74
     1
 75
     0
 76
     0
 77
     0
 78
     0
  0
ENDTAB
  0
TABLE
  2
LTYPE
 70
     1
  0
LTYPE
  2
CONTINUOUS
 70
     0
  3
_______________________________________________
 72
    65
 73
     2
 40
1.0
 49
1.0
 49
0.0
  0
ENDTAB
  0
TABLE
  2
LAYER
 70
     7
  0
LAYER
  2
0
 70
     0
 62
    30
  6
CONTINUOUS
  0
LAYER
  2
1
 70
     0
 62
     2
  6
CONTINUOUS
  0
LAYER
  2
2
 70
     0
 62
     9
  6
CONTINUOUS
  0
LAYER
  2
4
 70
     1
 62
     4
  6
CONTINUOUS
  0
LAYER
  2
5
 70
     0
 62
     1
  6
CONTINUOUS
  0
LAYER
  2
6
 70
     0
 62
     3
  6
CONTINUOUS
  0
LAYER
  2
DEFPOINTS
 70
     0
 62
     7
  6
CONTINUOUS
  0
ENDTAB
  0
TABLE
  2
STYLE
 70
     2
  0
STYLE
  2
STANDARD
 70
     0
 40
0.0
 41
1.0
 50
0.0
 71
     0
 42
2.5
  3
txt
  4

  0
STYLE
  2
BESCHLAG
 70
     0
 40
0.0
 41
1.0
 50
0.0
 71
     0
 42
3.5
  3
txt
  4

  0
ENDTAB
  0
TABLE
  2
VIEW
 70
     0
  0
ENDTAB
  0
TABLE
  2
UCS
 70
     0
  0
ENDTAB
  0
TABLE
  2
APPID
 70
     1
  0
APPID
  2
ACAD
 70
     0
  0
ENDTAB
  0
TABLE
  2
DIMSTYLE
 70
     1
  0
DIMSTYLE
  2
OPO-SSTRICH
 70
     0
  3

  4

  5

  6
OBLIQUE
  7
OBLIQUE
 40
1.0
 41
2.0
 42
2.0
 43
0.0
 44
1.0
 45
0.0
 46
1.0
 47
0.0
 48
0.0
140
3.5
141
0.0
142
0.0
143
0.039370078740157
144
1.0
145
0.0
146
0.7114285714285716
147
1.0
 71
     0
 72
     0
 73
     0
 74
     0
 75
     0
 76
     0
 77
     1
 78
     8
170
     0
171
     2
172
     1
173
     1
174
     1
175
     0
176
   256
177
   256
178
   256
  0
ENDTAB
  0
ENDSEC
  0
SECTION
  2
BLOCKS
  0
BLOCK
  8
0
  2
$MODEL_SPACE
 70
     0
 10
0.0
 20
0.0
 30
0.0
  3
$MODEL_SPACE
  1

  0
ENDBLK
  5
1C
  8
0
  0
BLOCK
 67
     1
  8
0
  2
$PAPER_SPACE
 70
     0
 10
0.0
 20
0.0
 30
0.0
  3
$PAPER_SPACE
  1

  0
ENDBLK
  5
19
 67
     1
  8
0
  0
BLOCK
  8
0
  2
_OBLIQUE
 70
     0
 10
0.0
 20
0.0
 30
0.0
  3
_OBLIQUE
  1

  0
LINE
  5
204
  8
0
 62
     0
 10
-0.5
 20
-0.5
 30
0.0
 11
0.5
 21
0.5
 31
0.0
  0
ENDBLK
  5
206
  8
0
  0
BLOCK
  8
0
  2
NULLPUNKT
 70
     0
 10
0.0
 20
0.0
 30
0.0
  3
NULLPUNKT
  1

  0
SOLID
  5
254
  8
5
 10
0.0
 20
0.0
 30
0.0
 11
2.0
 21
0.0
 31
0.0
 12
0.0
 22
-2.0
 32
0.0
 13
0.0
 23
-2.0
 33
0.0
  0
SOLID
  5
255
  8
5
 10
0.0
 20
0.0
 30
0.0
 11
-2.0
 21
0.0
 31
0.0
 12
0.0
 22
2.0
 32
0.0
 13
0.0
 23
2.0
 33
0.0
  0
POLYLINE
  5
256
  8
5
 66
     1
 10
0.0
 20
0.0
 30
0.0
  0
VERTEX
  5
3CB
  8
5
 10
0.0
 20
2.0
 30
0.0
  0
VERTEX
  5
3CC
  8
5
 10
0.0
 20
-2.0
 30
0.0
  0
SEQEND
  5
3CD
  8
5
  0
POLYLINE
  5
257
  8
5
 66
     1
 10
0.0
 20
0.0
 30
0.0
  0
VERTEX
  5
3CE
  8
5
 10
-2.0
 20
0.0
 30
0.0
  0
VERTEX
  5
3CF
  8
5
 10
2.0
 20
0.0
 30
0.0
  0
SEQEND
  5
3D0
  8
5
  0
CIRCLE
  5
258
  8
5
 10
0.0
 20
0.0
 30
0.0
 40
2.0
  0
ENDBLK
  5
25A
  8
0
  0
BLOCK
  8
0
  2
*X2
 70
     1
 10
0.0
 20
0.0
 30
0.0
  3
*X2
  1

  0
LINE
  5
29E
  8
0
 62
     0
 10
779.12743793910352
 20
-541.18234389241775
 30
0.0
 11
781.32198815125935
 21
-538.98779368026203
 31
0.0
  0
LINE
  5
29F
  8
0
 62
     0
 10
806.82198815125935
 20
-513.4877936802618
 30
0.0
 11
808.38065582736704
 21
-511.92912600415428
 31
0.0
  0
LINE
  5
2A0
  8
0
 62
     0
 10
799.12743793910352
 20
-521.18234389241775
 30
0.0
 11
801.1274379391034
 21
-519.18234389241786
 31
0.0
  0
LINE
  5
2A1
  8
0
 62
     0
 10
779.12743793910352
 20
-539.48528761757007
 30
0.0
 11
780.12493187641155
 21
-538.48779368026203
 31
0.0
  0
LINE
  5
2A2
  8
0
 62
     0
 10
805.12493187641155
 20
-513.4877936802618
 30
0.0
 11
807.12493030435451
 21
-511.4877952523189
 31
0.0
  0
LINE
  5
2A3
  8
0
 62
     0
 10
799.12743793910352
 20
-519.48528761756995
 30
0.0
 11
801.1274379391034
 21
-517.48528761756995
 31
0.0
  0
LINE
  5
2A4
  8
0
 62
     0
 10
799.12743793910352
 20
-517.78823134272238
 30
0.0
 11
801.1274379391034
 21
-515.7882313427225
 31
0.0
  0
LINE
  5
2A5
  8
0
 62
     0
 10
803.42787560156387
 20
-513.4877936802618
 30
0.0
 11
805.42787560156387
 21
-511.48779368026209
 31
0.0
  0
LINE
  5
2A6
  8
0
 62
     0
 10
799.12743793910352
 20
-516.0911750678747
 30
0.0
 11
803.73081932671607
 21
-511.48779368026209
 31
0.0
  0
LINE
  5
2A7
  8
0
 62
     0
 10
799.12743793910352
 20
-514.39411879302713
 30
0.0
 11
802.0337630518685
 21
-511.48779368026209
 31
0.0
  0
LINE
  5
2A8
  8
0
 62
     0
 10
799.12743793910352
 20
-512.69706251817934
 30
0.0
 11
800.33670677702082
 21
-511.48779368026209
 31
0.0
  0
LINE
  5
2A9
  8
0
 62
     0
 10
780.51904442610714
 20
-541.48779368026203
 30
0.0
 11
783.51904442610714
 21
-538.48779368026203
 31
0.0
  0
LINE
  5
2AA
  8
0
 62
     0
 10
807.1274379391034
 20
-514.87940016726554
 30
0.0
 11
809.05444297205156
 21
-512.95239513431761
 31
0.0
  0
LINE
  5
2AB
  8
0
 62
     0
 10
799.12743793910352
 20
-522.87940016726554
 30
0.0
 11
800.92324118287627
 21
-521.08359692349279
 31
0.0
  0
LINE
  5
2AC
  8
0
 62
     0
 10
782.21610070095471
 20
-541.48779368026203
 30
0.0
 11
784.71610070095471
 21
-538.98779368026203
 31
0.0
  0
LINE
  5
2AD
  8
0
 62
     0
 10
807.23747587759817
 20
-516.46641850361846
 30
0.0
 11
809.1274379391034
 21
-514.57645644211323
 31
0.0
  0
LINE
  5
2AE
  8
0
 62
     0
 10
799.12743793910352
 20
-524.57645644211323
 30
0.0
 11
801.12743793910363
 21
-522.57645644211323
 31
0.0
  0
LINE
  5
2AF
  8
0
 62
     0
 10
783.91315697580239
 20
-541.48779368026203
 30
0.0
 11
786.86599296109569
 21
-538.53495769496874
 31
0.0
  0
LINE
  5
2B0
  8
0
 62
     0
 10
799.12743793910352
 20
-526.27351271696102
 30
0.0
 11
801.12743793910363
 21
-524.27351271696102
 31
0.0
  0
LINE
  5
2B1
  8
0
 62
     0
 10
785.61021325065008
 20
-541.48779368026203
 30
0.0
 11
788.11021325065008
 21
-538.98779368026203
 31
0.0
  0
LINE
  5
2B2
  8
0
 62
     0
 10
799.12743793910352
 20
-527.97056899180859
 30
0.0
 11
801.12743793910363
 21
-525.97056899180848
 31
0.0
  0
LINE
  5
2B3
  8
0
 62
     0
 10
788.15096730110315
 20
-538.94703962980896
 30
0.0
 11
788.61021325065008
 21
-538.48779368026203
 31
0.0
  0
LINE
  5
2B4
  8
0
 62
     0
 10
787.30726952549799
 20
-541.48779368026203
 30
0.0
 11
790.01024816623453
 21
-538.78481503952526
 31
0.0
  0
LINE
  5
2B5
  8
0
 62
     0
 10
799.21663840101098
 20
-529.57842480474892
 30
0.0
 11
801.23917637449608
 21
-527.55588683126371
 31
0.0
  0
LINE
  5
2B6
  8
0
 62
     0
 10
789.00432580034555
 20
-541.48779368026203
 30
0.0
 11
792.00432580034555
 21
-538.48779368026203
 31
0.0
  0
LINE
  5
2B7
  8
0
 62
     0
 10
799.91427961337445
 20
-530.57783986723314
 30
0.0
 11
802.10008327804394
 21
-528.39203620256365
 31
0.0
  0
LINE
  5
2B8
  8
0
 62
     0
 10
790.70138207519335
 20
-541.48779368026203
 30
0.0
 11
793.20138207519335
 21
-538.98779368026203
 31
0.0
  0
LINE
  5
2B9
  8
0
 62
     0
 10
801.20138207519335
 20
-530.98779368026203
 30
0.0
 11
803.70138207519335
 21
-528.48779368026192
 31
0.0
  0
LINE
  5
2BA
  8
0
 62
     0
 10
792.39843835004115
 20
-541.48779368026203
 30
0.0
 11
795.39843835004115
 21
-538.48779368026203
 31
0.0
  0
LINE
  5
2BB
  8
0
 62
     0
 10
807.1274379391034
 20
-526.75879409119966
 30
0.0
 11
808.36885884877063
 21
-525.51737318153243
 31
0.0
  0
LINE
  5
2BC
  8
0
 62
     0
 10
802.89843835004115
 20
-530.98779368026203
 30
0.0
 11
805.39843835004092
 21
-528.48779368026192
 31
0.0
  0
LINE
  5
2BD
  8
0
 62
     0
 10
794.09549462488872
 20
-541.48779368026203
 30
0.0
 11
796.59549462488872
 21
-538.98779368026203
 31
0.0
  0
LINE
  5
2BE
  8
0
 62
     0
 10
804.59549462488872
 20
-530.98779368026203
 30
0.0
 11
809.12694330696047
 21
-526.45634499819005
 31
0.0
  0
LINE
  5
2BF
  8
0
 62
     0
 10
795.79255089973651
 20
-541.48779368026203
 30
0.0
 11
798.7925508997364
 21
-538.48779368026203
 31
0.0
  0
LINE
  5
2C0
  8
0
 62
     0
 10
806.06119422251425
 20
-531.2191503574843
 30
0.0
 11
809.1274379391034
 21
-528.15290664089491
 31
0.0
  0
LINE
  5
2C1
  8
0
 62
     0
 10
797.48960717458397
 20
-541.48779368026203
 30
0.0
 11
800.48960717458408
 21
-538.48779368026203
 31
0.0
  0
LINE
  5
2C2
  8
0
 62
     0
 10
806.90543237281349
 20
-532.07196848203262
 30
0.0
 11
809.1274379391034
 21
-529.84996291574259
 31
0.0
  0
LINE
  5
2C3
  8
0
 62
     0
 10
799.18666344943188
 20
-541.48779368026203
 30
0.0
 11
802.18666344943188
 21
-538.48779368026203
 31
0.0
  0
LINE
  5
2C4
  8
0
 62
     0
 10
807.12743793910363
 20
-533.54701919059039
 30
0.0
 11
809.1274379391034
 21
-531.54701919059028
 31
0.0
  0
LINE
  5
2C5
  8
0
 62
     0
 10
800.88371972427956
 20
-541.48779368026203
 30
0.0
 11
803.88371972427967
 21
-538.48779368026203
 31
0.0
  0
LINE
  5
2C6
  8
0
 62
     0
 10
807.12743793910363
 20
-535.24407546543819
 30
0.0
 11
809.1274379391034
 21
-533.24407546543796
 31
0.0
  0
LINE
  5
2C7
  8
0
 62
     0
 10
802.58077599912735
 20
-541.48779368026203
 30
0.0
 11
805.6503434500188
 21
-538.41822622937048
 31
0.0
  0
LINE
  5
2C8
  8
0
 62
     0
 10
807.05787048821196
 20
-537.0106991911772
 30
0.0
 11
809.1274379391034
 21
-534.94113174028575
 31
0.0
  0
LINE
  5
2C9
  8
0
 62
     0
 10
804.27783227397492
 20
-541.48779368026203
 30
0.0
 11
809.1274379391034
 21
-536.63818801513355
 31
0.0
  0
LINE
  5
2CA
  8
0
 62
     0
 10
805.97488854882272
 20
-541.48779368026203
 30
0.0
 11
809.1274379391034
 21
-538.33524428998112
 31
0.0
  0
LINE
  5
2CB
  8
0
 62
     0
 10
807.67194482367051
 20
-541.48779368026203
 30
0.0
 11
809.1274379391034
 21
-540.03230056482892
 31
0.0
  0
ENDBLK
  5
2CD
  8
0
  0
BLOCK
  8
0
  2
*D3
 70
     1
 10
0.0
 20
0.0
 30
0.0
  3
*D3
  1

  0
LINE
  5
2DD
  8
1
 10
0.0000000000000001
 20
32.0
 30
0.0
 11
0.0000000000000008
 21
42.402011270621642
 31
0.0
  0
LINE
  5
2DE
  8
1
 10
3.0
 20
32.0
 30
0.0
 11
3.0
 21
42.402011270621642
 31
0.0
  0
LINE
  5
2DF
  8
1
 10
0.0000000000000007
 20
41.402011270621642
 30
0.0
 11
-1.9999999999999989
 21
41.402011270621642
 31
0.0
  0
LINE
  5
2E0
  8
1
 10
3.0
 20
41.402011270621642
 30
0.0
 11
5.0
 21
41.402011270621642
 31
0.0
  0
LINE
  5
2E1
  8
1
 10
0.0000000000000007
 20
41.402011270621642
 30
0.0
 11
3.0
 21
41.402011270621642
 31
0.0
  0
INSERT
  5
2E2
  8
1
  2
_OBLIQUE
 10
0.0000000000000007
 20
41.402011270621642
 30
0.0
 41
2.0
 42
2.0
 43
2.0
  0
INSERT
  5
2E3
  8
1
  2
_OBLIQUE
 10
3.0
 20
41.402011270621642
 30
0.0
 41
2.0
 42
2.0
 43
2.0
 50
180.0
  0
TEXT
  5
2E4
  8
0
 10
0.1487039563437938
 20
42.471247286992707
 30
0.0
 40
3.5
  1
3
  7
BESCHLAG
  0
POINT
  5
2E5
  8
DEFPOINTS
 62
     0
 10
0.0
 20
30.0
 30
0.0
  0
POINT
  5
2E6
  8
DEFPOINTS
 62
     0
 10
3.0
 20
30.0
 30
0.0
  0
POINT
  5
2E7
  8
DEFPOINTS
 62
     0
 10
3.0
 20
41.402011270621642
 30
0.0
  0
ENDBLK
  5
2E9
  8
0
  0
BLOCK
  8
0
  2
*D4
 70
     1
 10
0.0
 20
0.0
 30
0.0
  3
*D4
  1

  0
LINE
  5
2EB
  8
1
 10
-10.0
 20
32.0
 30
0.0
 11
-10.0
 21
42.402011270621642
 31
0.0
  0
LINE
  5
2EC
  8
1
 10
0.0000000000000001
 20
32.0
 30
0.0
 11
0.0000000000000008
 21
42.402011270621642
 31
0.0
  0
LINE
  5
2ED
  8
1
 10
-11.0
 20
41.402011270621642
 30
0.0
 11
1.0
 21
41.402011270621642
 31
0.0
  0
INSERT
  5
2EE
  8
1
  2
_OBLIQUE
 10
-10.0
 20
41.402011270621642
 30
0.0
 41
2.0
 42
2.0
 43
2.0
 50
180.0
  0
INSERT
  5
2EF
  8
1
  2
_OBLIQUE
 10
0.0000000000000007
 20
41.402011270621642
 30
0.0
 41
2.0
 42
2.0
 43
2.0
  0
TEXT
  5
2F0
  8
0
 10
-7.8685197817189634
 20
42.468859838152341
 30
0.0
 40
3.5
  1
10
  7
BESCHLAG
  0
POINT
  5
2F1
  8
DEFPOINTS
 62
     0
 10
-10.0
 20
30.0
 30
0.0
  0
POINT
  5
2F2
  8
DEFPOINTS
 62
     0
 10
0.0
 20
30.0
 30
0.0
  0
POINT
  5
2F3
  8
DEFPOINTS
 62
     0
 10
0.0000000000000007
 20
41.402011270621642
 30
0.0
  0
ENDBLK
  5
2F5
  8
0
  0
BLOCK
  8
0
  2
*D5
 70
     1
 10
0.0
 20
0.0
 30
0.0
  3
*D5
  1

  0
LINE
  5
2F7
  8
1
 10
-2.0
 20
0.0000000000000006
 30
0.0
 11
-22.657717910694831
 21
0.0000000000000064
 31
0.0
  0
LINE
  5
2F8
  8
1
 10
-12.0
 20
30.0
 30
0.0
 11
-22.657717910694821
 21
30.0
 31
0.0
  0
LINE
  5
2F9
  8
1
 10
-21.657717910694831
 20
-0.9999999999999939
 30
0.0
 11
-21.657717910694821
 21
31.0
 31
0.0
  0
INSERT
  5
2FA
  8
1
  2
_OBLIQUE
 10
-21.657717910694831
 20
0.0000000000000061
 30
0.0
 41
2.0
 42
2.0
 43
2.0
 50
270.0
  0
INSERT
  5
2FB
  8
1
  2
_OBLIQUE
 10
-21.657717910694821
 20
30.0
 30
0.0
 41
2.0
 42
2.0
 43
2.0
 50
90.0
  0
TEXT
  5
2FC
  8
0
 10
-22.7269539270659
 20
12.2950204638472
 30
0.0
 40
3.5
  1
30
 50
90.0
  7
BESCHLAG
  0
POINT
  5
2FD
  8
DEFPOINTS
 62
     0
 10
0.0
 20
0.0
 30
0.0
  0
POINT
  5
2FE
  8
DEFPOINTS
 62
     0
 10
-10.0
 20
30.0
 30
0.0
  0
POINT
  5
2FF
  8
DEFPOINTS
 62
     0
 10
-21.657717910694821
 20
30.0
 30
0.0
  0
ENDBLK
  5
301
  8
0
  0
BLOCK
  8
0
  2
*D6
 70
     1
 10
0.0
 20
0.0
 30
0.0
  3
*D6
  1

  0
LINE
  5
303
  8
1
 10
-30.0
 20
-2.0
 30
0.0
 11
-30.0
 21
-11.64181157443954
 31
0.0
  0
LINE
  5
304
  8
1
 10
-0.0000000000000001
 20
-2.0
 30
0.0
 11
-0.0000000000000007
 21
-11.64181157443954
 31
0.0
  0
LINE
  5
305
  8
1
 10
-31.0
 20
-10.64181157443954
 30
0.0
 11
0.9999999999999992
 21
-10.64181157443954
 31
0.0
  0
INSERT
  5
306
  8
1
  2
_OBLIQUE
 10
-30.0
 20
-10.64181157443954
 30
0.0
 41
2.0
 42
2.0
 43
2.0
 50
180.0
  0
INSERT
  5
307
  8
1
  2
_OBLIQUE
 10
-0.0000000000000007
 20
-10.64181157443954
 30
0.0
 41
2.0
 42
2.0
 43
2.0
  0
TEXT
  5
308
  8
0
 10
-17.704979536152791
 20
-9.5725755580684648
 30
0.0
 40
3.5
  1
30
  7
BESCHLAG
  0
POINT
  5
309
  8
DEFPOINTS
 62
     0
 10
-30.0
 20
0.0
 30
0.0
  0
POINT
  5
30A
  8
DEFPOINTS
 62
     0
 10
0.0
 20
0.0
 30
0.0
  0
POINT
  5
30B
  8
DEFPOINTS
 62
     0
 10
-0.0000000000000007
 20
-10.64181157443954
 30
0.0
  0
ENDBLK
  5
30D
  8
0
  0
ENDSEC
  0
SECTION
  2
ENTITIES
  0
INSERT
  5
25B
  8
5
  2
NULLPUNKT
 10
0.0
 20
0.0
 30
0.0
  0
INSERT
  5
2CF
  8
2
  2
*X2
 10
-809.1274379391034
 20
541.48779368026203
 30
0.0
1001
ACAD
1000
HATCH
1002
{
1070
    16
1000
_U,I
1040
1.1999999999999991
1040
0.7853981633974483
1070
     0
1002
}
  0
DIMENSION
  5
2D0
  8
1
  2
*D3
 10
3.0
 20
41.402011270621642
 30
0.0
 11
1.5000000000000011
 21
44.190210452067753
 31
0.0
 70
     0
 13
0.0
 23
30.0
 33
0.0
 14
3.0
 24
30.0
 34
0.0
  0
POINT
  5
2D1
  8
5
 10
-8.0
 20
20.500000000608448
 30
0.0
  0
POLYLINE
  5
2D2
  8
6
 66
     1
 10
0.0
 20
0.0
 30
0.0
 70
     1
  0
VERTEX
  5
3D1
  8
6
 10
0.3035211210772104
 20
20.531062718803241
 30
0.0
 42
0.0378881483117028
  0
VERTEX
  5
3D2
  8
6
 10
0.516956290500275
 20
17.805243072626119
 30
0.0
 42
-0.6807651047950749
  0
VERTEX
  5
3D3
  8
6
 10
-0.0408653153322121
 20
17.28859899684857
 30
0.0
  0
VERTEX
  5
3D4
  8
6
 10
-3.2569479026442418
 20
18.273667052872948
 30
0.0
 42
-0.3537105754507803
  0
VERTEX
  5
3D5
  8
6
 10
-3.4428884295521121
 20
18.549210551072289
 30
0.0
 42
0.0918688552654281
  0
VERTEX
  5
3D6
  8
6
 10
-3.1515426389746599
 20
20.531062718803241
 30
0.0
 42
0.0918688552654281
  0
VERTEX
  5
3D7
  8
6
 10
-3.4428884295521121
 20
22.512914886534411
 30
0.0
 42
-0.3537105754507803
  0
VERTEX
  5
3D8
  8
6
 10
-3.2569479026442418
 20
22.788458384733762
 30
0.0
  0
VERTEX
  5
3D9
  8
6
 10
-0.0408653153322121
 20
23.773526440758129
 30
0.0
 42
-0.6807651047950749
  0
VERTEX
  5
3DA
  8
6
 10
0.516956290500275
 20
23.25688236498058
 30
0.0
 42
0.0378881483117028
  0
SEQEND
  5
3DB
  8
6
  0
POLYLINE
  5
2D3
  8
6
 66
     1
 10
0.0
 20
0.0
 30
0.0
 70
     1
  0
VERTEX
  5
3DC
  8
6
 10
2.6354846746271501
 20
20.531062718803241
 30
0.0
 42
-0.3396459278126291
  0
VERTEX
  5
3DD
  8
6
 10
1.619264636695334
 20
19.555382655540821
 30
0.0
 42
0.2290384838080409
  0
VERTEX
  5
3DE
  8
6
 10
1.3607955841462169
 20
19.08703638334736
 30
0.0
 42
-0.0495274142367796
  0
VERTEX
  5
3DF
  8
6
 10
1.4567983750930571
 20
17.683531343214099
 30
0.0
 42
-0.3865683931477528
  0
VERTEX
  5
3E0
  8
6
 10
-0.053537255194442
 20
16.23655535364605
 30
0.0
  0
VERTEX
  5
3E1
  8
6
 10
-2.0
 20
16.23655535364605
 30
0.0
  0
VERTEX
  5
3E2
  8
6
 10
-1.9993019985654421
 20
13.38428271880343
 30
0.0
  0
VERTEX
  5
3E3
  8
6
 10
-4.1039784940012387
 20
13.38428271880343
 30
0.0
 42
-0.1456668646717068
  0
VERTEX
  5
3E4
  8
6
 10
-4.4362958472793252
 20
13.5468848723226
 30
0.0
  0
VERTEX
  5
3E5
  8
6
 10
-7.3754581158386818
 20
16.176610107167559
 30
0.0
 42
-0.2175161131445625
  0
VERTEX
  5
3E6
  8
6
 10
-7.3754581158386818
 20
17.528407082652389
 30
0.0
  0
VERTEX
  5
3E7
  8
6
 10
-5.2633967903293524
 20
20.01039495186432
 30
0.0
 42
0.1597389130517352
  0
VERTEX
  5
3E8
  8
6
 10
-5.0709255058955023
 20
20.531062718803241
 30
0.0
 42
0.1597389130517352
  0
VERTEX
  5
3E9
  8
6
 10
-5.2633967903293524
 20
21.05173048574261
 30
0.0
  0
VERTEX
  5
3EA
  8
6
 10
-7.3754581158386818
 20
23.53371835495431
 30
0.0
 42
-0.2175161131445625
  0
VERTEX
  5
3EB
  8
6
 10
-7.3754581158386818
 20
24.885515330439141
 30
0.0
  0
VERTEX
  5
3EC
  8
6
 10
-4.4362958472793252
 20
27.51524056528433
 30
0.0
 42
-0.1456668646717068
  0
VERTEX
  5
3ED
  8
6
 10
-4.1039784940012387
 20
27.6778427188035
 30
0.0
  0
VERTEX
  5
3EE
  8
6
 10
-1.9993019985654421
 20
27.6778427188035
 30
0.0
  0
VERTEX
  5
3EF
  8
6
 10
-2.0
 20
24.825570083960649
 30
0.0
  0
VERTEX
  5
3F0
  8
6
 10
-0.053537255194442
 20
24.825570083960649
 30
0.0
 42
-0.3865683931477528
  0
VERTEX
  5
3F1
  8
6
 10
1.4567983750930571
 20
23.378594094392611
 30
0.0
 42
-0.0495274142367796
  0
VERTEX
  5
3F2
  8
6
 10
1.3607955841462169
 20
21.975089054259339
 30
0.0
 42
0.2290384838080409
  0
VERTEX
  5
3F3
  8
6
 10
1.619264636695334
 20
21.506742782065881
 30
0.0
 42
-0.3396459278126291
  0
SEQEND
  5
3F4
  8
6
  0
POLYLINE
  5
2D4
  8
5
 66
     1
 10
0.0
 20
0.0
 30
0.0
  0
VERTEX
  5
3F5
  8
5
 10
7.2449054883427371
 20
15.0
 30
0.0
  0
VERTEX
  5
3F6
  8
5
 10
3.0
 20
15.0
 30
0.0
  0
VERTEX
  5
3F7
  8
5
 10
3.0
 20
41.419596266785668
 30
0.0
  0
SEQEND
  5
3F8
  8
5
  0
POINT
  5
2D5
  8
5
 10
-8.0
 20
20.500000000608448
 30
0.0
  0
DIMENSION
  5
2D6
  8
1
  2
*D4
 10
0.0000000000000007
 20
41.402011270621642
 30
0.0
 11
-5.0
 21
44.189016727647562
 31
0.0
 70
     0
 13
-10.0
 23
30.0
 33
0.0
 14
0.0
 24
30.0
 34
0.0
  0
DIMENSION
  5
2D7
  8
1
  2
*D5
 10
-21.657717910694821
 20
30.0
 30
0.0
 11
-24.445917092140942
 21
15.0
 31
0.0
 70
     0
 13
0.0
 23
0.0
 33
0.0
 14
-10.0
 24
30.0
 34
0.0
 50
90.0
  0
DIMENSION
  5
2D8
  8
1
  2
*D6
 10
-0.0000000000000007
 20
-10.64181157443954
 30
0.0
 11
-15.0
 21
-7.8536123929934307
 31
0.0
 70
     0
 13
-30.0
 23
0.0
 33
0.0
 14
0.0
 24
0.0
 34
0.0
  0
TEXT
  5
2D9
  8
1
 10
-32.190783914780688
 20
5.2454219833946354
 30
0.0
 40
2.4999999499999999
  1
Hebgo 171/510
  0
POLYLINE
  5
2DA
  8
6
 66
     1
 10
0.0
 20
0.0
 30
0.0
 70
     1
  0
VERTEX
  5
3F9
  8
6
 10
-2.0
 20
5.0
 30
0.0
  0
VERTEX
  5
3FA
  8
6
 10
-2.0
 20
8.5
 30
0.0
 42
0.4142135623730951
  0
VERTEX
  5
3FB
  8
6
 10
-4.0
 20
10.5
 30
0.0
  0
VERTEX
  5
3FC
  8
6
 10
-8.0
 20
10.5
 30
0.0
 42
-0.4142135623730951
  0
VERTEX
  5
3FD
  8
6
 10
-10.0
 20
12.5
 30
0.0
  0
VERTEX
  5
3FE
  8
6
 10
-10.0
 20
29.799999999999951
 30
0.0
 42
-0.4142135623730951
  0
VERTEX
  5
3FF
  8
6
 10
-9.7999999999999545
 20
30.0
 30
0.0
  0
VERTEX
  5
400
  8
6
 10
-2.0
 20
30.0
 30
0.0
 42
-0.4142135623730951
  0
VERTEX
  5
401
  8
6
 10
0.0
 20
28.0
 30
0.0
  0
VERTEX
  5
402
  8
6
 10
0.0
 20
26.0
 30
0.0
 42
-0.4142135623730951
  0
VERTEX
  5
403
  8
6
 10
-1.0
 20
25.0
 30
0.0
  0
VERTEX
  5
404
  8
6
 10
-1.7999999999999541
 20
25.0
 30
0.0
 42
-0.4142135623730951
  0
VERTEX
  5
405
  8
6
 10
-2.0
 20
25.200000000000038
 30
0.0
  0
VERTEX
  5
406
  8
6
 10
-2.0
 20
27.799999999999951
 30
0.0
 42
0.4142135623730951
  0
VERTEX
  5
407
  8
6
 10
-2.1999999999998181
 20
28.0
 30
0.0
  0
VERTEX
  5
408
  8
6
 10
-6.5
 20
28.0
 30
0.0
 42
0.4142135623730951
  0
VERTEX
  5
409
  8
6
 10
-8.0
 20
26.5
 30
0.0
  0
VERTEX
  5
40A
  8
6
 10
-8.0
 20
20.841421356314861
 30
0.0
 42
-0.1989123677245883
  0
VERTEX
  5
40B
  8
6
 10
-8.0292893219752841
 20
20.770710678102429
 30
0.0
  0
VERTEX
  5
40C
  8
6
 10
-8.2292893218811969
 20
20.570710678727199
 30
0.0
 42
0.4142135623730951
  0
VERTEX
  5
40D
  8
6
 10
-8.2292893218811969
 20
20.429289322489922
 30
0.0
  0
VERTEX
  5
40E
  8
6
 10
-8.0292893217874735
 20
20.229289321865281
 30
0.0
 42
-0.1989123670347116
  0
VERTEX
  5
40F
  8
6
 10
-8.0
 20
20.158578643840428
 30
0.0
  0
VERTEX
  5
410
  8
6
 10
-8.0
 20
14.5
 30
0.0
 42
0.4142135623730951
  0
VERTEX
  5
411
  8
6
 10
-6.5
 20
13.0
 30
0.0
  0
VERTEX
  5
412
  8
6
 10
-2.1999999999998181
 20
13.0
 30
0.0
 42
0.4142135623730951
  0
VERTEX
  5
413
  8
6
 10
-2.0
 20
13.20000000000004
 30
0.0
  0
VERTEX
  5
414
  8
6
 10
-2.0
 20
15.799999999999949
 30
0.0
 42
-0.4142135623730951
  0
VERTEX
  5
415
  8
6
 10
-1.7999999999999541
 20
16.0
 30
0.0
  0
VERTEX
  5
416
  8
6
 10
-1.0
 20
16.0
 30
0.0
 42
-0.4142135623730951
  0
VERTEX
  5
417
  8
6
 10
0.0
 20
15.0
 30
0.0
  0
VERTEX
  5
418
  8
6
 10
0.0
 20
0.1999999999998181
 30
0.0
 42
-0.4142135623730951
  0
VERTEX
  5
419
  8
6
 10
-0.1999999999998181
 20
0.0
 30
0.0
  0
VERTEX
  5
41A
  8
6
 10
-29.799999999999951
 20
0.0
 30
0.0
 42
-0.4142135623730951
  0
VERTEX
  5
41B
  8
6
 10
-30.0
 20
0.1999999999998181
 30
0.0
  0
VERTEX
  5
41C
  8
6
 10
-30.0
 20
2.5
 30
0.0
  0
VERTEX
  5
41D
  8
6
 10
-29.711324865405
 20
3.0
 30
0.0
  0
VERTEX
  5
41E
  8
6
 10
-28.288675134594762
 20
3.0
 30
0.0
  0
VERTEX
  5
41F
  8
6
 10
-28.0
 20
2.5
 30
0.0
  0
VERTEX
  5
420
  8
6
 10
-27.0
 20
2.5
 30
0.0
  0
VERTEX
  5
421
  8
6
 10
-26.711324865405
 20
3.0
 30
0.0
  0
VERTEX
  5
422
  8
6
 10
-25.288675134594769
 20
3.0
 30
0.0
  0
VERTEX
  5
423
  8
6
 10
-25.0
 20
2.5
 30
0.0
  0
VERTEX
  5
424
  8
6
 10
-24.0
 20
2.5
 30
0.0
  0
VERTEX
  5
425
  8
6
 10
-23.711324865405
 20
3.0
 30
0.0
  0
VERTEX
  5
426
  8
6
 10
-22.288675134594762
 20
3.0
 30
0.0
  0
VERTEX
  5
427
  8
6
 10
-22.0
 20
2.5
 30
0.0
  0
VERTEX
  5
428
  8
6
 10
-21.0
 20
2.5
 30
0.0
  0
VERTEX
  5
429
  8
6
 10
-20.711324865405
 20
3.0
 30
0.0
  0
VERTEX
  5
42A
  8
6
 10
-19.288675134594769
 20
3.0
 30
0.0
  0
VERTEX
  5
42B
  8
6
 10
-19.0
 20
2.5
 30
0.0
  0
VERTEX
  5
42C
  8
6
 10
-18.0
 20
2.5
 30
0.0
  0
VERTEX
  5
42D
  8
6
 10
-17.711324865405
 20
3.0
 30
0.0
  0
VERTEX
  5
42E
  8
6
 10
-16.288675134594769
 20
3.0
 30
0.0
  0
VERTEX
  5
42F
  8
6
 10
-16.0
 20
2.5
 30
0.0
  0
VERTEX
  5
430
  8
6
 10
-15.0
 20
2.5
 30
0.0
  0
VERTEX
  5
431
  8
6
 10
-14.711324865405
 20
3.0
 30
0.0
  0
VERTEX
  5
432
  8
6
 10
-13.28867513459476
 20
3.0
 30
0.0
  0
VERTEX
  5
433
  8
6
 10
-13.0
 20
2.5
 30
0.0
  0
VERTEX
  5
434
  8
6
 10
-12.0
 20
2.5
 30
0.0
  0
VERTEX
  5
435
  8
6
 10
-11.711324865405
 20
3.0
 30
0.0
  0
VERTEX
  5
436
  8
6
 10
-4.0
 20
3.0
 30
0.0
 42
0.4142135623730951
  0
SEQEND
  5
437
  8
6
  0
POLYLINE
  5
2DB
  8
4
 66
     1
 10
0.0
 20
0.0
 30
0.0
 70
     1
  0
VERTEX
  5
438
  8
4
 10
0.0
 20
0.0
 30
0.0
  0
VERTEX
  5
439
  8
4
 10
0.0
 20
30.0
 30
0.0
  0
VERTEX
  5
43A
  8
4
 10
-10.0
 20
30.0
 30
0.0
  0
VERTEX
  5
43B
  8
4
 10
-10.0
 20
10.5
 30
0.0
  0
VERTEX
  5
43C
  8
4
 10
-2.0
 20
10.5
 30
0.0
  0
VERTEX
  5
43D
  8
4
 10
-2.0
 20
3.0
 30
0.0
  0
VERTEX
  5
43E
  8
4
 10
-30.0
 20
3.0
 30
0.0
  0
VERTEX
  5
43F
  8
4
 10
-30.0
 20
0.0
 30
0.0
  0
SEQEND
  5
440
  8
4
  0
VIEWPORT
  5
22
 67
     1
  8
0
 10
210.0
 20
170.2366863905325
 30
0.0
 40
420.0
 41
340.47337278106511
 68
     1
 69
     1
1001
ACAD
1000
MVIEW
1002
{
1070
    16
1010
0.0
1020
0.0
1030
0.0
1010
0.0
1020
0.0
1030
1.0
1040
0.0
1040
340.47337278106511
1040
210.0
1040
170.2366863905325
1040
50.0
1040
0.0
1040
0.0
1070
     0
1070
   100
1070
     1
1070
     1
1070
     0
1070
     0
1070
     0
1070
     0
1040
0.0
1040
0.0
1040
0.0
1040
5.0
1040
5.0
1040
10.0
1040
10.0
1070
     0
1002
{
1002
}
1002
}
  0
ENDSEC
  0
EOF
