  0
SECTION
  2
HEADER
  9
$ACADVER
  1
AC1009
  9
$INSBASE
 10
0.0
 20
0.0
 30
0.0
  9
$EXTMIN
 10
-16.021727661161769
 20
-12.88604650516765
 30
-0.0000000000112498
  9
$EXTMAX
 10
15.54107720211743
 20
16.044617241766101
 30
0.0000000000002956
  9
$LIMMIN
 10
-150.0
 20
-150.0
  9
$LIMMAX
 10
150.0
 20
150.0
  9
$ORTHOMODE
 70
     0
  9
$REGENMODE
 70
     1
  9
$FILLMODE
 70
     1
  9
$QTEXTMODE
 70
     0
  9
$MIRRTEXT
 70
     0
  9
$DRAGMODE
 70
     2
  9
$LTSCALE
 40
2.0
  9
$OSMODE
 70
   111
  9
$ATTMODE
 70
     1
  9
$TEXTSIZE
 40
3.5
  9
$TRACEWID
 40
1.0
  9
$TEXTSTYLE
  7
BESCHLAG
  9
$CLAYER
  8
0
  9
$CELTYPE
  6
BYLAYER
  9
$CECOLOR
 62
   256
  9
$DIMSCALE
 40
1.0
  9
$DIMASZ
 40
2.0
  9
$DIMEXO
 40
2.0
  9
$DIMDLI
 40
0.0
  9
$DIMRND
 40
0.0
  9
$DIMDLE
 40
1.0
  9
$DIMEXE
 40
1.0
  9
$DIMTP
 40
0.0
  9
$DIMTM
 40
0.0
  9
$DIMTXT
 40
3.5
  9
$DIMCEN
 40
0.0
  9
$DIMTSZ
 40
0.0
  9
$DIMTOL
 70
     0
  9
$DIMLIM
 70
     0
  9
$DIMTIH
 70
     0
  9
$DIMTOH
 70
     0
  9
$DIMSE1
 70
     0
  9
$DIMSE2
 70
     0
  9
$DIMTAD
 70
     1
  9
$DIMZIN
 70
     8
  9
$DIMBLK
  1

  9
$DIMASO
 70
     1
  9
$DIMSHO
 70
     1
  9
$DIMPOST
  1

  9
$DIMAPOST
  1

  9
$DIMALT
 70
     0
  9
$DIMALTD
 70
     2
  9
$DIMALTF
 40
0.039370078740157
  9
$DIMLFAC
 40
1.0
  9
$DIMTOFL
 70
     1
  9
$DIMTVP
 40
0.0
  9
$DIMTIX
 70
     1
  9
$DIMSOXD
 70
     0
  9
$DIMSAH
 70
     1
  9
$DIMBLK1
  1
OBLIQUE
  9
$DIMBLK2
  1
OBLIQUE
  9
$DIMSTYLE
  2
OPO-SSTRICH
  9
$DIMCLRD
 70
   256
  9
$DIMCLRE
 70
   256
  9
$DIMCLRT
 70
   256
  9
$DIMTFAC
 40
0.7114285714285716
  9
$DIMGAP
 40
1.0
  9
$LUNITS
 70
     2
  9
$LUPREC
 70
     1
  9
$SKETCHINC
 40
1.0
  9
$FILLETRAD
 40
0.0
  9
$AUNITS
 70
     0
  9
$AUPREC
 70
     1
  9
$MENU
  1
D:\ACL_CGWG\CGTAB13
  9
$ELEVATION
 40
0.0
  9
$PELEVATION
 40
0.0
  9
$THICKNESS
 40
0.0
  9
$LIMCHECK
 70
     0
  9
$BLIPMODE
 70
     0
  9
$CHAMFERA
 40
1.0
  9
$CHAMFERB
 40
1.0
  9
$SKPOLY
 70
     0
  9
$TDCREATE
 40
2451739.8578998381
  9
$TDUPDATE
 40
2452086.7368853702
  9
$TDINDWG
 40
0.0008373958
  9
$TDUSRTIMER
 40
0.0008373958
  9
$USRTIMER
 70
     1
  9
$ANGBASE
 50
0.0
  9
$ANGDIR
 70
     0
  9
$PDMODE
 70
    35
  9
$PDSIZE
 40
5.0
  9
$PLINEWID
 40
0.0
  9
$COORDS
 70
     1
  9
$SPLFRAME
 70
     0
  9
$SPLINETYPE
 70
     6
  9
$SPLINESEGS
 70
     8
  9
$ATTDIA
 70
     1
  9
$ATTREQ
 70
     1
  9
$HANDLING
 70
-16383
  9
$HANDSEED
  5
425
  9
$SURFTAB1
 70
    12
  9
$SURFTAB2
 70
    12
  9
$SURFTYPE
 70
     6
  9
$SURFU
 70
    12
  9
$SURFV
 70
    12
  9
$UCSNAME
  2

  9
$UCSORG
 10
0.0
 20
0.0
 30
0.0
  9
$UCSXDIR
 10
1.0
 20
0.0
 30
0.0
  9
$UCSYDIR
 10
0.0
 20
1.0
 30
0.0
  9
$PUCSNAME
  2

  9
$PUCSORG
 10
0.0
 20
0.0
 30
0.0
  9
$PUCSXDIR
 10
1.0
 20
0.0
 30
0.0
  9
$PUCSYDIR
 10
0.0
 20
1.0
 30
0.0
  9
$USERI1
 70
     0
  9
$USERI2
 70
     0
  9
$USERI3
 70
     0
  9
$USERI4
 70
     0
  9
$USERI5
 70
     0
  9
$USERR1
 40
0.0
  9
$USERR2
 40
0.0
  9
$USERR3
 40
0.0
  9
$USERR4
 40
0.0
  9
$USERR5
 40
0.0
  9
$WORLDVIEW
 70
     1
  9
$SHADEDGE
 70
     3
  9
$SHADEDIF
 70
    70
  9
$TILEMODE
 70
     1
  9
$MAXACTVP
 70
    48
  9
$PLIMCHECK
 70
     0
  9
$PEXTMIN
 10
1.0000000000000000E+020
 20
1.0000000000000000E+020
 30
1.0000000000000000E+020
  9
$PEXTMAX
 10
-1.0000000000000000E+020
 20
-1.0000000000000000E+020
 30
-1.0000000000000000E+020
  9
$PLIMMIN
 10
0.0
 20
0.0
  9
$PLIMMAX
 10
420.0
 20
297.0
  9
$UNITMODE
 70
     0
  9
$VISRETAIN
 70
     1
  9
$PLINEGEN
 70
     0
  9
$PSLTSCALE
 70
     1
  0
ENDSEC
  0
SECTION
  2
TABLES
  0
TABLE
  2
VPORT
 70
     2
  0
VPORT
  2
*ACTIVE
 70
     0
 10
0.0
 20
0.0
 11
1.0
 21
1.0
 12
-0.2403252295221687
 22
1.5792853682992241
 13
0.0
 23
0.0
 14
0.5
 24
0.5
 15
10.0
 25
10.0
 16
0.0
 26
0.0
 36
1.0
 17
0.0
 27
0.0
 37
0.0
 40
29.165554115650401
 41
1.6070460704607039
 42
50.0
 43
0.0
 44
0.0
 50
0.0
 51
0.0
 71
     0
 72
   800
 73
     1
 74
     1
 75
     0
 76
     0
 77
     0
 78
     0
  0
ENDTAB
  0
TABLE
  2
LTYPE
 70
     2
  0
LTYPE
  2
CONTINUOUS
 70
     0
  3
_______________________________________________
 72
    65
 73
     2
 40
1.0
 49
1.0
 49
0.0
  0
LTYPE
  2
STRICHPUNKT
 70
     0
  3
__ . __ . __ . __ . __ . __ . __ . __ . __ . __
 72
    65
 73
     4
 40
1.0
 49
0.5
 49
-0.25
 49
0.0
 49
-0.25
  0
ENDTAB
  0
TABLE
  2
LAYER
 70
     7
  0
LAYER
  2
0
 70
     0
 62
    30
  6
CONTINUOUS
  0
LAYER
  2
1
 70
     0
 62
     2
  6
CONTINUOUS
  0
LAYER
  2
2
 70
     0
 62
     9
  6
CONTINUOUS
  0
LAYER
  2
4
 70
     1
 62
     4
  6
CONTINUOUS
  0
LAYER
  2
5
 70
     0
 62
     1
  6
CONTINUOUS
  0
LAYER
  2
6
 70
     0
 62
     3
  6
CONTINUOUS
  0
LAYER
  2
DEFPOINTS
 70
     0
 62
     7
  6
CONTINUOUS
  0
ENDTAB
  0
TABLE
  2
STYLE
 70
     2
  0
STYLE
  2
STANDARD
 70
     0
 40
0.0
 41
1.0
 50
0.0
 71
     0
 42
2.5
  3
txt
  4

  0
STYLE
  2
BESCHLAG
 70
     0
 40
0.0
 41
1.0
 50
0.0
 71
     0
 42
3.5
  3
txt
  4

  0
ENDTAB
  0
TABLE
  2
VIEW
 70
     0
  0
ENDTAB
  0
TABLE
  2
UCS
 70
     0
  0
ENDTAB
  0
TABLE
  2
APPID
 70
     1
  0
APPID
  2
ACAD
 70
     0
  0
ENDTAB
  0
TABLE
  2
DIMSTYLE
 70
     1
  0
DIMSTYLE
  2
OPO-SSTRICH
 70
     0
  3

  4

  5

  6
OBLIQUE
  7
OBLIQUE
 40
1.0
 41
2.0
 42
2.0
 43
0.0
 44
1.0
 45
0.0
 46
1.0
 47
0.0
 48
0.0
140
3.5
141
0.0
142
0.0
143
0.039370078740157
144
1.0
145
0.0
146
0.7114285714285716
147
1.0
 71
     0
 72
     0
 73
     0
 74
     0
 75
     0
 76
     0
 77
     1
 78
     8
170
     0
171
     2
172
     1
173
     1
174
     1
175
     0
176
   256
177
   256
178
   256
  0
ENDTAB
  0
ENDSEC
  0
SECTION
  2
BLOCKS
  0
BLOCK
  8
0
  2
$MODEL_SPACE
 70
     0
 10
0.0
 20
0.0
 30
0.0
  3
$MODEL_SPACE
  1

  0
ENDBLK
  5
1C
  8
0
  0
BLOCK
 67
     1
  8
0
  2
$PAPER_SPACE
 70
     0
 10
0.0
 20
0.0
 30
0.0
  3
$PAPER_SPACE
  1

  0
ENDBLK
  5
19
 67
     1
  8
0
  0
BLOCK
  8
0
  2
_OBLIQUE
 70
     0
 10
0.0
 20
0.0
 30
0.0
  3
_OBLIQUE
  1

  0
LINE
  5
204
  8
0
 62
     0
 10
-0.5
 20
-0.5
 30
0.0
 11
0.5
 21
0.5
 31
0.0
  0
ENDBLK
  5
206
  8
0
  0
BLOCK
  8
0
  2
NULLPUNKT
 70
     0
 10
0.0
 20
0.0
 30
0.0
  3
NULLPUNKT
  1

  0
SOLID
  5
254
  8
5
 10
0.0
 20
0.0
 30
0.0
 11
2.0
 21
0.0
 31
0.0
 12
0.0
 22
-2.0
 32
0.0
 13
0.0
 23
-2.0
 33
0.0
  0
SOLID
  5
255
  8
5
 10
0.0
 20
0.0
 30
0.0
 11
-2.0
 21
0.0
 31
0.0
 12
0.0
 22
2.0
 32
0.0
 13
0.0
 23
2.0
 33
0.0
  0
POLYLINE
  5
256
  8
5
 66
     1
 10
0.0
 20
0.0
 30
0.0
  0
VERTEX
  5
3CD
  8
5
 10
0.0
 20
2.0
 30
0.0
  0
VERTEX
  5
3CE
  8
5
 10
0.0
 20
-2.0
 30
0.0
  0
SEQEND
  5
3CF
  8
5
  0
POLYLINE
  5
257
  8
5
 66
     1
 10
0.0
 20
0.0
 30
0.0
  0
VERTEX
  5
3D0
  8
5
 10
-2.0
 20
0.0
 30
0.0
  0
VERTEX
  5
3D1
  8
5
 10
2.0
 20
0.0
 30
0.0
  0
SEQEND
  5
3D2
  8
5
  0
CIRCLE
  5
258
  8
5
 10
0.0
 20
0.0
 30
0.0
 40
2.0
  0
ENDBLK
  5
25A
  8
0
  0
BLOCK
  8
0
  2
*X2
 70
     1
 10
0.0
 20
0.0
 30
0.0
  3
*X2
  1

  0
LINE
  5
292
  8
0
 62
     0
 10
256.33539381985321
 20
-512.54429327201456
 30
0.0
 11
257.60575420365939
 21
-511.27393288820838
 31
0.0
  0
LINE
  5
293
  8
0
 62
     0
 10
255.88972379071211
 20
-511.57574973878258
 30
0.0
 11
257.3862642442005
 21
-510.07920928529421
 31
0.0
  0
LINE
  5
294
  8
0
 62
     0
 10
258.69154064128628
 20
-508.77393288820849
 30
0.0
 11
259.31739647514831
 21
-508.14807705434629
 31
0.0
  0
LINE
  5
295
  8
0
 62
     0
 10
255.88626424420039
 20
-510.16499572292111
 30
0.0
 11
258.65164965043601
 21
-507.3996103166856
 31
0.0
  0
LINE
  5
296
  8
0
 62
     0
 10
255.88626424420039
 20
-508.750782160548
 30
0.0
 11
257.36311351654012
 21
-507.27393288820838
 31
0.0
  0
LINE
  5
297
  8
0
 62
     0
 10
257.32137208741278
 20
-512.97252856682815
 30
0.0
 11
259.01996776603249
 21
-511.27393288820832
 31
0.0
  0
LINE
  5
298
  8
0
 62
     0
 10
258.73418132840482
 20
-512.97393288820922
 30
0.0
 11
260.43418132840549
 21
-511.27393288820832
 31
0.0
  0
LINE
  5
299
  8
0
 62
     0
 10
260.14839489077792
 20
-512.97393288820922
 30
0.0
 11
261.84839489077859
 21
-511.27393288820832
 31
0.0
  0
LINE
  5
29A
  8
0
 62
     0
 10
261.56260845315097
 20
-512.97393288820922
 30
0.0
 11
261.93626424420052
 21
-512.60027709715973
 31
0.0
  0
ENDBLK
  5
29C
  8
0
  0
BLOCK
  8
0
  2
*X3
 70
     1
 10
0.0
 20
0.0
 30
0.0
  3
*X3
  1

  0
LINE
  5
29E
  8
0
 62
     0
 10
264.83626424420049
 20
-512.52870422190585
 30
0.0
 11
266.09103557789803
 21
-511.27393288820838
 31
0.0
  0
LINE
  5
29F
  8
0
 62
     0
 10
268.59103557789803
 20
-508.77393288820849
 30
0.0
 11
269.97196209040368
 21
-507.39300637570273
 31
0.0
  0
LINE
  5
2A0
  8
0
 62
     0
 10
267.38626424420039
 20
-508.56449065953279
 30
0.0
 11
268.67682189498771
 21
-507.27393300874559
 31
0.0
  0
LINE
  5
2A1
  8
0
 62
     0
 10
265.80524914027029
 20
-512.97393288820922
 30
0.0
 11
267.50524914027108
 21
-511.27393288820838
 31
0.0
  0
LINE
  5
2A2
  8
0
 62
     0
 10
269.38626424420039
 20
-509.39291778427901
 30
0.0
 11
270.71025874970201
 21
-508.06892327877739
 31
0.0
  0
LINE
  5
2A3
  8
0
 62
     0
 10
267.2194627026434
 20
-512.97393288820922
 30
0.0
 11
268.91946270264413
 21
-511.27393288820838
 31
0.0
  0
LINE
  5
2A4
  8
0
 62
     0
 10
269.38626424420039
 20
-510.80713134665211
 30
0.0
 11
270.88626424420039
 21
-509.30713134665223
 31
0.0
  0
LINE
  5
2A5
  8
0
 62
     0
 10
268.6336762650165
 20
-512.97393288820922
 30
0.0
 11
270.88626424420039
 21
-510.72134490902522
 31
0.0
  0
LINE
  5
2A6
  8
0
 62
     0
 10
270.04788982738961
 20
-512.97393288820922
 30
0.0
 11
270.88626424420039
 21
-512.13555847139844
 31
0.0
  0
ENDBLK
  5
2A8
  8
0
  0
BLOCK
  8
0
  2
*D4
 70
     1
 10
0.0
 20
0.0
 30
0.0
  3
*D4
  1

  0
LINE
  5
2F3
  8
1
 10
-15.0
 20
-2.0
 30
0.0
 11
-15.0
 21
-12.865804540900401
 31
0.0
  0
LINE
  5
2F4
  8
1
 10
-0.0000000000000001
 20
-2.0
 30
0.0
 11
-0.0000000000000008
 21
-12.865804540900401
 31
0.0
  0
LINE
  5
2F5
  8
1
 10
-16.0
 20
-11.86580454090039
 30
0.0
 11
0.9999999999999992
 21
-11.86580454090039
 31
0.0
  0
INSERT
  5
2F6
  8
1
  2
_OBLIQUE
 10
-15.0
 20
-11.86580454090039
 30
0.0
 41
2.0
 42
2.0
 43
2.0
 50
180.0
  0
INSERT
  5
2F7
  8
1
  2
_OBLIQUE
 10
-0.0000000000000007
 20
-11.86580454090039
 30
0.0
 41
2.0
 42
2.0
 43
2.0
  0
TEXT
  5
2F8
  8
0
 10
-10.387619372442019
 20
-10.798955973369701
 30
0.0
 40
3.5
  1
15
  7
BESCHLAG
  0
POINT
  5
2F9
  8
DEFPOINTS
 62
     0
 10
-15.0
 20
0.0
 30
0.0
  0
POINT
  5
2FA
  8
DEFPOINTS
 62
     0
 10
0.0
 20
0.0
 30
0.0
  0
POINT
  5
2FB
  8
DEFPOINTS
 62
     0
 10
-0.0000000000000007
 20
-11.86580454090039
 30
0.0
  0
ENDBLK
  5
2D8
  8
0
  0
BLOCK
  8
0
  2
*D5
 70
     1
 10
0.0
 20
0.0
 30
0.0
  3
*D5
  1

  0
LINE
  5
2FC
  8
1
 10
2.0
 20
-0.0000000000000006
 30
0.0
 11
12.49826699860432
 21
-0.0000000000000035
 31
0.0
  0
LINE
  5
2FD
  8
1
 10
2.0
 20
5.7000000000008413
 30
0.0
 11
12.49826699860432
 21
5.7000000000008368
 31
0.0
  0
LINE
  5
2FE
  8
1
 10
11.49826699860432
 20
-1.0000000000000031
 30
0.0
 11
11.49826699860432
 21
6.7000000000008368
 31
0.0
  0
INSERT
  5
2FF
  8
1
  2
_OBLIQUE
 10
11.49826699860432
 20
-0.0000000000000033
 30
0.0
 41
2.0
 42
2.0
 43
2.0
 50
270.0
  0
INSERT
  5
300
  8
1
  2
_OBLIQUE
 10
11.49826699860432
 20
5.7000000000008368
 30
0.0
 41
2.0
 42
2.0
 43
2.0
 50
90.0
  0
TEXT
  5
301
  8
0
 10
10.43141843107362
 20
1.5106412005461209
 30
0.0
 40
3.5
  1
6
 50
90.0
  7
BESCHLAG
  0
POINT
  5
302
  8
DEFPOINTS
 62
     0
 10
0.0
 20
0.0
 30
0.0
  0
POINT
  5
303
  8
DEFPOINTS
 62
     0
 10
0.0
 20
5.7000000000008413
 30
0.0
  0
POINT
  5
304
  8
DEFPOINTS
 62
     0
 10
11.49826699860432
 20
5.7000000000008368
 30
0.0
  0
ENDBLK
  5
2E4
  8
0
  0
BLOCK
  8
0
  2
*D6
 70
     1
 10
0.0
 20
0.0
 30
0.0
  3
*D6
  1

  0
LINE
  5
305
  8
1
 10
2.0
 20
5.7000000000008413
 30
0.0
 11
12.49826699860432
 21
5.7000000000008368
 31
0.0
  0
LINE
  5
306
  8
1
 10
-9.0
 20
9.0000000000001137
 30
0.0
 11
12.49826699860432
 21
9.0000000000001066
 31
0.0
  0
LINE
  5
307
  8
1
 10
11.49826699860432
 20
5.7000000000008368
 30
0.0
 11
11.49826699860432
 21
3.7000000000008368
 31
0.0
  0
LINE
  5
308
  8
1
 10
11.49826699860432
 20
9.0000000000001084
 30
0.0
 11
11.49826699860432
 21
11.000000000000099
 31
0.0
  0
LINE
  5
309
  8
1
 10
11.49826699860432
 20
5.7000000000008368
 30
0.0
 11
11.49826699860432
 21
9.0000000000001084
 31
0.0
  0
INSERT
  5
30A
  8
1
  2
_OBLIQUE
 10
11.49826699860432
 20
5.7000000000008368
 30
0.0
 41
2.0
 42
2.0
 43
2.0
 50
90.0
  0
INSERT
  5
30B
  8
1
  2
_OBLIQUE
 10
11.49826699860432
 20
9.0000000000001084
 30
0.0
 41
2.0
 42
2.0
 43
2.0
 50
270.0
  0
TEXT
  5
30C
  8
0
 10
10.42903098223324
 20
5.9987039563442668
 30
0.0
 40
3.5
  1
3
 50
90.0
  7
BESCHLAG
  0
POINT
  5
30D
  8
DEFPOINTS
 62
     0
 10
0.0
 20
5.7000000000008413
 30
0.0
  0
POINT
  5
30E
  8
DEFPOINTS
 62
     0
 10
-11.0
 20
9.0000000000001137
 30
0.0
  0
POINT
  5
30F
  8
DEFPOINTS
 62
     0
 10
11.49826699860432
 20
9.0000000000001084
 30
0.0
  0
ENDBLK
  5
2F2
  8
0
  0
ENDSEC
  0
SECTION
  2
ENTITIES
  0
INSERT
  5
25B
  8
5
  2
NULLPUNKT
 10
0.0
 20
0.0
 30
0.0
  0
INSERT
  5
2BE
  8
2
  2
*X3
 10
-270.88626424420039
 20
512.97393288820922
 30
0.0
1001
ACAD
1000
HATCH
1002
{
1070
    16
1000
_U,I
1040
1.0
1040
0.7853981633974483
1070
     0
1002
}
  0
INSERT
  5
2BF
  8
2
  2
*X2
 10
-270.88626424420039
 20
512.97393288820922
 30
0.0
1001
ACAD
1000
HATCH
1002
{
1070
    16
1000
_U,I
1040
1.0
1040
0.7853981633974483
1070
     0
1002
}
  0
LINE
  5
2C0
  8
6
 10
-8.9499999999998181
 20
1.700000000000272
 30
0.0
 11
-8.9499999999998181
 21
0.0
 31
0.0
  0
LINE
  5
2C1
  8
6
 10
-6.0499999999999536
 20
1.700000000000272
 30
0.0
 11
-6.0499999999999536
 21
0.0
 31
0.0
  0
POLYLINE
  5
2C2
  8
5
 66
     1
 10
0.0
 20
0.0
 30
0.0
  0
VERTEX
  5
3D3
  8
5
 10
-11.0
 20
16.00000000000011
 30
0.0
  0
VERTEX
  5
3D4
  8
5
 10
-11.0
 20
9.0000000000001137
 30
0.0
  0
VERTEX
  5
3D5
  8
5
 10
5.0
 20
9.0000000000001137
 30
0.0
  0
SEQEND
  5
3D6
  8
5
  0
LINE
  5
2C3
  8
6
  6
STRICHPUNKT
 10
-7.5
 20
1.947026752870328
 30
0.0
 11
-7.5
 21
-3.8730967693508092
 31
0.0
  0
POLYLINE
  5
2C4
  8
4
 66
     1
 10
0.0
 20
0.0
 30
0.0
 70
     1
  0
VERTEX
  5
3D7
  8
4
 10
-15.0
 20
0.0
 30
0.0
  0
VERTEX
  5
3D8
  8
4
 10
-15.0
 20
5.7000000000008413
 30
0.0
  0
VERTEX
  5
3D9
  8
4
 10
0.0
 20
5.7000000000008413
 30
0.0
  0
VERTEX
  5
3DA
  8
4
 10
0.0
 20
0.0
 30
0.0
  0
SEQEND
  5
3DB
  8
4
  0
POLYLINE
  5
2C5
  8
6
 66
     1
 10
0.0
 20
0.0
 30
0.0
 70
     1
  0
VERTEX
  5
3DC
  8
6
 10
-11.5
 20
4.3500000000004766
 30
0.0
  0
VERTEX
  5
3DD
  8
6
 10
-11.5
 20
4.4100000000008768
 30
0.0
 42
0.4142135623730951
  0
VERTEX
  5
3DE
  8
6
 10
-12.78999999999996
 20
5.7000000000008413
 30
0.0
  0
VERTEX
  5
3DF
  8
6
 10
-14.799999999999271
 20
5.7000000000008413
 30
0.0
 42
0.4142135623730951
  0
VERTEX
  5
3E0
  8
6
 10
-15.0
 20
5.5000000000001128
 30
0.0
  0
VERTEX
  5
3E1
  8
6
 10
-15.0
 20
1.500000000000113
 30
0.0
 42
0.4142135623730951
  0
VERTEX
  5
3E2
  8
6
 10
-13.5
 20
0.0
 30
0.0
  0
VERTEX
  5
3E3
  8
6
 10
-0.2999999999997271
 20
0.0
 30
0.0
 42
0.4142135623730951
  0
VERTEX
  5
3E4
  8
6
 10
0.0
 20
0.2999999999999545
 30
0.0
  0
VERTEX
  5
3E5
  8
6
 10
0.0
 20
4.2000000000008413
 30
0.0
 42
0.4142135623730951
  0
VERTEX
  5
3E6
  8
6
 10
-1.5
 20
5.7000000000008413
 30
0.0
  0
VERTEX
  5
3E7
  8
6
 10
-2.2100000000000359
 20
5.7000000000008413
 30
0.0
 42
0.4142135623730951
  0
VERTEX
  5
3E8
  8
6
 10
-3.5
 20
4.4100000000008768
 30
0.0
  0
VERTEX
  5
3E9
  8
6
 10
-3.5
 20
4.3500000000004766
 30
0.0
 42
0.4142135623731992
  0
VERTEX
  5
3EA
  8
6
 10
-3.3499999999994539
 20
4.2000000000008413
 30
0.0
  0
VERTEX
  5
3EB
  8
6
 10
-1.6999999999998181
 20
4.2000000000008413
 30
0.0
 42
-0.4142135623730953
  0
VERTEX
  5
3EC
  8
6
 10
-1.5
 20
4.0000000000001128
 30
0.0
  0
VERTEX
  5
3ED
  8
6
 10
-1.5
 20
1.9000000000006589
 30
0.0
 42
-0.4142135623730951
  0
VERTEX
  5
3EE
  8
6
 10
-1.6999999999998181
 20
1.7000000000008411
 30
0.0
  0
VERTEX
  5
3EF
  8
6
 10
-13.299999999999271
 20
1.7000000000008411
 30
0.0
 42
-0.4142135623730951
  0
VERTEX
  5
3F0
  8
6
 10
-13.5
 20
1.9000000000006589
 30
0.0
  0
VERTEX
  5
3F1
  8
6
 10
-13.5
 20
4.0000000000001128
 30
0.0
 42
-0.4142135623730951
  0
VERTEX
  5
3F2
  8
6
 10
-13.299999999999271
 20
4.2000000000008413
 30
0.0
  0
VERTEX
  5
3F3
  8
6
 10
-11.649999999999631
 20
4.2000000000008413
 30
0.0
 42
0.414213562373069
  0
SEQEND
  5
3F4
  8
6
  0
DIMENSION
  5
2C6
  8
1
  2
*D4
 10
-0.0000000000000007
 20
-11.86580454090039
 30
0.0
 11
-7.5
 21
-9.0787990838744772
 31
0.0
 70
     0
 13
-15.0
 23
0.0
 33
0.0
 14
0.0
 24
0.0
 34
0.0
  0
POLYLINE
  5
2C7
  8
5
 66
     1
 10
0.0
 20
0.0
 30
0.0
  0
VERTEX
  5
3F5
  8
5
 10
-15.0
 20
16.00000000000011
 30
0.0
  0
VERTEX
  5
3F6
  8
5
 10
-15.0
 20
0.0
 30
0.0
  0
VERTEX
  5
3F7
  8
5
 10
0.0
 20
0.0
 30
0.0
  0
VERTEX
  5
3F8
  8
5
 10
0.0
 20
-5.0
 30
0.0
  0
SEQEND
  5
3F9
  8
5
  0
POLYLINE
  5
2C8
  8
6
 66
     1
 10
0.0
 20
0.0
 30
0.0
 70
     1
  0
VERTEX
  5
3FA
  8
6
 10
-7.5
 20
9.0000000000001137
 30
0.0
 42
-0.2980932138127738
  0
VERTEX
  5
3FB
  8
6
 10
-6.2756399999998393
 20
7.9492577808686056
 30
0.0
  0
VERTEX
  5
3FC
  8
6
 10
-4.1331588721632206
 20
7.9133367313603449
 30
0.0
 42
-0.4158738464929489
  0
VERTEX
  5
3FD
  8
6
 10
-3.013440065510621
 20
5.8004407448999009
 30
0.0
  0
VERTEX
  5
3FE
  8
6
 10
-3.844529266365043
 20
4.6089499129133173
 30
0.0
 42
0.9647680298900043
  0
VERTEX
  5
3FF
  8
6
 10
-3.3073150891195828
 20
3.835636700524105
 30
0.0
  0
VERTEX
  5
400
  8
6
 10
-2.6539993526989738
 20
4.1187941186077524
 30
0.0
 42
-0.6694204690004703
  0
VERTEX
  5
401
  8
6
 10
-2.0140504466335178
 20
3.6887307023063149
 30
0.0
  0
VERTEX
  5
402
  8
6
 10
-2.4409604364200268
 20
1.8685118222184649
 30
0.0
 42
-0.2464814616015845
  0
VERTEX
  5
403
  8
6
 10
-2.740745448877532
 20
1.699479540945162
 30
0.0
 42
-0.0150420667643324
  0
VERTEX
  5
404
  8
6
 10
-3.0226726682426479
 20
1.699479540945162
 30
0.0
 42
-0.2063969197888626
  0
VERTEX
  5
405
  8
6
 10
-3.3911076395406781
 20
1.871654759193575
 30
0.0
  0
VERTEX
  5
406
  8
6
 10
-3.8240276295332469
 20
2.202358845057574
 30
0.0
 42
0.0984306399189399
  0
VERTEX
  5
407
  8
6
 10
-4.4721670883354809
 20
2.5203394967378472
 30
0.0
  0
VERTEX
  5
408
  8
6
 10
-7.5
 20
2.5203394967378472
 30
0.0
  0
VERTEX
  5
409
  8
6
 10
-10.527832911664509
 20
2.5203394967378472
 30
0.0
 42
0.0984306399189399
  0
VERTEX
  5
40A
  8
6
 10
-11.17597237046675
 20
2.202358845057574
 30
0.0
  0
VERTEX
  5
40B
  8
6
 10
-11.60889236045932
 20
1.871654759193575
 30
0.0
 42
-0.2063969197888626
  0
VERTEX
  5
40C
  8
6
 10
-11.977327331757349
 20
1.699479540945162
 30
0.0
 42
-0.0150420667643324
  0
VERTEX
  5
40D
  8
6
 10
-12.259254551122011
 20
1.699479540945162
 30
0.0
 42
-0.2464814616015845
  0
VERTEX
  5
40E
  8
6
 10
-12.55903956357951
 20
1.8685118222184649
 30
0.0
  0
VERTEX
  5
40F
  8
6
 10
-12.985949553366479
 20
3.6887307023063149
 30
0.0
 42
-0.6345177691905591
  0
VERTEX
  5
410
  8
6
 10
-12.346000647300571
 20
4.1187941186077524
 30
0.0
  0
VERTEX
  5
411
  8
6
 10
-11.718705639578269
 20
3.8463368727917659
 30
0.0
 42
0.9846311026449575
  0
VERTEX
  5
412
  8
6
 10
-11.1554707336345
 20
4.6089499129133173
 30
0.0
  0
VERTEX
  5
413
  8
6
 10
-11.98655993448892
 20
5.8004407448999009
 30
0.0
 42
-0.4158738464929489
  0
VERTEX
  5
414
  8
6
 10
-10.86684112783632
 20
7.9133367313603449
 30
0.0
  0
VERTEX
  5
415
  8
6
 10
-8.7243599999997041
 20
7.9492577808686056
 30
0.0
 42
-0.2980932138127738
  0
SEQEND
  5
416
  8
6
  0
POLYLINE
  5
2C9
  8
6
 66
     1
 10
0.0
 20
0.0
 30
0.0
  0
VERTEX
  5
417
  8
6
 10
-7.495235834538561
 20
6.7260562661555241
 30
0.0
 42
0.0523662851020724
  0
VERTEX
  5
418
  8
6
 10
-4.4894502139109127
 20
7.1381943321624703
 30
0.0
 42
-0.1698680870516715
  0
VERTEX
  5
419
  8
6
 10
-3.8907955989002398
 20
7.1515046616644886
 30
0.0
 42
-0.3581952709156561
  0
VERTEX
  5
41A
  8
6
 10
-3.6951826942777179
 20
6.1704820347243858
 30
0.0
  0
VERTEX
  5
41B
  8
6
 10
-4.7086221078338886
 20
4.6613863209482806
 30
0.0
 42
-0.162990172482064
  0
VERTEX
  5
41C
  8
6
 10
-5.8827571239085037
 20
4.0875231808282697
 30
0.0
 42
-0.0297520103796801
  0
VERTEX
  5
41D
  8
6
 10
-7.5
 20
3.9959590395054638
 30
0.0
 42
-0.0297520103796801
  0
VERTEX
  5
41E
  8
6
 10
-9.1132846670025174
 20
4.1414619448322583
 30
0.0
 42
-0.162990172482064
  0
VERTEX
  5
41F
  8
6
 10
-10.26760746084528
 20
4.7542023688096151
 30
0.0
  0
VERTEX
  5
420
  8
6
 10
-11.23010255475719
 20
6.7489256744212289
 30
0.0
 42
-0.5496470159714418
  0
VERTEX
  5
421
  8
6
 10
-11.014741131499701
 20
7.3368888395326621
 30
0.0
 42
-0.0587952726232103
  0
VERTEX
  5
422
  8
6
 10
-10.41908253253996
 20
7.2371989170168263
 30
0.0
 42
0.0523662851020724
  0
VERTEX
  5
423
  8
6
 10
-7.428731082876765
 20
6.7249458641987303
 30
0.0
  0
SEQEND
  5
424
  8
6
  0
TEXT
  5
2CA
  8
1
 10
-8.3670900670035735
 20
12.87634179598205
 30
0.0
 40
2.5
  1
Hebgo 125/520
  0
DIMENSION
  5
2CB
  8
1
  2
*D5
 10
11.49826699860432
 20
5.7000000000008368
 30
0.0
 11
8.7112615415783985
 21
2.8500000000004189
 31
0.0
 70
     0
  1
6
 13
0.0
 23
0.0
 33
0.0
 14
0.0
 24
5.7000000000008413
 34
0.0
 50
90.0
  0
DIMENSION
  5
2CC
  8
1
  2
*D6
 10
11.49826699860432
 20
9.0000000000001084
 30
0.0
 11
8.7100678171582082
 21
7.3500000000004739
 31
0.0
 70
     0
  1
3
 13
0.0
 23
5.7000000000008413
 33
0.0
 14
-11.0
 24
9.0000000000001137
 34
0.0
 50
90.0
  0
VIEWPORT
  5
22
 67
     1
  8
0
 10
210.0
 20
170.2366863905325
 30
0.0
 40
420.0
 41
340.47337278106511
 68
     1
 69
     1
1001
ACAD
1000
MVIEW
1002
{
1070
    16
1010
0.0
1020
0.0
1030
0.0
1010
0.0
1020
0.0
1030
1.0
1040
0.0
1040
340.47337278106511
1040
210.0
1040
170.2366863905325
1040
50.0
1040
0.0
1040
0.0
1070
     0
1070
   100
1070
     1
1070
     1
1070
     0
1070
     0
1070
     0
1070
     0
1040
0.0
1040
0.0
1040
0.0
1040
5.0
1040
5.0
1040
10.0
1040
10.0
1070
     0
1002
{
1002
}
1002
}
  0
ENDSEC
  0
EOF
